  0
SECTION
  2
HEADER
  9
$ACADVER
  1
AC1015
  9
$ACADMAINTVER
 70
     6
  9
$DWGCODEPAGE
  3
ANSI_1252
  9
$INSBASE
 10
0.0
 20
0.0
 30
0.0
  9
$EXTMIN
 10
0.0
 20
0.0
 30
0.0
  9
$EXTMAX
 10
594.0
 20
420.0
 30
0.0
  9
$LIMMIN
 10
0.0
 20
0.0
  9
$LIMMAX
 10
594.0
 20
420.0
  9
$ORTHOMODE
 70
     0
  9
$REGENMODE
 70
     1
  9
$FILLMODE
 70
     1
  9
$QTEXTMODE
 70
     0
  9
$MIRRTEXT
 70
     1
  9
$LTSCALE
 40
1.0
  9
$ATTMODE
 70
     1
  9
$TEXTSIZE
 40
0.2
  9
$TRACEWID
 40
0.05
  9
$TEXTSTYLE
  7
Standard
  9
$CLAYER
  8
0
  9
$CELTYPE
  6
ByLayer
  9
$CECOLOR
 62
   256
  9
$CELTSCALE
 40
1.0
  9
$DISPSILH
 70
     0
  9
$DIMSCALE
 40
1.0
  9
$DIMASZ
 40
0.18
  9
$DIMEXO
 40
0.0625
  9
$DIMDLI
 40
0.38
  9
$DIMRND
 40
0.0
  9
$DIMDLE
 40
0.0
  9
$DIMEXE
 40
0.18
  9
$DIMTP
 40
0.0
  9
$DIMTM
 40
0.0
  9
$DIMTXT
 40
0.18
  9
$DIMCEN
 40
0.09
  9
$DIMTSZ
 40
0.0
  9
$DIMTOL
 70
     0
  9
$DIMLIM
 70
     0
  9
$DIMTIH
 70
     1
  9
$DIMTOH
 70
     1
  9
$DIMSE1
 70
     0
  9
$DIMSE2
 70
     0
  9
$DIMTAD
 70
     0
  9
$DIMZIN
 70
     0
  9
$DIMBLK
  1

  9
$DIMASO
 70
     1
  9
$DIMSHO
 70
     1
  9
$DIMPOST
  1

  9
$DIMAPOST
  1

  9
$DIMALT
 70
     0
  9
$DIMALTD
 70
     2
  9
$DIMALTF
 40
25.4
  9
$DIMLFAC
 40
1.0
  9
$DIMTOFL
 70
     0
  9
$DIMTVP
 40
0.0
  9
$DIMTIX
 70
     0
  9
$DIMSOXD
 70
     0
  9
$DIMSAH
 70
     0
  9
$DIMBLK1
  1

  9
$DIMBLK2
  1

  9
$DIMSTYLE
  2
Standard
  9
$DIMCLRD
 70
     0
  9
$DIMCLRE
 70
     0
  9
$DIMCLRT
 70
     0
  9
$DIMTFAC
 40
1.0
  9
$DIMGAP
 40
0.09
  9
$DIMJUST
 70
     0
  9
$DIMSD1
 70
     0
  9
$DIMSD2
 70
     0
  9
$DIMTOLJ
 70
     1
  9
$DIMTZIN
 70
     0
  9
$DIMALTZ
 70
     0
  9
$DIMALTTZ
 70
     0
  9
$DIMUPT
 70
     0
  9
$DIMDEC
 70
     4
  9
$DIMTDEC
 70
     4
  9
$DIMALTU
 70
     2
  9
$DIMALTTD
 70
     2
  9
$DIMTXSTY
  7
Standard
  9
$DIMAUNIT
 70
     0
  9
$DIMADEC
 70
     0
  9
$DIMALTRND
 40
0.0
  9
$DIMAZIN
 70
     0
  9
$DIMDSEP
 70
    46
  9
$DIMATFIT
 70
     3
  9
$DIMFRAC
 70
     0
  9
$DIMLDRBLK
  1

  9
$DIMLUNIT
 70
     2
  9
$DIMLWD
 70
    -2
  9
$DIMLWE
 70
    -2
  9
$DIMTMOVE
 70
     0
  9
$LUNITS
 70
     2
  9
$LUPREC
 70
     4
  9
$SKETCHINC
 40
0.1
  9
$FILLETRAD
 40
0.5
  9
$AUNITS
 70
     0
  9
$AUPREC
 70
     0
  9
$MENU
  1
.
  9
$ELEVATION
 40
0.0
  9
$PELEVATION
 40
0.0
  9
$THICKNESS
 40
0.0
  9
$LIMCHECK
 70
     0
  9
$CHAMFERA
 40
0.5
  9
$CHAMFERB
 40
0.5
  9
$CHAMFERC
 40
1.0
  9
$CHAMFERD
 40
0.0
  9
$SKPOLY
 70
     0
  9
$TDCREATE
 40
2456895.710918715
  9
$TDUCREATE
 40
2456895.627585382
  9
$TDUPDATE
 40
2456895.710918727
  9
$TDUUPDATE
 40
2456895.627585393
  9
$TDINDWG
 40
0.0000000116
  9
$TDUSRTIMER
 40
0.0000000116
  9
$USRTIMER
 70
     1
  9
$ANGBASE
 50
0.0
  9
$ANGDIR
 70
     0
  9
$PDMODE
 70
     0
  9
$PDSIZE
 40
0.0
  9
$PLINEWID
 40
0.0
  9
$SPLFRAME
 70
     0
  9
$SPLINETYPE
 70
     6
  9
$SPLINESEGS
 70
     8
  9
$HANDSEED
  5
A7
  9
$SURFTAB1
 70
     6
  9
$SURFTAB2
 70
     6
  9
$SURFTYPE
 70
     6
  9
$SURFU
 70
     6
  9
$SURFV
 70
     6
  9
$UCSBASE
  2

  9
$UCSNAME
  2

  9
$UCSORG
 10
0.0
 20
0.0
 30
0.0
  9
$UCSXDIR
 10
1.0
 20
0.0
 30
0.0
  9
$UCSYDIR
 10
0.0
 20
1.0
 30
0.0
  9
$UCSORTHOREF
  2

  9
$UCSORTHOVIEW
 70
     0
  9
$UCSORGTOP
 10
0.0
 20
0.0
 30
0.0
  9
$UCSORGBOTTOM
 10
0.0
 20
0.0
 30
0.0
  9
$UCSORGLEFT
 10
0.0
 20
0.0
 30
0.0
  9
$UCSORGRIGHT
 10
0.0
 20
0.0
 30
0.0
  9
$UCSORGFRONT
 10
0.0
 20
0.0
 30
0.0
  9
$UCSORGBACK
 10
0.0
 20
0.0
 30
0.0
  9
$PUCSBASE
  2

  9
$PUCSNAME
  2

  9
$PUCSORG
 10
0.0
 20
0.0
 30
0.0
  9
$PUCSXDIR
 10
1.0
 20
0.0
 30
0.0
  9
$PUCSYDIR
 10
0.0
 20
1.0
 30
0.0
  9
$PUCSORTHOREF
  2

  9
$PUCSORTHOVIEW
 70
     0
  9
$PUCSORGTOP
 10
0.0
 20
0.0
 30
0.0
  9
$PUCSORGBOTTOM
 10
0.0
 20
0.0
 30
0.0
  9
$PUCSORGLEFT
 10
0.0
 20
0.0
 30
0.0
  9
$PUCSORGRIGHT
 10
0.0
 20
0.0
 30
0.0
  9
$PUCSORGFRONT
 10
0.0
 20
0.0
 30
0.0
  9
$PUCSORGBACK
 10
0.0
 20
0.0
 30
0.0
  9
$USERI1
 70
     0
  9
$USERI2
 70
     0
  9
$USERI3
 70
     0
  9
$USERI4
 70
     0
  9
$USERI5
 70
     0
  9
$USERR1
 40
0.0
  9
$USERR2
 40
0.0
  9
$USERR3
 40
0.0
  9
$USERR4
 40
0.0
  9
$USERR5
 40
0.0
  9
$WORLDVIEW
 70
     1
  9
$SHADEDGE
 70
     3
  9
$SHADEDIF
 70
    70
  9
$TILEMODE
 70
     1
  9
$MAXACTVP
 70
    64
  9
$PINSBASE
 10
0.0
 20
0.0
 30
0.0
  9
$PLIMCHECK
 70
     0
  9
$PEXTMIN
 10
0.0
 20
0.0
 30
0.0
  9
$PEXTMAX
 10
594.0
 20
420.0
 30
0.0
  9
$PLIMMIN
 10
0.0
 20
0.0
  9
$PLIMMAX
 10
594.0
 20
420.0
  9
$UNITMODE
 70
     0
  9
$VISRETAIN
 70
     1
  9
$PLINEGEN
 70
     0
  9
$PSLTSCALE
 70
     1
  9
$TREEDEPTH
 70
  3020
  9
$CMLSTYLE
  2
Standard
  9
$CMLJUST
 70
     0
  9
$CMLSCALE
 40
1.0
  9
$PROXYGRAPHICS
 70
     1
  9
$MEASUREMENT
 70
     0
  9
$CELWEIGHT
370
    -1
  9
$ENDCAPS
280
     0
  9
$JOINSTYLE
280
     0
  9
$LWDISPLAY
290
     0
  9
$INSUNITS
 70
     1
  9
$HYPERLINKBASE
  1

  9
$STYLESHEET
  1

  9
$XEDIT
290
     1
  9
$CEPSNTYPE
380
     0
  9
$PSTYLEMODE
290
     1
  9
$FINGERPRINTGUID
  2
{F5C09FBC-4C95-4FC5-9E44-61E8226BB21B}
  9
$VERSIONGUID
  2
{FAEB1C32-E019-11D5-929B-00C0DF256EC4}
  9
$EXTNAMES
290
     1
  9
$PSVPSCALE
 40
0.0
  9
$OLESTARTUP
290
     0
  0
ENDSEC
  0
SECTION
  2
CLASSES
  0
CLASS
  1
ACDBDICTIONARYWDFLT
  2
AcDbDictionaryWithDefault
  3
ObjectDBX Classes
 90
        0
280
     0
281
     0
  0
CLASS
  1
ACDBPLACEHOLDER
  2
AcDbPlaceHolder
  3
ObjectDBX Classes
 90
        0
280
     0
281
     0
  0
CLASS
  1
LAYOUT
  2
AcDbLayout
  3
ObjectDBX Classes
 90
        0
280
     0
281
     0
  0
ENDSEC
  0
SECTION
  2
TABLES
  0
TABLE
  2
VPORT
  5
8
330
0
100
AcDbSymbolTable
 70
     1
  0
VPORT
  5
29
330
8
100
AcDbSymbolTableRecord
100
AcDbViewportTableRecord
  2
*Active
 70
     0
 10
0.0
 20
0.0
 11
1.0
 21
1.0
 12
10.4299065421
 22
4.5
 13
0.0
 23
0.0
 14
0.5
 24
0.5
 15
0.5
 25
0.5
 16
0.0
 26
0.0
 36
1.0
 17
0.0
 27
0.0
 37
0.0
 40
9.0
 41
1.9729729729
 42
50.0
 43
0.0
 44
0.0
 50
0.0
 51
0.0
 71
     0
 72
   100
 73
     1
 74
     3
 75
     0
 76
     0
 77
     0
 78
     0
281
     0
 65
     1
110
0.0
120
0.0
130
0.0
111
1.0
121
0.0
131
0.0
112
0.0
122
1.0
132
0.0
 79
     0
146
0.0
  0
ENDTAB
  0
TABLE
  2
LTYPE
  5
5
330
0
100
AcDbSymbolTable
 70
     2
  0
LTYPE
  5
14
330
5
100
AcDbSymbolTableRecord
100
AcDbLinetypeTableRecord
  2
ByBlock
 70
     0
  3

 72
    65
 73
     0
 40
0.0
  0
LTYPE
  5
15
330
5
100
AcDbSymbolTableRecord
100
AcDbLinetypeTableRecord
  2
ByLayer
 70
     0
  3

 72
    65
 73
     0
 40
0.0
  0
LTYPE
  5
16
330
5
100
AcDbSymbolTableRecord
100
AcDbLinetypeTableRecord
  2
Continuous
 70
     0
  3
Solid line
 72
    65
 73
     0
 40
0.0
  0
LTYPE
  5
2B
330
5
100
AcDbSymbolTableRecord
100
AcDbLinetypeTableRecord
  2
DIVIDE2
 70
     0
  3
__..__..__..__..__..__..__..__..__..__..__..__.
 72
    65
 73
     6
 40
0.625
 49
0.25
 74
     4
 75
     0
340
0
 46
0.0
 50
0.0
 44
0.0
 45
0.0
 49
-0.125
 74
     4
 75
     0
340
0
 46
0.0
 50
0.0
 44
0.0
 45
0.0
 49
0.0
 74
     4
 75
     0
340
0
 46
0.0
 50
0.0
 44
0.0
 45
0.0
 49
-0.125
 74
     4
 75
     0
340
0
 46
0.0
 50
0.0
 44
0.0
 45
0.0
 49
0.0
 74
     4
 75
     0
340
0
 46
0.0
 50
0.0
 44
0.0
 45
0.0
 49
-0.125
 74
     4
 75
     0
340
0
 46
0.0
 50
0.0
 44
0.0
 45
0.0
  0
ENDTAB
  0
TABLE
  2
LAYER
  5
2
330
0
100
AcDbSymbolTable
 70
     3
  0
LAYER
  5
10
330
2
100
AcDbSymbolTableRecord
100
AcDbLayerTableRecord
  2
0
 70
     0
 62
     7
  6
Continuous
370
    -3
390
F
  0
LAYER
  5
2A
330
2
100
AcDbSymbolTableRecord
100
AcDbLayerTableRecord
  2
Default
 70
     0
 62
     7
  6
Continuous
370
    -3
390
F
  0
LAYER
  5
65
330
2
100
AcDbSymbolTableRecord
100
AcDbLayerTableRecord
  2
_Übersetzung
 70
     1
 62
    -7
  6
Continuous
370
    -3
390
F
  0
ENDTAB
  0
TABLE
  2
STYLE
  5
3
330
0
100
AcDbSymbolTable
 70
     2
  0
STYLE
  5
11
330
3
100
AcDbSymbolTableRecord
100
AcDbTextStyleTableRecord
  2
Standard
 70
     0
 40
0.0
 41
1.0
 50
0.0
 71
     0
 42
0.2
  3
txt
  4

  0
STYLE
  5
99
330
3
100
AcDbSymbolTableRecord
100
AcDbTextStyleTableRecord
  2
SEACAD_txt_shx
 70
     0
 40
60.0
 41
1.0
 50
0.0
 71
     0
 42
0.2
  3
txt.shx
  4

  0
ENDTAB
  0
TABLE
  2
VIEW
  5
6
330
0
100
AcDbSymbolTable
 70
     0
  0
ENDTAB
  0
TABLE
  2
UCS
  5
7
330
0
100
AcDbSymbolTable
 70
     0
  0
ENDTAB
  0
TABLE
  2
APPID
  5
9
330
0
100
AcDbSymbolTable
 70
     1
  0
APPID
  5
12
330
9
100
AcDbSymbolTableRecord
100
AcDbRegAppTableRecord
  2
ACAD
 70
     0
  0
ENDTAB
  0
TABLE
  2
DIMSTYLE
  5
A
330
0
100
AcDbSymbolTable
 70
     1
100
AcDbDimStyleTable
  0
DIMSTYLE
105
27
102
{ACAD_REACTORS
330
9A
102
}
330
A
100
AcDbSymbolTableRecord
100
AcDbDimStyleTableRecord
  2
Standard
 70
     0
340
99
  0
ENDTAB
  0
TABLE
  2
BLOCK_RECORD
  5
1
330
0
100
AcDbSymbolTable
 70
     3
  0
BLOCK_RECORD
  5
1F
330
1
100
AcDbSymbolTableRecord
100
AcDbBlockTableRecord
  2
*Model_Space
340
22
  0
BLOCK_RECORD
  5
1B
330
1
100
AcDbSymbolTableRecord
100
AcDbBlockTableRecord
  2
*Paper_Space
340
1E
  0
BLOCK_RECORD
  5
94
330
1
100
AcDbSymbolTableRecord
100
AcDbBlockTableRecord
  2
_SE_FILLED
340
0
  0
BLOCK_RECORD
  5
9B
330
1
100
AcDbSymbolTableRecord
100
AcDbBlockTableRecord
  2
DMBLK1
340
0
  0
ENDTAB
  0
ENDSEC
  0
SECTION
  2
BLOCKS
  0
BLOCK
  5
20
330
1F
100
AcDbEntity
  8
0
100
AcDbBlockBegin
  2
*Model_Space
 70
     0
 71
     0
 10
0.0
 20
0.0
 30
0.0
  3
*Model_Space
  1

  0
ENDBLK
  5
21
330
1F
100
AcDbEntity
  8
0
100
AcDbBlockEnd
  0
BLOCK
  5
1C
330
1B
100
AcDbEntity
 67
     1
  8
0
100
AcDbBlockBegin
  2
*Paper_Space
 70
     0
 71
     0
 10
0.0
 20
0.0
 30
0.0
  3
*Paper_Space
  1

  0
ENDBLK
  5
1D
330
1B
100
AcDbEntity
 67
     1
  8
0
100
AcDbBlockEnd
  0
BLOCK
  5
97
330
94
100
AcDbEntity
  8
0
100
AcDbBlockBegin
  2
_SE_FILLED
 70
     0
 71
     0
 10
0.0
 20
0.0
 30
0.0
  3
_SE_FILLED
  1

  0
SOLID
  5
95
330
94
100
AcDbEntity
  8
0
100
AcDbTrace
 10
0.0
 20
0.0
 30
0.0
 11
-1.0
 21
-0.1665
 31
0.0
 12
-1.0
 22
0.1665
 32
0.0
 13
0.0
 23
0.0
 33
0.0
  0
LINE
  5
96
330
94
100
AcDbEntity
  8
0
100
AcDbLine
 10
0.0
 20
0.0
 30
0.0
 11
-1.0
 21
0.0
 31
0.0
  0
ENDBLK
  5
98
330
94
100
AcDbEntity
  8
0
100
AcDbBlockEnd
  0
BLOCK
  5
A5
330
9B
100
AcDbEntity
  8
0
100
AcDbBlockBegin
  2
DMBLK1
 70
     0
 71
     0
 10
0.0
 20
0.0
 30
0.0
  3
DMBLK1
  1

  0
HATCH
  5
9C
330
9B
100
AcDbEntity
  8
0
  6
Continuous
 62
   251
100
AcDbHatch
 10
0.0
 20
0.0
 30
0.0
210
0.0
220
0.0
230
1.0
  2
SOLID
 70
     1
 71
     0
 91
        1
 92
        1
 93
        3
 72
     1
 10
-401.7180506946102
 20
77.90307808485792
 11
-391.7180503754672
 21
17.90307617000003
 72
     1
 10
-391.7180503754672
 20
17.90307617000004
 11
-381.7180500563242
 21
77.90307808485792
 72
     1
 10
-381.7180500563243
 20
77.90307808485792
 11
-401.7180506946102
 21
77.90307808485792
 97
        0
 75
     0
 76
     1
 98
        0
  0
LWPOLYLINE
  5
9D
330
9B
100
AcDbEntity
  8
0
  6
Continuous
 62
   251
370
    30
100
AcDbPolyline
 90
        4
 70
     1
 43
0.00035
 10
-401.7180506946
 20
77.9030780849
 10
-391.7180503755
 20
17.90307617
 10
-381.7180500563
 20
77.9030780849
 10
-401.7180506946
 20
77.9030780849
  0
HATCH
  5
9E
330
9B
100
AcDbEntity
  8
0
  6
Continuous
 62
   251
100
AcDbHatch
 10
0.0
 20
0.0
 30
0.0
210
0.0
220
0.0
230
1.0
  2
SOLID
 70
     1
 71
     0
 91
        1
 92
        1
 93
        3
 72
     1
 10
-391.7480503747379
 20
1817.723076174375
 11
-391.6880503761963
 21
1817.723076174375
 72
     1
 10
-391.6880503761963
 20
1817.723076174375
 11
-391.7180503754671
 21
1817.90307617
 72
     1
 10
-391.7180503754671
 20
1817.90307617
 11
-391.7480503747379
 21
1817.723076174375
 97
        0
 75
     0
 76
     1
 98
        0
  0
LWPOLYLINE
  5
9F
330
9B
100
AcDbEntity
  8
0
  6
Continuous
 62
   251
370
    30
100
AcDbPolyline
 90
        4
 70
     1
 43
0.00035
 10
-391.7480503747
 20
1817.7230761744
 10
-391.7180503755
 20
1817.90307617
 10
-391.6880503762
 20
1817.7230761744
 10
-391.7480503747
 20
1817.7230761744
  0
LINE
  5
A0
330
9B
100
AcDbEntity
  8
0
  6
Continuous
 62
     7
100
AcDbLine
 10
248.6833791726
 20
17.90307617
 30
0.0
 11
-421.7180513329
 21
17.90307617
 31
0.0
  0
LINE
  5
A1
330
9B
100
AcDbEntity
  8
0
  6
Continuous
 62
     7
100
AcDbLine
 10
248.6833791726
 20
1817.90307617
 30
0.0
 11
-421.7180513329
 21
1817.90307617
 31
0.0
  0
LINE
  5
A2
330
9B
100
AcDbEntity
  8
0
  6
Continuous
 62
     7
100
AcDbLine
 10
-391.7180503755
 20
17.90307617
 30
0.0
 11
-391.7180503755
 21
866.9030758096
 31
0.0
  0
LINE
  5
A3
330
9B
100
AcDbEntity
  8
0
  6
Continuous
 62
     7
100
AcDbLine
 10
-391.7180503755
 20
968.9030765304
 30
0.0
 11
-391.7180503755
 21
1817.90307617
 31
0.0
  0
TEXT
  5
A4
330
9B
100
AcDbEntity
  8
0
  6
Continuous
 62
     7
100
AcDbText
 10
-587.273605931
 20
887.9031001996
 30
0.0
 40
60.0
  1
1800.0000
  7
SEACAD_txt_shx
 11
-587.273605931
 21
947.9031001996
 31
0.0
100
AcDbText
 73
     3
  0
ENDBLK
  5
A6
330
9B
100
AcDbEntity
  8
0
100
AcDbBlockEnd
  0
ENDSEC
  0
SECTION
  2
ENTITIES
  0
LINE
  5
2C
330
1F
100
AcDbEntity
  8
Default
  6
DIVIDE2
 62
     7
100
AcDbLine
 10
278.68342176
 20
1767.9030438
 30
0.0
 11
278.68342176
 21
17.9030438
 31
0.0
  0
LINE
  5
2D
330
1F
100
AcDbEntity
  8
Default
  6
DIVIDE2
 62
     7
100
AcDbLine
 10
278.68342176
 20
1617.9030438
 30
0.0
 11
391.93342176
 21
1617.9030438
 31
0.0
  0
LINE
  5
2E
330
1F
100
AcDbEntity
  8
Default
  6
DIVIDE2
 62
     7
100
AcDbLine
 10
278.68342176
 20
1567.9030438
 30
0.0
 11
414.68342176
 21
1567.9030438
 31
0.0
  0
LINE
  5
2F
330
1F
100
AcDbEntity
  8
Default
  6
DIVIDE2
 62
     7
100
AcDbLine
 10
278.68342176
 20
1516.9030438
 30
0.0
 11
434.68342176
 21
1516.9030438
 31
0.0
  0
LINE
  5
30
330
1F
100
AcDbEntity
  8
Default
  6
DIVIDE2
 62
     7
100
AcDbLine
 10
278.68342176
 20
1466.9030438
 30
0.0
 11
453.68342176
 21
1466.9030438
 31
0.0
  0
LINE
  5
31
330
1F
100
AcDbEntity
  8
Default
  6
DIVIDE2
 62
     7
100
AcDbLine
 10
278.68342176
 20
1416.9030438
 30
0.0
 11
470.68342176
 21
1416.9030438
 31
0.0
  0
LINE
  5
32
330
1F
100
AcDbEntity
  8
Default
  6
DIVIDE2
 62
     7
100
AcDbLine
 10
278.68342176
 20
1365.9030438
 30
0.0
 11
485.68342176
 21
1365.9030438
 31
0.0
  0
LINE
  5
33
330
1F
100
AcDbEntity
  8
Default
  6
DIVIDE2
 62
     7
100
AcDbLine
 10
278.68342176
 20
1315.4030438
 30
0.0
 11
500.18342176
 21
1315.4030438
 31
0.0
  0
LINE
  5
34
330
1F
100
AcDbEntity
  8
Default
  6
DIVIDE2
 62
     7
100
AcDbLine
 10
278.68342176
 20
1264.28957366
 30
0.0
 11
512.93342176
 21
1264.28957366
 31
0.0
  0
LINE
  5
35
330
1F
100
AcDbEntity
  8
Default
  6
DIVIDE2
 62
     7
100
AcDbLine
 10
278.68342176
 20
1214.4030438
 30
0.0
 11
524.43342176
 21
1214.4030438
 31
0.0
  0
LINE
  5
36
330
1F
100
AcDbEntity
  8
Default
  6
DIVIDE2
 62
     7
100
AcDbLine
 10
278.68342176
 20
1163.42343652
 30
0.0
 11
534.43342176
 21
1163.42343652
 31
0.0
  0
LINE
  5
37
330
1F
100
AcDbEntity
  8
Default
  6
DIVIDE2
 62
     7
100
AcDbLine
 10
278.68342176
 20
1117.9030438
 30
0.0
 11
541.68342176
 21
1117.9030438
 31
0.0
  0
LINE
  5
38
330
1F
100
AcDbEntity
  8
Default
  6
DIVIDE2
 62
     7
100
AcDbLine
 10
278.68342176
 20
1067.9030438
 30
0.0
 11
547.43342176
 21
1067.9030438
 31
0.0
  0
LINE
  5
39
330
1F
100
AcDbEntity
  8
Default
  6
DIVIDE2
 62
     7
100
AcDbLine
 10
278.68342176
 20
1017.9030438
 30
0.0
 11
551.68342176
 21
1017.9030438
 31
0.0
  0
POINT
  5
3A
330
1F
100
AcDbEntity
  8
0
  6
Continuous
 62
     7
100
AcDbPoint
 10
55.93342176
 20
117.9030438
 30
0.0
  0
POINT
  5
3B
330
1F
100
AcDbEntity
  8
0
  6
Continuous
 62
     7
100
AcDbPoint
 10
55.18342176
 20
168.31124773
 30
0.0
  0
POINT
  5
3C
330
1F
100
AcDbEntity
  8
0
  6
Continuous
 62
     7
100
AcDbPoint
 10
53.93342176
 20
217.9030438
 30
0.0
  0
POINT
  5
3D
330
1F
100
AcDbEntity
  8
0
  6
Continuous
 62
     7
100
AcDbPoint
 10
52.43342176
 20
267.9030438
 30
0.0
  0
POINT
  5
3E
330
1F
100
AcDbEntity
  8
0
  6
Continuous
 62
     7
100
AcDbPoint
 10
51.43342176
 20
317.35225634
 30
0.0
  0
POINT
  5
3F
330
1F
100
AcDbEntity
  8
0
  6
Continuous
 62
     7
100
AcDbPoint
 10
50.68342176
 20
367.33129586
 30
0.0
  0
POINT
  5
40
330
1F
100
AcDbEntity
  8
0
  6
Continuous
 62
     7
100
AcDbPoint
 10
49.68342176
 20
416.71292874
 30
0.0
  0
POINT
  5
41
330
1F
100
AcDbEntity
  8
0
  6
Continuous
 62
     7
100
AcDbPoint
 10
48.68342176
 20
467.57015603
 30
0.0
  0
POINT
  5
42
330
1F
100
AcDbEntity
  8
0
  6
Continuous
 62
     7
100
AcDbPoint
 10
47.93342176
 20
517.9030438
 30
0.0
  0
POINT
  5
43
330
1F
100
AcDbEntity
  8
0
  6
Continuous
 62
     7
100
AcDbPoint
 10
46.43342176
 20
567.9030438
 30
0.0
  0
POINT
  5
44
330
1F
100
AcDbEntity
  8
0
  6
Continuous
 62
     7
100
AcDbPoint
 10
46.43342176
 20
617.9030438
 30
0.0
  0
POINT
  5
45
330
1F
100
AcDbEntity
  8
0
  6
Continuous
 62
     7
100
AcDbPoint
 10
46.43342176
 20
667.9030438
 30
0.0
  0
POINT
  5
46
330
1F
100
AcDbEntity
  8
0
  6
Continuous
 62
     7
100
AcDbPoint
 10
46.43342176
 20
717.9030438
 30
0.0
  0
POINT
  5
47
330
1F
100
AcDbEntity
  8
0
  6
Continuous
 62
     7
100
AcDbPoint
 10
46.43342176
 20
767.9030438
 30
0.0
  0
POINT
  5
48
330
1F
100
AcDbEntity
  8
0
  6
Continuous
 62
     7
100
AcDbPoint
 10
46.43342176
 20
817.9030438
 30
0.0
  0
POINT
  5
49
330
1F
100
AcDbEntity
  8
0
  6
Continuous
 62
     7
100
AcDbPoint
 10
47.43342176
 20
867.9030438
 30
0.0
  0
POINT
  5
4A
330
1F
100
AcDbEntity
  8
0
  6
Continuous
 62
     7
100
AcDbPoint
 10
48.68342176
 20
917.9030438
 30
0.0
  0
POINT
  5
4B
330
1F
100
AcDbEntity
  8
0
  6
Continuous
 62
     7
100
AcDbPoint
 10
50.18342176
 20
967.9030438
 30
0.0
  0
LINE
  5
4C
330
1F
100
AcDbEntity
  8
Default
  6
DIVIDE2
 62
     7
100
AcDbLine
 10
278.68342176
 20
17.9030438
 30
0.0
 11
537.18342176
 21
17.9030438
 31
0.0
  0
LINE
  5
4D
330
1F
100
AcDbEntity
  8
Default
  6
DIVIDE2
 62
     7
100
AcDbLine
 10
278.68342176
 20
17.9030438
 30
0.0
 11
57.43342176
 21
17.9030438
 31
0.0
  0
LINE
  5
4E
330
1F
100
AcDbEntity
  8
Default
  6
DIVIDE2
 62
     7
100
AcDbLine
 10
278.68342176
 20
17.9030438
 30
0.0
 11
499.93342176
 21
17.9030438
 31
0.0
  0
LINE
  5
4F
330
1F
100
AcDbEntity
  8
Default
  6
DIVIDE2
 62
     7
100
AcDbLine
 10
278.68342176
 20
117.9030438
 30
0.0
 11
501.43342176
 21
117.9030438
 31
0.0
  0
LINE
  5
50
330
1F
100
AcDbEntity
  8
Default
  6
DIVIDE2
 62
     7
100
AcDbLine
 10
278.68342176
 20
168.31124773
 30
0.0
 11
502.18342176
 21
168.31124773
 31
0.0
  0
LINE
  5
51
330
1F
100
AcDbEntity
  8
Default
  6
DIVIDE2
 62
     7
100
AcDbLine
 10
278.68342176
 20
217.9030438
 30
0.0
 11
503.43342176
 21
217.9030438
 31
0.0
  0
LINE
  5
52
330
1F
100
AcDbEntity
  8
Default
  6
DIVIDE2
 62
     7
100
AcDbLine
 10
278.68342176
 20
267.9030438
 30
0.0
 11
504.93342176
 21
267.9030438
 31
0.0
  0
LINE
  5
53
330
1F
100
AcDbEntity
  8
Default
  6
DIVIDE2
 62
     7
100
AcDbLine
 10
278.68342176
 20
317.35225634
 30
0.0
 11
505.93342176
 21
317.35225634
 31
0.0
  0
LINE
  5
54
330
1F
100
AcDbEntity
  8
Default
  6
DIVIDE2
 62
     7
100
AcDbLine
 10
278.68342176
 20
367.33129586
 30
0.0
 11
506.68342176
 21
367.33129586
 31
0.0
  0
LINE
  5
55
330
1F
100
AcDbEntity
  8
Default
  6
DIVIDE2
 62
     7
100
AcDbLine
 10
278.68342176
 20
416.71292874
 30
0.0
 11
507.68342176
 21
416.71292874
 31
0.0
  0
LINE
  5
56
330
1F
100
AcDbEntity
  8
Default
  6
DIVIDE2
 62
     7
100
AcDbLine
 10
278.68342176
 20
467.57015603
 30
0.0
 11
508.68342176
 21
467.57015603
 31
0.0
  0
LINE
  5
57
330
1F
100
AcDbEntity
  8
Default
  6
DIVIDE2
 62
     7
100
AcDbLine
 10
278.68342176
 20
517.9030438
 30
0.0
 11
509.43342176
 21
517.9030438
 31
0.0
  0
LINE
  5
58
330
1F
100
AcDbEntity
  8
Default
  6
DIVIDE2
 62
     7
100
AcDbLine
 10
278.68342176
 20
567.9030438
 30
0.0
 11
510.93342176
 21
567.9030438
 31
0.0
  0
LINE
  5
59
330
1F
100
AcDbEntity
  8
Default
  6
DIVIDE2
 62
     7
100
AcDbLine
 10
278.68342176
 20
617.9030438
 30
0.0
 11
510.93342176
 21
617.9030438
 31
0.0
  0
LINE
  5
5A
330
1F
100
AcDbEntity
  8
Default
  6
DIVIDE2
 62
     7
100
AcDbLine
 10
278.68342176
 20
667.9030438
 30
0.0
 11
510.93342176
 21
667.9030438
 31
0.0
  0
LINE
  5
5B
330
1F
100
AcDbEntity
  8
Default
  6
DIVIDE2
 62
     7
100
AcDbLine
 10
278.68342176
 20
717.9030438
 30
0.0
 11
510.93342176
 21
717.9030438
 31
0.0
  0
LINE
  5
5C
330
1F
100
AcDbEntity
  8
Default
  6
DIVIDE2
 62
     7
100
AcDbLine
 10
278.68342176
 20
767.9030438
 30
0.0
 11
510.93342176
 21
767.9030438
 31
0.0
  0
LINE
  5
5D
330
1F
100
AcDbEntity
  8
Default
  6
DIVIDE2
 62
     7
100
AcDbLine
 10
278.68342176
 20
817.9030438
 30
0.0
 11
510.93342176
 21
817.9030438
 31
0.0
  0
LINE
  5
5E
330
1F
100
AcDbEntity
  8
Default
  6
DIVIDE2
 62
     7
100
AcDbLine
 10
278.68342176
 20
867.9030438
 30
0.0
 11
509.93342176
 21
867.9030438
 31
0.0
  0
LINE
  5
5F
330
1F
100
AcDbEntity
  8
Default
  6
DIVIDE2
 62
     7
100
AcDbLine
 10
278.68342176
 20
917.9030438
 30
0.0
 11
508.68342176
 21
917.9030438
 31
0.0
  0
LINE
  5
60
330
1F
100
AcDbEntity
  8
Default
  6
DIVIDE2
 62
     7
100
AcDbLine
 10
278.68342176
 20
967.9030438
 30
0.0
 11
507.18342176
 21
967.9030438
 31
0.0
  0
SPLINE
  5
61
330
1F
100
AcDbEntity
  8
Default
  6
Continuous
 62
     7
100
AcDbSpline
210
0.0
220
0.0
230
1.0
 70
    28
 71
     2
 72
     6
 73
     3
 74
     0
 42
0.0000000002
 43
0.0000000001
 40
0.0
 40
0.0
 40
0.0
 40
1.0
 40
1.0
 40
1.0
 10
278.6834217599999
 20
1767.9030438
 30
0.0
 41
1.0
 10
278.6834217599999
 20
1792.9030438
 30
0.0
 41
1.0
 10
278.6834217599999
 20
1817.9030438
 30
0.0
 41
1.0
  0
SPLINE
  5
62
330
1F
100
AcDbEntity
  8
Default
  6
Continuous
 62
     7
100
AcDbSpline
210
0.0
220
0.0
230
1.0
 70
    28
 71
     2
 72
     6
 73
     3
 74
     0
 42
0.0000000002941176
 43
0.0000000001
 40
0.0
 40
0.0
 40
0.0
 40
1.0
 40
1.0
 40
1.0
 10
278.6834217599999
 20
1767.9030438
 30
0.0
 41
1.0
 10
295.6834217599999
 20
1767.9030438
 30
0.0
 41
1.0
 10
312.6834217599999
 20
1767.9030438
 30
0.0
 41
1.0
  0
SPLINE
  5
63
330
1F
100
AcDbEntity
  8
Default
  6
Continuous
 62
     7
100
AcDbSpline
210
0.0
220
0.0
230
1.0
 70
    28
 71
     2
 72
     6
 73
     3
 74
     0
 42
0.0000000001587302
 43
0.0000000001
 40
0.0
 40
0.0
 40
0.0
 40
1.0
 40
1.0
 40
1.0
 10
278.6834217599999
 20
1717.637576679999
 30
0.0
 41
1.0
 10
310.1834217599999
 20
1717.637576679999
 30
0.0
 41
1.0
 10
341.6834217599999
 20
1717.637576679999
 30
0.0
 41
1.0
  0
SPLINE
  5
64
330
1F
100
AcDbEntity
  8
Default
  6
Continuous
 62
     7
100
AcDbSpline
210
0.0
220
0.0
230
1.0
 70
    28
 71
     2
 72
     6
 73
     3
 74
     0
 42
0.0000000001123596
 43
0.0000000001
 40
0.0
 40
0.0
 40
0.0
 40
1.0
 40
1.0
 40
1.0
 10
278.6834217599999
 20
1667.9030438
 30
0.0
 41
1.0
 10
323.18342176
 20
1667.9030438
 30
0.0
 41
1.0
 10
367.68342176
 20
1667.9030438
 30
0.0
 41
1.0
  0
CIRCLE
  5
66
330
1F
100
AcDbEntity
  8
_Übersetzung
  6
Continuous
 62
     7
100
AcDbCircle
 10
278.68338013
 20
17.90307617
 30
0.0
 40
0.0003937007874016
  0
CIRCLE
  5
67
330
1F
100
AcDbEntity
  8
_Übersetzung
  6
Continuous
 62
     7
100
AcDbCircle
 10
278.68338013
 20
1817.90307617
 30
0.0
 40
0.0003937007874016
  0
LINE
  5
68
330
1F
100
AcDbEntity
  8
_Übersetzung
  6
Continuous
 62
     7
100
AcDbLine
 10
-391.7180264
 20
17.90307617
 30
0.0
 11
-391.7180264
 21
1817.90307617
 31
0.0
  0
POINT
  5
69
330
1F
100
AcDbEntity
  8
0
  6
Continuous
 62
     7
100
AcDbPoint
 10
278.68342176
 20
1817.9030438
 30
0.0
  0
POINT
  5
6A
330
1F
100
AcDbEntity
  8
0
  6
Continuous
 62
     7
100
AcDbPoint
 10
312.68342176
 20
1767.9030438
 30
0.0
  0
POINT
  5
6B
330
1F
100
AcDbEntity
  8
0
  6
Continuous
 62
     7
100
AcDbPoint
 10
341.68342176
 20
1717.63757668
 30
0.0
  0
POINT
  5
6C
330
1F
100
AcDbEntity
  8
0
  6
Continuous
 62
     7
100
AcDbPoint
 10
367.68342176
 20
1667.9030438
 30
0.0
  0
POINT
  5
6D
330
1F
100
AcDbEntity
  8
0
  6
Continuous
 62
     7
100
AcDbPoint
 10
391.93342176
 20
1617.9030438
 30
0.0
  0
POINT
  5
6E
330
1F
100
AcDbEntity
  8
0
  6
Continuous
 62
     7
100
AcDbPoint
 10
414.68342176
 20
1567.9030438
 30
0.0
  0
POINT
  5
6F
330
1F
100
AcDbEntity
  8
0
  6
Continuous
 62
     7
100
AcDbPoint
 10
434.68342176
 20
1516.9030438
 30
0.0
  0
POINT
  5
70
330
1F
100
AcDbEntity
  8
0
  6
Continuous
 62
     7
100
AcDbPoint
 10
453.68342176
 20
1466.9030438
 30
0.0
  0
POINT
  5
71
330
1F
100
AcDbEntity
  8
0
  6
Continuous
 62
     7
100
AcDbPoint
 10
470.68342176
 20
1416.9030438
 30
0.0
  0
POINT
  5
72
330
1F
100
AcDbEntity
  8
0
  6
Continuous
 62
     7
100
AcDbPoint
 10
485.68342176
 20
1365.9030438
 30
0.0
  0
POINT
  5
73
330
1F
100
AcDbEntity
  8
0
  6
Continuous
 62
     7
100
AcDbPoint
 10
500.18342176
 20
1315.4030438
 30
0.0
  0
POINT
  5
74
330
1F
100
AcDbEntity
  8
0
  6
Continuous
 62
     7
100
AcDbPoint
 10
512.93342176
 20
1264.28957366
 30
0.0
  0
POINT
  5
75
330
1F
100
AcDbEntity
  8
0
  6
Continuous
 62
     7
100
AcDbPoint
 10
524.43342176
 20
1214.4030438
 30
0.0
  0
POINT
  5
76
330
1F
100
AcDbEntity
  8
0
  6
Continuous
 62
     7
100
AcDbPoint
 10
534.43342176
 20
1163.42343652
 30
0.0
  0
POINT
  5
77
330
1F
100
AcDbEntity
  8
0
  6
Continuous
 62
     7
100
AcDbPoint
 10
541.68342176
 20
1117.9030438
 30
0.0
  0
POINT
  5
78
330
1F
100
AcDbEntity
  8
0
  6
Continuous
 62
     7
100
AcDbPoint
 10
547.43342176
 20
1067.9030438
 30
0.0
  0
POINT
  5
79
330
1F
100
AcDbEntity
  8
0
  6
Continuous
 62
     7
100
AcDbPoint
 10
551.68342176
 20
1017.9030438
 30
0.0
  0
POINT
  5
7A
330
1F
100
AcDbEntity
  8
0
  6
Continuous
 62
     7
100
AcDbPoint
 10
554.68342176
 20
967.9030438
 30
0.0
  0
POINT
  5
7B
330
1F
100
AcDbEntity
  8
0
  6
Continuous
 62
     7
100
AcDbPoint
 10
557.68342176
 20
917.9030438
 30
0.0
  0
POINT
  5
7C
330
1F
100
AcDbEntity
  8
0
  6
Continuous
 62
     7
100
AcDbPoint
 10
560.18342176
 20
867.9030438
 30
0.0
  0
POINT
  5
7D
330
1F
100
AcDbEntity
  8
0
  6
Continuous
 62
     7
100
AcDbPoint
 10
562.18342176
 20
817.9030438
 30
0.0
  0
POINT
  5
7E
330
1F
100
AcDbEntity
  8
0
  6
Continuous
 62
     7
100
AcDbPoint
 10
563.43342176
 20
767.9030438
 30
0.0
  0
POINT
  5
7F
330
1F
100
AcDbEntity
  8
0
  6
Continuous
 62
     7
100
AcDbPoint
 10
563.93342176
 20
717.9030438
 30
0.0
  0
POINT
  5
80
330
1F
100
AcDbEntity
  8
0
  6
Continuous
 62
     7
100
AcDbPoint
 10
564.18342176
 20
667.9030438
 30
0.0
  0
POINT
  5
81
330
1F
100
AcDbEntity
  8
0
  6
Continuous
 62
     7
100
AcDbPoint
 10
563.68342176
 20
617.9030438
 30
0.0
  0
POINT
  5
82
330
1F
100
AcDbEntity
  8
0
  6
Continuous
 62
     7
100
AcDbPoint
 10
563.43342176
 20
567.9030438
 30
0.0
  0
POINT
  5
83
330
1F
100
AcDbEntity
  8
0
  6
Continuous
 62
     7
100
AcDbPoint
 10
562.68342176
 20
517.9030438
 30
0.0
  0
POINT
  5
84
330
1F
100
AcDbEntity
  8
0
  6
Continuous
 62
     7
100
AcDbPoint
 10
561.68342176
 20
467.9030438
 30
0.0
  0
POINT
  5
85
330
1F
100
AcDbEntity
  8
0
  6
Continuous
 62
     7
100
AcDbPoint
 10
560.43342176
 20
416.71292874
 30
0.0
  0
POINT
  5
86
330
1F
100
AcDbEntity
  8
0
  6
Continuous
 62
     7
100
AcDbPoint
 10
559.43342176
 20
367.9030438
 30
0.0
  0
POINT
  5
87
330
1F
100
AcDbEntity
  8
0
  6
Continuous
 62
     7
100
AcDbPoint
 10
556.93342176
 20
317.35225634
 30
0.0
  0
POINT
  5
88
330
1F
100
AcDbEntity
  8
0
  6
Continuous
 62
     7
100
AcDbPoint
 10
554.68342176
 20
267.9030438
 30
0.0
  0
POINT
  5
89
330
1F
100
AcDbEntity
  8
0
  6
Continuous
 62
     7
100
AcDbPoint
 10
552.18342176
 20
217.9030438
 30
0.0
  0
POINT
  5
8A
330
1F
100
AcDbEntity
  8
0
  6
Continuous
 62
     7
100
AcDbPoint
 10
548.93342176
 20
168.31124773
 30
0.0
  0
POINT
  5
8B
330
1F
100
AcDbEntity
  8
0
  6
Continuous
 62
     7
100
AcDbPoint
 10
544.93342176
 20
117.9030438
 30
0.0
  0
POINT
  5
8C
330
1F
100
AcDbEntity
  8
0
  6
Continuous
 62
     7
100
AcDbPoint
 10
541.18342176
 20
68.69640221
 30
0.0
  0
POINT
  5
8D
330
1F
100
AcDbEntity
  8
0
  6
Continuous
 62
     7
100
AcDbPoint
 10
537.18342176
 20
17.9030438
 30
0.0
  0
SPLINE
  5
8E
330
1F
100
AcDbEntity
  8
0
  6
Continuous
 62
     7
100
AcDbSpline
210
0.0
220
0.0
230
1.0
 70
    12
 71
     3
 72
    41
 73
    37
 74
     0
 42
0.0000000000053884
 43
0.0000000001
 40
0.0
 40
0.0
 40
0.0
 40
0.0
 40
0.06352171
 40
0.09401302
 40
0.1239476
 40
0.15364159
 40
0.18296153
 40
0.21190036
 40
0.24054792
 40
0.2690252
 40
0.2974789
 40
0.32557952
 40
0.35357427
 40
0.3803859
 40
0.40704206
 40
0.43338009
 40
0.46043598
 40
0.48744881
 40
0.51444048
 40
0.54142318
 40
0.56839253
 40
0.59535111
 40
0.62230261
 40
0.64925176
 40
0.67620057
 40
0.70315028
 40
0.73010134
 40
0.75726884
 40
0.78422335
 40
0.81128612
 40
0.83804258
 40
0.86502223
 40
0.89183761
 40
0.91884455
 40
0.94572337
 40
1.0
 40
1.0
 40
1.0
 40
1.0
 10
278.6834217599999
 20
1817.9030438
 30
0.0
 41
1.0
 10
302.4308409099999
 20
1786.49983475
 30
0.0
 41
1.0
 10
332.2077193999999
 20
1736.45919241
 30
0.0
 41
1.0
 10
367.7370617399999
 20
1668.51790594
 30
0.0
 41
1.0
 10
391.8397961699999
 20
1618.26567745
 30
0.0
 41
1.0
 10
415.26243047
 20
1568.45167387
 30
0.0
 41
1.0
 10
434.31976293
 20
1517.47180705
 30
0.0
 41
1.0
 10
453.89853053
 20
1467.42109959
 30
0.0
 41
1.0
 10
471.16626637
 20
1417.03712297
 30
0.0
 41
1.0
 10
485.4629967499999
 20
1366.0703935
 30
0.0
 41
1.0
 10
500.61641571
 20
1315.69845191
 30
0.0
 41
1.0
 10
512.8264000899999
 20
1264.83835854
 30
0.0
 41
1.0
 10
524.6627934499999
 20
1214.94481966
 30
0.0
 41
1.0
 10
534.3270225199999
 20
1165.48666478
 30
0.0
 41
1.0
 10
542.27935847
 20
1116.75766156
 30
0.0
 41
1.0
 10
547.6500695299999
 20
1067.52664939
 30
0.0
 41
1.0
 10
551.9718435399999
 20
1017.97987629
 30
0.0
 41
1.0
 10
554.5755101499999
 20
967.9090673499999
 30
0.0
 41
1.0
 10
557.8195562499999
 20
917.9257440299999
 30
0.0
 41
1.0
 10
560.24024559
 20
867.9211342399999
 30
0.0
 41
1.0
 10
562.3148338599999
 20
817.9228186899999
 30
0.0
 41
1.0
 10
563.5972962099999
 20
767.9137807299999
 30
0.0
 41
1.0
 10
563.8954340599998
 20
717.9052901899998
 30
0.0
 41
1.0
 10
564.42135482
 20
667.9018591599998
 30
0.0
 41
1.0
 10
563.5196432499998
 20
617.9041471099999
 30
0.0
 41
1.0
 10
563.6006066899998
 20
567.8990515099999
 30
0.0
 41
1.0
 10
562.6758593299999
 20
517.7676807999999
 30
0.0
 41
1.0
 10
561.7816646099999
 20
467.6337182599999
 30
0.0
 41
1.0
 10
560.2582874799999
 20
417.4467000499999
 30
0.0
 41
1.0
 10
559.8723159499999
 20
367.4795133299999
 30
0.0
 41
1.0
 10
556.7656360699999
 20
317.59159226
 30
0.0
 41
1.0
 10
554.7460785099998
 20
267.8148396099999
 30
0.0
 41
1.0
 10
552.32085023
 20
217.89848497
 30
0.0
 41
1.0
 10
549.0754166799999
 20
168.08943838
 30
0.0
 41
1.0
 10
543.4598771699999
 20
101.42863688
 30
0.0
 41
1.0
 10
540.0043189699999
 20
51.35364606
 30
0.0
 41
1.0
 10
537.18342176
 20
17.9030438
 30
0.0
 41
1.0
  0
LINE
  5
8F
330
1F
100
AcDbEntity
  8
0
  6
Continuous
 62
     7
100
AcDbLine
 10
537.18342176
 20
17.9030438
 30
0.0
 11
278.68342176
 21
17.9030438
 31
0.0
  0
LINE
  5
90
330
1F
100
AcDbEntity
  8
0
  6
Continuous
 62
     7
100
AcDbLine
 10
1020.18342176
 20
17.9030438
 30
0.0
 11
1537.18342176
 21
17.9030438
 31
0.0
  0
POINT
  5
91
330
1F
100
AcDbEntity
  8
0
  6
Continuous
 62
     7
100
AcDbPoint
 10
1278.68342176
 20
1817.9030438
 30
0.0
  0
POINT
  5
92
330
1F
100
AcDbEntity
  8
0
  6
Continuous
 62
     7
100
AcDbPoint
 10
56.43342176
 20
68.58018321
 30
0.0
  0
SPLINE
  5
93
330
1F
100
AcDbEntity
  8
0
  6
Continuous
 62
     7
100
AcDbSpline
210
0.0
220
0.0
230
1.0
 70
    12
 71
     3
 72
    25
 73
    21
 74
     0
 42
0.0000000000105239
 43
0.0000000001
 40
0.0
 40
0.0
 40
0.0
 40
0.0
 40
0.0976418151099574
 40
0.1464533724814551
 40
0.1952598465137647
 40
0.2440630633460072
 40
0.2928662889577647
 40
0.3416695057900072
 40
0.3904800447377643
 40
0.4394007139217511
 40
0.488603477702381
 40
0.5376010290992714
 40
0.5864834634954089
 40
0.634907888152737
 40
0.6835375339733198
 40
0.7320444685126701
 40
0.7808619520567965
 40
0.7808619520567965
 40
0.7808619520567965
 40
1.0
 40
1.0
 40
1.0
 40
1.0
 10
507.1834217599999
 20
967.9030437999998
 30
0.0
 41
1.0
 10
508.3432648199999
 20
934.5758027799998
 30
0.0
 41
1.0
 10
509.4882249799999
 20
884.5772688199999
 30
0.0
 41
1.0
 10
511.20491304
 20
817.9106730099999
 30
0.0
 41
1.0
 10
510.8630505899999
 20
767.9034312399999
 30
0.0
 41
1.0
 10
510.9434473499999
 20
717.9033779699998
 30
0.0
 41
1.0
 10
510.9636887799999
 20
667.9024306699998
 30
0.0
 41
1.0
 10
510.8023199899999
 20
617.9026628599999
 30
0.0
 41
1.0
 10
511.4281132499999
 20
567.8500674999999
 30
0.0
 41
1.0
 10
509.0759812099999
 20
517.7083976199999
 30
0.0
 41
1.0
 10
508.8332115199999
 20
467.4612062799999
 30
0.0
 41
1.0
 10
507.6843055699999
 20
417.2441241299999
 30
0.0
 41
1.0
 10
506.6067284899999
 20
367.2913260099999
 30
0.0
 41
1.0
 10
505.9877374499999
 20
317.45667322
 30
0.0
 41
1.0
 10
505.05432479
 20
267.753869
 30
0.0
 41
1.0
 10
503.36870757
 20
217.93731502
 30
0.0
 41
1.0
 10
502.507421374201
 20
184.7107857344045
 30
0.0
 41
1.0
 10
502.1781042519191
 20
168.042554677294
 30
0.0
 41
1.0
 10
501.1894136897798
 20
118.0004474842756
 30
0.0
 41
1.0
 10
501.1264076812893
 20
67.94071226073068
 30
0.0
 41
1.0
 10
500.2743319598124
 20
17.90304380022299
 30
0.0
 41
1.0
  0
DIMENSION
  5
9A
330
1F
100
AcDbEntity
  8
0
  6
Continuous
 62
     7
100
AcDbDimension
  2
DMBLK1
 10
-391.7180503755
 20
17.90307617
 30
0.0
 11
-391.7180503755
 21
917.9031001996
 31
0.0
 70
   161
  1
\A1;<>
 71
     5
 42
-1.0
  3
Standard
100
AcDbAlignedDimension
 13
278.68338013
 23
17.90307617
 33
0.0
 14
278.68338013
 24
1817.90307617
 34
0.0
1001
ACAD
1000
DSTYLE
1002
{
1070
   141
1041
30.0
1070
   176
1070
     7
1070
   177
1070
     7
1070
   178
1070
     7
1070
    44
1041
30.0
1070
    42
1041
30.0
1070
   147
1041
6.0
1070
   173
1070
     1
1070
   140
1041
60.0
1070
   287
1070
     3
1070
     0
1002
}
  0
ENDSEC
  0
SECTION
  2
OBJECTS
  0
DICTIONARY
  5
C
330
0
100
AcDbDictionary
281
     1
  3
ACAD_GROUP
350
D
  3
ACAD_LAYOUT
350
1A
  3
ACAD_MLINESTYLE
350
17
  3
ACAD_PLOTSETTINGS
350
19
  3
ACAD_PLOTSTYLENAME
350
E
  0
DICTIONARY
  5
D
102
{ACAD_REACTORS
330
C
102
}
330
C
100
AcDbDictionary
281
     1
  0
DICTIONARY
  5
1A
102
{ACAD_REACTORS
330
C
102
}
330
C
100
AcDbDictionary
281
     1
  3
Layout1
350
1E
  3
Model
350
22
  0
DICTIONARY
  5
17
102
{ACAD_REACTORS
330
C
102
}
330
C
100
AcDbDictionary
281
     1
  3
Standard
350
18
  0
DICTIONARY
  5
19
102
{ACAD_REACTORS
330
C
102
}
330
C
100
AcDbDictionary
281
     1
  0
ACDBDICTIONARYWDFLT
  5
E
102
{ACAD_REACTORS
330
C
102
}
330
C
100
AcDbDictionary
281
     1
  3
Normal
350
F
100
AcDbDictionaryWithDefault
340
F
  0
LAYOUT
  5
1E
102
{ACAD_REACTORS
330
1A
102
}
330
1A
100
AcDbPlotSettings
  1

  2

  4

  6

 40
0.0
 41
0.0
 42
0.0
 43
0.0
 44
0.0
 45
0.0
 46
0.0
 47
0.0
 48
0.0
 49
0.0
140
0.0
141
0.0
142
1.0
143
1.0
 70
   688
 72
     0
 73
     0
 74
     5
  7

 75
    16
147
1.0
148
0.0
149
0.0
100
AcDbLayout
  1
Layout1
 70
     1
 71
     1
 10
0.0
 20
0.0
 11
594.0
 21
420.0
 12
0.0
 22
0.0
 32
0.0
 14
0.0
 24
0.0
 34
0.0
 15
594.0
 25
420.0
 35
0.0
146
0.0
 13
0.0
 23
0.0
 33
0.0
 16
1.0
 26
0.0
 36
0.0
 17
0.0
 27
1.0
 37
0.0
 76
     0
330
1B
  0
LAYOUT
  5
22
102
{ACAD_REACTORS
330
1A
102
}
330
1A
100
AcDbPlotSettings
  1

  2

  4

  6

 40
0.0
 41
0.0
 42
0.0
 43
0.0
 44
0.0
 45
0.0
 46
0.0
 47
0.0
 48
0.0
 49
0.0
140
0.0
141
0.0
142
1.0
143
1.0
 70
  1712
 72
     0
 73
     0
 74
     0
  7

 75
     0
147
1.0
148
0.0
149
0.0
100
AcDbLayout
  1
Model
 70
     1
 71
     0
 10
0.0
 20
0.0
 11
594.0
 21
420.0
 12
0.0
 22
0.0
 32
0.0
 14
0.0
 24
0.0
 34
0.0
 15
594.0
 25
420.0
 35
0.0
146
0.0
 13
0.0
 23
0.0
 33
0.0
 16
1.0
 26
0.0
 36
0.0
 17
0.0
 27
1.0
 37
0.0
 76
     0
330
1F
  0
MLINESTYLE
  5
18
102
{ACAD_REACTORS
330
17
102
}
330
17
100
AcDbMlineStyle
  2
Standard
 70
     0
  3

 62
   256
 51
90.0
 52
90.0
 71
     2
 49
0.5
 62
   256
  6
BYLAYER
 49
-0.5
 62
   256
  6
BYLAYER
  0
ACDBPLACEHOLDER
  5
F
102
{ACAD_REACTORS
330
E
102
}
330
E
  0
ENDSEC
  0
EOF
