  0
SECTION
  2
HEADER
  9
$ACADVER
  1
AC1024
  9
$ACADMAINTVER
 70
     6
  9
$DWGCODEPAGE
  3
ANSI_1252
  9
$LASTSAVEDBY
  1
Reiter
  9
$INSBASE
 10
0.0
 20
0.0
 30
0.0
  9
$EXTMIN
 10
-1659.840587623833
 20
-397.024260410668
 30
0.0
  9
$EXTMAX
 10
1277.023332385765
 20
1236.475739589332
 30
0.0
  9
$LIMMIN
 10
0.0
 20
0.0
  9
$LIMMAX
 10
420.0
 20
297.0
  9
$ORTHOMODE
 70
     0
  9
$REGENMODE
 70
     1
  9
$FILLMODE
 70
     1
  9
$QTEXTMODE
 70
     0
  9
$MIRRTEXT
 70
     1
  9
$LTSCALE
 40
5.0
  9
$ATTMODE
 70
     1
  9
$TEXTSIZE
 40
2.5
  9
$TRACEWID
 40
1.0
  9
$TEXTSTYLE
  7
Standard
  9
$CLAYER
  8
0
  9
$CELTYPE
  6
ByLayer
  9
$CECOLOR
 62
   256
  9
$CELTSCALE
 40
1.0
  9
$DISPSILH
 70
     0
  9
$DIMSCALE
 40
1.0
  9
$DIMASZ
 40
2.5
  9
$DIMEXO
 40
0.625
  9
$DIMDLI
 40
3.75
  9
$DIMRND
 40
0.0
  9
$DIMDLE
 40
0.0
  9
$DIMEXE
 40
1.25
  9
$DIMTP
 40
0.0
  9
$DIMTM
 40
0.0
  9
$DIMTXT
 40
2.5
  9
$DIMCEN
 40
2.5
  9
$DIMTSZ
 40
0.0
  9
$DIMTOL
 70
     0
  9
$DIMLIM
 70
     0
  9
$DIMTIH
 70
     0
  9
$DIMTOH
 70
     0
  9
$DIMSE1
 70
     0
  9
$DIMSE2
 70
     0
  9
$DIMTAD
 70
     1
  9
$DIMZIN
 70
     8
  9
$DIMBLK
  1

  9
$DIMASO
 70
     1
  9
$DIMSHO
 70
     1
  9
$DIMPOST
  1

  9
$DIMAPOST
  1

  9
$DIMALT
 70
     0
  9
$DIMALTD
 70
     3
  9
$DIMALTF
 40
0.03937007874
  9
$DIMLFAC
 40
1.0
  9
$DIMTOFL
 70
     1
  9
$DIMTVP
 40
0.0
  9
$DIMTIX
 70
     0
  9
$DIMSOXD
 70
     0
  9
$DIMSAH
 70
     0
  9
$DIMBLK1
  1

  9
$DIMBLK2
  1

  9
$DIMSTYLE
  2
ISO-25
  9
$DIMCLRD
 70
     0
  9
$DIMCLRE
 70
     0
  9
$DIMCLRT
 70
     0
  9
$DIMTFAC
 40
1.0
  9
$DIMGAP
 40
0.625
  9
$DIMJUST
 70
     0
  9
$DIMSD1
 70
     0
  9
$DIMSD2
 70
     0
  9
$DIMTOLJ
 70
     0
  9
$DIMTZIN
 70
     8
  9
$DIMALTZ
 70
     0
  9
$DIMALTTZ
 70
     0
  9
$DIMUPT
 70
     0
  9
$DIMDEC
 70
     2
  9
$DIMTDEC
 70
     2
  9
$DIMALTU
 70
     2
  9
$DIMALTTD
 70
     3
  9
$DIMTXSTY
  7
Standard
  9
$DIMAUNIT
 70
     0
  9
$DIMADEC
 70
     0
  9
$DIMALTRND
 40
0.0
  9
$DIMAZIN
 70
     0
  9
$DIMDSEP
 70
    44
  9
$DIMATFIT
 70
     3
  9
$DIMFRAC
 70
     0
  9
$DIMLDRBLK
  1

  9
$DIMLUNIT
 70
     2
  9
$DIMLWD
 70
    -2
  9
$DIMLWE
 70
    -2
  9
$DIMTMOVE
 70
     0
  9
$DIMFXL
 40
1.0
  9
$DIMFXLON
 70
     0
  9
$DIMJOGANG
 40
0.785398163397
  9
$DIMTFILL
 70
     0
  9
$DIMTFILLCLR
 70
     0
  9
$DIMARCSYM
 70
     0
  9
$DIMLTYPE
  6

  9
$DIMLTEX1
  6

  9
$DIMLTEX2
  6

  9
$DIMTXTDIRECTION
 70
     0
  9
$LUNITS
 70
     2
  9
$LUPREC
 70
     4
  9
$SKETCHINC
 40
1.0
  9
$FILLETRAD
 40
10.0
  9
$AUNITS
 70
     0
  9
$AUPREC
 70
     0
  9
$MENU
  1
.
  9
$ELEVATION
 40
0.0
  9
$PELEVATION
 40
0.0
  9
$THICKNESS
 40
0.0
  9
$LIMCHECK
 70
     0
  9
$CHAMFERA
 40
0.0
  9
$CHAMFERB
 40
0.0
  9
$CHAMFERC
 40
0.0
  9
$CHAMFERD
 40
0.0
  9
$SKPOLY
 70
     0
  9
$TDCREATE
 40
2459109.671847419
  9
$TDUCREATE
 40
2459109.588514086
  9
$TDUPDATE
 40
2459109.671849074
  9
$TDUUPDATE
 40
2459109.588515741
  9
$TDINDWG
 40
0.0000000116
  9
$TDUSRTIMER
 40
0.0000000116
  9
$USRTIMER
 70
     1
  9
$ANGBASE
 50
0.0
  9
$ANGDIR
 70
     0
  9
$PDMODE
 70
     2
  9
$PDSIZE
 40
1.0
  9
$PLINEWID
 40
0.0
  9
$SPLFRAME
 70
     0
  9
$SPLINETYPE
 70
     6
  9
$SPLINESEGS
 70
     8
  9
$HANDSEED
  5
2F0
  9
$SURFTAB1
 70
     6
  9
$SURFTAB2
 70
     6
  9
$SURFTYPE
 70
     6
  9
$SURFU
 70
     6
  9
$SURFV
 70
     6
  9
$UCSBASE
  2

  9
$UCSNAME
  2

  9
$UCSORG
 10
0.0
 20
0.0
 30
0.0
  9
$UCSXDIR
 10
1.0
 20
0.0
 30
0.0
  9
$UCSYDIR
 10
0.0
 20
1.0
 30
0.0
  9
$UCSORTHOREF
  2

  9
$UCSORTHOVIEW
 70
     0
  9
$UCSORGTOP
 10
0.0
 20
0.0
 30
0.0
  9
$UCSORGBOTTOM
 10
0.0
 20
0.0
 30
0.0
  9
$UCSORGLEFT
 10
0.0
 20
0.0
 30
0.0
  9
$UCSORGRIGHT
 10
0.0
 20
0.0
 30
0.0
  9
$UCSORGFRONT
 10
0.0
 20
0.0
 30
0.0
  9
$UCSORGBACK
 10
0.0
 20
0.0
 30
0.0
  9
$PUCSBASE
  2

  9
$PUCSNAME
  2

  9
$PUCSORG
 10
0.0
 20
0.0
 30
0.0
  9
$PUCSXDIR
 10
1.0
 20
0.0
 30
0.0
  9
$PUCSYDIR
 10
0.0
 20
1.0
 30
0.0
  9
$PUCSORTHOREF
  2

  9
$PUCSORTHOVIEW
 70
     0
  9
$PUCSORGTOP
 10
0.0
 20
0.0
 30
0.0
  9
$PUCSORGBOTTOM
 10
0.0
 20
0.0
 30
0.0
  9
$PUCSORGLEFT
 10
0.0
 20
0.0
 30
0.0
  9
$PUCSORGRIGHT
 10
0.0
 20
0.0
 30
0.0
  9
$PUCSORGFRONT
 10
0.0
 20
0.0
 30
0.0
  9
$PUCSORGBACK
 10
0.0
 20
0.0
 30
0.0
  9
$USERI1
 70
     0
  9
$USERI2
 70
     0
  9
$USERI3
 70
     0
  9
$USERI4
 70
     0
  9
$USERI5
 70
     0
  9
$USERR1
 40
0.0
  9
$USERR2
 40
0.0
  9
$USERR3
 40
0.0
  9
$USERR4
 40
0.0
  9
$USERR5
 40
0.0
  9
$WORLDVIEW
 70
     1
  9
$SHADEDGE
 70
     3
  9
$SHADEDIF
 70
    70
  9
$TILEMODE
 70
     1
  9
$MAXACTVP
 70
    64
  9
$PINSBASE
 10
0.0
 20
0.0
 30
0.0
  9
$PLIMCHECK
 70
     0
  9
$PEXTMIN
 10
1.000000000000E+20
 20
1.000000000000E+20
 30
1.000000000000E+20
  9
$PEXTMAX
 10
-1.000000000000E+20
 20
-1.000000000000E+20
 30
-1.000000000000E+20
  9
$PLIMMIN
 10
0.0
 20
0.0
  9
$PLIMMAX
 10
420.0
 20
297.0
  9
$UNITMODE
 70
     0
  9
$VISRETAIN
 70
     1
  9
$PLINEGEN
 70
     0
  9
$PSLTSCALE
 70
     1
  9
$TREEDEPTH
 70
  3020
  9
$CMLSTYLE
  2
Standard
  9
$CMLJUST
 70
     0
  9
$CMLSCALE
 40
20.0
  9
$PROXYGRAPHICS
 70
     1
  9
$MEASUREMENT
 70
     1
  9
$CELWEIGHT
370
    -1
  9
$ENDCAPS
280
     0
  9
$JOINSTYLE
280
     0
  9
$LWDISPLAY
290
     0
  9
$INSUNITS
 70
     4
  9
$HYPERLINKBASE
  1

  9
$STYLESHEET
  1

  9
$XEDIT
290
     1
  9
$CEPSNTYPE
380
     0
  9
$PSTYLEMODE
290
     1
  9
$FINGERPRINTGUID
  2
{f1713aac-3247-4273-b40d-0ba681eacce3}
  9
$VERSIONGUID
  2
{FAEB1C32-E019-11D5-929B-00C0DF256EC4}
  9
$EXTNAMES
290
     1
  9
$PSVPSCALE
 40
0.0
  9
$OLESTARTUP
290
     0
  9
$SORTENTS
280
   127
  9
$INDEXCTL
280
     0
  9
$HIDETEXT
280
     1
  9
$XCLIPFRAME
280
     2
  9
$HALOGAP
280
     0
  9
$OBSCOLOR
 70
   257
  9
$OBSLTYPE
280
     0
  9
$INTERSECTIONDISPLAY
280
     0
  9
$INTERSECTIONCOLOR
 70
   257
  9
$DIMASSOC
280
     2
  9
$PROJECTNAME
  1

  9
$CAMERADISPLAY
290
     0
  9
$LENSLENGTH
 40
50.0
  9
$CAMERAHEIGHT
 40
0.0
  9
$STEPSPERSEC
 40
2.0
  9
$STEPSIZE
 40
6.0
  9
$3DDWFPREC
 40
2.0
  9
$PSOLWIDTH
 40
5.0
  9
$PSOLHEIGHT
 40
80.0
  9
$LOFTANG1
 40
1.570796326795
  9
$LOFTANG2
 40
1.570796326795
  9
$LOFTMAG1
 40
0.0
  9
$LOFTMAG2
 40
0.0
  9
$LOFTPARAM
 70
     7
  9
$LOFTNORMALS
280
     1
  9
$LATITUDE
 40
37.795
  9
$LONGITUDE
 40
-122.394
  9
$NORTHDIRECTION
 40
0.0
  9
$TIMEZONE
 70
 -8000
  9
$LIGHTGLYPHDISPLAY
280
     1
  9
$TILEMODELIGHTSYNCH
280
     1
  9
$CMATERIAL
347
44
  9
$SOLIDHIST
280
     0
  9
$SHOWHIST
280
     1
  9
$DWFFRAME
280
     2
  9
$DGNFRAME
280
     2
  9
$REALWORLDSCALE
290
     1
  9
$INTERFERECOLOR
 62
   256
  9
$CSHADOW
280
     0
  9
$SHADOWPLANELOCATION
 40
0.0
  0
ENDSEC
  0
SECTION
  2
CLASSES
  0
CLASS
  1
ACDBDICTIONARYWDFLT
  2
AcDbDictionaryWithDefault
  3
ObjectDBX Classes
 90
        0
 91
        3
280
     0
281
     0
  0
CLASS
  1
VISUALSTYLE
  2
AcDbVisualStyle
  3
ObjectDBX Classes
 90
     4095
 91
        3
280
     0
281
     0
  0
CLASS
  1
MATERIAL
  2
AcDbMaterial
  3
ObjectDBX Classes
 90
     1153
 91
        3
280
     0
281
     0
  0
CLASS
  1
SCALE
  2
AcDbScale
  3
ObjectDBX Classes
 90
     1153
 91
        3
280
     0
281
     0
  0
CLASS
  1
TABLESTYLE
  2
AcDbTableStyle
  3
ObjectDBX Classes
 90
     4095
 91
        3
280
     0
281
     0
  0
CLASS
  1
MLEADERSTYLE
  2
AcDbMLeaderStyle
  3
ACDB_MLEADERSTYLE_CLASS
 90
     4095
 91
        3
280
     0
281
     0
  0
CLASS
  1
SUN
  2
AcDbSun
  3
SCENEOE
 90
     1153
 91
        3
280
     0
281
     0
  0
CLASS
  1
WIPEOUT
  2
AcDbWipeout
  3
WipeOut|AutoCAD Express Tool|expresstools@autodesk.com
 90
      127
 91
        3
280
     0
281
     1
  0
CLASS
  1
DICTIONARYVAR
  2
AcDbDictionaryVar
  3
ObjectDBX Classes
 90
        0
 91
        3
280
     0
281
     0
  0
CLASS
  1
CELLSTYLEMAP
  2
AcDbCellStyleMap
  3
ObjectDBX Classes
 90
     1152
 91
        3
280
     0
281
     0
  0
CLASS
  1
WIPEOUTVARIABLES
  2
AcDbWipeoutVariables
  3
WipeOut|AutoCAD Express Tool|expresstools@autodesk.com
 90
        0
 91
        3
280
     0
281
     0
  0
ENDSEC
  0
SECTION
  2
TABLES
  0
TABLE
  2
VPORT
  5
8
330
0
100
AcDbSymbolTable
 70
     1
  0
VPORT
  5
29
330
8
100
AcDbSymbolTableRecord
100
AcDbViewportTableRecord
  2
*Active
 70
     0
 10
0.0
 20
0.0
 11
1.0
 21
1.0
 12
-191.408627619034
 22
419.725739589332
 13
0.0
 23
0.0
 14
10.0
 24
10.0
 15
10.0
 25
10.0
 16
0.0
 26
0.0
 36
1.0
 17
0.0
 27
0.0
 37
0.0
 40
1633.5
 41
1.797896492201
 42
50.0
 43
0.0
 44
0.0
 50
0.0
 51
0.0
 71
     0
 72
   100
 73
     1
 74
     3
 75
     0
 76
     0
 77
     0
 78
     0
281
     0
 65
     1
110
0.0
120
0.0
130
0.0
111
1.0
121
0.0
131
0.0
112
0.0
122
1.0
132
0.0
 79
     0
146
0.0
348
2F
 60
     3
 61
     5
292
     1
282
     1
141
0.0
142
0.0
 63
   250
361
6D
  0
ENDTAB
  0
TABLE
  2
LTYPE
  5
5
330
0
100
AcDbSymbolTable
 70
     4
  0
LTYPE
  5
14
330
5
100
AcDbSymbolTableRecord
100
AcDbLinetypeTableRecord
  2
ByBlock
 70
     0
  3

 72
    65
 73
     0
 40
0.0
  0
LTYPE
  5
15
330
5
100
AcDbSymbolTableRecord
100
AcDbLinetypeTableRecord
  2
ByLayer
 70
     0
  3

 72
    65
 73
     0
 40
0.0
  0
LTYPE
  5
16
330
5
100
AcDbSymbolTableRecord
100
AcDbLinetypeTableRecord
  2
Continuous
 70
     0
  3
Solid line
 72
    65
 73
     0
 40
0.0
  0
LTYPE
  5
6E
330
5
100
AcDbSymbolTableRecord
100
AcDbLinetypeTableRecord
  2
DASHED
 70
     0
  3

 72
    65
 73
     2
 40
0.75
 49
0.5
 74
     0
 49
-0.25
 74
     0
  0
LTYPE
  5
6F
330
5
100
AcDbSymbolTableRecord
100
AcDbLinetypeTableRecord
  2
AUSGEZOGEN
 70
     0
  3

 72
    65
 73
     0
 40
0.0
  0
LTYPE
  5
70
330
5
100
AcDbSymbolTableRecord
100
AcDbLinetypeTableRecord
  2
DASHDOT
 70
     0
  3

 72
    65
 73
     4
 40
1.0
 49
0.5
 74
     0
 49
-0.25
 74
     0
 49
0.0
 74
     0
 49
-0.25
 74
     0
  0
ENDTAB
  0
TABLE
  2
LAYER
  5
2
330
0
100
AcDbSymbolTable
 70
     9
  0
LAYER
  5
10
330
2
100
AcDbSymbolTableRecord
100
AcDbLayerTableRecord
  2
0
 70
     0
 62
     7
  6
Continuous
370
    -3
390
F
347
46
  0
LAYER
  5
74
330
2
100
AcDbSymbolTableRecord
100
AcDbLayerTableRecord
  2
Vollinie breit
 70
     0
 62
    18
420
        0
  6
Continuous
370
    -3
390
F
347
46
  0
LAYER
  5
75
330
2
100
AcDbSymbolTableRecord
100
AcDbLayerTableRecord
  2
Mittellinie
 70
     0
 62
     1
420
 15337734
  6
Continuous
370
    -3
390
F
347
46
  0
LAYER
  5
76
330
2
100
AcDbSymbolTableRecord
100
AcDbLayerTableRecord
  2
verdeckte Kanten
 70
     0
 62
     8
420
  8421504
  6
Continuous
370
    -3
390
F
347
46
  0
LAYER
  5
77
330
2
100
AcDbSymbolTableRecord
100
AcDbLayerTableRecord
  2
Bemaßung
 70
     0
 62
    96
420
    32768
  6
Continuous
370
    -3
390
F
347
46
  0
LAYER
  5
78
330
2
100
AcDbSymbolTableRecord
100
AcDbLayerTableRecord
  2
Text 25
 70
     0
 62
    94
420
    42753
  6
Continuous
370
    -3
390
F
347
46
  0
LAYER
  5
79
330
2
100
AcDbSymbolTableRecord
100
AcDbLayerTableRecord
  2
Layer65000
 70
     0
 62
    18
420
        0
  6
Continuous
370
    -3
390
F
347
46
  0
LAYER
  5
7A
330
2
100
AcDbSymbolTableRecord
100
AcDbLayerTableRecord
  2
Layer65001
 70
     0
 62
    18
420
        0
  6
Continuous
370
    -3
390
F
347
46
  0
LAYER
  5
7B
330
2
100
AcDbSymbolTableRecord
100
AcDbLayerTableRecord
  2
Layer65002
 70
     0
 62
    18
420
        0
  6
Continuous
370
    -3
390
F
347
46
  0
ENDTAB
  0
TABLE
  2
STYLE
  5
3
330
0
100
AcDbSymbolTable
 70
     3
  0
STYLE
  5
11
330
3
100
AcDbSymbolTableRecord
100
AcDbTextStyleTableRecord
  2
Standard
 70
     0
 40
0.0
 41
1.0
 50
0.0
 71
     0
 42
2.5
  3
txt
  4

  0
STYLE
  5
71
330
3
100
AcDbSymbolTableRecord
100
AcDbTextStyleTableRecord
  2
Arial
 70
     0
 40
0.0
 41
1.0
 50
0.0
 71
     0
 42
2.5
  3
arial.ttf
  4

1001
ACAD
1000
Arial
1071
       34
  0
STYLE
  5
72
330
3
100
AcDbSymbolTableRecord
100
AcDbTextStyleTableRecord
  2
Toleranzfont
 70
     0
 40
0.0
 41
1.0
 50
0.0
 71
     0
 42
2.5
  3
IGES1003.SHX
  4

  0
ENDTAB
  0
TABLE
  2
VIEW
  5
6
330
0
100
AcDbSymbolTable
 70
     0
  0
ENDTAB
  0
TABLE
  2
UCS
  5
7
330
0
100
AcDbSymbolTable
 70
     0
  0
ENDTAB
  0
TABLE
  2
APPID
  5
9
330
0
100
AcDbSymbolTable
 70
     1
  0
APPID
  5
12
330
9
100
AcDbSymbolTableRecord
100
AcDbRegAppTableRecord
  2
ACAD
 70
     0
  0
ENDTAB
  0
TABLE
  2
DIMSTYLE
  5
A
330
0
100
AcDbSymbolTable
 70
     1
100
AcDbDimStyleTable
  0
DIMSTYLE
105
27
102
{ACAD_REACTORS
330
A3
330
AE
330
B9
330
CA
330
D5
330
197
330
1A5
330
1B3
330
1C1
330
1CC
330
1D7
102
}
330
A
100
AcDbSymbolTableRecord
100
AcDbDimStyleTableRecord
  2
ISO-25
 70
     0
 41
2.5
 42
0.625
 43
3.75
 44
1.25
 73
     0
 74
     0
 77
     1
 78
     8
140
2.5
141
2.5
143
0.03937007874
147
0.625
171
     3
172
     1
178
     0
271
     2
272
     2
274
     3
278
    44
283
     0
284
     8
340
11
  0
ENDTAB
  0
TABLE
  2
BLOCK_RECORD
  5
1
330
0
100
AcDbSymbolTable
 70
    18
  0
BLOCK_RECORD
  5
1F
330
1
100
AcDbSymbolTableRecord
100
AcDbBlockTableRecord
  2
*Model_Space
340
22
 70
     0
280
     1
281
     0
  0
BLOCK_RECORD
  5
1B
330
1
100
AcDbSymbolTableRecord
100
AcDbBlockTableRecord
  2
*Paper_Space
340
1E
 70
     0
280
     1
281
     0
  0
BLOCK_RECORD
  5
23
330
1
100
AcDbSymbolTableRecord
100
AcDbBlockTableRecord
  2
*Paper_Space0
340
26
 70
     0
280
     1
281
     0
  0
BLOCK_RECORD
  5
99
330
1
100
AcDbSymbolTableRecord
100
AcDbBlockTableRecord
  2
*D1
340
0
 70
     0
280
     1
281
     0
  0
BLOCK_RECORD
  5
A4
330
1
100
AcDbSymbolTableRecord
100
AcDbBlockTableRecord
  2
*D2
340
0
 70
     0
280
     1
281
     0
  0
BLOCK_RECORD
  5
AF
330
1
100
AcDbSymbolTableRecord
100
AcDbBlockTableRecord
  2
*D3
340
0
 70
     0
280
     1
281
     0
  0
BLOCK_RECORD
  5
C0
330
1
100
AcDbSymbolTableRecord
100
AcDbBlockTableRecord
  2
*D4
340
0
 70
     0
280
     1
281
     0
  0
BLOCK_RECORD
  5
CB
330
1
100
AcDbSymbolTableRecord
100
AcDbBlockTableRecord
  2
*D5
340
0
 70
     0
280
     1
281
     0
  0
BLOCK_RECORD
  5
184
330
1
100
AcDbSymbolTableRecord
100
AcDbBlockTableRecord
  2
DimBlk_nNn05
340
0
102
{BLKREFS
331
18C
102
}
 70
     0
280
     1
281
     0
  0
BLOCK_RECORD
  5
18D
330
1
100
AcDbSymbolTableRecord
100
AcDbBlockTableRecord
  2
*D7
340
0
 70
     0
280
     1
281
     0
  0
BLOCK_RECORD
  5
198
330
1
100
AcDbSymbolTableRecord
100
AcDbBlockTableRecord
  2
*D8
340
0
 70
     0
280
     1
281
     0
  0
BLOCK_RECORD
  5
1A6
330
1
100
AcDbSymbolTableRecord
100
AcDbBlockTableRecord
  2
*D9
340
0
 70
     0
280
     1
281
     0
  0
BLOCK_RECORD
  5
1B4
330
1
100
AcDbSymbolTableRecord
100
AcDbBlockTableRecord
  2
*D10
340
0
 70
     0
280
     1
281
     0
  0
BLOCK_RECORD
  5
1C2
330
1
100
AcDbSymbolTableRecord
100
AcDbBlockTableRecord
  2
*D11
340
0
 70
     0
280
     1
281
     0
  0
BLOCK_RECORD
  5
1CD
330
1
100
AcDbSymbolTableRecord
100
AcDbBlockTableRecord
  2
*D12
340
0
 70
     0
280
     1
281
     0
  0
BLOCK_RECORD
  5
1D8
330
1
100
AcDbSymbolTableRecord
100
AcDbBlockTableRecord
  2
Nummer_nNn012
340
0
102
{BLKREFS
331
1DE
102
}
 70
     0
280
     1
281
     0
  0
BLOCK_RECORD
  5
1E1
330
1
100
AcDbSymbolTableRecord
100
AcDbBlockTableRecord
  2
Nummer_nNn013
340
0
102
{BLKREFS
331
1E7
102
}
 70
     0
280
     1
281
     0
  0
BLOCK_RECORD
  5
1EA
330
1
100
AcDbSymbolTableRecord
100
AcDbBlockTableRecord
  2
Nummer_nNn014
340
0
102
{BLKREFS
331
1F0
102
}
 70
     0
280
     1
281
     0
  0
BLOCK_RECORD
  5
205
330
1
100
AcDbSymbolTableRecord
100
AcDbBlockTableRecord
  2
A3-ENISO5457_LBT_nNn015
340
0
102
{BLKREFS
331
2AF
102
}
 70
     0
280
     1
281
     0
  0
BLOCK_RECORD
  5
25D
330
1
100
AcDbSymbolTableRecord
100
AcDbBlockTableRecord
  2
Schriftfeld_nNn016
340
0
102
{BLKREFS
331
296
102
}
 70
     0
280
     1
281
     0
  0
ENDTAB
  0
ENDSEC
  0
SECTION
  2
BLOCKS
  0
BLOCK
  5
20
330
1F
100
AcDbEntity
  8
0
100
AcDbBlockBegin
  2
*Model_Space
 70
     0
 10
0.0
 20
0.0
 30
0.0
  3
*Model_Space
  1

  0
ENDBLK
  5
21
330
1F
100
AcDbEntity
  8
0
100
AcDbBlockEnd
  0
BLOCK
  5
1C
330
1B
100
AcDbEntity
 67
     1
  8
0
100
AcDbBlockBegin
  2
*Paper_Space
 70
     0
 10
0.0
 20
0.0
 30
0.0
  3
*Paper_Space
  1

  0
ENDBLK
  5
1D
330
1B
100
AcDbEntity
 67
     1
  8
0
100
AcDbBlockEnd
  0
BLOCK
  5
24
330
23
100
AcDbEntity
  8
0
100
AcDbBlockBegin
  2
*Paper_Space0
 70
     0
 10
0.0
 20
0.0
 30
0.0
  3
*Paper_Space0
  1

  0
ENDBLK
  5
25
330
23
100
AcDbEntity
  8
0
100
AcDbBlockEnd
  0
BLOCK
  5
9A
330
99
100
AcDbEntity
  8
0
100
AcDbBlockBegin
  2
*D1
 70
     1
 10
0.0
 20
0.0
 30
0.0
  3
*D1
  1

  0
HATCH
  5
9C
330
99
100
AcDbEntity
  8
Bemaßung
  6
AUSGEZOGEN
 62
    96
420
    32768
370
    18
100
AcDbHatch
 10
0.0
 20
0.0
 30
0.0
210
0.0
220
0.0
230
1.0
  2
SOLID
 70
     1
 71
     0
 91
        1
 92
        2
 72
     0
 73
     1
 93
        3
 10
-475.8153330231501
 20
905.0
 10
-493.4542223358942
 20
907.6458333969116
 10
-493.4542223358942
 20
902.3541666030884
 97
        0
 75
     0
 76
     1
 98
        0
  0
HATCH
  5
9D
330
99
100
AcDbEntity
  8
Bemaßung
  6
AUSGEZOGEN
 62
    96
420
    32768
370
    18
100
AcDbHatch
 10
0.0
 20
0.0
 30
0.0
210
0.0
220
0.0
230
1.0
  2
SOLID
 70
     1
 71
     0
 91
        1
 92
        2
 72
     0
 73
     1
 93
        3
 10
-805.8153330231501
 20
905.0
 10
-788.1764437104059
 20
902.3541666030884
 10
-788.1764437104059
 20
907.6458333969116
 97
        0
 75
     0
 76
     1
 98
        0
  0
LINE
  5
9E
330
99
100
AcDbEntity
  8
Bemaßung
  6
AUSGEZOGEN
 62
    96
420
    32768
370
    18
100
AcDbLine
 10
-788.176443710406
 20
905.0
 30
0.0
 11
-493.454222335894
 21
905.0
 31
0.0
  0
LINE
  5
9F
330
99
100
AcDbEntity
  8
Bemaßung
  6
AUSGEZOGEN
 62
    96
420
    32768
370
    18
100
AcDbLine
 10
-805.81533302315
 20
776.834731500399
 30
0.0
 11
-805.81533302315
 21
915.079365321568
 31
0.0
  0
LINE
  5
A0
330
99
100
AcDbEntity
  8
Bemaßung
  6
AUSGEZOGEN
 62
    96
420
    32768
370
    18
100
AcDbLine
 10
-475.81533302315
 20
776.834731500399
 30
0.0
 11
-475.81533302315
 21
915.079365321568
 31
0.0
  0
WIPEOUT
  5
A1
330
99
100
AcDbEntity
  8
Bemaßung
  6
AUSGEZOGEN
 62
    18
420
        0
370
    18
160
               128
310
80000000020000000C00000014000000010000006C0000000700000004000000A054B826BB4D85C0E085781B0E608C400000000000000000A054B867B0FD83C0E085781B0E608C400000000000000000A054B867B0FD83C0AD524538D5418D400000000000000000A054B826BB4D85C0AD524538D5418D4000000000000000
310
00
100
AcDbWipeout
 90
        0
 10
-681.716382446368
 20
908.006888333879
 30
0.0
 11
42.00524711608887
 21
0.0
 31
0.0
 12
0.0
 22
42.00524711608887
 32
0.0
 13
1.0
 23
1.0
340
0
 70
     7
280
     1
281
    50
282
    50
283
     0
360
0
 71
     2
 91
        5
 14
-0.5
 24
0.5
 14
0.5
 24
0.5
 14
0.5
 24
-0.17187375002
 14
-0.5
 24
-0.17187375002
 14
-0.5
 24
0.5
290
     0
  0
TEXT
  5
A2
330
99
100
AcDbEntity
  8
Bemaßung
  6
AUSGEZOGEN
 62
    18
420
        0
370
    18
100
AcDbText
 10
-681.716382446368
 20
913.298555127702
 30
0.0
 40
17.638889312744
  1
330
 41
1.022938049518
  7
Arial
 72
     5
 11
-639.711135330279
 21
913.298555127702
 31
0.0
100
AcDbText
  0
ENDBLK
  5
9B
330
99
100
AcDbEntity
  8
0
100
AcDbBlockEnd
  0
BLOCK
  5
A5
330
A4
100
AcDbEntity
  8
0
100
AcDbBlockBegin
  2
*D2
 70
     1
 10
0.0
 20
0.0
 30
0.0
  3
*D2
  1

  0
HATCH
  5
A7
330
A4
100
AcDbEntity
  8
Bemaßung
  6
AUSGEZOGEN
 62
    96
420
    32768
370
    18
100
AcDbHatch
 10
0.0
 20
0.0
 30
0.0
210
0.0
220
0.0
230
1.0
  2
SOLID
 70
     1
 71
     0
 91
        1
 92
        2
 72
     0
 73
     1
 93
        3
 10
-910.0
 20
422.2347315003993
 10
-907.3541666030884
 20
439.8736208131435
 10
-912.6458333969116
 20
439.8736208131435
 97
        0
 75
     0
 76
     1
 98
        0
  0
HATCH
  5
A8
330
A4
100
AcDbEntity
  8
Bemaßung
  6
AUSGEZOGEN
 62
    96
420
    32768
370
    18
100
AcDbHatch
 10
0.0
 20
0.0
 30
0.0
210
0.0
220
0.0
230
1.0
  2
SOLID
 70
     1
 71
     0
 91
        1
 92
        2
 72
     0
 73
     1
 93
        3
 10
-910.0
 20
772.2347315003993
 10
-912.6458333969116
 20
754.5958421876552
 10
-907.3541666030884
 20
754.5958421876552
 97
        0
 75
     0
 76
     1
 98
        0
  0
LINE
  5
A9
330
A4
100
AcDbEntity
  8
Bemaßung
  6
AUSGEZOGEN
 62
    96
420
    32768
370
    18
100
AcDbLine
 10
-910.0
 20
754.595842187655
 30
0.0
 11
-910.0
 21
439.873620813143
 31
0.0
  0
LINE
  5
AA
330
A4
100
AcDbEntity
  8
Bemaßung
  6
AUSGEZOGEN
 62
    96
420
    32768
370
    18
100
AcDbLine
 10
-810.41533302315
 20
772.234731500399
 30
0.0
 11
-920.079365321568
 21
772.234731500399
 31
0.0
  0
LINE
  5
AB
330
A4
100
AcDbEntity
  8
Bemaßung
  6
AUSGEZOGEN
 62
    96
420
    32768
370
    18
100
AcDbLine
 10
-810.41533302315
 20
422.234731500399
 30
0.0
 11
-920.079365321568
 21
422.234731500399
 31
0.0
  0
WIPEOUT
  5
AC
330
A4
100
AcDbEntity
  8
Bemaßung
  6
AUSGEZOGEN
 62
    18
420
        0
370
    18
160
               128
310
80000000020000000C00000014000000010000006C0000000700000004000000E085781B0E888CC00D468261AB6682400000000000000000E085781B0E888CC00D468220B6B683400000000000000000AD524538D5698DC00D468220B6B683400000000000000000AD524538D5698DC00D468261AB66824000000000000000
310
00
100
AcDbWipeout
 90
        0
 10
-941.22911123427
 20
588.833682077182
 30
0.0
 11
42.00524711608887
 21
0.0
 31
0.0
 12
0.0
 22
42.00524711608887
 32
0.0
 13
1.0
 23
1.0
340
0
 70
     7
280
     1
281
    50
282
    50
283
     0
360
0
 71
     2
 91
        5
 14
0.17187375002
 24
0.5
 14
0.17187375002
 24
-0.5
 14
-0.5
 24
-0.5
 14
-0.5
 24
0.5
 14
0.17187375002
 24
0.5
290
     0
  0
TEXT
  5
AD
330
A4
100
AcDbEntity
  8
Bemaßung
  6
AUSGEZOGEN
 62
    18
420
        0
370
    18
100
AcDbText
 10
-918.298555127702
 20
588.833682077182
 30
0.0
 40
17.638889312744
  1
350
 50
90.0
 41
1.022938049518
  7
Arial
 72
     5
 11
-918.298555127702
 21
630.83892919327
 31
0.0
100
AcDbText
  0
ENDBLK
  5
A6
330
A4
100
AcDbEntity
  8
0
100
AcDbBlockEnd
  0
BLOCK
  5
B0
330
AF
100
AcDbEntity
  8
0
100
AcDbBlockBegin
  2
*D3
 70
     1
 10
0.0
 20
0.0
 30
0.0
  3
*D3
  1

  0
HATCH
  5
B2
330
AF
100
AcDbEntity
  8
Bemaßung
  6
AUSGEZOGEN
 62
    96
420
    32768
370
    18
100
AcDbHatch
 10
0.0
 20
0.0
 30
0.0
210
0.0
220
0.0
230
1.0
  2
SOLID
 70
     1
 71
     0
 91
        1
 92
        2
 72
     0
 73
     1
 93
        3
 10
-965.0
 20
394.2347315003993
 10
-962.3541666030884
 20
411.8736208131435
 10
-967.6458333969116
 20
411.8736208131435
 97
        0
 75
     0
 76
     1
 98
        0
  0
HATCH
  5
B3
330
AF
100
AcDbEntity
  8
Bemaßung
  6
AUSGEZOGEN
 62
    96
420
    32768
370
    18
100
AcDbHatch
 10
0.0
 20
0.0
 30
0.0
210
0.0
220
0.0
230
1.0
  2
SOLID
 70
     1
 71
     0
 91
        1
 92
        2
 72
     0
 73
     1
 93
        3
 10
-965.0
 20
854.2637665769317
 10
-967.6458333969116
 20
836.6248772641876
 10
-962.3541666030884
 20
836.6248772641876
 97
        0
 75
     0
 76
     1
 98
        0
  0
LINE
  5
B4
330
AF
100
AcDbEntity
  8
Bemaßung
  6
AUSGEZOGEN
 62
    96
420
    32768
370
    18
100
AcDbLine
 10
-965.0
 20
836.624877264188
 30
0.0
 11
-965.0
 21
411.873620813143
 31
0.0
  0
LINE
  5
B5
330
AF
100
AcDbEntity
  8
Bemaßung
  6
AUSGEZOGEN
 62
    96
420
    32768
370
    18
100
AcDbLine
 10
-870.81533302315
 20
854.263766576932
 30
0.0
 11
-975.079365321568
 21
854.263766576932
 31
0.0
  0
LINE
  5
B6
330
AF
100
AcDbEntity
  8
Bemaßung
  6
AUSGEZOGEN
 62
    96
420
    32768
370
    18
100
AcDbLine
 10
-872.31533302315
 20
394.234731500399
 30
0.0
 11
-975.079365321568
 21
394.234731500399
 31
0.0
  0
WIPEOUT
  5
B7
330
AF
100
AcDbEntity
  8
Bemaßung
  6
AUSGEZOGEN
 62
    18
420
        0
370
    18
160
               128
310
80000000020000000C00000014000000010000006C0000000700000004000000E185781B0E408EC0A0466152C70683400000000000000000E185781B0E408EC0A0466111D25684400000000000000000AE524538D5218FC0A0466111D25684400000000000000000AE524538D5218FC0A0466152C706834000000000000000
310
00
100
AcDbWipeout
 90
        0
 10
-996.22911123427
 20
608.8473250961
 30
0.0
 11
42.00524711608887
 21
0.0
 31
0.0
 12
0.0
 22
42.00524711608887
 32
0.0
 13
1.0
 23
1.0
340
0
 70
     7
280
     1
281
    50
282
    50
283
     0
360
0
 71
     2
 91
        5
 14
0.17187375002
 24
0.5
 14
0.17187375002
 24
-0.5
 14
-0.5
 24
-0.5
 14
-0.5
 24
0.5
 14
0.17187375002
 24
0.5
290
     0
  0
TEXT
  5
B8
330
AF
100
AcDbEntity
  8
Bemaßung
  6
AUSGEZOGEN
 62
    18
420
        0
370
    18
100
AcDbText
 10
-973.298555127702
 20
608.8473250961
 30
0.0
 40
17.638889312744
  1
460
 50
90.0
 41
1.022938049518
  7
Arial
 72
     5
 11
-973.298555127702
 21
650.852572212189
 31
0.0
100
AcDbText
  0
ENDBLK
  5
B1
330
AF
100
AcDbEntity
  8
0
100
AcDbBlockEnd
  0
BLOCK
  5
C1
330
C0
100
AcDbEntity
  8
0
100
AcDbBlockBegin
  2
*D4
 70
     1
 10
0.0
 20
0.0
 30
0.0
  3
*D4
  1

  0
HATCH
  5
C3
330
C0
100
AcDbEntity
  8
Bemaßung
  6
AUSGEZOGEN
 62
    96
420
    32768
370
    18
100
AcDbHatch
 10
0.0
 20
0.0
 30
0.0
210
0.0
220
0.0
230
1.0
  2
SOLID
 70
     1
 71
     0
 91
        1
 92
        2
 72
     0
 73
     1
 93
        3
 10
28.40391102551035
 20
905.0
 10
46.04280033825449
 20
902.3541666030884
 10
46.04280033825449
 20
907.6458333969116
 97
        0
 75
     0
 76
     1
 98
        0
  0
HATCH
  5
C4
330
C0
100
AcDbEntity
  8
Bemaßung
  6
AUSGEZOGEN
 62
    96
420
    32768
370
    18
100
AcDbHatch
 10
0.0
 20
0.0
 30
0.0
210
0.0
220
0.0
230
1.0
  2
SOLID
 70
     1
 71
     0
 91
        1
 92
        2
 72
     0
 73
     1
 93
        3
 10
356.8062730619036
 20
905.0
 10
339.1673837491595
 20
907.6458333969116
 10
339.1673837491595
 20
902.3541666030884
 97
        0
 75
     0
 76
     1
 98
        0
  0
LINE
  5
C5
330
C0
100
AcDbEntity
  8
Bemaßung
  6
AUSGEZOGEN
 62
    96
420
    32768
370
    18
100
AcDbLine
 10
339.167383749159
 20
905.0
 30
0.0
 11
46.042800338254
 21
905.0
 31
0.0
  0
LINE
  5
C6
330
C0
100
AcDbEntity
  8
Bemaßung
  6
AUSGEZOGEN
 62
    96
420
    32768
370
    18
100
AcDbLine
 10
356.806273061904
 20
847.763766576932
 30
0.0
 11
356.806273061904
 21
915.079365321568
 31
0.0
  0
LINE
  5
C7
330
C0
100
AcDbEntity
  8
Bemaßung
  6
AUSGEZOGEN
 62
    96
420
    32768
370
    18
100
AcDbLine
 10
28.40391102551
 20
807.916717869291
 30
0.0
 11
28.40391102551
 21
915.079365321568
 31
0.0
  0
WIPEOUT
  5
C8
330
C0
100
AcDbEntity
  8
Bemaßung
  6
AUSGEZOGEN
 62
    18
420
        0
370
    18
160
               128
310
80000000020000000C00000014000000010000006C0000000700000004000000ECF296D11C806640E085781B0E608C400000000000000000ECF296CD47C06B40E085781B0E608C400000000000000000ECF296CD47C06B40AD524538D5418D400000000000000000ECF296D11C806640AD524538D5418D4000000000000000
310
00
100
AcDbWipeout
 90
        0
 10
180.00351790888
 20
908.006888333879
 30
0.0
 11
42.00524711608887
 21
0.0
 31
0.0
 12
0.0
 22
42.00524711608887
 32
0.0
 13
1.0
 23
1.0
340
0
 70
     7
280
     1
281
    50
282
    50
283
     0
360
0
 71
     2
 91
        5
 14
-0.5
 24
0.5
 14
0.5
 24
0.5
 14
0.5
 24
-0.17187375002
 14
-0.5
 24
-0.17187375002
 14
-0.5
 24
0.5
290
     0
  0
TEXT
  5
C9
330
C0
100
AcDbEntity
  8
Bemaßung
  6
AUSGEZOGEN
 62
    18
420
        0
370
    18
100
AcDbText
 10
180.00351790888
 20
913.298555127702
 30
0.0
 40
17.638889312744
  1
328
 41
1.022938049518
  7
Arial
 72
     5
 11
222.008765024969
 21
913.298555127702
 31
0.0
100
AcDbText
  0
ENDBLK
  5
C2
330
C0
100
AcDbEntity
  8
0
100
AcDbBlockEnd
  0
BLOCK
  5
CC
330
CB
100
AcDbEntity
  8
0
100
AcDbBlockBegin
  2
*D5
 70
     1
 10
0.0
 20
0.0
 30
0.0
  3
*D5
  1

  0
HATCH
  5
CE
330
CB
100
AcDbEntity
  8
Bemaßung
  6
AUSGEZOGEN
 62
    96
420
    32768
370
    18
100
AcDbHatch
 10
0.0
 20
0.0
 30
0.0
210
0.0
220
0.0
230
1.0
  2
SOLID
 70
     1
 71
     0
 91
        1
 92
        2
 72
     0
 73
     1
 93
        3
 10
355.3062730619035
 20
345.0
 10
337.6673837491594
 20
347.6458333969116
 10
337.6673837491594
 20
342.3541666030884
 97
        0
 75
     0
 76
     1
 98
        0
  0
HATCH
  5
CF
330
CB
100
AcDbEntity
  8
Bemaßung
  6
AUSGEZOGEN
 62
    96
420
    32768
370
    18
100
AcDbHatch
 10
0.0
 20
0.0
 30
0.0
210
0.0
220
0.0
230
1.0
  2
SOLID
 70
     1
 71
     0
 91
        1
 92
        2
 72
     0
 73
     1
 93
        3
 10
55.64018589581292
 20
345.0
 10
73.27907520855706
 20
342.3541666030884
 10
73.27907520855706
 20
347.6458333969116
 97
        0
 75
     0
 76
     1
 98
        0
  0
LINE
  5
D0
330
CB
100
AcDbEntity
  8
Bemaßung
  6
AUSGEZOGEN
 62
    96
420
    32768
370
    18
100
AcDbLine
 10
73.279075208557
 20
345.0
 30
0.0
 11
337.667383749159
 21
345.0
 31
0.0
  0
LINE
  5
D1
330
CB
100
AcDbEntity
  8
Bemaßung
  6
AUSGEZOGEN
 62
    96
420
    32768
370
    18
100
AcDbLine
 10
55.640185895813
 20
404.234731500399
 30
0.0
 11
55.640185895813
 21
334.920634678432
 31
0.0
  0
LINE
  5
D2
330
CB
100
AcDbEntity
  8
Bemaßung
  6
AUSGEZOGEN
 62
    96
420
    32768
370
    18
100
AcDbLine
 10
355.306273061904
 20
394.234731500399
 30
0.0
 11
355.306273061904
 21
334.920634678432
 31
0.0
  0
WIPEOUT
  5
D3
330
CB
100
AcDbEntity
  8
Bemaßung
  6
AUSGEZOGEN
 62
    18
420
        0
370
    18
160
               128
310
80000000020000000C00000014000000010000006C0000000700000004000000C64C8C2248C26740C10BF1361CC075400000000000000000C64C8C1E73026D40C10BF1361CC075400000000000000000C64C8C1E73026D405BA58A70AA8377400000000000000000C64C8C2248C267405BA58A70AA83774000000000000000
310
00
100
AcDbWipeout
 90
        0
 10
190.071305536292
 20
348.006888333879
 30
0.0
 11
42.00524711608887
 21
0.0
 31
0.0
 12
0.0
 22
42.00524711608887
 32
0.0
 13
1.0
 23
1.0
340
0
 70
     7
280
     1
281
    50
282
    50
283
     0
360
0
 71
     2
 91
        5
 14
-0.5
 24
0.5
 14
0.5
 24
0.5
 14
0.5
 24
-0.17187375002
 14
-0.5
 24
-0.17187375002
 14
-0.5
 24
0.5
290
     0
  0
TEXT
  5
D4
330
CB
100
AcDbEntity
  8
Bemaßung
  6
AUSGEZOGEN
 62
    18
420
        0
370
    18
100
AcDbText
 10
190.071305536292
 20
353.298555127702
 30
0.0
 40
17.638889312744
  1
300
 41
1.022938049518
  7
Arial
 72
     5
 11
232.076552652381
 21
353.298555127702
 31
0.0
100
AcDbText
  0
ENDBLK
  5
CD
330
CB
100
AcDbEntity
  8
0
100
AcDbBlockEnd
  0
BLOCK
  5
185
330
184
100
AcDbEntity
  8
0
100
AcDbBlockBegin
  2
DimBlk_nNn05
 70
     0
 10
0.0
 20
0.0
 30
0.0
  3
DimBlk_nNn05
  1

  0
HATCH
  5
187
330
184
100
AcDbEntity
  8
Bemaßung
  6
AUSGEZOGEN
 62
    96
420
    32768
370
    18
100
AcDbHatch
 10
0.0
 20
0.0
 30
0.0
210
0.0
220
0.0
230
1.0
  2
SOLID
 70
     1
 71
     0
 91
        1
 92
        2
 72
     0
 73
     1
 93
        3
 10
-802.9869058984038
 20
425.0631586251455
 10
-788.6434409159175
 20
435.6648501339398
 10
-792.3852143896096
 20
439.4066236076319
 97
        0
 75
     0
 76
     1
 98
        0
  0
LINE
  5
188
330
184
100
AcDbEntity
  8
Bemaßung
  6
AUSGEZOGEN
 62
    96
420
    32768
370
    18
100
AcDbLine
 10
-790.514327652764
 20
437.535736870786
 30
0.0
 11
-778.050064523549
 21
450.0
 31
0.0
  0
WIPEOUT
  5
189
330
184
100
AcDbEntity
  8
Bemaßung
  6
AUSGEZOGEN
 62
    18
420
        0
370
    18
160
               128
310
80000000020000000C00000014000000010000006C000000070000000400000000000000001088C05866661CC7037C400000000000000000000000D44D2587C05866661CC7037C400000000000000000000000D44D2587C0F2FFFF5555C77D40000000000000000000000000001088C0F2FFFF5555C77D4000000000000000
310
00
100
AcDbWipeout
 90
        0
 10
-770.0
 20
448.236111068725
 30
0.0
 11
29.33699798583984
 21
0.0
 31
0.0
 12
0.0
 22
29.33699798583984
 32
0.0
 13
1.0
 23
1.0
340
0
 70
     7
280
     1
281
    50
282
    50
283
     0
360
0
 71
     2
 91
        5
 14
-0.5
 24
0.5
 14
0.5
 24
0.5
 14
0.5
 24
-0.462001051165
 14
-0.5
 24
-0.462001051165
 14
-0.5
 24
0.5
290
     0
  0
TEXT
  5
18A
330
184
100
AcDbEntity
  8
Bemaßung
  6
AUSGEZOGEN
 62
    18
420
        0
370
    18
100
AcDbText
 10
-770.0
 20
453.527777862548
 30
0.0
 40
17.638889312744
  1
%%c8
 41
0.893232999917
  7
Arial
 72
     5
 11
-740.66300201416
 21
453.527777862548
 31
0.0
100
AcDbText
  0
LINE
  5
18B
330
184
100
AcDbEntity
  8
Bemaßung
  6
AUSGEZOGEN
 62
    96
420
    32768
370
    18
100
AcDbLine
 10
-778.050064523549
 20
450.0
 30
0.0
 11
-740.66300201416
 21
450.0
 31
0.0
  0
ENDBLK
  5
186
330
184
100
AcDbEntity
  8
0
100
AcDbBlockEnd
  0
BLOCK
  5
18E
330
18D
100
AcDbEntity
  8
0
100
AcDbBlockBegin
  2
*D7
 70
     1
 10
0.0
 20
0.0
 30
0.0
  3
*D7
  1

  0
HATCH
  5
190
330
18D
100
AcDbEntity
  8
Bemaßung
  6
AUSGEZOGEN
 62
    96
420
    32768
370
    18
100
AcDbHatch
 10
0.0
 20
0.0
 30
0.0
210
0.0
220
0.0
230
1.0
  2
SOLID
 70
     1
 71
     0
 91
        1
 92
        2
 72
     0
 73
     1
 93
        3
 10
-410.8153330231501
 20
950.0
 10
-428.4542223358942
 20
952.6458333969116
 10
-428.4542223358942
 20
947.3541666030884
 97
        0
 75
     0
 76
     1
 98
        0
  0
HATCH
  5
191
330
18D
100
AcDbEntity
  8
Bemaßung
  6
AUSGEZOGEN
 62
    96
420
    32768
370
    18
100
AcDbHatch
 10
0.0
 20
0.0
 30
0.0
210
0.0
220
0.0
230
1.0
  2
SOLID
 70
     1
 71
     0
 91
        1
 92
        2
 72
     0
 73
     1
 93
        3
 10
-870.8153330231501
 20
950.0
 10
-853.1764437104059
 20
947.3541666030884
 10
-853.1764437104059
 20
952.6458333969116
 97
        0
 75
     0
 76
     1
 98
        0
  0
LINE
  5
192
330
18D
100
AcDbEntity
  8
Bemaßung
  6
AUSGEZOGEN
 62
    96
420
    32768
370
    18
100
AcDbLine
 10
-853.176443710406
 20
950.0
 30
0.0
 11
-428.454222335894
 21
950.0
 31
0.0
  0
LINE
  5
193
330
18D
100
AcDbEntity
  8
Bemaßung
  6
AUSGEZOGEN
 62
    96
420
    32768
370
    18
100
AcDbLine
 10
-870.81533302315
 20
854.263766576932
 30
0.0
 11
-870.81533302315
 21
960.079365321568
 31
0.0
  0
LINE
  5
194
330
18D
100
AcDbEntity
  8
Bemaßung
  6
AUSGEZOGEN
 62
    96
420
    32768
370
    18
100
AcDbLine
 10
-410.81533302315
 20
854.263766576932
 30
0.0
 11
-410.81533302315
 21
960.079365321568
 31
0.0
  0
WIPEOUT
  5
195
330
18D
100
AcDbEntity
  8
Bemaßung
  6
AUSGEZOGEN
 62
    18
420
        0
370
    18
160
               128
310
80000000020000000C00000014000000010000006C00000007000000040000003AEED12C8BAE84C02C33338EE3A18D4000000000000000003AEED16D805E83C02C33338EE3A18D4000000000000000003AEED16D805E83C0F9FFFFAAAA838E4000000000000000003AEED12C8BAE84C0F9FFFFAAAA838E4000000000000000
310
00
100
AcDbWipeout
 90
        0
 10
-661.817956581194
 20
948.236111068725
 30
0.0
 11
42.00524711608887
 21
0.0
 31
0.0
 12
0.0
 22
42.00524711608887
 32
0.0
 13
1.0
 23
1.0
340
0
 70
     7
280
     1
281
    50
282
    50
283
     0
360
0
 71
     2
 91
        5
 14
-0.5
 24
0.5
 14
0.5
 24
0.5
 14
0.5
 24
-0.17187375002
 14
-0.5
 24
-0.17187375002
 14
-0.5
 24
0.5
290
     0
  0
TEXT
  5
196
330
18D
100
AcDbEntity
  8
Bemaßung
  6
AUSGEZOGEN
 62
    18
420
        0
370
    18
100
AcDbText
 10
-661.817956581194
 20
953.527777862548
 30
0.0
 40
17.638889312744
  1
460
 41
1.022938049518
  7
Arial
 72
     5
 11
-619.812709465106
 21
953.527777862548
 31
0.0
100
AcDbText
  0
ENDBLK
  5
18F
330
18D
100
AcDbEntity
  8
0
100
AcDbBlockEnd
  0
BLOCK
  5
199
330
198
100
AcDbEntity
  8
0
100
AcDbBlockBegin
  2
*D8
 70
     1
 10
0.0
 20
0.0
 30
0.0
  3
*D8
  1

  0
HATCH
  5
19B
330
198
100
AcDbEntity
  8
Bemaßung
  6
AUSGEZOGEN
 62
    96
420
    32768
370
    18
100
AcDbHatch
 10
0.0
 20
0.0
 30
0.0
210
0.0
220
0.0
230
1.0
  2
SOLID
 70
     1
 71
     0
 91
        1
 92
        2
 72
     0
 73
     1
 93
        3
 10
-410.8153330231501
 20
950.0
 10
-428.4542223358942
 20
952.6458333969116
 10
-428.4542223358942
 20
947.3541666030884
 97
        0
 75
     0
 76
     1
 98
        0
  0
HATCH
  5
19C
330
198
100
AcDbEntity
  8
Bemaßung
  6
AUSGEZOGEN
 62
    96
420
    32768
370
    18
100
AcDbHatch
 10
0.0
 20
0.0
 30
0.0
210
0.0
220
0.0
230
1.0
  2
SOLID
 70
     1
 71
     0
 91
        1
 92
        2
 72
     0
 73
     1
 93
        3
 10
-409.3153330231501
 20
950.0
 10
-391.6764437104059
 20
947.3541666030884
 10
-391.6764437104059
 20
952.6458333969116
 97
        0
 75
     0
 76
     1
 98
        0
  0
LINE
  5
19D
330
198
100
AcDbEntity
  8
Bemaßung
  6
AUSGEZOGEN
 62
    96
420
    32768
370
    18
100
AcDbLine
 10
-409.31533302315
 20
950.0
 30
0.0
 11
-410.81533302315
 21
950.0
 31
0.0
  0
LINE
  5
19E
330
198
100
AcDbEntity
  8
Bemaßung
  6
AUSGEZOGEN
 62
    96
420
    32768
370
    18
100
AcDbLine
 10
-428.454222335894
 20
950.0
 30
0.0
 11
-446.093111648638
 21
950.0
 31
0.0
  0
LINE
  5
19F
330
198
100
AcDbEntity
  8
Bemaßung
  6
AUSGEZOGEN
 62
    96
420
    32768
370
    18
100
AcDbLine
 10
-391.676443710406
 20
950.0
 30
0.0
 11
-374.037554397662
 21
950.0
 31
0.0
  0
LINE
  5
1A0
330
198
100
AcDbEntity
  8
Bemaßung
  6
AUSGEZOGEN
 62
    96
420
    32768
370
    18
100
AcDbLine
 10
-391.676443710406
 20
950.0
 30
0.0
 11
-352.49781370163
 21
950.0
 31
0.0
  0
LINE
  5
1A1
330
198
100
AcDbEntity
  8
Bemaßung
  6
AUSGEZOGEN
 62
    96
420
    32768
370
    18
100
AcDbLine
 10
-409.31533302315
 20
852.763766576932
 30
0.0
 11
-409.31533302315
 21
960.079365321568
 31
0.0
  0
LINE
  5
1A2
330
198
100
AcDbEntity
  8
Bemaßung
  6
AUSGEZOGEN
 62
    96
420
    32768
370
    18
100
AcDbLine
 10
-410.81533302315
 20
854.263766576932
 30
0.0
 11
-410.81533302315
 21
960.079365321568
 31
0.0
  0
WIPEOUT
  5
1A3
330
198
100
AcDbEntity
  8
Bemaßung
  6
AUSGEZOGEN
 62
    18
420
        0
370
    18
160
               128
310
80000000020000000C00000014000000010000006C0000000700000004000000000080F4083878C09A9999711CB78D4000000000000000000000800BF70776C09A9999711CB78D4000000000000000000000800BF70776C06766668EE3988E400000000000000000000080F4083878C06766668EE3988E4000000000000000
310
00
100
AcDbWipeout
 90
        0
 10
-387.50218629837
 20
950.888888549805
 30
0.0
 11
35.00437259674072
 21
0.0
 31
0.0
 12
0.0
 22
35.00437259674072
 32
0.0
 13
1.0
 23
1.0
340
0
 70
     7
280
     1
281
    50
282
    50
283
     0
360
0
 71
     2
 91
        5
 14
-0.5
 24
0.5
 14
0.5
 24
0.5
 14
0.5
 24
-0.306248500024
 14
-0.5
 24
-0.306248500024
 14
-0.5
 24
0.5
290
     0
  0
TEXT
  5
1A4
330
198
100
AcDbEntity
  8
Bemaßung
  6
AUSGEZOGEN
 62
    18
420
        0
370
    18
100
AcDbText
 10
-387.50218629837
 20
956.180555343628
 30
0.0
 40
17.638889312744
  1
1.5
 41
1.022938049518
  7
Arial
 72
     5
 11
-352.49781370163
 21
956.180555343628
 31
0.0
100
AcDbText
  0
ENDBLK
  5
19A
330
198
100
AcDbEntity
  8
0
100
AcDbBlockEnd
  0
BLOCK
  5
1A7
330
1A6
100
AcDbEntity
  8
0
100
AcDbBlockBegin
  2
*D9
 70
     1
 10
0.0
 20
0.0
 30
0.0
  3
*D9
  1

  0
HATCH
  5
1A9
330
1A6
100
AcDbEntity
  8
Bemaßung
  6
AUSGEZOGEN
 62
    96
420
    32768
370
    18
100
AcDbHatch
 10
0.0
 20
0.0
 30
0.0
210
0.0
220
0.0
230
1.0
  2
SOLID
 70
     1
 71
     0
 91
        1
 92
        2
 72
     0
 73
     1
 93
        3
 10
-870.8153330231501
 20
950.0
 10
-853.1764437104059
 20
947.3541666030884
 10
-853.1764437104059
 20
952.6458333969116
 97
        0
 75
     0
 76
     1
 98
        0
  0
HATCH
  5
1AA
330
1A6
100
AcDbEntity
  8
Bemaßung
  6
AUSGEZOGEN
 62
    96
420
    32768
370
    18
100
AcDbHatch
 10
0.0
 20
0.0
 30
0.0
210
0.0
220
0.0
230
1.0
  2
SOLID
 70
     1
 71
     0
 91
        1
 92
        2
 72
     0
 73
     1
 93
        3
 10
-872.3153330231501
 20
950.0
 10
-889.9542223358942
 20
952.6458333969116
 10
-889.9542223358942
 20
947.3541666030884
 97
        0
 75
     0
 76
     1
 98
        0
  0
LINE
  5
1AB
330
1A6
100
AcDbEntity
  8
Bemaßung
  6
AUSGEZOGEN
 62
    96
420
    32768
370
    18
100
AcDbLine
 10
-872.31533302315
 20
950.0
 30
0.0
 11
-870.81533302315
 21
950.0
 31
0.0
  0
LINE
  5
1AC
330
1A6
100
AcDbEntity
  8
Bemaßung
  6
AUSGEZOGEN
 62
    96
420
    32768
370
    18
100
AcDbLine
 10
-853.176443710406
 20
950.0
 30
0.0
 11
-835.537554397662
 21
950.0
 31
0.0
  0
LINE
  5
1AD
330
1A6
100
AcDbEntity
  8
Bemaßung
  6
AUSGEZOGEN
 62
    96
420
    32768
370
    18
100
AcDbLine
 10
-889.954222335894
 20
950.0
 30
0.0
 11
-907.593111648638
 21
950.0
 31
0.0
  0
LINE
  5
1AE
330
1A6
100
AcDbEntity
  8
Bemaßung
  6
AUSGEZOGEN
 62
    96
420
    32768
370
    18
100
AcDbLine
 10
-889.954222335894
 20
950.0
 30
0.0
 11
-932.50218629837
 21
950.0
 31
0.0
  0
LINE
  5
1AF
330
1A6
100
AcDbEntity
  8
Bemaßung
  6
AUSGEZOGEN
 62
    96
420
    32768
370
    18
100
AcDbLine
 10
-872.31533302315
 20
852.763766576932
 30
0.0
 11
-872.31533302315
 21
960.079365321568
 31
0.0
  0
LINE
  5
1B0
330
1A6
100
AcDbEntity
  8
Bemaßung
  6
AUSGEZOGEN
 62
    96
420
    32768
370
    18
100
AcDbLine
 10
-870.81533302315
 20
852.763766576932
 30
0.0
 11
-870.81533302315
 21
960.079365321568
 31
0.0
  0
WIPEOUT
  5
1B1
330
1A6
100
AcDbEntity
  8
Bemaßung
  6
AUSGEZOGEN
 62
    18
420
        0
370
    18
160
               128
310
80000000020000000C00000014000000010000006C00000007000000040000000000407A04248DC09A9999711CB78D4000000000000000000000C085FB0B8CC09A9999711CB78D4000000000000000000000C085FB0B8CC06766668EE3988E4000000000000000000000407A04248DC06766668EE3988E4000000000000000
310
00
100
AcDbWipeout
 90
        0
 10
-932.50218629837
 20
950.888888549805
 30
0.0
 11
35.00437259674072
 21
0.0
 31
0.0
 12
0.0
 22
35.00437259674072
 32
0.0
 13
1.0
 23
1.0
340
0
 70
     7
280
     1
281
    50
282
    50
283
     0
360
0
 71
     2
 91
        5
 14
-0.5
 24
0.5
 14
0.5
 24
0.5
 14
0.5
 24
-0.306248500024
 14
-0.5
 24
-0.306248500024
 14
-0.5
 24
0.5
290
     0
  0
TEXT
  5
1B2
330
1A6
100
AcDbEntity
  8
Bemaßung
  6
AUSGEZOGEN
 62
    18
420
        0
370
    18
100
AcDbText
 10
-932.50218629837
 20
956.180555343628
 30
0.0
 40
17.638889312744
  1
1.5
 41
1.022938049518
  7
Arial
 72
     5
 11
-897.49781370163
 21
956.180555343628
 31
0.0
100
AcDbText
  0
ENDBLK
  5
1A8
330
1A6
100
AcDbEntity
  8
0
100
AcDbBlockEnd
  0
BLOCK
  5
1B5
330
1B4
100
AcDbEntity
  8
0
100
AcDbBlockBegin
  2
*D10
 70
     1
 10
0.0
 20
0.0
 30
0.0
  3
*D10
  1

  0
HATCH
  5
1B7
330
1B4
100
AcDbEntity
  8
Bemaßung
  6
AUSGEZOGEN
 62
    96
420
    32768
370
    18
100
AcDbHatch
 10
0.0
 20
0.0
 30
0.0
210
0.0
220
0.0
230
1.0
  2
SOLID
 70
     1
 71
     0
 91
        1
 92
        2
 72
     0
 73
     1
 93
        3
 10
355.3062730619035
 20
345.0
 10
337.6673837491594
 20
347.6458333969116
 10
337.6673837491594
 20
342.3541666030884
 97
        0
 75
     0
 76
     1
 98
        0
  0
HATCH
  5
1B8
330
1B4
100
AcDbEntity
  8
Bemaßung
  6
AUSGEZOGEN
 62
    96
420
    32768
370
    18
100
AcDbHatch
 10
0.0
 20
0.0
 30
0.0
210
0.0
220
0.0
230
1.0
  2
SOLID
 70
     1
 71
     0
 91
        1
 92
        2
 72
     0
 73
     1
 93
        3
 10
356.8062730619035
 20
345.0
 10
374.4451623746477
 20
342.3541666030884
 10
374.4451623746477
 20
347.6458333969116
 97
        0
 75
     0
 76
     1
 98
        0
  0
LINE
  5
1B9
330
1B4
100
AcDbEntity
  8
Bemaßung
  6
AUSGEZOGEN
 62
    96
420
    32768
370
    18
100
AcDbLine
 10
356.806273061904
 20
345.0
 30
0.0
 11
355.306273061904
 21
345.0
 31
0.0
  0
LINE
  5
1BA
330
1B4
100
AcDbEntity
  8
Bemaßung
  6
AUSGEZOGEN
 62
    96
420
    32768
370
    18
100
AcDbLine
 10
337.667383749159
 20
345.0
 30
0.0
 11
320.028494436415
 21
345.0
 31
0.0
  0
LINE
  5
1BB
330
1B4
100
AcDbEntity
  8
Bemaßung
  6
AUSGEZOGEN
 62
    96
420
    32768
370
    18
100
AcDbLine
 10
374.445162374648
 20
345.0
 30
0.0
 11
392.084051687392
 21
345.0
 31
0.0
  0
LINE
  5
1BC
330
1B4
100
AcDbEntity
  8
Bemaßung
  6
AUSGEZOGEN
 62
    96
420
    32768
370
    18
100
AcDbLine
 10
374.445162374648
 20
345.0
 30
0.0
 11
412.50218629837
 21
345.0
 31
0.0
  0
LINE
  5
1BD
330
1B4
100
AcDbEntity
  8
Bemaßung
  6
AUSGEZOGEN
 62
    96
420
    32768
370
    18
100
AcDbLine
 10
356.806273061904
 20
394.234731500399
 30
0.0
 11
356.806273061904
 21
334.920634678432
 31
0.0
  0
LINE
  5
1BE
330
1B4
100
AcDbEntity
  8
Bemaßung
  6
AUSGEZOGEN
 62
    96
420
    32768
370
    18
100
AcDbLine
 10
355.306273061904
 20
394.234731500399
 30
0.0
 11
355.306273061904
 21
334.920634678432
 31
0.0
  0
WIPEOUT
  5
1BF
330
1B4
100
AcDbEntity
  8
Bemaßung
  6
AUSGEZOGEN
 62
    18
420
        0
370
    18
160
               128
310
80000000020000000C00000014000000010000006C00000007000000040000000000800BF7977740333333E3389E75400000000000000000000080F408C87940333333E3389E75400000000000000000000080F408C87940CDCCCC1CC761774000000000000000000000800BF7977740CDCCCC1CC761774000000000000000
310
00
100
AcDbWipeout
 90
        0
 10
377.49781370163
 20
345.888888549805
 30
0.0
 11
35.00437259674072
 21
0.0
 31
0.0
 12
0.0
 22
35.00437259674072
 32
0.0
 13
1.0
 23
1.0
340
0
 70
     7
280
     1
281
    50
282
    50
283
     0
360
0
 71
     2
 91
        5
 14
-0.5
 24
0.5
 14
0.5
 24
0.5
 14
0.5
 24
-0.306248500024
 14
-0.5
 24
-0.306248500024
 14
-0.5
 24
0.5
290
     0
  0
TEXT
  5
1C0
330
1B4
100
AcDbEntity
  8
Bemaßung
  6
AUSGEZOGEN
 62
    18
420
        0
370
    18
100
AcDbText
 10
377.49781370163
 20
351.180555343628
 30
0.0
 40
17.638889312744
  1
1.5
 41
1.022938049518
  7
Arial
 72
     5
 11
412.50218629837
 21
351.180555343628
 31
0.0
100
AcDbText
  0
ENDBLK
  5
1B6
330
1B4
100
AcDbEntity
  8
0
100
AcDbBlockEnd
  0
BLOCK
  5
1C3
330
1C2
100
AcDbEntity
  8
0
100
AcDbBlockBegin
  2
*D11
 70
     1
 10
0.0
 20
0.0
 30
0.0
  3
*D11
  1

  0
HATCH
  5
1C5
330
1C2
100
AcDbEntity
  8
Bemaßung
  6
AUSGEZOGEN
 62
    96
420
    32768
370
    18
100
AcDbHatch
 10
0.0
 20
0.0
 30
0.0
210
0.0
220
0.0
230
1.0
  2
SOLID
 70
     1
 71
     0
 91
        1
 92
        2
 72
     0
 73
     1
 93
        3
 10
428.5377672005795
 20
852.7637665769315
 10
425.8919338036679
 20
835.1248772641874
 10
431.1836005974911
 20
835.1248772641874
 97
        0
 75
     0
 76
     1
 98
        0
  0
HATCH
  5
1C6
330
1C2
100
AcDbEntity
  8
Bemaßung
  6
AUSGEZOGEN
 62
    96
420
    32768
370
    18
100
AcDbHatch
 10
0.0
 20
0.0
 30
0.0
210
0.0
220
0.0
230
1.0
  2
SOLID
 70
     1
 71
     0
 91
        1
 92
        2
 72
     0
 73
     1
 93
        3
 10
428.5377672005795
 20
394.2347315003993
 10
431.1836005974911
 20
411.8736208131435
 10
425.8919338036679
 20
411.8736208131435
 97
        0
 75
     0
 76
     1
 98
        0
  0
LINE
  5
1C7
330
1C2
100
AcDbEntity
  8
Bemaßung
  6
AUSGEZOGEN
 62
    96
420
    32768
370
    18
100
AcDbLine
 10
428.537767200579
 20
411.873620813143
 30
0.0
 11
428.53776720058
 21
835.124877264187
 31
0.0
  0
LINE
  5
1C8
330
1C2
100
AcDbEntity
  8
Bemaßung
  6
AUSGEZOGEN
 62
    96
420
    32768
370
    18
100
AcDbLine
 10
356.806273061904
 20
394.234731500399
 30
0.0
 11
438.617132522148
 21
394.234731500399
 31
0.0
  0
LINE
  5
1C9
330
1C2
100
AcDbEntity
  8
Bemaßung
  6
AUSGEZOGEN
 62
    96
420
    32768
370
    18
100
AcDbLine
 10
350.306273061904
 20
852.763766576932
 30
0.0
 11
438.617132522148
 21
852.763766576932
 31
0.0
  0
WIPEOUT
  5
1CA
330
1C2
100
AcDbEntity
  8
Bemaßung
  6
AUSGEZOGEN
 62
    18
420
        0
370
    18
160
               128
310
80000000020000000C00000014000000010000006C0000000700000004000000434F6195D3E47A4005AD0767F67F82400000000000000000434F6195D3E47A4005AD8785067884400000000000000000A9B5C75B4521794005AD8785067884400000000000000000A9B5C75B4521794005AD0767F67F824000000000000000
310
00
100
AcDbWipeout
 90
        0
 10
402.079433231464
 20
591.995313701599
 30
0.0
 11
63.0078706741333
 21
0.0
 31
0.0
 12
0.0
 22
63.0078706741333
 32
0.0
 13
1.0
 23
1.0
340
0
 70
     7
280
     1
281
    50
282
    50
283
     0
360
0
 71
     2
 91
        5
 14
-0.052084166654
 24
0.5
 14
-0.052084166654
 24
-0.5
 14
-0.5
 24
-0.5
 14
-0.5
 24
0.5
 14
-0.052084166654
 24
0.5
290
     0
  0
TEXT
  5
1CB
330
1C2
100
AcDbEntity
  8
Bemaßung
  6
AUSGEZOGEN
 62
    18
420
        0
370
    18
100
AcDbText
 10
425.009989338031
 20
591.995313701599
 30
0.0
 40
17.638889312744
  1
458.5
 50
90.0
 41
1.022938049518
  7
Arial
 72
     5
 11
425.009989338031
 21
655.003184375732
 31
0.0
100
AcDbText
  0
ENDBLK
  5
1C4
330
1C2
100
AcDbEntity
  8
0
100
AcDbBlockEnd
  0
BLOCK
  5
1CE
330
1CD
100
AcDbEntity
  8
0
100
AcDbBlockBegin
  2
*D12
 70
     1
 10
0.0
 20
0.0
 30
0.0
  3
*D12
  1

  0
HATCH
  5
1D0
330
1CD
100
AcDbEntity
  8
Bemaßung
  6
AUSGEZOGEN
 62
    96
420
    32768
370
    18
100
AcDbHatch
 10
0.0
 20
0.0
 30
0.0
210
0.0
220
0.0
230
1.0
  2
SOLID
 70
     1
 71
     0
 91
        1
 92
        2
 72
     0
 73
     1
 93
        3
 10
479.1212720523537
 20
394.2347315003993
 10
481.7671054492653
 20
411.8736208131434
 10
476.4754386554421
 20
411.8736208131434
 97
        0
 75
     0
 76
     1
 98
        0
  0
HATCH
  5
1D1
330
1CD
100
AcDbEntity
  8
Bemaßung
  6
AUSGEZOGEN
 62
    96
420
    32768
370
    18
100
AcDbHatch
 10
0.0
 20
0.0
 30
0.0
210
0.0
220
0.0
230
1.0
  2
SOLID
 70
     1
 71
     0
 91
        1
 92
        2
 72
     0
 73
     1
 93
        3
 10
479.1212720523538
 20
854.2637665769317
 10
476.4754386554422
 20
836.6248772641876
 10
481.7671054492654
 20
836.6248772641876
 97
        0
 75
     0
 76
     1
 98
        0
  0
LINE
  5
1D2
330
1CD
100
AcDbEntity
  8
Bemaßung
  6
AUSGEZOGEN
 62
    96
420
    32768
370
    18
100
AcDbLine
 10
479.121272052354
 20
836.624877264188
 30
0.0
 11
479.121272052354
 21
411.873620813143
 31
0.0
  0
LINE
  5
1D3
330
1CD
100
AcDbEntity
  8
Bemaßung
  6
AUSGEZOGEN
 62
    96
420
    32768
370
    18
100
AcDbLine
 10
350.306273061904
 20
854.263766576932
 30
0.0
 11
489.200637373922
 21
854.263766576932
 31
0.0
  0
LINE
  5
1D4
330
1CD
100
AcDbEntity
  8
Bemaßung
  6
AUSGEZOGEN
 62
    96
420
    32768
370
    18
100
AcDbLine
 10
356.806273061904
 20
394.234731500399
 30
0.0
 11
489.200637373922
 21
394.234731500399
 31
0.0
  0
WIPEOUT
  5
1D5
330
1CD
100
AcDbEntity
  8
Bemaßung
  6
AUSGEZOGEN
 62
    18
420
        0
370
    18
160
               128
310
80000000020000000C00000014000000010000006C00000007000000040000001B46909E290E7E4006ADC716F9D9824000000000000000001B46909E290E7E4006ADC7D5032A8440000000000000000081ACF6649B4A7C4006ADC7D5032A8440000000000000000081ACF6649B4A7C4006ADC716F9D9824000000000000000
310
00
100
AcDbWipeout
 90
        0
 10
452.662938083238
 20
603.246625480621
 30
0.0
 11
42.00524711608887
 21
0.0
 31
0.0
 12
0.0
 22
42.00524711608887
 32
0.0
 13
1.0
 23
1.0
340
0
 70
     7
280
     1
281
    50
282
    50
283
     0
360
0
 71
     2
 91
        5
 14
0.17187375002
 24
0.5
 14
0.17187375002
 24
-0.5
 14
-0.5
 24
-0.5
 14
-0.5
 24
0.5
 14
0.17187375002
 24
0.5
290
     0
  0
TEXT
  5
1D6
330
1CD
100
AcDbEntity
  8
Bemaßung
  6
AUSGEZOGEN
 62
    18
420
        0
370
    18
100
AcDbText
 10
475.593494189806
 20
603.246625480621
 30
0.0
 40
17.638889312744
  1
460
 50
90.0
 41
1.022938049518
  7
Arial
 72
     5
 11
475.593494189806
 21
645.25187259671
 31
0.0
100
AcDbText
  0
ENDBLK
  5
1CF
330
1CD
100
AcDbEntity
  8
0
100
AcDbBlockEnd
  0
BLOCK
  5
1D9
330
1D8
100
AcDbEntity
  8
0
100
AcDbBlockBegin
  2
Nummer_nNn012
 70
     0
 10
0.0
 20
0.0
 30
0.0
  3
Nummer_nNn012
  1

  0
LWPOLYLINE
  5
1DB
330
1D8
100
AcDbEntity
  8
Vollinie breit
  6
AUSGEZOGEN
 62
    18
420
        0
370
    35
100
AcDbPolyline
 90
        2
 70
     0
 43
0.0
 10
-640.81533302315
 20
394.234731500399
 10
-610.505131904732
 20
352.937774237505
  0
WIPEOUT
  5
1DC
330
1D8
100
AcDbEntity
  8
Text 25
  6
AUSGEZOGEN
 62
    94
420
    42753
370
    25
160
               152
310
98000000040000000C0000000E000000120000000C00000016000000000000C20C00000014000000010000006C000000070000000400000090C2F56035B382C0CDCCCCF4104173400000000000000000703D0A9FCA2C82C0CDCCCCF4104173400000000000000000703D0A9FCA2C82C03333330BEF5E754000000000000000
310
0090C2F56035B382C03333330BEF5E75400000000000000000
100
AcDbWipeout
 90
        0
 10
-598.401063842773
 20
308.066639709473
 30
0.0
 11
33.86672058105466
 21
0.0
 31
0.0
 12
0.0
 22
33.86672058105466
 32
0.0
 13
1.0
 23
1.0
340
0
 70
     7
280
     1
281
    50
282
    50
283
     0
360
0
 71
     2
 91
        5
 14
-0.5
 24
0.5
 14
-0.003874972325
 24
0.5
 14
-0.003874972325
 24
-0.5
 14
-0.5
 24
-0.5
 14
-0.5
 24
0.5
290
     0
  0
TEXT
  5
1DD
330
1D8
100
AcDbEntity
  8
Text 25
  6
AUSGEZOGEN
 62
    94
420
    42753
370
    25
100
AcDbText
 10
-598.401063842773
 20
314.41664981842
 30
0.0
 40
21.166700363159
  1
1
 41
1.022938201392
  7
Arial
 72
     5
 11
-581.598936157226
 21
314.41664981842
 31
0.0
100
AcDbText
  0
ENDBLK
  5
1DA
330
1D8
100
AcDbEntity
  8
0
100
AcDbBlockEnd
  0
BLOCK
  5
1E2
330
1E1
100
AcDbEntity
  8
0
100
AcDbBlockBegin
  2
Nummer_nNn013
 70
     0
 10
0.0
 20
0.0
 30
0.0
  3
Nummer_nNn013
  1

  0
LWPOLYLINE
  5
1E4
330
1E1
100
AcDbEntity
  8
Vollinie breit
  6
AUSGEZOGEN
 62
    18
420
        0
370
    35
100
AcDbPolyline
 90
        2
 70
     0
 43
0.0
 10
-409.31533302315
 20
623.499249038665
 10
-331.127331151932
 20
585.233808425151
  0
WIPEOUT
  5
1E5
330
1E1
100
AcDbEntity
  8
Text 25
  6
AUSGEZOGEN
 62
    94
420
    42753
370
    25
160
               152
310
98000000040000000C0000000E000000120000000C00000016000000000000C20C00000014000000010000006C00000007000000040000001F85EBC16A4673C06666667A884881400000000000000000E27A143E953972C06666667A884881400000000000000000E27A143E953972C09A9999857757824000000000000000
310
001F85EBC16A4673C09A999985775782400000000000000000
100
AcDbWipeout
 90
        0
 10
-308.401063842773
 20
553.066639709473
 30
0.0
 11
33.86672058105466
 21
0.0
 31
0.0
 12
0.0
 22
33.86672058105466
 32
0.0
 13
1.0
 23
1.0
340
0
 70
     7
280
     1
281
    50
282
    50
283
     0
360
0
 71
     2
 91
        5
 14
-0.5
 24
0.5
 14
-0.003874972325
 24
0.5
 14
-0.003874972325
 24
-0.5
 14
-0.5
 24
-0.5
 14
-0.5
 24
0.5
290
     0
  0
TEXT
  5
1E6
330
1E1
100
AcDbEntity
  8
Text 25
  6
AUSGEZOGEN
 62
    94
420
    42753
370
    25
100
AcDbText
 10
-308.401063842773
 20
559.41664981842
 30
0.0
 40
21.166700363159
  1
2
 41
1.022938201392
  7
Arial
 72
     5
 11
-291.598936157227
 21
559.41664981842
 31
0.0
100
AcDbText
  0
ENDBLK
  5
1E3
330
1E1
100
AcDbEntity
  8
0
100
AcDbBlockEnd
  0
BLOCK
  5
1EB
330
1EA
100
AcDbEntity
  8
0
100
AcDbBlockBegin
  2
Nummer_nNn014
 70
     0
 10
0.0
 20
0.0
 30
0.0
  3
Nummer_nNn014
  1

  0
LWPOLYLINE
  5
1ED
330
1EA
100
AcDbEntity
  8
Vollinie breit
  6
AUSGEZOGEN
 62
    18
420
        0
370
    35
100
AcDbPolyline
 90
        2
 70
     0
 43
0.0
 10
-872.31533302315
 20
697.90575816184
 10
-1036.940514383098
 20
790.875422621973
  0
WIPEOUT
  5
1EE
330
1EA
100
AcDbEntity
  8
Text 25
  6
AUSGEZOGEN
 62
    94
420
    42753
370
    25
160
               152
310
98000000040000000C0000000E000000120000000C00000016000000000000C20C00000014000000010000006C0000000700000004000000BB35F1B511CE90C0840894EADDB7884000000000000000002C73FB54DC8A90C0840894EADDB7884000000000000000002C73FB54DC8A90C0B83BC7F5CCC6894000000000000000
310
00BB35F1B511CE90C0B83BC7F5CCC689400000000000000000
100
AcDbWipeout
 90
        0
 10
-1075.517295617012
 20
790.983357578764
 30
0.0
 11
33.86672058105466
 21
0.0
 31
0.0
 12
0.0
 22
33.86672058105466
 32
0.0
 13
1.0
 23
1.0
340
0
 70
     7
280
     1
281
    50
282
    50
283
     0
360
0
 71
     2
 91
        5
 14
-0.5
 24
0.5
 14
-0.003874972325
 24
0.5
 14
-0.003874972325
 24
-0.5
 14
-0.5
 24
-0.5
 14
-0.5
 24
0.5
290
     0
  0
TEXT
  5
1EF
330
1EA
100
AcDbEntity
  8
Text 25
  6
AUSGEZOGEN
 62
    94
420
    42753
370
    25
100
AcDbText
 10
-1075.517295617012
 20
797.333367687712
 30
0.0
 40
21.166700363159
  1
2
 41
1.022938201392
  7
Arial
 72
     5
 11
-1058.715167931466
 21
797.333367687712
 31
0.0
100
AcDbText
  0
ENDBLK
  5
1EC
330
1EA
100
AcDbEntity
  8
0
100
AcDbBlockEnd
  0
BLOCK
  5
206
330
205
100
AcDbEntity
  8
0
100
AcDbBlockBegin
  2
A3-ENISO5457_LBT_nNn015
 70
     0
 10
0.0
 20
0.0
 30
0.0
  3
A3-ENISO5457_LBT_nNn015
  1

  0
LINE
  5
208
330
205
100
AcDbEntity
  8
Layer65001
  6
AUSGEZOGEN
 62
    18
420
        0
370
    18
100
AcDbLine
 10
-1241.408627619034
 20
-322.774260410668
 30
0.0
 11
858.591372380966
 21
-322.774260410668
 31
0.0
  0
LINE
  5
209
330
205
100
AcDbEntity
  8
Layer65001
  6
AUSGEZOGEN
 62
    18
420
        0
370
    18
100
AcDbLine
 10
858.591372380966
 20
-322.774260410668
 30
0.0
 11
858.591372380966
 21
1162.225739589332
 31
0.0
  0
LINE
  5
20A
330
205
100
AcDbEntity
  8
Layer65001
  6
AUSGEZOGEN
 62
    18
420
        0
370
    18
100
AcDbLine
 10
858.591372380966
 20
1162.225739589332
 30
0.0
 11
-1241.408627619034
 21
1162.225739589332
 31
0.0
  0
LINE
  5
20B
330
205
100
AcDbEntity
  8
Layer65001
  6
AUSGEZOGEN
 62
    18
420
        0
370
    18
100
AcDbLine
 10
-1241.408627619034
 20
1162.225739589332
 30
0.0
 11
-1241.408627619034
 21
-322.774260410668
 31
0.0
  0
LINE
  5
20C
330
205
100
AcDbEntity
  8
Layer65001
  6
AUSGEZOGEN
 62
    18
420
        0
370
    18
100
AcDbLine
 10
-1241.408627619034
 20
1112.225739589332
 30
0.0
 11
-1216.408627619034
 21
1112.225739589332
 31
0.0
  0
LINE
  5
20D
330
205
100
AcDbEntity
  8
Layer65001
  6
AUSGEZOGEN
 62
    18
420
        0
370
    18
100
AcDbLine
 10
-1191.408627619034
 20
1137.225739589332
 30
0.0
 11
-1191.408627619034
 21
1162.225739589332
 31
0.0
  0
LINE
  5
20E
330
205
100
AcDbEntity
  8
Layer65001
  6
AUSGEZOGEN
 62
    18
420
        0
370
    18
100
AcDbLine
 10
-1216.408627619034
 20
1137.225739589332
 30
0.0
 11
-1191.408627619034
 21
1137.225739589332
 31
0.0
  0
LINE
  5
20F
330
205
100
AcDbEntity
  8
Layer65001
  6
AUSGEZOGEN
 62
    18
420
        0
370
    18
100
AcDbLine
 10
-1216.408627619034
 20
1112.225739589332
 30
0.0
 11
-1216.408627619034
 21
1137.225739589332
 31
0.0
  0
HATCH
  5
210
330
205
100
AcDbEntity
  8
Layer65001
  6
AUSGEZOGEN
 62
    18
420
        0
370
    18
100
AcDbHatch
 10
0.0
 20
0.0
 30
0.0
210
0.0
220
0.0
230
1.0
  2
SOLID
 70
     1
 71
     0
 91
        1
 92
        2
 72
     0
 73
     1
 93
        6
 10
-1241.408627619034
 20
1112.225739589332
 10
-1216.408627619034
 20
1112.225739589332
 10
-1216.408627619034
 20
1137.225739589332
 10
-1191.408627619034
 20
1137.225739589332
 10
-1191.408627619034
 20
1162.225739589332
 10
-1241.408627619034
 20
1162.225739589332
 97
        0
 75
     0
 76
     1
 98
        0
  0
LINE
  5
211
330
205
100
AcDbEntity
  8
Layer65001
  6
AUSGEZOGEN
 62
    18
420
        0
370
    18
100
AcDbLine
 10
858.591372380966
 20
1112.225739589332
 30
0.0
 11
833.591372380966
 21
1112.225739589332
 31
0.0
  0
LINE
  5
212
330
205
100
AcDbEntity
  8
Layer65001
  6
AUSGEZOGEN
 62
    18
420
        0
370
    18
100
AcDbLine
 10
808.591372380966
 20
1137.225739589332
 30
0.0
 11
808.591372380966
 21
1162.225739589332
 31
0.0
  0
HATCH
  5
213
330
205
100
AcDbEntity
  8
Layer65001
  6
AUSGEZOGEN
 62
    18
420
        0
370
    18
100
AcDbHatch
 10
0.0
 20
0.0
 30
0.0
210
0.0
220
0.0
230
1.0
  2
SOLID
 70
     1
 71
     0
 91
        1
 92
        2
 72
     0
 73
     1
 93
        6
 10
858.591372380966
 20
1112.225739589332
 10
833.591372380966
 20
1112.225739589332
 10
833.591372380966
 20
1137.225739589332
 10
808.591372380966
 20
1137.225739589332
 10
808.591372380966
 20
1162.225739589332
 10
858.591372380966
 20
1162.225739589332
 97
        0
 75
     0
 76
     1
 98
        0
  0
LINE
  5
214
330
205
100
AcDbEntity
  8
Layer65001
  6
AUSGEZOGEN
 62
    18
420
        0
370
    18
100
AcDbLine
 10
858.591372380966
 20
-272.774260410668
 30
0.0
 11
833.591372380966
 21
-272.774260410668
 31
0.0
  0
LINE
  5
215
330
205
100
AcDbEntity
  8
Layer65001
  6
AUSGEZOGEN
 62
    18
420
        0
370
    18
100
AcDbLine
 10
808.591372380966
 20
-297.774260410668
 30
0.0
 11
808.591372380966
 21
-322.774260410668
 31
0.0
  0
HATCH
  5
216
330
205
100
AcDbEntity
  8
Layer65001
  6
AUSGEZOGEN
 62
    18
420
        0
370
    18
100
AcDbHatch
 10
0.0
 20
0.0
 30
0.0
210
0.0
220
0.0
230
1.0
  2
SOLID
 70
     1
 71
     0
 91
        1
 92
        2
 72
     0
 73
     1
 93
        6
 10
858.591372380966
 20
-272.7742604106684
 10
833.591372380966
 20
-272.7742604106684
 10
833.591372380966
 20
-297.7742604106684
 10
808.591372380966
 20
-297.7742604106684
 10
808.591372380966
 20
-322.7742604106685
 10
858.591372380966
 20
-322.7742604106685
 97
        0
 75
     0
 76
     1
 98
        0
  0
LINE
  5
217
330
205
100
AcDbEntity
  8
Layer65001
  6
AUSGEZOGEN
 62
    18
420
        0
370
    18
100
AcDbLine
 10
-1241.408627619034
 20
-272.774260410668
 30
0.0
 11
-1216.408627619034
 21
-272.774260410668
 31
0.0
  0
LINE
  5
218
330
205
100
AcDbEntity
  8
Layer65001
  6
AUSGEZOGEN
 62
    18
420
        0
370
    18
100
AcDbLine
 10
-1191.408627619034
 20
-297.774260410668
 30
0.0
 11
-1191.408627619034
 21
-322.774260410668
 31
0.0
  0
LINE
  5
219
330
205
100
AcDbEntity
  8
Layer65001
  6
AUSGEZOGEN
 62
    18
420
        0
370
    18
100
AcDbLine
 10
-1216.408627619034
 20
-297.774260410668
 30
0.0
 11
-1191.408627619034
 21
-297.774260410668
 31
0.0
  0
LINE
  5
21A
330
205
100
AcDbEntity
  8
Layer65001
  6
AUSGEZOGEN
 62
    18
420
        0
370
    18
100
AcDbLine
 10
-1216.408627619034
 20
-272.774260410668
 30
0.0
 11
-1216.408627619034
 21
-297.774260410668
 31
0.0
  0
HATCH
  5
21B
330
205
100
AcDbEntity
  8
Layer65001
  6
AUSGEZOGEN
 62
    18
420
        0
370
    18
100
AcDbHatch
 10
0.0
 20
0.0
 30
0.0
210
0.0
220
0.0
230
1.0
  2
SOLID
 70
     1
 71
     0
 91
        1
 92
        2
 72
     0
 73
     1
 93
        6
 10
-1241.408627619034
 20
-272.7742604106684
 10
-1216.408627619034
 20
-272.7742604106684
 10
-1216.408627619034
 20
-297.7742604106684
 10
-1191.408627619034
 20
-297.7742604106684
 10
-1191.408627619034
 20
-322.7742604106685
 10
-1241.408627619034
 20
-322.7742604106685
 97
        0
 75
     0
 76
     1
 98
        0
  0
LINE
  5
21C
330
205
100
AcDbEntity
  8
Layer65000
  6
AUSGEZOGEN
 62
    18
420
        0
370
   100
100
AcDbLine
 10
-1141.408627619034
 20
1112.225739589332
 30
0.0
 11
-1141.408627619034
 21
-272.774260410668
 31
0.0
  0
LINE
  5
21D
330
205
100
AcDbEntity
  8
Layer65000
  6
AUSGEZOGEN
 62
    18
420
        0
370
   100
100
AcDbLine
 10
808.591372380966
 20
1112.225739589332
 30
0.0
 11
-1141.408627619034
 21
1112.225739589332
 31
0.0
  0
LINE
  5
21E
330
205
100
AcDbEntity
  8
Layer65000
  6
AUSGEZOGEN
 62
    18
420
        0
370
   100
100
AcDbLine
 10
808.591372380966
 20
-272.774260410668
 30
0.0
 11
808.591372380966
 21
1112.225739589332
 31
0.0
  0
LINE
  5
21F
330
205
100
AcDbEntity
  8
Layer65000
  6
AUSGEZOGEN
 62
    18
420
        0
370
   100
100
AcDbLine
 10
-1141.408627619034
 20
-272.774260410668
 30
0.0
 11
808.591372380966
 21
-272.774260410668
 31
0.0
  0
LINE
  5
220
330
205
100
AcDbEntity
  8
Layer65000
  6
AUSGEZOGEN
 62
    18
420
        0
370
    18
100
AcDbLine
 10
833.591372380966
 20
-297.774260410668
 30
0.0
 11
833.591372380966
 21
1137.225739589332
 31
0.0
  0
LINE
  5
221
330
205
100
AcDbEntity
  8
Layer65000
  6
AUSGEZOGEN
 62
    18
420
        0
370
    18
100
AcDbLine
 10
833.591372380966
 20
1137.225739589332
 30
0.0
 11
-1166.408627619034
 21
1137.225739589332
 31
0.0
  0
LINE
  5
222
330
205
100
AcDbEntity
  8
Layer65000
  6
AUSGEZOGEN
 62
    18
420
        0
370
    18
100
AcDbLine
 10
-1166.408627619034
 20
1137.225739589332
 30
0.0
 11
-1166.408627619034
 21
-297.774260410668
 31
0.0
  0
LINE
  5
223
330
205
100
AcDbEntity
  8
Layer65000
  6
AUSGEZOGEN
 62
    18
420
        0
370
    18
100
AcDbLine
 10
-1166.408627619034
 20
-297.774260410668
 30
0.0
 11
833.591372380966
 21
-297.774260410668
 31
0.0
  0
LINE
  5
224
330
205
100
AcDbEntity
  8
Layer65000
  6
AUSGEZOGEN
 62
    18
420
        0
370
    18
100
AcDbLine
 10
-416.408627619034
 20
1137.225739589332
 30
0.0
 11
-416.408627619034
 21
1112.225739589332
 31
0.0
  0
LINE
  5
225
330
205
100
AcDbEntity
  8
Layer65000
  6
AUSGEZOGEN
 62
    18
420
        0
370
    18
100
AcDbLine
 10
-666.408627619034
 20
1137.225739589332
 30
0.0
 11
-666.408627619034
 21
1112.225739589332
 31
0.0
  0
LINE
  5
226
330
205
100
AcDbEntity
  8
Layer65000
  6
AUSGEZOGEN
 62
    18
420
        0
370
    18
100
AcDbLine
 10
-916.408627619034
 20
1137.225739589332
 30
0.0
 11
-916.408627619034
 21
1112.225739589332
 31
0.0
  0
LINE
  5
227
330
205
100
AcDbEntity
  8
Layer65000
  6
AUSGEZOGEN
 62
    18
420
        0
370
    18
100
AcDbLine
 10
83.591372380966
 20
1137.225739589332
 30
0.0
 11
83.591372380966
 21
1112.225739589332
 31
0.0
  0
LINE
  5
228
330
205
100
AcDbEntity
  8
Layer65000
  6
AUSGEZOGEN
 62
    18
420
        0
370
    18
100
AcDbLine
 10
333.591372380966
 20
1137.225739589332
 30
0.0
 11
333.591372380966
 21
1112.225739589332
 31
0.0
  0
LINE
  5
229
330
205
100
AcDbEntity
  8
Layer65000
  6
AUSGEZOGEN
 62
    18
420
        0
370
    18
100
AcDbLine
 10
583.591372380966
 20
1137.225739589332
 30
0.0
 11
583.591372380966
 21
1112.225739589332
 31
0.0
  0
LINE
  5
22A
330
205
100
AcDbEntity
  8
Layer65000
  6
AUSGEZOGEN
 62
    18
420
        0
370
    18
100
AcDbLine
 10
833.591372380966
 20
669.725739589332
 30
0.0
 11
808.591372380966
 21
669.725739589332
 31
0.0
  0
LINE
  5
22B
330
205
100
AcDbEntity
  8
Layer65000
  6
AUSGEZOGEN
 62
    18
420
        0
370
    18
100
AcDbLine
 10
833.591372380966
 20
919.725739589332
 30
0.0
 11
808.591372380966
 21
919.725739589332
 31
0.0
  0
LINE
  5
22C
330
205
100
AcDbEntity
  8
Layer65000
  6
AUSGEZOGEN
 62
    18
420
        0
370
    18
100
AcDbLine
 10
833.591372380966
 20
169.725739589332
 30
0.0
 11
808.591372380966
 21
169.725739589332
 31
0.0
  0
LINE
  5
22D
330
205
100
AcDbEntity
  8
Layer65000
  6
AUSGEZOGEN
 62
    18
420
        0
370
    18
100
AcDbLine
 10
833.591372380966
 20
-80.274260410668
 30
0.0
 11
808.591372380966
 21
-80.274260410668
 31
0.0
  0
LINE
  5
22E
330
205
100
AcDbEntity
  8
Layer65000
  6
AUSGEZOGEN
 62
    18
420
        0
370
    18
100
AcDbLine
 10
-416.408627619034
 20
-297.774260410668
 30
0.0
 11
-416.408627619034
 21
-272.774260410668
 31
0.0
  0
LINE
  5
22F
330
205
100
AcDbEntity
  8
Layer65000
  6
AUSGEZOGEN
 62
    18
420
        0
370
    18
100
AcDbLine
 10
83.591372380966
 20
-297.774260410668
 30
0.0
 11
83.591372380966
 21
-272.774260410668
 31
0.0
  0
LINE
  5
230
330
205
100
AcDbEntity
  8
Layer65000
  6
AUSGEZOGEN
 62
    18
420
        0
370
    18
100
AcDbLine
 10
333.591372380966
 20
-297.774260410668
 30
0.0
 11
333.591372380966
 21
-272.774260410668
 31
0.0
  0
LINE
  5
231
330
205
100
AcDbEntity
  8
Layer65000
  6
AUSGEZOGEN
 62
    18
420
        0
370
    18
100
AcDbLine
 10
583.591372380966
 20
-297.774260410668
 30
0.0
 11
583.591372380966
 21
-272.774260410668
 31
0.0
  0
LINE
  5
232
330
205
100
AcDbEntity
  8
Layer65000
  6
AUSGEZOGEN
 62
    18
420
        0
370
    18
100
AcDbLine
 10
-666.408627619034
 20
-297.774260410668
 30
0.0
 11
-666.408627619034
 21
-272.774260410668
 31
0.0
  0
LINE
  5
233
330
205
100
AcDbEntity
  8
Layer65000
  6
AUSGEZOGEN
 62
    18
420
        0
370
    18
100
AcDbLine
 10
-916.408627619034
 20
-297.774260410668
 30
0.0
 11
-916.408627619034
 21
-272.774260410668
 31
0.0
  0
LINE
  5
234
330
205
100
AcDbEntity
  8
Layer65000
  6
AUSGEZOGEN
 62
    18
420
        0
370
    18
100
AcDbLine
 10
-1166.408627619034
 20
669.725739589332
 30
0.0
 11
-1141.408627619034
 21
669.725739589332
 31
0.0
  0
LINE
  5
235
330
205
100
AcDbEntity
  8
Layer65000
  6
AUSGEZOGEN
 62
    18
420
        0
370
    18
100
AcDbLine
 10
-1166.408627619034
 20
919.725739589332
 30
0.0
 11
-1141.408627619034
 21
919.725739589332
 31
0.0
  0
LINE
  5
236
330
205
100
AcDbEntity
  8
Layer65000
  6
AUSGEZOGEN
 62
    18
420
        0
370
    18
100
AcDbLine
 10
-1166.408627619034
 20
169.725739589332
 30
0.0
 11
-1141.408627619034
 21
169.725739589332
 31
0.0
  0
LINE
  5
237
330
205
100
AcDbEntity
  8
Layer65000
  6
AUSGEZOGEN
 62
    18
420
        0
370
    18
100
AcDbLine
 10
-1166.408627619034
 20
-80.274260410668
 30
0.0
 11
-1141.408627619034
 21
-80.274260410668
 31
0.0
  0
TEXT
  5
238
330
205
100
AcDbEntity
  8
Layer65000
  6
AUSGEZOGEN
 62
    18
420
        0
370
    18
100
AcDbText
 10
-1024.126128520256
 20
1115.975739589332
 30
0.0
 40
17.5
  1
1
 41
1.136598070872
  7
Arial
 72
     5
 11
-1008.691126717812
 21
1115.975739589332
 31
0.0
100
AcDbText
  0
TEXT
  5
239
330
205
100
AcDbEntity
  8
Layer65000
  6
AUSGEZOGEN
 62
    18
420
        0
370
    18
100
AcDbText
 10
-799.126128520256
 20
1115.975739589332
 30
0.0
 40
17.5
  1
2
 41
1.136598070872
  7
Arial
 72
     5
 11
-783.691126717812
 21
1115.975739589332
 31
0.0
100
AcDbText
  0
TEXT
  5
23A
330
205
100
AcDbEntity
  8
Layer65000
  6
AUSGEZOGEN
 62
    18
420
        0
370
    18
100
AcDbText
 10
-549.126128520256
 20
1115.975739589332
 30
0.0
 40
17.5
  1
3
 41
1.136598070872
  7
Arial
 72
     5
 11
-533.691126717812
 21
1115.975739589332
 31
0.0
100
AcDbText
  0
TEXT
  5
23B
330
205
100
AcDbEntity
  8
Layer65000
  6
AUSGEZOGEN
 62
    18
420
        0
370
    18
100
AcDbText
 10
-299.126128520256
 20
1115.975739589332
 30
0.0
 40
17.5
  1
4
 41
1.136598070872
  7
Arial
 72
     5
 11
-283.691126717812
 21
1115.975739589332
 31
0.0
100
AcDbText
  0
TEXT
  5
23C
330
205
100
AcDbEntity
  8
Layer65000
  6
AUSGEZOGEN
 62
    18
420
        0
370
    18
100
AcDbText
 10
-49.126128520256
 20
1115.975739589332
 30
0.0
 40
17.5
  1
5
 41
1.136598070872
  7
Arial
 72
     5
 11
-33.691126717812
 21
1115.975739589332
 31
0.0
100
AcDbText
  0
TEXT
  5
23D
330
205
100
AcDbEntity
  8
Layer65000
  6
AUSGEZOGEN
 62
    18
420
        0
370
    18
100
AcDbText
 10
200.873871479744
 20
1115.975739589332
 30
0.0
 40
17.5
  1
6
 41
1.136598070872
  7
Arial
 72
     5
 11
216.308873282188
 21
1115.975739589332
 31
0.0
100
AcDbText
  0
TEXT
  5
23E
330
205
100
AcDbEntity
  8
Layer65000
  6
AUSGEZOGEN
 62
    18
420
        0
370
    18
100
AcDbText
 10
450.873871479744
 20
1115.975739589332
 30
0.0
 40
17.5
  1
7
 41
1.136598070872
  7
Arial
 72
     5
 11
466.308873282188
 21
1115.975739589332
 31
0.0
100
AcDbText
  0
TEXT
  5
23F
330
205
100
AcDbEntity
  8
Layer65000
  6
AUSGEZOGEN
 62
    18
420
        0
370
    18
100
AcDbText
 10
675.873871479744
 20
1115.975739589332
 30
0.0
 40
17.5
  1
8
 41
1.136598070872
  7
Arial
 72
     5
 11
691.308873282188
 21
1115.975739589332
 31
0.0
100
AcDbText
  0
TEXT
  5
240
330
205
100
AcDbEntity
  8
Layer65000
  6
AUSGEZOGEN
 62
    18
420
        0
370
    18
100
AcDbText
 10
-1163.15737869907
 20
1007.225739589332
 30
0.0
 40
17.5
  1
A
 41
1.135338478445
  7
Arial
 72
     5
 11
-1144.659876538998
 21
1007.225739589332
 31
0.0
100
AcDbText
  0
TEXT
  5
241
330
205
100
AcDbEntity
  8
Layer65000
  6
AUSGEZOGEN
 62
    18
420
        0
370
    18
100
AcDbText
 10
-1163.15737869907
 20
785.975739589332
 30
0.0
 40
17.5
  1
B
 41
1.135338478445
  7
Arial
 72
     5
 11
-1144.659876538998
 21
785.975739589332
 31
0.0
100
AcDbText
  0
TEXT
  5
242
330
205
100
AcDbEntity
  8
Layer65000
  6
AUSGEZOGEN
 62
    18
420
        0
370
    18
100
AcDbText
 10
-1163.953628792053
 20
535.975739589332
 30
0.0
 40
17.5
  1
C
 41
1.138889021884
  7
Arial
 72
     5
 11
-1143.863626446015
 21
535.975739589332
 31
0.0
100
AcDbText
  0
TEXT
  5
243
330
205
100
AcDbEntity
  8
Layer65000
  6
AUSGEZOGEN
 62
    18
420
        0
370
    18
100
AcDbText
 10
-1163.953628792053
 20
285.975739589332
 30
0.0
 40
17.5
  1
D
 41
1.138889021884
  7
Arial
 72
     5
 11
-1143.863626446015
 21
285.975739589332
 31
0.0
100
AcDbText
  0
TEXT
  5
244
330
205
100
AcDbEntity
  8
Layer65000
  6
AUSGEZOGEN
 62
    18
420
        0
370
    18
100
AcDbText
 10
-1163.15737869907
 20
35.975739589332
 30
0.0
 40
17.5
  1
E
 41
1.135338478445
  7
Arial
 72
     5
 11
-1144.659876538998
 21
35.975739589332
 31
0.0
100
AcDbText
  0
TEXT
  5
245
330
205
100
AcDbEntity
  8
Layer65000
  6
AUSGEZOGEN
 62
    18
420
        0
370
    18
100
AcDbText
 10
-1162.361128606087
 20
-185.274260410668
 30
0.0
 40
17.5
  1
F
 41
1.132473754755
  7
Arial
 72
     5
 11
-1145.456126631981
 21
-185.274260410668
 31
0.0
100
AcDbText
  0
TEXT
  5
246
330
205
100
AcDbEntity
  8
Layer65000
  6
AUSGEZOGEN
 62
    18
420
        0
370
    18
100
AcDbText
 10
811.84262130093
 20
1007.225739589332
 30
0.0
 40
17.5
  1
A
 41
1.135338478445
  7
Arial
 72
     5
 11
830.340123461003
 21
1007.225739589332
 31
0.0
100
AcDbText
  0
TEXT
  5
247
330
205
100
AcDbEntity
  8
Layer65000
  6
AUSGEZOGEN
 62
    18
420
        0
370
    18
100
AcDbText
 10
811.84262130093
 20
785.975739589332
 30
0.0
 40
17.5
  1
B
 41
1.135338478445
  7
Arial
 72
     5
 11
830.340123461003
 21
785.975739589332
 31
0.0
100
AcDbText
  0
TEXT
  5
248
330
205
100
AcDbEntity
  8
Layer65000
  6
AUSGEZOGEN
 62
    18
420
        0
370
    18
100
AcDbText
 10
811.046371207947
 20
535.975739589332
 30
0.0
 40
17.5
  1
C
 41
1.138889021884
  7
Arial
 72
     5
 11
831.136373553986
 21
535.975739589332
 31
0.0
100
AcDbText
  0
TEXT
  5
249
330
205
100
AcDbEntity
  8
Layer65000
  6
AUSGEZOGEN
 62
    18
420
        0
370
    18
100
AcDbText
 10
811.046371207947
 20
285.975739589332
 30
0.0
 40
17.5
  1
D
 41
1.138889021884
  7
Arial
 72
     5
 11
831.136373553986
 21
285.975739589332
 31
0.0
100
AcDbText
  0
TEXT
  5
24A
330
205
100
AcDbEntity
  8
Layer65000
  6
AUSGEZOGEN
 62
    18
420
        0
370
    18
100
AcDbText
 10
811.84262130093
 20
35.975739589331
 30
0.0
 40
17.5
  1
E
 50
0.0
 41
1.135338478445
  7
Arial
 72
     5
 11
830.340123461002
 21
35.975739589331
 31
0.0
100
AcDbText
  0
TEXT
  5
24B
330
205
100
AcDbEntity
  8
Layer65000
  6
AUSGEZOGEN
 62
    18
420
        0
370
    18
100
AcDbText
 10
812.638871393913
 20
-185.274260410668
 30
0.0
 40
17.5
  1
F
 41
1.132473754755
  7
Arial
 72
     5
 11
829.543873368019
 21
-185.274260410668
 31
0.0
100
AcDbText
  0
TEXT
  5
24C
330
205
100
AcDbEntity
  8
Layer65000
  6
AUSGEZOGEN
 62
    18
420
        0
370
    18
100
AcDbText
 10
-1024.126128520256
 20
-294.024260410668
 30
0.0
 40
17.5
  1
1
 41
1.136598070872
  7
Arial
 72
     5
 11
-1008.691126717812
 21
-294.024260410668
 31
0.0
100
AcDbText
  0
TEXT
  5
24D
330
205
100
AcDbEntity
  8
Layer65000
  6
AUSGEZOGEN
 62
    18
420
        0
370
    18
100
AcDbText
 10
-799.126128520256
 20
-294.024260410668
 30
0.0
 40
17.5
  1
2
 41
1.136598070872
  7
Arial
 72
     5
 11
-783.691126717812
 21
-294.024260410668
 31
0.0
100
AcDbText
  0
TEXT
  5
24E
330
205
100
AcDbEntity
  8
Layer65000
  6
AUSGEZOGEN
 62
    18
420
        0
370
    18
100
AcDbText
 10
-549.126128520256
 20
-294.024260410668
 30
0.0
 40
17.5
  1
3
 41
1.136598070872
  7
Arial
 72
     5
 11
-533.691126717812
 21
-294.024260410668
 31
0.0
100
AcDbText
  0
TEXT
  5
24F
330
205
100
AcDbEntity
  8
Layer65000
  6
AUSGEZOGEN
 62
    18
420
        0
370
    18
100
AcDbText
 10
-299.126128520256
 20
-294.024260410668
 30
0.0
 40
17.5
  1
4
 41
1.136598070872
  7
Arial
 72
     5
 11
-283.691126717812
 21
-294.024260410668
 31
0.0
100
AcDbText
  0
TEXT
  5
250
330
205
100
AcDbEntity
  8
Layer65000
  6
AUSGEZOGEN
 62
    18
420
        0
370
    18
100
AcDbText
 10
-49.126128520256
 20
-294.024260410668
 30
0.0
 40
17.5
  1
5
 41
1.136598070872
  7
Arial
 72
     5
 11
-33.691126717812
 21
-294.024260410668
 31
0.0
100
AcDbText
  0
TEXT
  5
251
330
205
100
AcDbEntity
  8
Layer65000
  6
AUSGEZOGEN
 62
    18
420
        0
370
    18
100
AcDbText
 10
200.873871479744
 20
-294.024260410668
 30
0.0
 40
17.5
  1
6
 41
1.136598070872
  7
Arial
 72
     5
 11
216.308873282188
 21
-294.024260410668
 31
0.0
100
AcDbText
  0
TEXT
  5
252
330
205
100
AcDbEntity
  8
Layer65000
  6
AUSGEZOGEN
 62
    18
420
        0
370
    18
100
AcDbText
 10
450.873871479744
 20
-294.024260410668
 30
0.0
 40
17.5
  1
7
 41
1.136598070872
  7
Arial
 72
     5
 11
466.308873282188
 21
-294.024260410668
 31
0.0
100
AcDbText
  0
TEXT
  5
253
330
205
100
AcDbEntity
  8
Layer65000
  6
AUSGEZOGEN
 62
    18
420
        0
370
    18
100
AcDbText
 10
675.873871479744
 20
-294.024260410668
 30
0.0
 40
17.5
  1
8
 41
1.136598070872
  7
Arial
 72
     5
 11
691.308873282188
 21
-294.024260410668
 31
0.0
100
AcDbText
  0
TEXT
  5
254
330
205
100
AcDbEntity
  8
Layer65000
  6
AUSGEZOGEN
 62
    18
420
        0
370
    18
100
AcDbText
 10
-1217.714921352275
 20
-255.015679986309
 30
0.0
 40
8.999999761581
  1
Weitergabe sowie Vervielfältigung dieses Dokumentes, Verwertung und Mitteilung
 50
90.0
 41
0.908571202969
  7
Arial
 72
     5
 11
-1217.714921352275
 21
159.221909040143
 31
0.0
100
AcDbText
  0
TEXT
  5
255
330
205
100
AcDbEntity
  8
Layer65000
  6
AUSGEZOGEN
 62
    18
420
        0
370
    18
100
AcDbText
 10
-1203.314921519168
 20
-255.015679986309
 30
0.0
 40
8.999999761581
  1
seines Inhalts sind verboten, soweit nicht ausdrücklich gestattet.
 50
90.0
 41
0.908283725154
  7
Arial
 72
     5
 11
-1203.314921519168
 21
69.056311428715
 31
0.0
100
AcDbText
  0
TEXT
  5
256
330
205
100
AcDbEntity
  8
Layer65000
  6
AUSGEZOGEN
 62
    18
420
        0
370
    18
100
AcDbText
 10
-1188.914921686061
 20
-255.015679986309
 30
0.0
 40
8.999999761581
  1
Zuwiderhandlungen verpflichten zu Schadenersatz. Alle Rechte für den Fall der
 50
90.0
 41
0.908339621872
  7
Arial
 72
     5
 11
-1188.914921686061
 21
145.815509395291
 31
0.0
100
AcDbText
  0
TEXT
  5
257
330
205
100
AcDbEntity
  8
Layer65000
  6
AUSGEZOGEN
 62
    18
420
        0
370
    18
100
AcDbText
 10
-1174.514921852955
 20
-255.015679986309
 30
0.0
 40
8.999999761581
  1
Patent- Gebrauchsmuster- oder Geschmackmustereintragung vorbehalten
 50
90.0
 41
0.908295954361
  7
Arial
 72
     5
 11
-1174.514921852955
 21
120.413910068203
 31
0.0
100
AcDbText
  0
TEXT
  5
258
330
205
100
AcDbEntity
  8
Layer65000
  6
AUSGEZOGEN
 62
    18
420
        0
370
    18
100
AcDbText
 10
-1216.796861843124
 20
709.836392658965
 30
0.0
 40
8.999999761581
  1
The reproduction, distribution and utilization of this document as well as the
 50
90.0
 41
0.908368660025
  7
Arial
 72
     5
 11
-1216.796861843124
 21
1089.751582594649
 31
0.0
100
AcDbText
  0
TEXT
  5
259
330
205
100
AcDbEntity
  8
Layer65000
  6
AUSGEZOGEN
 62
    18
420
        0
370
    18
100
AcDbText
 10
-1202.396862010017
 20
709.836392658965
 30
0.0
 40
8.999999761581
  1
communication of its contents to others without express authorization is
 50
90.0
 41
0.908403494837
  7
Arial
 72
     5
 11
-1202.396862010017
 21
1070.095583115355
 31
0.0
100
AcDbText
  0
TEXT
  5
25A
330
205
100
AcDbEntity
  8
Layer65000
  6
AUSGEZOGEN
 62
    18
420
        0
370
    18
100
AcDbText
 10
-1187.99686217691
 20
709.836392658965
 30
0.0
 40
8.999999761581
  1
prohibited. Offenders will be held liable for the payment of damages. All rights
 50
90.0
 41
0.90843378528
  7
Arial
 72
     5
 11
-1187.99686217691
 21
1101.192382291571
 31
0.0
100
AcDbText
  0
TEXT
  5
25B
330
205
100
AcDbEntity
  8
Layer65000
  6
AUSGEZOGEN
 62
    18
420
        0
370
    18
100
AcDbText
 10
-1173.596862343803
 20
709.836392658965
 30
0.0
 40
8.999999761581
  1
reserved in the event of the grant of a patent, utility model or design.
 50
90.0
 41
0.908542808991
  7
Arial
 72
     5
 11
-1173.596862343803
 21
1054.320383533255
 31
0.0
100
AcDbText
  0
LINE
  5
25C
330
205
100
AcDbEntity
  8
Layer65000
  6
AUSGEZOGEN
 62
    18
420
        0
370
    18
100
AcDbLine
 10
-91.408627619034
 20
-122.774260410668
 30
0.0
 11
-91.408627619034
 21
-272.774260410668
 31
0.0
  0
INSERT
  5
296
330
205
100
AcDbEntity
  8
0
100
AcDbBlockReference
 66
     1
  2
Schriftfeld_nNn016
 10
0.0
 20
0.0
 30
0.0
  0
ATTRIB
  5
297
330
296
100
AcDbEntity
  8
0
100
AcDbText
 10
0.0
 20
0.0
 30
0.0
 40
0.0
  1
 X
100
AcDbAttribute
  2
DB_LOCK
 70
     1
280
     0
  0
ATTRIB
  5
298
330
296
100
AcDbEntity
  8
0
100
AcDbText
 10
0.0
 20
0.0
 30
0.0
 40
0.0
  1
1
100
AcDbAttribute
  2
Gesperrt
 70
     1
280
     0
  0
SEQEND
  5
299
330
296
100
AcDbEntity
  8
0
  0
LINE
  5
29A
330
205
100
AcDbEntity
  8
Layer65000
  6
AUSGEZOGEN
 62
    18
420
        0
370
   100
100
AcDbLine
 10
-91.408627619034
 20
-272.774260410668
 30
0.0
 11
808.591372380966
 21
-272.774260410668
 31
0.0
  0
WIPEOUT
  5
29B
330
205
100
AcDbEntity
  8
Layer65002
  6
AUSGEZOGEN
 62
    18
420
        0
370
    18
160
               128
310
80000000020000000C00000014000000010000006C0000000700000004000000D0F21566519B774015CDC4232DFF6DC000000000000000006A8C5FAF5D137B4015CDC4232DFF6DC000000000000000006A8C5FAF5D137B4015CDC45760326CC00000000000000000D0F21566519B774015CDC45760326CC000000000000000
310
00
100
AcDbWipeout
 90
        0
 10
377.70737274717
 20
-239.974260219934
 30
0.0
 11
55.50299957990649
 21
0.0
 31
0.0
 12
0.0
 22
55.50299957990649
 32
0.0
 13
1.0
 23
1.0
340
0
 70
     7
280
     1
281
    50
282
    50
283
     0
360
0
 71
     2
 91
        5
 14
-0.5
 24
0.5
 14
0.5
 24
0.5
 14
0.5
 24
0.240554569527
 14
-0.5
 24
0.240554569527
 14
-0.5
 24
0.5
290
     0
  0
TEXT
  5
29C
330
205
100
AcDbEntity
  8
Layer65002
  6
AUSGEZOGEN
 62
    18
420
        0
370
    18
100
AcDbText
 10
377.70737274717
 20
-237.274260291459
 30
0.0
 40
8.999999761581
  1
Maßstab
 41
1.135727461638
  7
Arial
 72
     5
 11
433.210372327076
 21
-237.274260291459
 31
0.0
100
AcDbText
  0
LINE
  5
29D
330
205
100
AcDbEntity
  8
Layer65002
  6
AUSGEZOGEN
 62
    18
420
        0
370
    18
100
AcDbLine
 10
133.591372380966
 20
-222.774260410668
 30
0.0
 11
371.091372380958
 21
-222.774260410668
 31
0.0
  0
LINE
  5
29E
330
205
100
AcDbEntity
  8
Layer65002
  6
AUSGEZOGEN
 62
    18
420
        0
370
    18
100
AcDbLine
 10
133.591372380966
 20
-247.774260410668
 30
0.0
 11
371.091372380958
 21
-247.774260410668
 31
0.0
  0
LINE
  5
29F
330
205
100
AcDbEntity
  8
Layer65002
  6
AUSGEZOGEN
 62
    18
420
        0
370
    18
100
AcDbLine
 10
271.091372380958
 20
-172.774260410668
 30
0.0
 11
271.091372380958
 21
-272.88797677023
 31
0.0
  0
LINE
  5
2A0
330
205
100
AcDbEntity
  8
Layer65002
  6
AUSGEZOGEN
 62
    18
420
        0
370
    18
100
AcDbLine
 10
133.591372380966
 20
-197.774260410668
 30
0.0
 11
371.091372380958
 21
-197.774260410668
 31
0.0
  0
LINE
  5
2A1
330
205
100
AcDbEntity
  8
Layer65002
  6
AUSGEZOGEN
 62
    18
420
        0
370
    18
100
AcDbLine
 10
181.091372380959
 20
-172.774260410668
 30
0.0
 11
181.091372380959
 21
-272.774260410668
 31
0.0
  0
LINE
  5
2A2
330
205
100
AcDbEntity
  8
Layer65002
  6
AUSGEZOGEN
 62
    18
420
        0
370
    18
100
AcDbLine
 10
133.591372380966
 20
-172.774260410668
 30
0.0
 11
371.091372380958
 21
-172.774260410668
 31
0.0
  0
LINE
  5
2A3
330
205
100
AcDbEntity
  8
Layer65002
  6
AUSGEZOGEN
 62
    18
420
        0
370
    18
100
AcDbLine
 10
371.091372380958
 20
-122.774260410668
 30
0.0
 11
371.091372380958
 21
-272.88797677023
 31
0.0
  0
WIPEOUT
  5
2A4
330
205
100
AcDbEntity
  8
Layer65002
  6
AUSGEZOGEN
 62
    18
420
        0
370
    18
160
               128
310
80000000020000000C00000014000000010000006C0000000700000004000000487FC585ECF2664011CDC4232D0F68C00000000000000000E218DFA59C356C4011CDC4232D0F68C00000000000000000E218DFA59C356C4011CDC457604266C00000000000000000487FC585ECF2664011CDC457604266C000000000000000
310
00
100
AcDbWipeout
 90
        0
 10
183.591372380959
 20
-192.474260219934
 30
0.0
 11
42.08399968147279
 21
0.0
 31
0.0
 12
0.0
 22
42.08399968147279
 32
0.0
 13
1.0
 23
1.0
340
0
 70
     7
280
     1
281
    50
282
    50
283
     0
360
0
 71
     2
 91
        5
 14
-0.5
 24
0.5
 14
0.5
 24
0.5
 14
0.5
 24
0.157827209212
 14
-0.5
 24
0.157827209212
 14
-0.5
 24
0.5
290
     0
  0
TEXT
  5
2A5
330
205
100
AcDbEntity
  8
Layer65002
  6
AUSGEZOGEN
 62
    18
420
        0
370
    18
100
AcDbText
 10
183.591372380959
 20
-189.774260291459
 30
0.0
 40
8.999999761581
  1
Datum
 41
1.137436168446
  7
Arial
 72
     5
 11
225.675372062432
 21
-189.774260291459
 31
0.0
100
AcDbText
  0
WIPEOUT
  5
2A6
330
205
100
AcDbEntity
  8
Layer65002
  6
AUSGEZOGEN
 62
    18
420
        0
370
    18
160
               128
310
80000000020000000C00000014000000010000006C000000070000000400000090BFE2427619714010CDC4232D0F68C0000000000000000090BFD24C4D7B734010CDC4232D0F68C0000000000000000090BFD24C4D7B734010CDC457604266C0000000000000000090BFE2427619714010CDC457604266C000000000000000
310
00
100
AcDbWipeout
 90
        0
 10
273.591372380958
 20
-192.474260219934
 30
0.0
 11
38.11499971151352
 21
0.0
 31
0.0
 12
0.0
 22
38.11499971151352
 32
0.0
 13
1.0
 23
1.0
340
0
 70
     7
280
     1
281
    50
282
    50
283
     0
360
0
 71
     2
 91
        5
 14
-0.5
 24
0.5
 14
0.5
 24
0.5
 14
0.5
 24
0.122195992981
 14
-0.5
 24
0.122195992981
 14
-0.5
 24
0.5
290
     0
  0
TEXT
  5
2A7
330
205
100
AcDbEntity
  8
Layer65002
  6
AUSGEZOGEN
 62
    18
420
        0
370
    18
100
AcDbText
 10
273.591372380958
 20
-189.774260291459
 30
0.0
 40
8.999999761581
  1
Name
 41
1.137523524076
  7
Arial
 72
     5
 11
311.706372092472
 21
-189.774260291459
 31
0.0
100
AcDbText
  0
WIPEOUT
  5
2A8
330
205
100
AcDbEntity
  8
Layer65002
  6
AUSGEZOGEN
 62
    18
420
        0
370
    18
160
               128
310
80000000020000000C00000014000000010000006C000000070000000400000040E95D8739B954C074721C7380E06FC0000000000000000090379973152E604074721C7380E06FC0000000000000000090379973152E604067A0FB65AE3F6EC0000000000000000040E95D8739B954C067A0FB65AE3F6EC000000000000000
310
00
100
AcDbWipeout
 90
        0
 10
-82.894136277876
 20
-255.01567988926
 30
0.0
 11
212.3342548761007
 21
0.0
 31
0.0
 12
0.0
 22
212.3342548761007
 32
0.0
 13
1.0
 23
1.0
340
0
 70
     7
280
     1
281
    50
282
    50
283
     0
360
0
 71
     2
 91
        5
 14
-0.5
 24
0.5
 14
0.5
 24
0.5
 14
0.5
 24
0.438655018083
 14
-0.5
 24
0.438655018083
 14
-0.5
 24
0.5
290
     0
  0
TEXT
  5
2A9
330
205
100
AcDbEntity
  8
Layer65002
  6
AUSGEZOGEN
 62
    18
420
        0
370
    18
100
AcDbText
 10
-82.894136277876
 20
-252.573372196952
 30
0.0
 40
8.141025641026
  1
Zul. Abw. f. Maße ohne Toleranzang.
 41
1.135777868018
  7
Arial
 72
     5
 11
129.440118598225
 21
-252.573372196952
 31
0.0
100
AcDbText
  0
WIPEOUT
  5
2AA
330
205
100
AcDbEntity
  8
Layer65002
  6
AUSGEZOGEN
 62
    18
420
        0
370
    18
160
               128
310
80000000020000000C00000014000000010000006C000000070000000400000040E95D8739B954C082BC5240A9C070C0000000000000000090379973152E604082BC5240A9C070C0000000000000000090379973152E6040F7A6847380E06FC0000000000000000040E95D8739B954C0F7A6847380E06FC000000000000000
310
00
100
AcDbWipeout
 90
        0
 10
-82.894136277876
 20
-268.041321108998
 30
0.0
 11
212.3342548761007
 21
0.0
 31
0.0
 12
0.0
 22
212.3342548761007
 32
0.0
 13
1.0
 23
1.0
340
0
 70
     7
280
     1
281
    50
282
    50
283
     0
360
0
 71
     2
 91
        5
 14
-0.5
 24
0.5
 14
0.5
 24
0.5
 14
0.5
 24
0.438655018083
 14
-0.5
 24
0.438655018083
 14
-0.5
 24
0.5
290
     0
  0
TEXT
  5
2AB
330
205
100
AcDbEntity
  8
Layer65002
  6
AUSGEZOGEN
 62
    18
420
        0
370
    18
100
AcDbText
 10
-82.894136277876
 20
-265.599013416691
 30
0.0
 40
8.141025641026
  1
General tolerances ISO 2768 - mK
 41
1.13539149823
  7
Arial
 72
     5
 11
115.022360551082
 21
-265.599013416691
 31
0.0
100
AcDbText
  0
LINE
  5
2AC
330
205
100
AcDbEntity
  8
Layer65002
  6
AUSGEZOGEN
 62
    18
420
        0
370
    18
100
AcDbLine
 10
-91.408627619034
 20
-236.876547855854
 30
0.0
 11
133.591372380966
 21
-236.876547855853
 31
0.0
  0
WIPEOUT
  5
2AD
330
205
100
AcDbEntity
  8
Layer65002
  6
AUSGEZOGEN
 62
    18
420
        0
370
    18
160
               128
310
80000000020000000C00000014000000010000006C00000007000000040000006693FBD4B59A8840C9AFB315BDC270C0000000000000000052E5B3F3BAFB8840C9AFB315BDC270C0000000000000000052E5B3F3BAFB8840925F672B7A056EC000000000000000006693FBD4B59A8840925F672B7A056EC000000000000000
310
00
100
AcDbWipeout
 90
        0
 10
787.338785138546
 20
-268.171163274671
 30
0.0
 11
28.0
 21
0.0
 31
0.0
 12
0.0
 22
28.0
 32
0.0
 13
1.0
 23
1.0
340
0
 70
     7
280
     1
281
    50
282
    50
283
     0
360
0
 71
     2
 91
        5
 14
-0.5
 24
0.5
 14
-0.066875
 24
0.5
 14
-0.066875
 24
-0.5
 14
-0.5
 24
-0.5
 14
-0.5
 24
0.5
290
     0
  0
TEXT
  5
2AE
330
205
100
AcDbEntity
  8
Layer65002
  6
AUSGEZOGEN
 62
    18
420
        0
370
    18
100
AcDbText
 10
787.338785138546
 20
-262.921163274671
 30
0.0
 40
17.5
  1
3
 41
0.893041237113
  7
Arial
 72
     5
 11
799.466285138546
 21
-262.921163274671
 31
0.0
100
AcDbText
  0
ENDBLK
  5
207
330
205
100
AcDbEntity
  8
0
100
AcDbBlockEnd
  0
BLOCK
  5
25E
330
25D
100
AcDbEntity
  8
0
100
AcDbBlockBegin
  2
Schriftfeld_nNn016
 70
     0
 10
0.0
 20
0.0
 30
0.0
  3
Schriftfeld_nNn016
  1

  0
LINE
  5
260
330
25D
100
AcDbEntity
  8
Layer65002
  6
AUSGEZOGEN
 62
    18
420
        0
370
    18
100
AcDbLine
 10
808.591372380966
 20
-272.774260410668
 30
0.0
 11
808.591372380966
 21
-122.774260410668
 31
0.0
  0
LINE
  5
261
330
25D
100
AcDbEntity
  8
Layer65002
  6
AUSGEZOGEN
 62
    18
420
        0
370
    18
100
AcDbLine
 10
-91.408627619034
 20
-272.774260410668
 30
0.0
 11
808.591372380966
 21
-272.774260410668
 31
0.0
  0
LINE
  5
262
330
25D
100
AcDbEntity
  8
Layer65002
  6
AUSGEZOGEN
 62
    18
420
        0
370
    18
100
AcDbLine
 10
371.091372380958
 20
-222.774260410668
 30
0.0
 11
808.591372380966
 21
-222.774260410668
 31
0.0
  0
LINE
  5
263
330
25D
100
AcDbEntity
  8
Layer65002
  6
AUSGEZOGEN
 62
    18
420
        0
370
    18
100
AcDbLine
 10
-91.408627619034
 20
-122.774260410668
 30
0.0
 11
808.591372380966
 21
-122.774260410668
 31
0.0
  0
LINE
  5
264
330
25D
100
AcDbEntity
  8
Layer65002
  6
AUSGEZOGEN
 62
    18
420
        0
370
    18
100
AcDbLine
 10
758.591372380966
 20
-272.774260410668
 30
0.0
 11
758.591372380966
 21
-222.774260410668
 31
0.0
  0
LINE
  5
265
330
25D
100
AcDbEntity
  8
Layer65002
  6
AUSGEZOGEN
 62
    18
420
        0
370
    18
100
AcDbLine
 10
708.591372380966
 20
-272.774260410668
 30
0.0
 11
708.591372380966
 21
-222.774260410668
 31
0.0
  0
LINE
  5
266
330
25D
100
AcDbEntity
  8
Layer65002
  6
AUSGEZOGEN
 62
    18
420
        0
370
    18
100
AcDbLine
 10
483.591372380966
 20
-272.774260410668
 30
0.0
 11
483.591372380966
 21
-222.774260410668
 31
0.0
  0
WIPEOUT
  5
267
330
25D
100
AcDbEntity
  8
Layer65002
  6
AUSGEZOGEN
 62
    18
420
        0
370
    18
160
               128
310
80000000020000000C00000014000000010000006C000000070000000400000008AA97501BDE8740735553DACFF46DC000000000000000006E10B62F6BC28840735553DACFF46DC000000000000000006E10B62F6BC288407355530E03286CC0000000000000000008AA97501BDE87407355530E03286CC000000000000000
310
00
100
AcDbWipeout
 90
        0
 10
763.763337311627
 20
-239.650372660409
 30
0.0
 11
28.53899978399272
 21
0.0
 31
0.0
 12
0.0
 22
28.53899978399272
 32
0.0
 13
1.0
 23
1.0
340
0
 70
     7
280
     1
281
    50
282
    50
283
     0
360
0
 71
     2
 91
        5
 14
-0.5
 24
0.5
 14
0.5
 24
0.5
 14
0.5
 24
-0.004572680456
 14
-0.5
 24
-0.004572680456
 14
-0.5
 24
0.5
290
     0
  0
TEXT
  5
268
330
25D
100
AcDbEntity
  8
Layer65002
  6
AUSGEZOGEN
 62
    18
420
        0
370
    18
100
AcDbText
 10
763.763337311627
 20
-236.950372731935
 30
0.0
 40
8.999999761581
  1
Blatt
 41
1.135338367348
  7
Arial
 72
     5
 11
792.30233709562
 21
-236.950372731935
 31
0.0
100
AcDbText
  0
WIPEOUT
  5
269
330
25D
100
AcDbEntity
  8
Layer65002
  6
AUSGEZOGEN
 62
    18
420
        0
370
    18
160
               128
310
80000000020000000C00000014000000010000006C0000000700000004000000EA30E6010B558640F25614F1B9106EC000000000000000001E64894D426C8740F25614F1B9106EC000000000000000001E64894D426C8740F2561425ED436CC00000000000000000EA30E6010B558640F2561425ED436CC000000000000000
310
00
100
AcDbWipeout
 90
        0
 10
714.630374716156
 20
-240.522697963453
 30
0.0
 11
34.90199973583219
 21
0.0
 31
0.0
 12
0.0
 22
34.90199973583219
 32
0.0
 13
1.0
 23
1.0
340
0
 70
     7
280
     1
281
    50
282
    50
283
     0
360
0
 71
     2
 91
        5
 14
-0.5
 24
0.5
 14
0.5
 24
0.5
 14
0.5
 24
0.087416201721
 14
-0.5
 24
0.087416201721
 14
-0.5
 24
0.5
290
     0
  0
TEXT
  5
26A
330
25D
100
AcDbEntity
  8
Layer65002
  6
AUSGEZOGEN
 62
    18
420
        0
370
    18
100
AcDbText
 10
714.630374716156
 20
-237.822698034979
 30
0.0
 40
8.999999761581
  1
Index
 41
1.135910976385
  7
Arial
 72
     5
 11
749.532374451988
 21
-237.822698034979
 31
0.0
100
AcDbText
  0
WIPEOUT
  5
26B
330
25D
100
AcDbEntity
  8
Layer65002
  6
AUSGEZOGEN
 62
    18
420
        0
370
    18
160
               128
310
80000000020000000C00000014000000010000006C0000000700000004000000D7D16DAC9E717E4082863E6CF62B6EC00000000000000000B8B5DB5B5029834082863E6CF62B6EC00000000000000000B8B5DB5B5029834082863EA0295F6CC00000000000000000D7D16DAC9E717E4082863EA0295F6CC000000000000000
310
00
100
AcDbWipeout
 90
        0
 10
487.101238659843
 20
-241.373830911751
 30
0.0
 11
126.0629990458489
 21
0.0
 31
0.0
 12
0.0
 22
126.0629990458489
 32
0.0
 13
1.0
 23
1.0
340
0
 70
     7
280
     1
281
    50
282
    50
283
     0
360
0
 71
     2
 91
        5
 14
-0.5
 24
0.5
 14
0.5
 24
0.5
 14
0.5
 24
0.385771402176
 14
-0.5
 24
0.385771402176
 14
-0.5
 24
0.5
290
     0
  0
TEXT
  5
26C
330
25D
100
AcDbEntity
  8
Layer65002
  6
AUSGEZOGEN
 62
    18
420
        0
370
    18
100
AcDbText
 10
487.101238659843
 20
-238.673830983276
 30
0.0
 40
8.999999761581
  1
Zeichnungsnummer
 41
1.135641338174
  7
Arial
 72
     5
 11
613.164237705692
 21
-238.673830983276
 31
0.0
100
AcDbText
  0
WIPEOUT
  5
26D
330
25D
100
AcDbEntity
  8
Layer65002
  6
AUSGEZOGEN
 62
    18
420
        0
370
    18
160
               128
310
80000000020000000C00000014000000010000006C00000007000000040000003880C585EC02614012CDC4232D4F6EC000000000000000006CB338DBFA77654012CDC4232D4F6EC000000000000000006CB338DBFA77654012CDC45760826CC000000000000000003880C585EC02614012CDC45760826CC000000000000000
310
00
100
AcDbWipeout
 90
        0
 10
136.091372380966
 20
-242.474260219934
 30
0.0
 11
35.65799973011016
 21
0.0
 31
0.0
 12
0.0
 22
35.65799973011016
 32
0.0
 13
1.0
 23
1.0
340
0
 70
     7
280
     1
281
    50
282
    50
283
     0
360
0
 71
     2
 91
        5
 14
-0.5
 24
0.5
 14
0.5
 24
0.5
 14
0.5
 24
0.096163561402
 14
-0.5
 24
0.096163561402
 14
-0.5
 24
0.5
290
     0
  0
TEXT
  5
26E
330
25D
100
AcDbEntity
  8
Layer65002
  6
AUSGEZOGEN
 62
    18
420
        0
370
    18
100
AcDbText
 10
136.091372380966
 20
-239.774260291459
 30
0.0
 40
8.999999761581
  1
Gepr.
 41
1.134918382976
  7
Arial
 72
     5
 11
171.749372111076
 21
-239.774260291459
 31
0.0
100
AcDbText
  0
LINE
  5
26F
330
25D
100
AcDbEntity
  8
Layer65002
  6
AUSGEZOGEN
 62
    18
420
        0
370
    18
100
AcDbLine
 10
133.591372380966
 20
-272.774260410668
 30
0.0
 11
133.591372380966
 21
-122.774260410668
 31
0.0
  0
WIPEOUT
  5
270
330
25D
100
AcDbEntity
  8
Layer65002
  6
AUSGEZOGEN
 62
    18
420
        0
370
    18
160
               128
310
80000000020000000C00000014000000010000006C00000007000000040000006C45C75514A377403E2FAD12FD5B61C00000000000000000D2ABFDF659337C403E2FAD12FD5B61C00000000000000000D2ABFDF659337C407C5E5A8D601E5FC000000000000000006C45C75514A377407C5E5A8D601E5FC000000000000000
310
00
100
AcDbWipeout
 90
        0
 10
378.19246461716
 20
-138.874642694713
 30
0.0
 11
73.01699944734571
 21
0.0
 31
0.0
 12
0.0
 22
73.01699944734571
 32
0.0
 13
1.0
 23
1.0
340
0
 70
     7
280
     1
281
    50
282
    50
283
     0
360
0
 71
     2
 91
        5
 14
-0.5
 24
0.5
 14
0.5
 24
0.5
 14
0.5
 24
0.302785656388
 14
-0.5
 24
0.302785656388
 14
-0.5
 24
0.5
290
     0
  0
TEXT
  5
271
330
25D
100
AcDbEntity
  8
Layer65002
  6
AUSGEZOGEN
 62
    18
420
        0
370
    18
100
AcDbText
 10
378.19246461716
 20
-136.174642766238
 30
0.0
 40
8.999999761581
  1
Benennung
 41
1.136433695688
  7
Arial
 72
     5
 11
451.209464064506
 21
-136.174642766238
 31
0.0
100
AcDbText
  0
WIPEOUT
  5
272
330
25D
100
AcDbEntity
  8
Layer65002
  6
AUSGEZOGEN
 62
    18
420
        0
370
    18
160
               128
310
80000000020000000C00000014000000010000006C000000070000000400000008AFBAFB18496140409DC247128761C00000000000000000D47B67AEE17B6D40409DC247128761C00000000000000000D47B67AEE17B6D40803A85F78A745FC0000000000000000008AFBAFB18496140803A85F78A745FC000000000000000
310
00
100
AcDbWipeout
 90
        0
 10
138.284299721352
 20
-140.220981483561
 30
0.0
 11
97.58699926137922
 21
0.0
 31
0.0
 12
0.0
 22
97.58699926137922
 32
0.0
 13
1.0
 23
1.0
340
0
 70
     7
280
     1
281
    50
282
    50
283
     0
360
0
 71
     2
 91
        5
 14
-0.5
 24
0.5
 14
0.5
 24
0.5
 14
0.5
 24
0.352439364592
 14
-0.5
 24
0.352439364592
 14
-0.5
 24
0.5
290
     0
  0
TEXT
  5
273
330
25D
100
AcDbEntity
  8
Layer65002
  6
AUSGEZOGEN
 62
    18
420
        0
370
    18
100
AcDbText
 10
138.284299721352
 20
-137.520981555086
 30
0.0
 40
8.999999761581
  1
Dokumentenart
 41
1.136344603351
  7
Arial
 72
     5
 11
235.871298982731
 21
-137.520981555086
 31
0.0
100
AcDbText
  0
WIPEOUT
  5
274
330
25D
100
AcDbEntity
  8
Layer65002
  6
AUSGEZOGEN
 62
    18
420
        0
370
    18
160
               128
310
80000000020000000C00000014000000010000006C00000007000000040000003880C585EC02614011CDC4232D2F6BC000000000000000009EE64B8D9843664011CDC4232D2F6BC000000000000000009EE64B8D9843664011CDC457606269C000000000000000003880C585EC02614011CDC457606269C000000000000000
310
00
100
AcDbWipeout
 90
        0
 10
136.091372380966
 20
-217.474260219934
 30
0.0
 11
42.0209996819496
 21
0.0
 31
0.0
 12
0.0
 22
42.0209996819496
 32
0.0
 13
1.0
 23
1.0
340
0
 70
     7
280
     1
281
    50
282
    50
283
     0
360
0
 71
     2
 91
        5
 14
-0.5
 24
0.5
 14
0.5
 24
0.5
 14
0.5
 24
0.157314206527
 14
-0.5
 24
0.157314206527
 14
-0.5
 24
0.5
290
     0
  0
TEXT
  5
275
330
25D
100
AcDbEntity
  8
Layer65002
  6
AUSGEZOGEN
 62
    18
420
        0
370
    18
100
AcDbText
 10
136.091372380966
 20
-214.774260291459
 30
0.0
 40
8.999999761581
  1
Bearb.
 41
1.135457219929
  7
Arial
 72
     5
 11
178.112372062916
 21
-214.774260291459
 31
0.0
100
AcDbText
  0
WIPEOUT
  5
276
330
25D
100
AcDbEntity
  8
Layer65002
  6
AUSGEZOGEN
 62
    18
420
        0
370
    18
160
               128
310
80000000020000000C00000014000000010000006C00000007000000040000003880C585EC0261408966E29196B770C000000000000000006CB318A8C7E064408966E29196B770C000000000000000006CB318A8C7E0644012CDC45760A26FC000000000000000003880C585EC02614012CDC45760A26FC000000000000000
310
00
100
AcDbWipeout
 90
        0
 10
136.091372380966
 20
-267.474260219934
 30
0.0
 11
30.93299976587295
 21
0.0
 31
0.0
 12
0.0
 22
30.93299976587295
 32
0.0
 13
1.0
 23
1.0
340
0
 70
     7
280
     1
281
    50
282
    50
283
     0
360
0
 71
     2
 91
        5
 14
-0.5
 24
0.5
 14
0.5
 24
0.5
 14
0.5
 24
0.034477751026
 14
-0.5
 24
0.034477751026
 14
-0.5
 24
0.5
290
     0
  0
TEXT
  5
277
330
25D
100
AcDbEntity
  8
Layer65002
  6
AUSGEZOGEN
 62
    18
420
        0
370
    18
100
AcDbText
 10
136.091372380966
 20
-264.774260291459
 30
0.0
 40
8.999999761581
  1
Gen.
 41
1.135822889965
  7
Arial
 72
     5
 11
167.024372146839
 21
-264.774260291459
 31
0.0
100
AcDbText
  0
WIPEOUT
  5
278
330
25D
100
AcDbEntity
  8
Layer65002
  6
AUSGEZOGEN
 62
    18
420
        0
370
    18
160
               128
310
80000000020000000C00000014000000010000006C0000000700000004000000F0648A01A0FC55C0DC2F5660188861C00000000000000000E08DB96E8DFC2DC0DC2F5660188861C00000000000000000E08DB96E8DFC2DC0B85FAC2897765FC00000000000000000F0648A01A0FC55C0B85FAC2897765FC000000000000000
310
00
100
AcDbWipeout
 90
        0
 10
-87.947265992308
 20
-140.252975624403
 30
0.0
 11
72.95399944782258
 21
0.0
 31
0.0
 12
0.0
 22
72.95399944782258
 32
0.0
 13
1.0
 23
1.0
340
0
 70
     7
280
     1
281
    50
282
    50
283
     0
360
0
 71
     2
 91
        5
 14
-0.5
 24
0.5
 14
0.5
 24
0.5
 14
0.5
 24
0.302615350392
 14
-0.5
 24
0.302615350392
 14
-0.5
 24
0.5
290
     0
  0
TEXT
  5
279
330
25D
100
AcDbEntity
  8
Layer65002
  6
AUSGEZOGEN
 62
    18
420
        0
370
    18
100
AcDbText
 10
-87.947265992308
 20
-137.552975695928
 30
0.0
 40
8.999999761581
  1
Eigentümer
 41
1.135771353984
  7
Arial
 72
     5
 11
-14.993266544486
 21
-137.552975695928
 31
0.0
100
AcDbText
  0
WIPEOUT
  5
27A
330
25D
100
AcDbEntity
  8
Layer65002
  6
AUSGEZOGEN
 62
    18
420
        0
370
    18
160
               128
310
80000000020000000C00000014000000010000006C000000070000000400000098AB34FB94157140199FE5CA98E96BC00000000000000000E08CAF0FC3187540199FE5CA98E96BC00000000000000000E08CAF0FC3187540FFFAA3B0F4A768C0000000000000000098AB34FB94157140FFFAA3B0F4A768C000000000000000
310
00
100
AcDbWipeout
 90
        0
 10
273.348872380966
 20
-223.299901436309
 30
0.0
 11
64.19875000000002
 21
0.0
 31
0.0
 12
0.0
 22
64.19875000000002
 32
0.0
 13
1.0
 23
1.0
340
0
 70
     7
280
     1
281
    50
282
    50
283
     0
360
0
 71
     2
 91
        5
 14
-0.5
 24
0.5
 14
0.5
 24
0.5
 14
0.5
 24
0.094208889561
 14
-0.5
 24
0.094208889561
 14
-0.5
 24
0.5
290
     0
  0
TEXT
  5
27B
330
25D
100
AcDbEntity
  8
Layer65002
  6
AUSGEZOGEN
 62
    18
420
        0
370
    18
100
AcDbText
 10
273.348872380966
 20
-218.415286051694
 30
0.0
 40
16.282051282051
  1
Bearb.
 41
0.958880193174
  7
Arial
 72
     5
 11
337.547622380966
 21
-218.415286051694
 31
0.0
100
AcDbText
  0
WIPEOUT
  5
27C
330
25D
100
AcDbEntity
  8
Layer65002
  6
AUSGEZOGEN
 62
    18
420
        0
370
    18
160
               128
310
80000000020000000C00000014000000010000006C0000000700000004000000585769F629EB66401C9FE5CA98E96BC000000000000000008E2649A9DCC370401C9FE5CA98E96BC000000000000000008E2649A9DCC3704002FBA3B0F4A768C00000000000000000585769F629EB664002FBA3B0F4A768C000000000000000
310
00
100
AcDbWipeout
 90
        0
 10
183.348872380967
 20
-223.299901436309
 30
0.0
 11
84.89250000000004
 21
0.0
 31
0.0
 12
0.0
 22
84.89250000000004
 32
0.0
 13
1.0
 23
1.0
340
0
 70
     7
280
     1
281
    50
282
    50
283
     0
360
0
 71
     2
 91
        5
 14
-0.5
 24
0.5
 14
0.5
 24
0.5
 14
0.5
 24
0.193126223738
 14
-0.5
 24
0.193126223738
 14
-0.5
 24
0.5
290
     0
  0
TEXT
  5
27D
330
25D
100
AcDbEntity
  8
Layer65002
  6
AUSGEZOGEN
 62
    18
420
        0
370
    18
100
AcDbText
 10
183.348872380967
 20
-218.415286051694
 30
0.0
 40
16.282051282051
  1
10.09.20
 41
0.959843534378
  7
Arial
 72
     5
 11
268.241372380967
 21
-218.415286051694
 31
0.0
100
AcDbText
  0
WIPEOUT
  5
27E
330
25D
100
AcDbEntity
  8
Layer65002
  6
AUSGEZOGEN
 62
    18
420
        0
370
    18
160
               128
310
80000000020000000C00000014000000010000006C0000000700000004000000D8EE88CD259377408C2265E367CA70C00000000000000000D8EEA8388CFC79408C2265E367CA70C00000000000000000D8EEA8388CFC79401845CAC6CF146EC00000000000000000D8EE88CD259377401845CAC6CF146EC000000000000000
310
00
100
AcDbWipeout
 90
        0
 10
377.196729216475
 20
-268.650363345202
 30
0.0
 11
38.58750450611115
 21
0.0
 31
0.0
 12
0.0
 22
38.58750450611115
 32
0.0
 13
1.0
 23
1.0
340
0
 70
     7
280
     1
281
    50
282
    50
283
     0
360
0
 71
     2
 91
        5
 14
-0.5
 24
0.5
 14
0.5
 24
0.5
 14
0.5
 24
-0.225623498031
 14
-0.5
 24
-0.225623498031
 14
-0.5
 24
0.5
290
     0
  0
TEXT
  5
27F
330
25D
100
AcDbEntity
  8
Layer65002
  6
AUSGEZOGEN
 62
    18
420
        0
370
    18
100
AcDbText
 10
377.196729216475
 20
-263.400363345202
 30
0.0
 40
17.5
  1
1:5
 41
1.136598070872
  7
Arial
 72
     5
 11
415.784233722586
 21
-263.400363345202
 31
0.0
100
AcDbText
  0
WIPEOUT
  5
280
330
25D
100
AcDbEntity
  8
Layer65002
  6
AUSGEZOGEN
 62
    18
420
        0
370
    18
160
               128
310
80000000020000000C00000014000000010000006C000000070000000400000010E0E9613F726140DE9AC9B8E64365C0000000000000000046FACB5410D07140DE9AC9B8E64365C0000000000000000046FACB5410D07140DE9AC9B8E6C361C0000000000000000010E0E9613F726140DE9AC9B8E6C361C000000000000000
310
00
100
AcDbWipeout
 90
        0
 10
139.570237118518
 20
-170.121914285431
 30
0.0
 11
145.43375
 21
0.0
 31
0.0
 12
0.0
 22
145.43375
 32
0.0
 13
1.0
 23
1.0
340
0
 70
     7
280
     1
281
    50
282
    50
283
     0
360
0
 71
     2
 91
        5
 14
-0.5
 24
0.5
 14
0.5
 24
0.5
 14
0.5
 24
0.30747247458
 14
-0.5
 24
0.30747247458
 14
-0.5
 24
0.5
290
     0
  0
TEXT
  5
281
330
25D
100
AcDbEntity
  8
Layer65002
  6
AUSGEZOGEN
 62
    18
420
        0
370
    18
100
AcDbText
 10
139.570237118518
 20
-164.871914285431
 30
0.0
 40
17.5
  1
Zusammenbau
 41
0.892738210334
  7
Arial
 72
     5
 11
285.003987118518
 21
-164.871914285431
 31
0.0
100
AcDbText
  0
WIPEOUT
  5
282
330
25D
100
AcDbEntity
  8
Layer65002
  6
AUSGEZOGEN
 62
    18
420
        0
370
    18
160
               128
310
80000000020000000C00000014000000010000006C0000000700000004000000142BA6C45ADE7E40DE4BD5E70FE270C0000000000000000076670B81F2738540DE4BD5E70FE270C0000000000000000076670B81F2738540BC97AACF1F446EC00000000000000000142BA6C45ADE7E40BC97AACF1F446EC000000000000000
310
00
100
AcDbWipeout
 90
        0
 10
493.897160195441
 20
-270.128883202733
 30
0.0
 11
192.5962500000001
 21
0.0
 31
0.0
 12
0.0
 22
192.5962500000001
 32
0.0
 13
1.0
 23
1.0
340
0
 70
     7
280
     1
281
    50
282
    50
283
     0
360
0
 71
     2
 91
        5
 14
-0.5
 24
0.5
 14
0.5
 24
0.5
 14
0.5
 24
0.354618145473
 14
-0.5
 24
0.354618145473
 14
-0.5
 24
0.5
290
     0
  0
TEXT
  5
283
330
25D
100
AcDbEntity
  8
Layer65002
  6
AUSGEZOGEN
 62
    18
420
        0
370
    18
100
AcDbText
 10
493.897160195441
 20
-264.878883202733
 30
0.0
 40
17.5
  1
Zeichnungsnummer
 41
0.892289605967
  7
Arial
 72
     5
 11
686.493410195441
 21
-264.878883202733
 31
0.0
100
AcDbText
  0
WIPEOUT
  5
284
330
25D
100
AcDbEntity
  8
Layer65002
  6
AUSGEZOGEN
 62
    18
420
        0
370
    18
160
               128
310
80000000020000000C00000014000000010000006C00000007000000040000006C45C75514A3774011CDC4BDC64066C000000000000000008D4654685484824011CDC4BDC64066C000000000000000008D4654685484824011CDC4BDC6C062C000000000000000006C45C75514A3774011CDC4BDC6C062C000000000000000
310
00
100
AcDbWipeout
 90
        0
 10
378.19246461716
 20
-178.024260410668
 30
0.0
 11
214.34875
 21
0.0
 31
0.0
 12
0.0
 22
214.34875
 32
0.0
 13
1.0
 23
1.0
340
0
 70
     7
280
     1
281
    50
282
    50
283
     0
360
0
 71
     2
 91
        5
 14
-0.5
 24
0.5
 14
0.5
 24
0.5
 14
0.5
 24
0.369371759807
 14
-0.5
 24
0.369371759807
 14
-0.5
 24
0.5
290
     0
  0
TEXT
  5
285
330
25D
100
AcDbEntity
  8
Layer65002
  6
AUSGEZOGEN
 62
    18
420
        0
370
    18
100
AcDbText
 10
378.19246461716
 20
-172.774260410668
 30
0.0
 40
17.5
  1
Wetterschutzblech VA
 41
0.892032626903
  7
Arial
 72
     5
 11
592.54121461716
 21
-172.774260410668
 31
0.0
100
AcDbText
  0
WIPEOUT
  5
286
330
25D
100
AcDbEntity
  8
Layer65002
  6
AUSGEZOGEN
 62
    18
420
        0
370
    18
160
               128
310
80000000020000000C00000014000000010000006C00000007000000040000006C45C75514A3774088BB1EDB07226AC000000000000000006C45C7559416784088BB1EDB07226AC000000000000000006C45C7559416784088BB1EDB07A266C000000000000000006C45C75514A3774088BB1EDB07A266C000000000000000
310
00
100
AcDbWipeout
 90
        0
 10
378.19246461716
 20
-209.063458976769
 30
0.0
 11
28.0
 21
0.0
 31
0.0
 12
0.0
 22
28.0
 32
0.0
 13
1.0
 23
1.0
340
0
 70
     7
280
     1
281
    50
282
    50
283
     0
360
0
 71
     2
 91
        5
 14
-0.5
 24
0.5
 14
-0.2421875
 24
0.5
 14
-0.2421875
 24
-0.5
 14
-0.5
 24
-0.5
 14
-0.5
 24
0.5
290
     0
  0
TEXT
  5
287
330
25D
100
AcDbEntity
  8
Layer65002
  6
AUSGEZOGEN
 62
    18
420
        0
370
    18
100
AcDbText
 10
378.19246461716
 20
-203.813458976769
 30
0.0
 40
17.5
  1
-
 41
0.887096774194
  7
Arial
 72
     5
 11
385.41121461716
 21
-203.813458976769
 31
0.0
100
AcDbText
  0
WIPEOUT
  5
288
330
25D
100
AcDbEntity
  8
Layer65002
  6
AUSGEZOGEN
 62
    18
420
        0
370
    18
160
               128
310
80000000020000000C00000014000000010000006C000000070000000400000090BFE242761971408ECF7265CC1471C0000000000000000090BFE242F68C71408ECF7265CC1471C0000000000000000090BFE242F68C714003FBA3B0F4E76EC0000000000000000090BFE2427619714003FBA3B0F4E76EC000000000000000
310
00
100
AcDbWipeout
 90
        0
 10
273.591372380958
 20
-273.299901436309
 30
0.0
 11
26.05128205128204
 21
0.0
 31
0.0
 12
0.0
 22
26.05128205128204
 32
0.0
 13
1.0
 23
1.0
340
0
 70
     7
280
     1
281
    50
282
    50
283
     0
360
0
 71
     2
 91
        5
 14
-0.5
 24
0.5
 14
-0.222902312992
 24
0.5
 14
-0.222902312992
 24
-0.5
 14
-0.5
 24
-0.5
 14
-0.5
 24
0.5
290
     0
  0
TEXT
  5
289
330
25D
100
AcDbEntity
  8
Layer65002
  6
AUSGEZOGEN
 62
    18
420
        0
370
    18
100
AcDbText
 10
273.591372380958
 20
-268.415286051694
 30
0.0
 40
16.282051282051
  1
-
 41
0.953454406909
  7
Arial
 72
     5
 11
280.810122380958
 21
-268.415286051694
 31
0.0
100
AcDbText
  0
WIPEOUT
  5
28A
330
25D
100
AcDbEntity
  8
Layer65002
  6
AUSGEZOGEN
 62
    18
420
        0
370
    18
160
               128
310
80000000020000000C00000014000000010000006C0000000700000004000000487FC585ECF266408ECF7265CC1471C00000000000000000487FC585ECD967408ECF7265CC1471C00000000000000000487FC585ECD9674003FBA3B0F4E76EC00000000000000000487FC585ECF2664003FBA3B0F4E76EC000000000000000
310
00
100
AcDbWipeout
 90
        0
 10
183.591372380959
 20
-273.299901436309
 30
0.0
 11
26.05128205128204
 21
0.0
 31
0.0
 12
0.0
 22
26.05128205128204
 32
0.0
 13
1.0
 23
1.0
340
0
 70
     7
280
     1
281
    50
282
    50
283
     0
360
0
 71
     2
 91
        5
 14
-0.5
 24
0.5
 14
-0.222902312992
 24
0.5
 14
-0.222902312992
 24
-0.5
 14
-0.5
 24
-0.5
 14
-0.5
 24
0.5
290
     0
  0
TEXT
  5
28B
330
25D
100
AcDbEntity
  8
Layer65002
  6
AUSGEZOGEN
 62
    18
420
        0
370
    18
100
AcDbText
 10
183.591372380959
 20
-268.415286051694
 30
0.0
 40
16.282051282051
  1
-
 41
0.953454406909
  7
Arial
 72
     5
 11
190.810122380959
 21
-268.415286051694
 31
0.0
100
AcDbText
  0
WIPEOUT
  5
28C
330
25D
100
AcDbEntity
  8
Layer65002
  6
AUSGEZOGEN
 62
    18
420
        0
370
    18
160
               128
310
80000000020000000C00000014000000010000006C0000000700000004000000AC29029322187140199FE5CA98096FC00000000000000000AC290293A28B7140199FE5CA98096FC00000000000000000AC290293A28B7140FFFAA3B0F4C76BC00000000000000000AC29029322187140FFFAA3B0F4C76BC000000000000000
310
00
100
AcDbWipeout
 90
        0
 10
273.508440979431
 20
-248.299901436309
 30
0.0
 11
26.05128205128204
 21
0.0
 31
0.0
 12
0.0
 22
26.05128205128204
 32
0.0
 13
1.0
 23
1.0
340
0
 70
     7
280
     1
281
    50
282
    50
283
     0
360
0
 71
     2
 91
        5
 14
-0.5
 24
0.5
 14
-0.222902312992
 24
0.5
 14
-0.222902312992
 24
-0.5
 14
-0.5
 24
-0.5
 14
-0.5
 24
0.5
290
     0
  0
TEXT
  5
28D
330
25D
100
AcDbEntity
  8
Layer65002
  6
AUSGEZOGEN
 62
    18
420
        0
370
    18
100
AcDbText
 10
273.508440979431
 20
-243.415286051694
 30
0.0
 40
16.282051282051
  1
-
 41
0.953454406909
  7
Arial
 72
     5
 11
280.727190979431
 21
-243.415286051694
 31
0.0
100
AcDbText
  0
WIPEOUT
  5
28E
330
25D
100
AcDbEntity
  8
Layer65002
  6
AUSGEZOGEN
 62
    18
420
        0
370
    18
160
               128
310
80000000020000000C00000014000000010000006C00000007000000040000008053042645F066401C9FE5CA98096FC000000000000000008053042645D767401C9FE5CA98096FC000000000000000008053042645D7674002FBA3B0F4C76BC000000000000000008053042645F0664002FBA3B0F4C76BC000000000000000
310
00
100
AcDbWipeout
 90
        0
 10
183.508440979433
 20
-248.299901436309
 30
0.0
 11
26.05128205128204
 21
0.0
 31
0.0
 12
0.0
 22
26.05128205128204
 32
0.0
 13
1.0
 23
1.0
340
0
 70
     7
280
     1
281
    50
282
    50
283
     0
360
0
 71
     2
 91
        5
 14
-0.5
 24
0.5
 14
-0.222902312992
 24
0.5
 14
-0.222902312992
 24
-0.5
 14
-0.5
 24
-0.5
 14
-0.5
 24
0.5
290
     0
  0
TEXT
  5
28F
330
25D
100
AcDbEntity
  8
Layer65002
  6
AUSGEZOGEN
 62
    18
420
        0
370
    18
100
AcDbText
 10
183.508440979433
 20
-243.415286051694
 30
0.0
 40
16.282051282051
  1
-
 41
0.953454406909
  7
Arial
 72
     5
 11
190.727190979433
 21
-243.415286051694
 31
0.0
100
AcDbText
  0
WIPEOUT
  5
290
330
25D
100
AcDbEntity
  8
Layer65002
  6
AUSGEZOGEN
 62
    18
420
        0
370
    18
160
               128
310
80000000020000000C00000014000000010000006C0000000700000004000000D8D5F4C4F1578840FAB7085E8FD370C00000000000000000CEFE505474888840FAB7085E8FD370C00000000000000000CEFE505474888840F46F11BC1E276EC00000000000000000D8D5F4C4F1578840F46F11BC1E276EC000000000000000
310
00
100
AcDbWipeout
 90
        0
 10
778.993051445747
 20
-269.22250178724
 30
0.0
 11
28.0
 21
0.0
 31
0.0
 12
0.0
 22
28.0
 32
0.0
 13
1.0
 23
1.0
340
0
 70
     7
280
     1
281
    50
282
    50
283
     0
360
0
 71
     2
 91
        5
 14
-0.5
 24
0.5
 14
-0.2834375
 24
0.5
 14
-0.2834375
 24
-0.5
 14
-0.5
 24
-0.5
 14
-0.5
 24
0.5
290
     0
  0
TEXT
  5
291
330
25D
100
AcDbEntity
  8
Layer65002
  6
AUSGEZOGEN
 62
    18
420
        0
370
    18
100
AcDbText
 10
778.993051445747
 20
-263.97250178724
 30
0.0
 40
17.5
  1
/
 41
0.893041237113
  7
Arial
 72
     5
 11
785.056801445747
 21
-263.97250178724
 31
0.0
100
AcDbText
  0
WIPEOUT
  5
292
330
25D
100
AcDbEntity
  8
Layer65002
  6
AUSGEZOGEN
 62
    18
420
        0
370
    18
160
               128
310
80000000020000000C00000014000000010000006C0000000700000004000000B0EC40AC75598640C9AFB315BDC270C00000000000000000B0EC40AC35938640C9AFB315BDC270C00000000000000000B0EC40AC35938640925F672B7A056EC00000000000000000B0EC40AC75598640925F672B7A056EC000000000000000
310
00
100
AcDbWipeout
 90
        0
 10
715.182457453941
 20
-268.171163274671
 30
0.0
 11
28.0
 21
0.0
 31
0.0
 12
0.0
 22
28.0
 32
0.0
 13
1.0
 23
1.0
340
0
 70
     7
280
     1
281
    50
282
    50
283
     0
360
0
 71
     2
 91
        5
 14
-0.5
 24
0.5
 14
-0.2421875
 24
0.5
 14
-0.2421875
 24
-0.5
 14
-0.5
 24
-0.5
 14
-0.5
 24
0.5
290
     0
  0
TEXT
  5
293
330
25D
100
AcDbEntity
  8
Layer65002
  6
AUSGEZOGEN
 62
    18
420
        0
370
    18
100
AcDbText
 10
715.182457453941
 20
-262.921163274671
 30
0.0
 40
17.5
  1
-
 41
0.887096774194
  7
Arial
 72
     5
 11
722.401207453941
 21
-262.921163274671
 31
0.0
100
AcDbText
  0
WIPEOUT
  5
294
330
25D
100
AcDbEntity
  8
Layer65002
  6
AUSGEZOGEN
 62
    18
420
        0
370
    18
160
               128
310
80000000020000000C00000014000000010000006C00000007000000040000006693FBD4B5D28740C9AFB315BDC270C0000000000000000052E5B3F3BA338840C9AFB315BDC270C0000000000000000052E5B3F3BA338840925F672B7A056EC000000000000000006693FBD4B5D28740925F672B7A056EC000000000000000
310
00
100
AcDbWipeout
 90
        0
 10
762.338785138546
 20
-268.171163274671
 30
0.0
 11
28.0
 21
0.0
 31
0.0
 12
0.0
 22
28.0
 32
0.0
 13
1.0
 23
1.0
340
0
 70
     7
280
     1
281
    50
282
    50
283
     0
360
0
 71
     2
 91
        5
 14
-0.5
 24
0.5
 14
-0.066875
 24
0.5
 14
-0.066875
 24
-0.5
 14
-0.5
 24
-0.5
 14
-0.5
 24
0.5
290
     0
  0
TEXT
  5
295
330
25D
100
AcDbEntity
  8
Layer65002
  6
AUSGEZOGEN
 62
    18
420
        0
370
    18
100
AcDbText
 10
762.338785138546
 20
-262.921163274671
 30
0.0
 40
17.5
  1
1
 41
0.893041237113
  7
Arial
 72
     5
 11
774.466285138546
 21
-262.921163274671
 31
0.0
100
AcDbText
  0
ENDBLK
  5
25F
330
25D
100
AcDbEntity
  8
0
100
AcDbBlockEnd
  0
ENDSEC
  0
SECTION
  2
ENTITIES
  0
ELLIPSE
  5
7C
330
1F
100
AcDbEntity
  8
verdeckte Kanten
  6
DASHED
 62
     8
420
  8421504
370
    18
100
AcDbEllipse
 10
-860.81533302315
 20
816.108238312181
 30
0.0
 11
-10.00000000000011
 21
0.0
 31
0.0
210
0.0
220
0.0
230
1.0
 40
0.819152044289
 41
0.0
 42
1.570796326794876
  0
ELLIPSE
  5
7D
330
1F
100
AcDbEntity
  8
verdeckte Kanten
  6
DASHED
 62
     8
420
  8421504
370
    18
100
AcDbEllipse
 10
-860.81533302315
 20
815.047578140401
 30
0.0
 11
-10.0
 21
0.0
 31
0.0
210
0.0
220
0.0
230
1.0
 40
0.819152044289
 41
0.0
 42
1.570796326794897
  0
ELLIPSE
  5
7E
330
1F
100
AcDbEntity
  8
verdeckte Kanten
  6
DASHED
 62
     8
420
  8421504
370
    18
100
AcDbEllipse
 10
-420.81533302315
 20
815.047578140401
 30
0.0
 11
10.00000000000006
 21
0.0
 31
0.0
210
0.0
220
0.0
230
1.0
 40
0.819152044289
 41
4.71238898038471
 42
6.283185307179593
  0
ELLIPSE
  5
7F
330
1F
100
AcDbEntity
  8
verdeckte Kanten
  6
DASHED
 62
     8
420
  8421504
370
    18
100
AcDbEllipse
 10
-420.81533302315
 20
816.108238312181
 30
0.0
 11
10.0
 21
0.0
 31
0.0
210
0.0
220
0.0
230
1.0
 40
0.819152044289
 41
4.712388980384687
 42
6.283185307179581
  0
LINE
  5
80
330
1F
100
AcDbEntity
  8
verdeckte Kanten
  6
DASHED
 62
     8
420
  8421504
370
    18
100
AcDbLine
 10
-860.81533302315
 20
806.856057697511
 30
0.0
 11
-420.81533302315
 21
806.856057697511
 31
0.0
  0
LINE
  5
81
330
1F
100
AcDbEntity
  8
verdeckte Kanten
  6
DASHED
 62
     8
420
  8421504
370
    18
100
AcDbLine
 10
-860.81533302315
 20
807.916717869291
 30
0.0
 11
-420.81533302315
 21
807.916717869291
 31
0.0
  0
LINE
  5
82
330
1F
100
AcDbEntity
  8
Vollinie breit
  6
AUSGEZOGEN
 62
    18
420
        0
370
    35
100
AcDbLine
 10
-409.31533302315
 20
852.763766576932
 30
0.0
 11
-409.31533302315
 21
394.234731500399
 31
0.0
  0
LINE
  5
83
330
1F
100
AcDbEntity
  8
Vollinie breit
  6
AUSGEZOGEN
 62
    18
420
        0
370
    35
100
AcDbLine
 10
-872.31533302315
 20
394.234731500399
 30
0.0
 11
-872.31533302315
 21
852.763766576932
 31
0.0
  0
LINE
  5
84
330
1F
100
AcDbEntity
  8
Vollinie breit
  6
AUSGEZOGEN
 62
    18
420
        0
370
    35
100
AcDbLine
 10
-409.31533302315
 20
394.234731500399
 30
0.0
 11
-872.31533302315
 21
394.234731500399
 31
0.0
  0
LINE
  5
85
330
1F
100
AcDbEntity
  8
Vollinie breit
  6
AUSGEZOGEN
 62
    18
420
        0
370
    35
100
AcDbLine
 10
-870.81533302315
 20
854.263766576932
 30
0.0
 11
-870.81533302315
 21
852.763766576932
 31
0.0
  0
LINE
  5
86
330
1F
100
AcDbEntity
  8
Vollinie breit
  6
AUSGEZOGEN
 62
    18
420
        0
370
    35
100
AcDbLine
 10
-410.81533302315
 20
854.263766576932
 30
0.0
 11
-870.81533302315
 21
854.263766576932
 31
0.0
  0
LINE
  5
87
330
1F
100
AcDbEntity
  8
Vollinie breit
  6
AUSGEZOGEN
 62
    18
420
        0
370
    35
100
AcDbLine
 10
-870.81533302315
 20
852.763766576932
 30
0.0
 11
-872.31533302315
 21
852.763766576932
 31
0.0
  0
LINE
  5
88
330
1F
100
AcDbEntity
  8
verdeckte Kanten
  6
DASHED
 62
     8
420
  8421504
370
    18
100
AcDbLine
 10
-410.81533302315
 20
852.763766576931
 30
0.0
 11
-870.81533302315
 21
852.763766576932
 31
0.0
  0
LINE
  5
89
330
1F
100
AcDbEntity
  8
Vollinie breit
  6
AUSGEZOGEN
 62
    18
420
        0
370
    35
100
AcDbLine
 10
-409.31533302315
 20
852.763766576932
 30
0.0
 11
-410.81533302315
 21
852.763766576931
 31
0.0
  0
LINE
  5
8A
330
1F
100
AcDbEntity
  8
Vollinie breit
  6
AUSGEZOGEN
 62
    18
420
        0
370
    35
100
AcDbLine
 10
28.40391102551
 20
807.916717869291
 30
0.0
 11
35.474978837373
 21
814.987785681157
 31
0.0
  0
LINE
  5
8B
330
1F
100
AcDbEntity
  8
Vollinie breit
  6
AUSGEZOGEN
 62
    18
420
        0
370
    35
100
AcDbLine
 10
28.40391102551
 20
807.916717869291
 30
0.0
 11
29.46457119729
 21
806.856057697511
 31
0.0
  0
LINE
  5
8C
330
1F
100
AcDbEntity
  8
Vollinie breit
  6
AUSGEZOGEN
 62
    18
420
        0
370
    35
100
AcDbLine
 10
36.535639009153
 20
813.927125509377
 30
0.0
 11
29.464571197291
 21
806.856057697511
 31
0.0
  0
LINE
  5
8D
330
1F
100
AcDbEntity
  8
Vollinie breit
  6
AUSGEZOGEN
 62
    18
420
        0
370
    35
100
AcDbLine
 10
355.306273061906
 20
394.234731500399
 30
0.0
 11
356.806273061906
 21
394.234731500399
 31
0.0
  0
LINE
  5
8E
330
1F
100
AcDbEntity
  8
Vollinie breit
  6
AUSGEZOGEN
 62
    18
420
        0
370
    35
100
AcDbLine
 10
36.535639009153
 20
813.927125509377
 30
0.0
 11
52.540430703618
 21
829.931917203843
 31
0.0
  0
LINE
  5
8F
330
1F
100
AcDbEntity
  8
Vollinie breit
  6
AUSGEZOGEN
 62
    18
420
        0
370
    35
100
AcDbLine
 10
51.479770531839
 20
830.992577375623
 30
0.0
 11
35.474978837373
 21
814.987785681157
 31
0.0
  0
LINE
  5
90
330
1F
100
AcDbEntity
  8
Vollinie breit
  6
AUSGEZOGEN
 62
    18
420
        0
370
    35
100
AcDbLine
 10
355.306273061904
 20
847.763766576932
 30
0.0
 11
355.306273061904
 21
394.234731500399
 31
0.0
  0
LINE
  5
91
330
1F
100
AcDbEntity
  8
Vollinie breit
  6
AUSGEZOGEN
 62
    18
420
        0
370
    35
100
AcDbLine
 10
356.806273061904
 20
394.234731500399
 30
0.0
 11
356.806273061904
 21
847.763766576932
 31
0.0
  0
ARC
  5
92
330
1F
100
AcDbEntity
  8
Vollinie breit
  6
AUSGEZOGEN
 62
    18
420
        0
370
    35
100
AcDbCircle
 10
56.075964609552
 20
826.396383297909
 30
0.0
 40
6.500000000001291
100
AcDbArc
 50
95.000000000003
 51
134.999999999993
  0
ARC
  5
93
330
1F
100
AcDbEntity
  8
Vollinie breit
  6
AUSGEZOGEN
 62
    18
420
        0
370
    35
100
AcDbCircle
 10
56.075964609551
 20
826.39638329791
 30
0.0
 40
5.000000000000463
100
AcDbArc
 50
95.000000000002
 51
134.999999999998
  0
LINE
  5
94
330
1F
100
AcDbEntity
  8
Vollinie breit
  6
AUSGEZOGEN
 62
    18
420
        0
370
    35
100
AcDbLine
 10
55.640185895813
 20
831.377356788369
 30
0.0
 11
349.870494348165
 21
852.74474006739
 31
0.0
  0
LINE
  5
95
330
1F
100
AcDbEntity
  8
Vollinie breit
  6
AUSGEZOGEN
 62
    18
420
        0
370
    35
100
AcDbLine
 10
349.739760734044
 20
854.239032114528
 30
0.0
 11
55.509452281691
 21
832.871648835507
 31
0.0
  0
ARC
  5
96
330
1F
100
AcDbEntity
  8
Vollinie breit
  6
AUSGEZOGEN
 62
    18
420
        0
370
    35
100
AcDbCircle
 10
350.306273061904
 20
847.763766576932
 30
0.0
 40
6.500000000000082
100
AcDbArc
 50
0.000000000001
 51
94.999999999999
  0
ARC
  5
97
330
1F
100
AcDbEntity
  8
Vollinie breit
  6
AUSGEZOGEN
 62
    18
420
        0
370
    35
100
AcDbCircle
 10
350.306273061904
 20
847.763766576932
 30
0.0
 40
4.999999999999972
100
AcDbArc
 50
0.000000000001
 51
94.999999999999
  0
LINE
  5
98
330
1F
100
AcDbEntity
  8
Mittellinie
  6
DASHDOT
 62
     1
420
 15337734
370
    25
100
AcDbLine
 10
350.306273061904
 20
772.234731500399
 30
0.0
 11
361.806273061904
 21
772.234731500399
 31
0.0
  0
DIMENSION
  5
A3
330
1F
100
AcDbEntity
  8
Bemaßung
  6
AUSGEZOGEN
 62
    96
420
    32768
370
    18
100
AcDbDimension
280
     0
  2
*D1
 10
-475.81533302315
 20
905.0
 30
0.0
 11
-660.713758888323
 21
922.117999784074
 31
0.0
 70
   160
 71
     5
 42
-1.0
 73
     0
 74
     0
 75
     0
  3
ISO-25
100
AcDbAlignedDimension
 13
-805.81533302315
 23
776.834731500399
 33
0.0
 14
-475.81533302315
 24
776.834731500399
 34
0.0
100
AcDbRotatedDimension
1001
ACAD
1000
DSTYLE
1002
{
1070
     3
1000
<>
1070
   340
1005
71
1070
    44
1040
12.59920665196
1070
   280
1070
     3
1070
    77
1070
     1
1070
    78
1070
     8
1070
   179
1070
     2
1070
   271
1070
     2
1070
   173
1070
     1
1070
    41
1040
17.638889312744
1070
   147
1040
2.519841330392
1070
   140
1040
17.638889312744
1070
   178
1070
    18
1070
   177
1070
    96
1070
   176
1070
    96
1002
}
  0
DIMENSION
  5
AE
330
1F
100
AcDbEntity
  8
Bemaßung
  6
AUSGEZOGEN
 62
    96
420
    32768
370
    18
100
AcDbDimension
280
     0
  2
*D2
 10
-910.0
 20
422.234731500399
 30
0.0
 11
-927.117999784074
 21
609.836305635226
 31
0.0
 70
   160
 71
     5
 42
-1.0
 73
     0
 74
     0
 75
     0
 53
90.0
  3
ISO-25
100
AcDbAlignedDimension
 13
-810.41533302315
 23
772.234731500399
 33
0.0
 14
-810.41533302315
 24
422.234731500399
 34
0.0
 50
-90.0
100
AcDbRotatedDimension
1001
ACAD
1000
DSTYLE
1002
{
1070
     3
1000
<>
1070
   340
1005
71
1070
    44
1040
12.59920665196
1070
   280
1070
     3
1070
    77
1070
     1
1070
    78
1070
     8
1070
   179
1070
     2
1070
   271
1070
     2
1070
   173
1070
     1
1070
    41
1040
17.638889312744
1070
   147
1040
2.519841330392
1070
   140
1040
17.638889312744
1070
   178
1070
    18
1070
   177
1070
    96
1070
   176
1070
    96
1002
}
  0
DIMENSION
  5
B9
330
1F
100
AcDbEntity
  8
Bemaßung
  6
AUSGEZOGEN
 62
    96
420
    32768
370
    18
100
AcDbDimension
280
     0
  2
*D3
 10
-965.0
 20
394.234731500399
 30
0.0
 11
-982.117999784074
 21
629.849948654144
 31
0.0
 70
   160
 71
     5
 42
-1.0
 73
     0
 74
     0
 75
     0
 53
90.0
  3
ISO-25
100
AcDbAlignedDimension
 13
-870.81533302315
 23
854.263766576932
 33
0.0
 14
-872.31533302315
 24
394.234731500399
 34
0.0
 50
-90.0
100
AcDbRotatedDimension
1001
ACAD
1000
DSTYLE
1002
{
1070
     3
1000
<>
1070
   340
1005
71
1070
    44
1040
12.59920665196
1070
   280
1070
     3
1070
    77
1070
     1
1070
    78
1070
     8
1070
   179
1070
     0
1070
   271
1070
     0
1070
   173
1070
     1
1070
    41
1040
17.638889312744
1070
   147
1040
2.519841330392
1070
   140
1040
17.638889312744
1070
   178
1070
    18
1070
   177
1070
    96
1070
   176
1070
    96
1002
}
  0
LINE
  5
BA
330
1F
100
AcDbEntity
  8
Mittellinie
  6
DASHDOT
 62
     1
420
 15337734
370
    25
100
AcDbLine
 10
350.306273061904
 20
422.234731500399
 30
0.0
 11
361.806273061904
 21
422.234731500399
 31
0.0
  0
LINE
  5
BB
330
1F
100
AcDbEntity
  8
Vollinie breit
  6
AUSGEZOGEN
 62
    18
420
        0
370
    35
100
AcDbLine
 10
55.640185895813
 20
822.077235064791
 30
0.0
 11
55.640185895813
 21
404.234731500399
 31
0.0
  0
LINE
  5
BC
330
1F
100
AcDbEntity
  8
Vollinie breit
  6
AUSGEZOGEN
 62
    18
420
        0
370
    35
100
AcDbLine
 10
355.306273061906
 20
394.234731500399
 30
0.0
 11
65.640185895813
 21
394.234731500399
 31
0.0
  0
LINE
  5
BD
330
1F
100
AcDbEntity
  8
Vollinie breit
  6
AUSGEZOGEN
 62
    18
420
        0
370
    35
100
AcDbLine
 10
-410.81533302315
 20
852.763766576932
 30
0.0
 11
-410.81533302315
 21
394.234731500399
 31
0.0
  0
LINE
  5
BE
330
1F
100
AcDbEntity
  8
Vollinie breit
  6
AUSGEZOGEN
 62
    18
420
        0
370
    35
100
AcDbLine
 10
-870.81533302315
 20
394.234731500399
 30
0.0
 11
-870.81533302315
 21
852.763766576932
 31
0.0
  0
LINE
  5
BF
330
1F
100
AcDbEntity
  8
Vollinie breit
  6
AUSGEZOGEN
 62
    18
420
        0
370
    35
100
AcDbLine
 10
-870.81533302315
 20
287.040190359883
 30
0.0
 11
-410.81533302315
 21
287.040190359883
 31
0.0
  0
DIMENSION
  5
CA
330
1F
100
AcDbEntity
  8
Bemaßung
  6
AUSGEZOGEN
 62
    96
420
    32768
370
    18
100
AcDbDimension
280
     0
  2
*D4
 10
28.40391102551
 20
905.0
 30
0.0
 11
201.006141466925
 21
922.117999784074
 31
0.0
 70
   160
 71
     5
 42
-1.0
 73
     0
 74
     0
 75
     0
  3
ISO-25
100
AcDbAlignedDimension
 13
356.806273061904
 23
847.763766576932
 33
0.0
 14
28.40391102551
 24
807.916717869291
 34
0.0
 50
180.0
100
AcDbRotatedDimension
1001
ACAD
1000
DSTYLE
1002
{
1070
     3
1000
<>
1070
   340
1005
71
1070
    44
1040
12.59920665196
1070
   280
1070
     3
1070
    77
1070
     1
1070
    78
1070
     8
1070
   179
1070
     0
1070
   271
1070
     0
1070
   173
1070
     1
1070
    41
1040
17.638889312744
1070
   147
1040
2.519841330392
1070
   140
1040
17.638889312744
1070
   178
1070
    18
1070
   177
1070
    96
1070
   176
1070
    96
1002
}
  0
DIMENSION
  5
D5
330
1F
100
AcDbEntity
  8
Bemaßung
  6
AUSGEZOGEN
 62
    96
420
    32768
370
    18
100
AcDbDimension
280
     0
  2
*D5
 10
355.306273061904
 20
345.0
 30
0.0
 11
211.073929094337
 21
362.117999784074
 31
0.0
 70
   160
 71
     5
 42
-1.0
 73
     0
 74
     0
 75
     0
  3
ISO-25
100
AcDbAlignedDimension
 13
55.640185895813
 23
404.234731500399
 33
0.0
 14
355.306273061904
 24
394.234731500399
 34
0.0
100
AcDbRotatedDimension
1001
ACAD
1000
DSTYLE
1002
{
1070
     3
1000
<>
1070
   340
1005
71
1070
    44
1040
12.59920665196
1070
   280
1070
     3
1070
    77
1070
     1
1070
    78
1070
     8
1070
   179
1070
     0
1070
   271
1070
     0
1070
   173
1070
     1
1070
    41
1040
17.638889312744
1070
   147
1040
2.519841330392
1070
   140
1040
17.638889312744
1070
   178
1070
    18
1070
   177
1070
    96
1070
   176
1070
    96
1002
}
  0
LINE
  5
D6
330
1F
100
AcDbEntity
  8
verdeckte Kanten
  6
DASHED
 62
     8
420
  8421504
370
    18
100
AcDbLine
 10
-870.81533302315
 20
285.540190359883
 30
0.0
 11
-410.81533302315
 21
285.540190359883
 31
0.0
  0
LINE
  5
D7
330
1F
100
AcDbEntity
  8
Vollinie breit
  6
AUSGEZOGEN
 62
    18
420
        0
370
    35
100
AcDbLine
 10
-410.81533302315
 20
285.540190359883
 30
0.0
 11
-410.81533302315
 21
-14.129809640117
 31
0.0
  0
LINE
  5
D8
330
1F
100
AcDbEntity
  8
Vollinie breit
  6
AUSGEZOGEN
 62
    18
420
        0
370
    35
100
AcDbLine
 10
-410.81533302315
 20
-14.129809640117
 30
0.0
 11
-409.31533302315
 21
-14.129809640117
 31
0.0
  0
LINE
  5
D9
330
1F
100
AcDbEntity
  8
Vollinie breit
  6
AUSGEZOGEN
 62
    18
420
        0
370
    35
100
AcDbLine
 10
-409.31533302315
 20
-14.129809640117
 30
0.0
 11
-409.31533302315
 21
285.540190359883
 31
0.0
  0
LINE
  5
DA
330
1F
100
AcDbEntity
  8
Vollinie breit
  6
AUSGEZOGEN
 62
    18
420
        0
370
    35
100
AcDbLine
 10
-409.31533302315
 20
285.540190359883
 30
0.0
 11
-410.81533302315
 21
285.540190359883
 31
0.0
  0
LINE
  5
DB
330
1F
100
AcDbEntity
  8
Vollinie breit
  6
AUSGEZOGEN
 62
    18
420
        0
370
    35
100
AcDbLine
 10
-410.81533302315
 20
287.040190359883
 30
0.0
 11
-410.81533302315
 21
285.540190359883
 31
0.0
  0
LINE
  5
DC
330
1F
100
AcDbEntity
  8
Vollinie breit
  6
AUSGEZOGEN
 62
    18
420
        0
370
    35
100
AcDbLine
 10
-870.81533302315
 20
285.540190359883
 30
0.0
 11
-870.81533302315
 21
-14.129809640117
 31
0.0
  0
LINE
  5
DD
330
1F
100
AcDbEntity
  8
Vollinie breit
  6
AUSGEZOGEN
 62
    18
420
        0
370
    35
100
AcDbLine
 10
-870.81533302315
 20
-14.129809640117
 30
0.0
 11
-872.31533302315
 21
-14.129809640117
 31
0.0
  0
LINE
  5
DE
330
1F
100
AcDbEntity
  8
Vollinie breit
  6
AUSGEZOGEN
 62
    18
420
        0
370
    35
100
AcDbLine
 10
-872.31533302315
 20
-14.129809640117
 30
0.0
 11
-872.31533302315
 21
285.540190359883
 31
0.0
  0
LINE
  5
DF
330
1F
100
AcDbEntity
  8
Vollinie breit
  6
AUSGEZOGEN
 62
    18
420
        0
370
    35
100
AcDbLine
 10
-872.31533302315
 20
285.540190359883
 30
0.0
 11
-870.81533302315
 21
285.540190359883
 31
0.0
  0
LINE
  5
E0
330
1F
100
AcDbEntity
  8
Vollinie breit
  6
AUSGEZOGEN
 62
    18
420
        0
370
    35
100
AcDbLine
 10
-870.81533302315
 20
285.540190359883
 30
0.0
 11
-870.81533302315
 21
287.040190359883
 31
0.0
  0
LINE
  5
E1
330
1F
100
AcDbEntity
  8
Vollinie breit
  6
AUSGEZOGEN
 62
    18
420
        0
370
    35
100
AcDbLine
 10
-410.81533302315
 20
-14.129809640117
 30
0.0
 11
-410.81533302315
 21
-31.359809640117
 31
0.0
  0
LINE
  5
E2
330
1F
100
AcDbEntity
  8
Vollinie breit
  6
AUSGEZOGEN
 62
    18
420
        0
370
    35
100
AcDbLine
 10
-870.81533302315
 20
-14.129809640117
 30
0.0
 11
-870.81533302315
 21
-31.359809640117
 31
0.0
  0
LINE
  5
E3
330
1F
100
AcDbEntity
  8
verdeckte Kanten
  6
DASHED
 62
     8
420
  8421504
370
    18
100
AcDbLine
 10
-860.81533302315
 20
-40.299809640117
 30
0.0
 11
-420.81533302315
 21
-40.299809640117
 31
0.0
  0
LINE
  5
E4
330
1F
100
AcDbEntity
  8
Vollinie breit
  6
AUSGEZOGEN
 62
    18
420
        0
370
    35
100
AcDbLine
 10
-860.81533302315
 20
-41.359809640117
 30
0.0
 11
-420.81533302315
 21
-41.359809640117
 31
0.0
  0
LINE
  5
E5
330
1F
100
AcDbEntity
  8
Mittellinie
  6
DASHDOT
 62
     1
420
 15337734
370
    25
100
AcDbLine
 10
-805.81533302315
 20
280.540190359883
 30
0.0
 11
-805.81533302315
 21
292.040190359883
 31
0.0
  0
LINE
  5
E6
330
1F
100
AcDbEntity
  8
Mittellinie
  6
DASHDOT
 62
     1
420
 15337734
370
    25
100
AcDbLine
 10
-475.81533302315
 20
280.540190359883
 30
0.0
 11
-475.81533302315
 21
292.040190359883
 31
0.0
  0
CIRCLE
  5
E7
330
1F
100
AcDbEntity
  8
Vollinie breit
  6
AUSGEZOGEN
 62
    18
420
        0
370
    35
100
AcDbCircle
 10
-805.81533302315
 20
772.234731500399
 30
0.0
 40
4.0
  0
CIRCLE
  5
E8
330
1F
100
AcDbEntity
  8
Vollinie breit
  6
AUSGEZOGEN
 62
    18
420
        0
370
    35
100
AcDbCircle
 10
-475.81533302315
 20
772.234731500399
 30
0.0
 40
4.0
  0
CIRCLE
  5
E9
330
1F
100
AcDbEntity
  8
Vollinie breit
  6
AUSGEZOGEN
 62
    18
420
        0
370
    35
100
AcDbCircle
 10
-475.81533302315
 20
422.234731500399
 30
0.0
 40
4.0
  0
CIRCLE
  5
EA
330
1F
100
AcDbEntity
  8
Vollinie breit
  6
AUSGEZOGEN
 62
    18
420
        0
370
    35
100
AcDbCircle
 10
-805.81533302315
 20
422.234731500399
 30
0.0
 40
4.0
  0
LINE
  5
EB
330
1F
100
AcDbEntity
  8
Mittellinie
  6
DASHDOT
 62
     1
420
 15337734
370
    25
100
AcDbLine
 10
-805.81533302315
 20
772.234731500399
 30
0.0
 11
-804.81533302315
 21
772.234731500399
 31
0.0
  0
LINE
  5
EC
330
1F
100
AcDbEntity
  8
Mittellinie
  6
DASHDOT
 62
     1
420
 15337734
370
    25
100
AcDbLine
 10
-804.41533302315
 20
772.234731500399
 30
0.0
 11
-804.01533302315
 21
772.234731500399
 31
0.0
  0
LINE
  5
ED
330
1F
100
AcDbEntity
  8
Mittellinie
  6
DASHDOT
 62
     1
420
 15337734
370
    25
100
AcDbLine
 10
-803.61533302315
 20
772.234731500399
 30
0.0
 11
-801.21533302315
 21
772.234731500399
 31
0.0
  0
LINE
  5
EE
330
1F
100
AcDbEntity
  8
Mittellinie
  6
DASHDOT
 62
     1
420
 15337734
370
    25
100
AcDbLine
 10
-805.81533302315
 20
772.234731500399
 30
0.0
 11
-805.81533302315
 21
773.234731500399
 31
0.0
  0
LINE
  5
EF
330
1F
100
AcDbEntity
  8
Mittellinie
  6
DASHDOT
 62
     1
420
 15337734
370
    25
100
AcDbLine
 10
-805.81533302315
 20
773.634731500399
 30
0.0
 11
-805.81533302315
 21
774.034731500399
 31
0.0
  0
LINE
  5
F0
330
1F
100
AcDbEntity
  8
Mittellinie
  6
DASHDOT
 62
     1
420
 15337734
370
    25
100
AcDbLine
 10
-805.81533302315
 20
774.434731500399
 30
0.0
 11
-805.81533302315
 21
776.834731500399
 31
0.0
  0
LINE
  5
F1
330
1F
100
AcDbEntity
  8
Mittellinie
  6
DASHDOT
 62
     1
420
 15337734
370
    25
100
AcDbLine
 10
-805.81533302315
 20
772.234731500399
 30
0.0
 11
-806.81533302315
 21
772.234731500399
 31
0.0
  0
LINE
  5
F2
330
1F
100
AcDbEntity
  8
Mittellinie
  6
DASHDOT
 62
     1
420
 15337734
370
    25
100
AcDbLine
 10
-807.21533302315
 20
772.234731500399
 30
0.0
 11
-807.61533302315
 21
772.234731500399
 31
0.0
  0
LINE
  5
F3
330
1F
100
AcDbEntity
  8
Mittellinie
  6
DASHDOT
 62
     1
420
 15337734
370
    25
100
AcDbLine
 10
-808.01533302315
 20
772.234731500399
 30
0.0
 11
-810.41533302315
 21
772.234731500399
 31
0.0
  0
LINE
  5
F4
330
1F
100
AcDbEntity
  8
Mittellinie
  6
DASHDOT
 62
     1
420
 15337734
370
    25
100
AcDbLine
 10
-805.81533302315
 20
772.234731500399
 30
0.0
 11
-805.81533302315
 21
771.234731500399
 31
0.0
  0
LINE
  5
F5
330
1F
100
AcDbEntity
  8
Mittellinie
  6
DASHDOT
 62
     1
420
 15337734
370
    25
100
AcDbLine
 10
-805.81533302315
 20
770.834731500399
 30
0.0
 11
-805.81533302315
 21
770.434731500399
 31
0.0
  0
LINE
  5
F6
330
1F
100
AcDbEntity
  8
Mittellinie
  6
DASHDOT
 62
     1
420
 15337734
370
    25
100
AcDbLine
 10
-805.81533302315
 20
770.034731500399
 30
0.0
 11
-805.81533302315
 21
767.634731500399
 31
0.0
  0
LINE
  5
F7
330
1F
100
AcDbEntity
  8
Mittellinie
  6
DASHDOT
 62
     1
420
 15337734
370
    25
100
AcDbLine
 10
-475.81533302315
 20
772.234731500399
 30
0.0
 11
-474.81533302315
 21
772.234731500399
 31
0.0
  0
LINE
  5
F8
330
1F
100
AcDbEntity
  8
Mittellinie
  6
DASHDOT
 62
     1
420
 15337734
370
    25
100
AcDbLine
 10
-474.41533302315
 20
772.234731500399
 30
0.0
 11
-474.01533302315
 21
772.234731500399
 31
0.0
  0
LINE
  5
F9
330
1F
100
AcDbEntity
  8
Mittellinie
  6
DASHDOT
 62
     1
420
 15337734
370
    25
100
AcDbLine
 10
-473.61533302315
 20
772.234731500399
 30
0.0
 11
-471.21533302315
 21
772.234731500399
 31
0.0
  0
LINE
  5
FA
330
1F
100
AcDbEntity
  8
Mittellinie
  6
DASHDOT
 62
     1
420
 15337734
370
    25
100
AcDbLine
 10
-475.81533302315
 20
772.234731500399
 30
0.0
 11
-475.81533302315
 21
773.234731500399
 31
0.0
  0
LINE
  5
FB
330
1F
100
AcDbEntity
  8
Mittellinie
  6
DASHDOT
 62
     1
420
 15337734
370
    25
100
AcDbLine
 10
-475.81533302315
 20
773.634731500399
 30
0.0
 11
-475.81533302315
 21
774.034731500399
 31
0.0
  0
LINE
  5
FC
330
1F
100
AcDbEntity
  8
Mittellinie
  6
DASHDOT
 62
     1
420
 15337734
370
    25
100
AcDbLine
 10
-475.81533302315
 20
774.434731500399
 30
0.0
 11
-475.81533302315
 21
776.834731500399
 31
0.0
  0
LINE
  5
FD
330
1F
100
AcDbEntity
  8
Mittellinie
  6
DASHDOT
 62
     1
420
 15337734
370
    25
100
AcDbLine
 10
-475.81533302315
 20
772.234731500399
 30
0.0
 11
-476.81533302315
 21
772.234731500399
 31
0.0
  0
LINE
  5
FE
330
1F
100
AcDbEntity
  8
Mittellinie
  6
DASHDOT
 62
     1
420
 15337734
370
    25
100
AcDbLine
 10
-477.21533302315
 20
772.234731500399
 30
0.0
 11
-477.61533302315
 21
772.234731500399
 31
0.0
  0
LINE
  5
FF
330
1F
100
AcDbEntity
  8
Mittellinie
  6
DASHDOT
 62
     1
420
 15337734
370
    25
100
AcDbLine
 10
-478.01533302315
 20
772.234731500399
 30
0.0
 11
-480.41533302315
 21
772.234731500399
 31
0.0
  0
LINE
  5
100
330
1F
100
AcDbEntity
  8
Mittellinie
  6
DASHDOT
 62
     1
420
 15337734
370
    25
100
AcDbLine
 10
-475.81533302315
 20
772.234731500399
 30
0.0
 11
-475.81533302315
 21
771.234731500399
 31
0.0
  0
LINE
  5
101
330
1F
100
AcDbEntity
  8
Mittellinie
  6
DASHDOT
 62
     1
420
 15337734
370
    25
100
AcDbLine
 10
-475.81533302315
 20
770.834731500399
 30
0.0
 11
-475.81533302315
 21
770.434731500399
 31
0.0
  0
LINE
  5
102
330
1F
100
AcDbEntity
  8
Mittellinie
  6
DASHDOT
 62
     1
420
 15337734
370
    25
100
AcDbLine
 10
-475.81533302315
 20
770.034731500399
 30
0.0
 11
-475.81533302315
 21
767.634731500399
 31
0.0
  0
LINE
  5
103
330
1F
100
AcDbEntity
  8
Mittellinie
  6
DASHDOT
 62
     1
420
 15337734
370
    25
100
AcDbLine
 10
-475.81533302315
 20
422.234731500399
 30
0.0
 11
-474.81533302315
 21
422.234731500399
 31
0.0
  0
LINE
  5
104
330
1F
100
AcDbEntity
  8
Mittellinie
  6
DASHDOT
 62
     1
420
 15337734
370
    25
100
AcDbLine
 10
-474.41533302315
 20
422.234731500399
 30
0.0
 11
-474.01533302315
 21
422.234731500399
 31
0.0
  0
LINE
  5
105
330
1F
100
AcDbEntity
  8
Mittellinie
  6
DASHDOT
 62
     1
420
 15337734
370
    25
100
AcDbLine
 10
-473.61533302315
 20
422.234731500399
 30
0.0
 11
-471.21533302315
 21
422.234731500399
 31
0.0
  0
LINE
  5
106
330
1F
100
AcDbEntity
  8
Mittellinie
  6
DASHDOT
 62
     1
420
 15337734
370
    25
100
AcDbLine
 10
-475.81533302315
 20
422.234731500399
 30
0.0
 11
-475.81533302315
 21
423.234731500399
 31
0.0
  0
LINE
  5
107
330
1F
100
AcDbEntity
  8
Mittellinie
  6
DASHDOT
 62
     1
420
 15337734
370
    25
100
AcDbLine
 10
-475.81533302315
 20
423.634731500399
 30
0.0
 11
-475.81533302315
 21
424.034731500399
 31
0.0
  0
LINE
  5
108
330
1F
100
AcDbEntity
  8
Mittellinie
  6
DASHDOT
 62
     1
420
 15337734
370
    25
100
AcDbLine
 10
-475.81533302315
 20
424.434731500399
 30
0.0
 11
-475.81533302315
 21
426.834731500399
 31
0.0
  0
LINE
  5
109
330
1F
100
AcDbEntity
  8
Mittellinie
  6
DASHDOT
 62
     1
420
 15337734
370
    25
100
AcDbLine
 10
-475.81533302315
 20
422.234731500399
 30
0.0
 11
-476.81533302315
 21
422.234731500399
 31
0.0
  0
LINE
  5
10A
330
1F
100
AcDbEntity
  8
Mittellinie
  6
DASHDOT
 62
     1
420
 15337734
370
    25
100
AcDbLine
 10
-477.21533302315
 20
422.234731500399
 30
0.0
 11
-477.61533302315
 21
422.234731500399
 31
0.0
  0
LINE
  5
10B
330
1F
100
AcDbEntity
  8
Mittellinie
  6
DASHDOT
 62
     1
420
 15337734
370
    25
100
AcDbLine
 10
-478.01533302315
 20
422.234731500399
 30
0.0
 11
-480.41533302315
 21
422.234731500399
 31
0.0
  0
LINE
  5
10C
330
1F
100
AcDbEntity
  8
Mittellinie
  6
DASHDOT
 62
     1
420
 15337734
370
    25
100
AcDbLine
 10
-475.81533302315
 20
422.234731500399
 30
0.0
 11
-475.81533302315
 21
421.234731500399
 31
0.0
  0
LINE
  5
10D
330
1F
100
AcDbEntity
  8
Mittellinie
  6
DASHDOT
 62
     1
420
 15337734
370
    25
100
AcDbLine
 10
-475.81533302315
 20
420.834731500399
 30
0.0
 11
-475.81533302315
 21
420.434731500399
 31
0.0
  0
LINE
  5
10E
330
1F
100
AcDbEntity
  8
Mittellinie
  6
DASHDOT
 62
     1
420
 15337734
370
    25
100
AcDbLine
 10
-475.81533302315
 20
420.034731500399
 30
0.0
 11
-475.81533302315
 21
417.634731500399
 31
0.0
  0
LINE
  5
10F
330
1F
100
AcDbEntity
  8
Mittellinie
  6
DASHDOT
 62
     1
420
 15337734
370
    25
100
AcDbLine
 10
-805.81533302315
 20
422.234731500399
 30
0.0
 11
-804.81533302315
 21
422.234731500399
 31
0.0
  0
LINE
  5
110
330
1F
100
AcDbEntity
  8
Mittellinie
  6
DASHDOT
 62
     1
420
 15337734
370
    25
100
AcDbLine
 10
-804.41533302315
 20
422.234731500399
 30
0.0
 11
-804.01533302315
 21
422.234731500399
 31
0.0
  0
LINE
  5
111
330
1F
100
AcDbEntity
  8
Mittellinie
  6
DASHDOT
 62
     1
420
 15337734
370
    25
100
AcDbLine
 10
-803.61533302315
 20
422.234731500399
 30
0.0
 11
-801.21533302315
 21
422.234731500399
 31
0.0
  0
LINE
  5
112
330
1F
100
AcDbEntity
  8
Mittellinie
  6
DASHDOT
 62
     1
420
 15337734
370
    25
100
AcDbLine
 10
-805.81533302315
 20
422.234731500399
 30
0.0
 11
-805.81533302315
 21
423.234731500399
 31
0.0
  0
LINE
  5
113
330
1F
100
AcDbEntity
  8
Mittellinie
  6
DASHDOT
 62
     1
420
 15337734
370
    25
100
AcDbLine
 10
-805.81533302315
 20
423.634731500399
 30
0.0
 11
-805.81533302315
 21
424.034731500399
 31
0.0
  0
LINE
  5
114
330
1F
100
AcDbEntity
  8
Mittellinie
  6
DASHDOT
 62
     1
420
 15337734
370
    25
100
AcDbLine
 10
-805.81533302315
 20
424.434731500399
 30
0.0
 11
-805.81533302315
 21
426.834731500399
 31
0.0
  0
LINE
  5
115
330
1F
100
AcDbEntity
  8
Mittellinie
  6
DASHDOT
 62
     1
420
 15337734
370
    25
100
AcDbLine
 10
-805.81533302315
 20
422.234731500399
 30
0.0
 11
-806.81533302315
 21
422.234731500399
 31
0.0
  0
LINE
  5
116
330
1F
100
AcDbEntity
  8
Mittellinie
  6
DASHDOT
 62
     1
420
 15337734
370
    25
100
AcDbLine
 10
-807.21533302315
 20
422.234731500399
 30
0.0
 11
-807.61533302315
 21
422.234731500399
 31
0.0
  0
LINE
  5
117
330
1F
100
AcDbEntity
  8
Mittellinie
  6
DASHDOT
 62
     1
420
 15337734
370
    25
100
AcDbLine
 10
-808.01533302315
 20
422.234731500399
 30
0.0
 11
-810.41533302315
 21
422.234731500399
 31
0.0
  0
LINE
  5
118
330
1F
100
AcDbEntity
  8
Mittellinie
  6
DASHDOT
 62
     1
420
 15337734
370
    25
100
AcDbLine
 10
-805.81533302315
 20
422.234731500399
 30
0.0
 11
-805.81533302315
 21
421.234731500399
 31
0.0
  0
LINE
  5
119
330
1F
100
AcDbEntity
  8
Mittellinie
  6
DASHDOT
 62
     1
420
 15337734
370
    25
100
AcDbLine
 10
-805.81533302315
 20
420.834731500399
 30
0.0
 11
-805.81533302315
 21
420.434731500399
 31
0.0
  0
LINE
  5
11A
330
1F
100
AcDbEntity
  8
Mittellinie
  6
DASHDOT
 62
     1
420
 15337734
370
    25
100
AcDbLine
 10
-805.81533302315
 20
420.034731500399
 30
0.0
 11
-805.81533302315
 21
417.634731500399
 31
0.0
  0
LINE
  5
11B
330
1F
100
AcDbEntity
  8
Vollinie breit
  6
AUSGEZOGEN
 62
    18
420
        0
370
    35
100
AcDbLine
 10
-410.81533302315
 20
854.263766576932
 30
0.0
 11
-410.81533302315
 21
852.763766576931
 31
0.0
  0
ARC
  5
11C
330
1F
100
AcDbEntity
  8
Vollinie breit
  6
AUSGEZOGEN
 62
    18
420
        0
370
    35
100
AcDbCircle
 10
65.640185895813
 20
822.077235064791
 30
0.0
 40
10.0
100
AcDbArc
 50
94.153601586204
 51
180.0
  0
ARC
  5
11D
330
1F
100
AcDbEntity
  8
Vollinie breit
  6
AUSGEZOGEN
 62
    18
420
        0
370
    35
100
AcDbCircle
 10
65.640185895813
 20
404.234731500399
 30
0.0
 40
10.0
100
AcDbArc
 50
180.0
 51
270.0
  0
CIRCLE
  5
11E
330
1F
100
AcDbEntity
  8
Vollinie breit
  6
AUSGEZOGEN
 62
    18
420
        0
370
    35
100
AcDbCircle
 10
-850.81533302315
 20
832.2347315004
 30
0.0
 40
5.0
  0
CIRCLE
  5
11F
330
1F
100
AcDbEntity
  8
Vollinie breit
  6
AUSGEZOGEN
 62
    18
420
        0
370
    35
100
AcDbCircle
 10
-430.81533302315
 20
832.2347315004
 30
0.0
 40
5.0
  0
CIRCLE
  5
120
330
1F
100
AcDbEntity
  8
Vollinie breit
  6
AUSGEZOGEN
 62
    18
420
        0
370
    35
100
AcDbCircle
 10
-430.81533302315
 20
414.234731500399
 30
0.0
 40
5.0
  0
CIRCLE
  5
121
330
1F
100
AcDbEntity
  8
Vollinie breit
  6
AUSGEZOGEN
 62
    18
420
        0
370
    35
100
AcDbCircle
 10
-850.81533302315
 20
414.234731500399
 30
0.0
 40
5.0
  0
LINE
  5
122
330
1F
100
AcDbEntity
  8
verdeckte Kanten
  6
DASHED
 62
     8
420
  8421504
370
    18
100
AcDbLine
 10
355.306273061904
 20
776.234731500399
 30
0.0
 11
356.806273061904
 21
776.234731500399
 31
0.0
  0
LINE
  5
123
330
1F
100
AcDbEntity
  8
verdeckte Kanten
  6
DASHED
 62
     8
420
  8421504
370
    18
100
AcDbLine
 10
355.306273061904
 20
768.234731500399
 30
0.0
 11
356.806273061904
 21
768.234731500399
 31
0.0
  0
LINE
  5
124
330
1F
100
AcDbEntity
  8
verdeckte Kanten
  6
DASHED
 62
     8
420
  8421504
370
    18
100
AcDbLine
 10
355.306273061904
 20
426.234731500399
 30
0.0
 11
356.806273061904
 21
426.234731500399
 31
0.0
  0
LINE
  5
125
330
1F
100
AcDbEntity
  8
verdeckte Kanten
  6
DASHED
 62
     8
420
  8421504
370
    18
100
AcDbLine
 10
355.306273061904
 20
418.234731500399
 30
0.0
 11
356.806273061904
 21
418.234731500399
 31
0.0
  0
LINE
  5
126
330
1F
100
AcDbEntity
  8
verdeckte Kanten
  6
DASHED
 62
     8
420
  8421504
370
    18
100
AcDbLine
 10
-479.81533302315
 20
285.540190359883
 30
0.0
 11
-479.81533302315
 21
287.040190359883
 31
0.0
  0
LINE
  5
127
330
1F
100
AcDbEntity
  8
verdeckte Kanten
  6
DASHED
 62
     8
420
  8421504
370
    18
100
AcDbLine
 10
-471.81533302315
 20
285.540190359883
 30
0.0
 11
-471.81533302315
 21
287.040190359883
 31
0.0
  0
LINE
  5
128
330
1F
100
AcDbEntity
  8
verdeckte Kanten
  6
DASHED
 62
     8
420
  8421504
370
    18
100
AcDbLine
 10
-809.81533302315
 20
285.540190359883
 30
0.0
 11
-809.81533302315
 21
287.040190359883
 31
0.0
  0
LINE
  5
129
330
1F
100
AcDbEntity
  8
verdeckte Kanten
  6
DASHED
 62
     8
420
  8421504
370
    18
100
AcDbLine
 10
-801.81533302315
 20
285.540190359883
 30
0.0
 11
-801.81533302315
 21
287.040190359883
 31
0.0
  0
LINE
  5
12A
330
1F
100
AcDbEntity
  8
Mittellinie
  6
DASHDOT
 62
     1
420
 15337734
370
    25
100
AcDbLine
 10
350.306273061904
 20
832.234731500399
 30
0.0
 11
361.806273061904
 21
832.234731500399
 31
0.0
  0
LINE
  5
12B
330
1F
100
AcDbEntity
  8
Mittellinie
  6
DASHDOT
 62
     1
420
 15337734
370
    25
100
AcDbLine
 10
350.306273061904
 20
414.234731500399
 30
0.0
 11
361.806273061904
 21
414.234731500399
 31
0.0
  0
LINE
  5
12C
330
1F
100
AcDbEntity
  8
Mittellinie
  6
DASHDOT
 62
     1
420
 15337734
370
    25
100
AcDbLine
 10
-430.81533302315
 20
280.540190359883
 30
0.0
 11
-430.81533302315
 21
292.040190359883
 31
0.0
  0
LINE
  5
12D
330
1F
100
AcDbEntity
  8
Mittellinie
  6
DASHDOT
 62
     1
420
 15337734
370
    25
100
AcDbLine
 10
-850.81533302315
 20
280.540190359883
 30
0.0
 11
-850.81533302315
 21
292.040190359883
 31
0.0
  0
LINE
  5
12E
330
1F
100
AcDbEntity
  8
Mittellinie
  6
DASHDOT
 62
     1
420
 15337734
370
    25
100
AcDbLine
 10
-850.81533302315
 20
832.2347315004
 30
0.0
 11
-849.56533302315
 21
832.2347315004
 31
0.0
  0
LINE
  5
12F
330
1F
100
AcDbEntity
  8
Mittellinie
  6
DASHDOT
 62
     1
420
 15337734
370
    25
100
AcDbLine
 10
-849.06533302315
 20
832.2347315004
 30
0.0
 11
-848.56533302315
 21
832.2347315004
 31
0.0
  0
LINE
  5
130
330
1F
100
AcDbEntity
  8
Mittellinie
  6
DASHDOT
 62
     1
420
 15337734
370
    25
100
AcDbLine
 10
-848.06533302315
 20
832.2347315004
 30
0.0
 11
-845.06533302315
 21
832.2347315004
 31
0.0
  0
LINE
  5
131
330
1F
100
AcDbEntity
  8
Mittellinie
  6
DASHDOT
 62
     1
420
 15337734
370
    25
100
AcDbLine
 10
-850.81533302315
 20
832.2347315004
 30
0.0
 11
-850.81533302315
 21
833.4847315004
 31
0.0
  0
LINE
  5
132
330
1F
100
AcDbEntity
  8
Mittellinie
  6
DASHDOT
 62
     1
420
 15337734
370
    25
100
AcDbLine
 10
-850.81533302315
 20
833.9847315004
 30
0.0
 11
-850.81533302315
 21
834.4847315004
 31
0.0
  0
LINE
  5
133
330
1F
100
AcDbEntity
  8
Mittellinie
  6
DASHDOT
 62
     1
420
 15337734
370
    25
100
AcDbLine
 10
-850.81533302315
 20
834.9847315004
 30
0.0
 11
-850.81533302315
 21
837.9847315004
 31
0.0
  0
LINE
  5
134
330
1F
100
AcDbEntity
  8
Mittellinie
  6
DASHDOT
 62
     1
420
 15337734
370
    25
100
AcDbLine
 10
-850.81533302315
 20
832.2347315004
 30
0.0
 11
-852.06533302315
 21
832.2347315004
 31
0.0
  0
LINE
  5
135
330
1F
100
AcDbEntity
  8
Mittellinie
  6
DASHDOT
 62
     1
420
 15337734
370
    25
100
AcDbLine
 10
-852.56533302315
 20
832.2347315004
 30
0.0
 11
-853.06533302315
 21
832.2347315004
 31
0.0
  0
LINE
  5
136
330
1F
100
AcDbEntity
  8
Mittellinie
  6
DASHDOT
 62
     1
420
 15337734
370
    25
100
AcDbLine
 10
-853.56533302315
 20
832.2347315004
 30
0.0
 11
-856.56533302315
 21
832.2347315004
 31
0.0
  0
LINE
  5
137
330
1F
100
AcDbEntity
  8
Mittellinie
  6
DASHDOT
 62
     1
420
 15337734
370
    25
100
AcDbLine
 10
-850.81533302315
 20
832.2347315004
 30
0.0
 11
-850.81533302315
 21
830.9847315004
 31
0.0
  0
LINE
  5
138
330
1F
100
AcDbEntity
  8
Mittellinie
  6
DASHDOT
 62
     1
420
 15337734
370
    25
100
AcDbLine
 10
-850.81533302315
 20
830.4847315004
 30
0.0
 11
-850.81533302315
 21
829.9847315004
 31
0.0
  0
LINE
  5
139
330
1F
100
AcDbEntity
  8
Mittellinie
  6
DASHDOT
 62
     1
420
 15337734
370
    25
100
AcDbLine
 10
-850.81533302315
 20
829.4847315004
 30
0.0
 11
-850.81533302315
 21
826.4847315004
 31
0.0
  0
LINE
  5
13A
330
1F
100
AcDbEntity
  8
Mittellinie
  6
DASHDOT
 62
     1
420
 15337734
370
    25
100
AcDbLine
 10
-430.81533302315
 20
832.2347315004
 30
0.0
 11
-429.56533302315
 21
832.2347315004
 31
0.0
  0
LINE
  5
13B
330
1F
100
AcDbEntity
  8
Mittellinie
  6
DASHDOT
 62
     1
420
 15337734
370
    25
100
AcDbLine
 10
-429.06533302315
 20
832.2347315004
 30
0.0
 11
-428.56533302315
 21
832.2347315004
 31
0.0
  0
LINE
  5
13C
330
1F
100
AcDbEntity
  8
Mittellinie
  6
DASHDOT
 62
     1
420
 15337734
370
    25
100
AcDbLine
 10
-428.06533302315
 20
832.2347315004
 30
0.0
 11
-425.06533302315
 21
832.2347315004
 31
0.0
  0
LINE
  5
13D
330
1F
100
AcDbEntity
  8
Mittellinie
  6
DASHDOT
 62
     1
420
 15337734
370
    25
100
AcDbLine
 10
-430.81533302315
 20
832.2347315004
 30
0.0
 11
-430.81533302315
 21
833.4847315004
 31
0.0
  0
LINE
  5
13E
330
1F
100
AcDbEntity
  8
Mittellinie
  6
DASHDOT
 62
     1
420
 15337734
370
    25
100
AcDbLine
 10
-430.81533302315
 20
833.9847315004
 30
0.0
 11
-430.81533302315
 21
834.4847315004
 31
0.0
  0
LINE
  5
13F
330
1F
100
AcDbEntity
  8
Mittellinie
  6
DASHDOT
 62
     1
420
 15337734
370
    25
100
AcDbLine
 10
-430.81533302315
 20
834.9847315004
 30
0.0
 11
-430.81533302315
 21
837.9847315004
 31
0.0
  0
LINE
  5
140
330
1F
100
AcDbEntity
  8
Mittellinie
  6
DASHDOT
 62
     1
420
 15337734
370
    25
100
AcDbLine
 10
-430.81533302315
 20
832.2347315004
 30
0.0
 11
-432.06533302315
 21
832.2347315004
 31
0.0
  0
LINE
  5
141
330
1F
100
AcDbEntity
  8
Mittellinie
  6
DASHDOT
 62
     1
420
 15337734
370
    25
100
AcDbLine
 10
-432.56533302315
 20
832.2347315004
 30
0.0
 11
-433.06533302315
 21
832.2347315004
 31
0.0
  0
LINE
  5
142
330
1F
100
AcDbEntity
  8
Mittellinie
  6
DASHDOT
 62
     1
420
 15337734
370
    25
100
AcDbLine
 10
-433.56533302315
 20
832.2347315004
 30
0.0
 11
-436.56533302315
 21
832.2347315004
 31
0.0
  0
LINE
  5
143
330
1F
100
AcDbEntity
  8
Mittellinie
  6
DASHDOT
 62
     1
420
 15337734
370
    25
100
AcDbLine
 10
-430.81533302315
 20
832.2347315004
 30
0.0
 11
-430.81533302315
 21
830.9847315004
 31
0.0
  0
LINE
  5
144
330
1F
100
AcDbEntity
  8
Mittellinie
  6
DASHDOT
 62
     1
420
 15337734
370
    25
100
AcDbLine
 10
-430.81533302315
 20
830.4847315004
 30
0.0
 11
-430.81533302315
 21
829.9847315004
 31
0.0
  0
LINE
  5
145
330
1F
100
AcDbEntity
  8
Mittellinie
  6
DASHDOT
 62
     1
420
 15337734
370
    25
100
AcDbLine
 10
-430.81533302315
 20
829.4847315004
 30
0.0
 11
-430.81533302315
 21
826.4847315004
 31
0.0
  0
LINE
  5
146
330
1F
100
AcDbEntity
  8
Mittellinie
  6
DASHDOT
 62
     1
420
 15337734
370
    25
100
AcDbLine
 10
-430.81533302315
 20
414.234731500399
 30
0.0
 11
-429.56533302315
 21
414.234731500399
 31
0.0
  0
LINE
  5
147
330
1F
100
AcDbEntity
  8
Mittellinie
  6
DASHDOT
 62
     1
420
 15337734
370
    25
100
AcDbLine
 10
-429.06533302315
 20
414.234731500399
 30
0.0
 11
-428.56533302315
 21
414.234731500399
 31
0.0
  0
LINE
  5
148
330
1F
100
AcDbEntity
  8
Mittellinie
  6
DASHDOT
 62
     1
420
 15337734
370
    25
100
AcDbLine
 10
-428.06533302315
 20
414.234731500399
 30
0.0
 11
-425.06533302315
 21
414.234731500399
 31
0.0
  0
LINE
  5
149
330
1F
100
AcDbEntity
  8
Mittellinie
  6
DASHDOT
 62
     1
420
 15337734
370
    25
100
AcDbLine
 10
-430.81533302315
 20
414.234731500399
 30
0.0
 11
-430.81533302315
 21
415.484731500399
 31
0.0
  0
LINE
  5
14A
330
1F
100
AcDbEntity
  8
Mittellinie
  6
DASHDOT
 62
     1
420
 15337734
370
    25
100
AcDbLine
 10
-430.81533302315
 20
415.984731500399
 30
0.0
 11
-430.81533302315
 21
416.484731500399
 31
0.0
  0
LINE
  5
14B
330
1F
100
AcDbEntity
  8
Mittellinie
  6
DASHDOT
 62
     1
420
 15337734
370
    25
100
AcDbLine
 10
-430.81533302315
 20
416.984731500399
 30
0.0
 11
-430.81533302315
 21
419.984731500399
 31
0.0
  0
LINE
  5
14C
330
1F
100
AcDbEntity
  8
Mittellinie
  6
DASHDOT
 62
     1
420
 15337734
370
    25
100
AcDbLine
 10
-430.81533302315
 20
414.234731500399
 30
0.0
 11
-432.06533302315
 21
414.234731500399
 31
0.0
  0
LINE
  5
14D
330
1F
100
AcDbEntity
  8
Mittellinie
  6
DASHDOT
 62
     1
420
 15337734
370
    25
100
AcDbLine
 10
-432.56533302315
 20
414.234731500399
 30
0.0
 11
-433.06533302315
 21
414.234731500399
 31
0.0
  0
LINE
  5
14E
330
1F
100
AcDbEntity
  8
Mittellinie
  6
DASHDOT
 62
     1
420
 15337734
370
    25
100
AcDbLine
 10
-433.56533302315
 20
414.234731500399
 30
0.0
 11
-436.56533302315
 21
414.234731500399
 31
0.0
  0
LINE
  5
14F
330
1F
100
AcDbEntity
  8
Mittellinie
  6
DASHDOT
 62
     1
420
 15337734
370
    25
100
AcDbLine
 10
-430.81533302315
 20
414.234731500399
 30
0.0
 11
-430.81533302315
 21
412.984731500399
 31
0.0
  0
LINE
  5
150
330
1F
100
AcDbEntity
  8
Mittellinie
  6
DASHDOT
 62
     1
420
 15337734
370
    25
100
AcDbLine
 10
-430.81533302315
 20
412.484731500399
 30
0.0
 11
-430.81533302315
 21
411.984731500399
 31
0.0
  0
LINE
  5
151
330
1F
100
AcDbEntity
  8
Mittellinie
  6
DASHDOT
 62
     1
420
 15337734
370
    25
100
AcDbLine
 10
-430.81533302315
 20
411.484731500399
 30
0.0
 11
-430.81533302315
 21
408.484731500399
 31
0.0
  0
LINE
  5
152
330
1F
100
AcDbEntity
  8
Mittellinie
  6
DASHDOT
 62
     1
420
 15337734
370
    25
100
AcDbLine
 10
-850.81533302315
 20
414.234731500399
 30
0.0
 11
-849.56533302315
 21
414.234731500399
 31
0.0
  0
LINE
  5
153
330
1F
100
AcDbEntity
  8
Mittellinie
  6
DASHDOT
 62
     1
420
 15337734
370
    25
100
AcDbLine
 10
-849.06533302315
 20
414.234731500399
 30
0.0
 11
-848.56533302315
 21
414.234731500399
 31
0.0
  0
LINE
  5
154
330
1F
100
AcDbEntity
  8
Mittellinie
  6
DASHDOT
 62
     1
420
 15337734
370
    25
100
AcDbLine
 10
-848.06533302315
 20
414.234731500399
 30
0.0
 11
-845.06533302315
 21
414.234731500399
 31
0.0
  0
LINE
  5
155
330
1F
100
AcDbEntity
  8
Mittellinie
  6
DASHDOT
 62
     1
420
 15337734
370
    25
100
AcDbLine
 10
-850.81533302315
 20
414.234731500399
 30
0.0
 11
-850.81533302315
 21
415.484731500399
 31
0.0
  0
LINE
  5
156
330
1F
100
AcDbEntity
  8
Mittellinie
  6
DASHDOT
 62
     1
420
 15337734
370
    25
100
AcDbLine
 10
-850.81533302315
 20
415.984731500399
 30
0.0
 11
-850.81533302315
 21
416.484731500399
 31
0.0
  0
LINE
  5
157
330
1F
100
AcDbEntity
  8
Mittellinie
  6
DASHDOT
 62
     1
420
 15337734
370
    25
100
AcDbLine
 10
-850.81533302315
 20
416.984731500399
 30
0.0
 11
-850.81533302315
 21
419.984731500399
 31
0.0
  0
LINE
  5
158
330
1F
100
AcDbEntity
  8
Mittellinie
  6
DASHDOT
 62
     1
420
 15337734
370
    25
100
AcDbLine
 10
-850.81533302315
 20
414.234731500399
 30
0.0
 11
-852.06533302315
 21
414.234731500399
 31
0.0
  0
LINE
  5
159
330
1F
100
AcDbEntity
  8
Mittellinie
  6
DASHDOT
 62
     1
420
 15337734
370
    25
100
AcDbLine
 10
-852.56533302315
 20
414.234731500399
 30
0.0
 11
-853.06533302315
 21
414.234731500399
 31
0.0
  0
LINE
  5
15A
330
1F
100
AcDbEntity
  8
Mittellinie
  6
DASHDOT
 62
     1
420
 15337734
370
    25
100
AcDbLine
 10
-853.56533302315
 20
414.234731500399
 30
0.0
 11
-856.56533302315
 21
414.234731500399
 31
0.0
  0
LINE
  5
15B
330
1F
100
AcDbEntity
  8
Mittellinie
  6
DASHDOT
 62
     1
420
 15337734
370
    25
100
AcDbLine
 10
-850.81533302315
 20
414.234731500399
 30
0.0
 11
-850.81533302315
 21
412.984731500399
 31
0.0
  0
LINE
  5
15C
330
1F
100
AcDbEntity
  8
Mittellinie
  6
DASHDOT
 62
     1
420
 15337734
370
    25
100
AcDbLine
 10
-850.81533302315
 20
412.484731500399
 30
0.0
 11
-850.81533302315
 21
411.984731500399
 31
0.0
  0
LINE
  5
15D
330
1F
100
AcDbEntity
  8
Mittellinie
  6
DASHDOT
 62
     1
420
 15337734
370
    25
100
AcDbLine
 10
-850.81533302315
 20
411.484731500399
 30
0.0
 11
-850.81533302315
 21
408.484731500399
 31
0.0
  0
LINE
  5
15E
330
1F
100
AcDbEntity
  8
verdeckte Kanten
  6
DASHED
 62
     8
420
  8421504
370
    18
100
AcDbLine
 10
-845.81533302315
 20
285.540190359883
 30
0.0
 11
-845.81533302315
 21
287.040190359883
 31
0.0
  0
LINE
  5
15F
330
1F
100
AcDbEntity
  8
verdeckte Kanten
  6
DASHED
 62
     8
420
  8421504
370
    18
100
AcDbLine
 10
-855.81533302315
 20
285.540190359883
 30
0.0
 11
-855.81533302315
 21
287.040190359883
 31
0.0
  0
LINE
  5
160
330
1F
100
AcDbEntity
  8
verdeckte Kanten
  6
DASHED
 62
     8
420
  8421504
370
    18
100
AcDbLine
 10
-425.81533302315
 20
285.540190359883
 30
0.0
 11
-425.81533302315
 21
287.040190359883
 31
0.0
  0
LINE
  5
161
330
1F
100
AcDbEntity
  8
verdeckte Kanten
  6
DASHED
 62
     8
420
  8421504
370
    18
100
AcDbLine
 10
-435.81533302315
 20
285.540190359883
 30
0.0
 11
-435.81533302315
 21
287.040190359883
 31
0.0
  0
LINE
  5
162
330
1F
100
AcDbEntity
  8
verdeckte Kanten
  6
DASHED
 62
     8
420
  8421504
370
    18
100
AcDbLine
 10
356.806273061904
 20
827.234731500399
 30
0.0
 11
355.306273061904
 21
827.234731500399
 31
0.0
  0
LINE
  5
163
330
1F
100
AcDbEntity
  8
verdeckte Kanten
  6
DASHED
 62
     8
420
  8421504
370
    18
100
AcDbLine
 10
356.806273061904
 20
837.234731500399
 30
0.0
 11
355.306273061904
 21
837.234731500399
 31
0.0
  0
LINE
  5
164
330
1F
100
AcDbEntity
  8
verdeckte Kanten
  6
DASHED
 62
     8
420
  8421504
370
    18
100
AcDbLine
 10
356.806273061904
 20
419.234731500399
 30
0.0
 11
355.306273061904
 21
419.234731500399
 31
0.0
  0
LINE
  5
165
330
1F
100
AcDbEntity
  8
verdeckte Kanten
  6
DASHED
 62
     8
420
  8421504
370
    18
100
AcDbLine
 10
356.806273061904
 20
409.234731500399
 30
0.0
 11
355.306273061904
 21
409.234731500399
 31
0.0
  0
CIRCLE
  5
166
330
1F
100
AcDbEntity
  8
Vollinie breit
  6
AUSGEZOGEN
 62
    18
420
        0
370
    35
100
AcDbCircle
 10
75.640185895813
 20
414.234731500399
 30
0.0
 40
3.5
  0
CIRCLE
  5
167
330
1F
100
AcDbEntity
  8
Vollinie breit
  6
AUSGEZOGEN
 62
    18
420
        0
370
    35
100
AcDbCircle
 10
75.640185895813
 20
812.234731500399
 30
0.0
 40
3.5
  0
LINE
  5
168
330
1F
100
AcDbEntity
  8
Mittellinie
  6
DASHDOT
 62
     1
420
 15337734
370
    25
100
AcDbLine
 10
75.640185895813
 20
414.234731500399
 30
0.0
 11
76.515185895813
 21
414.234731500399
 31
0.0
  0
LINE
  5
169
330
1F
100
AcDbEntity
  8
Mittellinie
  6
DASHDOT
 62
     1
420
 15337734
370
    25
100
AcDbLine
 10
76.865185895813
 20
414.234731500399
 30
0.0
 11
77.215185895813
 21
414.234731500399
 31
0.0
  0
LINE
  5
16A
330
1F
100
AcDbEntity
  8
Mittellinie
  6
DASHDOT
 62
     1
420
 15337734
370
    25
100
AcDbLine
 10
77.565185895813
 20
414.234731500399
 30
0.0
 11
79.665185895813
 21
414.234731500399
 31
0.0
  0
LINE
  5
16B
330
1F
100
AcDbEntity
  8
Mittellinie
  6
DASHDOT
 62
     1
420
 15337734
370
    25
100
AcDbLine
 10
75.640185895813
 20
414.234731500399
 30
0.0
 11
75.640185895813
 21
415.109731500399
 31
0.0
  0
LINE
  5
16C
330
1F
100
AcDbEntity
  8
Mittellinie
  6
DASHDOT
 62
     1
420
 15337734
370
    25
100
AcDbLine
 10
75.640185895813
 20
415.459731500399
 30
0.0
 11
75.640185895813
 21
415.809731500399
 31
0.0
  0
LINE
  5
16D
330
1F
100
AcDbEntity
  8
Mittellinie
  6
DASHDOT
 62
     1
420
 15337734
370
    25
100
AcDbLine
 10
75.640185895813
 20
416.159731500399
 30
0.0
 11
75.640185895813
 21
418.259731500399
 31
0.0
  0
LINE
  5
16E
330
1F
100
AcDbEntity
  8
Mittellinie
  6
DASHDOT
 62
     1
420
 15337734
370
    25
100
AcDbLine
 10
75.640185895813
 20
414.234731500399
 30
0.0
 11
74.765185895813
 21
414.234731500399
 31
0.0
  0
LINE
  5
16F
330
1F
100
AcDbEntity
  8
Mittellinie
  6
DASHDOT
 62
     1
420
 15337734
370
    25
100
AcDbLine
 10
74.415185895813
 20
414.234731500399
 30
0.0
 11
74.065185895813
 21
414.234731500399
 31
0.0
  0
LINE
  5
170
330
1F
100
AcDbEntity
  8
Mittellinie
  6
DASHDOT
 62
     1
420
 15337734
370
    25
100
AcDbLine
 10
73.715185895813
 20
414.234731500399
 30
0.0
 11
71.615185895813
 21
414.234731500399
 31
0.0
  0
LINE
  5
171
330
1F
100
AcDbEntity
  8
Mittellinie
  6
DASHDOT
 62
     1
420
 15337734
370
    25
100
AcDbLine
 10
75.640185895813
 20
414.234731500399
 30
0.0
 11
75.640185895813
 21
413.359731500399
 31
0.0
  0
LINE
  5
172
330
1F
100
AcDbEntity
  8
Mittellinie
  6
DASHDOT
 62
     1
420
 15337734
370
    25
100
AcDbLine
 10
75.640185895813
 20
413.009731500399
 30
0.0
 11
75.640185895813
 21
412.659731500399
 31
0.0
  0
LINE
  5
173
330
1F
100
AcDbEntity
  8
Mittellinie
  6
DASHDOT
 62
     1
420
 15337734
370
    25
100
AcDbLine
 10
75.640185895813
 20
412.309731500399
 30
0.0
 11
75.640185895813
 21
410.209731500399
 31
0.0
  0
LINE
  5
174
330
1F
100
AcDbEntity
  8
Mittellinie
  6
DASHDOT
 62
     1
420
 15337734
370
    25
100
AcDbLine
 10
75.640185895813
 20
812.234731500399
 30
0.0
 11
76.515185895813
 21
812.234731500399
 31
0.0
  0
LINE
  5
175
330
1F
100
AcDbEntity
  8
Mittellinie
  6
DASHDOT
 62
     1
420
 15337734
370
    25
100
AcDbLine
 10
76.865185895813
 20
812.234731500399
 30
0.0
 11
77.215185895813
 21
812.234731500399
 31
0.0
  0
LINE
  5
176
330
1F
100
AcDbEntity
  8
Mittellinie
  6
DASHDOT
 62
     1
420
 15337734
370
    25
100
AcDbLine
 10
77.565185895813
 20
812.234731500399
 30
0.0
 11
79.665185895813
 21
812.234731500399
 31
0.0
  0
LINE
  5
177
330
1F
100
AcDbEntity
  8
Mittellinie
  6
DASHDOT
 62
     1
420
 15337734
370
    25
100
AcDbLine
 10
75.640185895813
 20
812.234731500399
 30
0.0
 11
75.640185895813
 21
813.109731500399
 31
0.0
  0
LINE
  5
178
330
1F
100
AcDbEntity
  8
Mittellinie
  6
DASHDOT
 62
     1
420
 15337734
370
    25
100
AcDbLine
 10
75.640185895813
 20
813.459731500399
 30
0.0
 11
75.640185895813
 21
813.809731500399
 31
0.0
  0
LINE
  5
179
330
1F
100
AcDbEntity
  8
Mittellinie
  6
DASHDOT
 62
     1
420
 15337734
370
    25
100
AcDbLine
 10
75.640185895813
 20
814.159731500399
 30
0.0
 11
75.640185895813
 21
816.259731500399
 31
0.0
  0
LINE
  5
17A
330
1F
100
AcDbEntity
  8
Mittellinie
  6
DASHDOT
 62
     1
420
 15337734
370
    25
100
AcDbLine
 10
75.640185895813
 20
812.234731500399
 30
0.0
 11
74.765185895813
 21
812.234731500399
 31
0.0
  0
LINE
  5
17B
330
1F
100
AcDbEntity
  8
Mittellinie
  6
DASHDOT
 62
     1
420
 15337734
370
    25
100
AcDbLine
 10
74.415185895813
 20
812.234731500399
 30
0.0
 11
74.065185895813
 21
812.234731500399
 31
0.0
  0
LINE
  5
17C
330
1F
100
AcDbEntity
  8
Mittellinie
  6
DASHDOT
 62
     1
420
 15337734
370
    25
100
AcDbLine
 10
73.715185895813
 20
812.234731500399
 30
0.0
 11
71.615185895813
 21
812.234731500399
 31
0.0
  0
LINE
  5
17D
330
1F
100
AcDbEntity
  8
Mittellinie
  6
DASHDOT
 62
     1
420
 15337734
370
    25
100
AcDbLine
 10
75.640185895813
 20
812.234731500399
 30
0.0
 11
75.640185895813
 21
811.359731500399
 31
0.0
  0
LINE
  5
17E
330
1F
100
AcDbEntity
  8
Mittellinie
  6
DASHDOT
 62
     1
420
 15337734
370
    25
100
AcDbLine
 10
75.640185895813
 20
811.009731500399
 30
0.0
 11
75.640185895813
 21
810.659731500399
 31
0.0
  0
LINE
  5
17F
330
1F
100
AcDbEntity
  8
Mittellinie
  6
DASHDOT
 62
     1
420
 15337734
370
    25
100
AcDbLine
 10
75.640185895813
 20
810.309731500399
 30
0.0
 11
75.640185895813
 21
808.209731500399
 31
0.0
  0
ARC
  5
180
330
1F
100
AcDbEntity
  8
verdeckte Kanten
  6
DASHED
 62
     8
420
  8421504
370
    18
100
AcDbCircle
 10
-420.81533302315
 20
-30.299809640117
 30
0.0
 40
10.0
100
AcDbArc
 50
270.0
 51
0.0
  0
ARC
  5
181
330
1F
100
AcDbEntity
  8
verdeckte Kanten
  6
DASHED
 62
     8
420
  8421504
370
    18
100
AcDbCircle
 10
-860.81533302315
 20
-30.299809640117
 30
0.0
 40
10.0
100
AcDbArc
 50
180.0
 51
270.0
  0
ARC
  5
182
330
1F
100
AcDbEntity
  8
Vollinie breit
  6
AUSGEZOGEN
 62
    18
420
        0
370
    35
100
AcDbCircle
 10
-860.81533302315
 20
-31.359809640117
 30
0.0
 40
10.0
100
AcDbArc
 50
180.0
 51
270.0
  0
ARC
  5
183
330
1F
100
AcDbEntity
  8
Vollinie breit
  6
AUSGEZOGEN
 62
    18
420
        0
370
    35
100
AcDbCircle
 10
-420.81533302315
 20
-31.359809640117
 30
0.0
 40
10.0
100
AcDbArc
 50
270.0
 51
0.0
  0
INSERT
  5
18C
330
1F
100
AcDbEntity
  8
0
100
AcDbBlockReference
  2
DimBlk_nNn05
 10
0.0
 20
0.0
 30
0.0
  0
DIMENSION
  5
197
330
1F
100
AcDbEntity
  8
Bemaßung
  6
AUSGEZOGEN
 62
    96
420
    32768
370
    18
100
AcDbDimension
280
     0
  2
*D7
 10
-410.81533302315
 20
950.0
 30
0.0
 11
-640.81533302315
 21
962.34722251892
 31
0.0
 70
    32
 71
     5
 42
-1.0
 73
     0
 74
     0
 75
     0
  3
ISO-25
100
AcDbAlignedDimension
 13
-870.81533302315
 23
854.263766576932
 33
0.0
 14
-410.81533302315
 24
854.263766576932
 34
0.0
100
AcDbRotatedDimension
1001
ACAD
1000
DSTYLE
1002
{
1070
     3
1000
<>
1070
   340
1005
71
1070
    44
1040
12.59920665196
1070
   280
1070
     0
1070
    77
1070
     1
1070
    78
1070
     8
1070
   179
1070
     2
1070
   271
1070
     2
1070
   173
1070
     1
1070
    41
1040
17.638889312744
1070
   147
1040
2.519841330392
1070
   140
1040
17.638889312744
1070
   178
1070
    18
1070
   177
1070
    96
1070
   176
1070
    96
1002
}
  0
DIMENSION
  5
1A5
330
1F
100
AcDbEntity
  8
Bemaßung
  6
AUSGEZOGEN
 62
    96
420
    32768
370
    18
100
AcDbDimension
280
     0
  2
*D8
 10
-410.81533302315
 20
950.0
 30
0.0
 11
-370.0
 21
965.0
 31
0.0
 70
   160
 71
     5
 42
-1.0
 73
     0
 74
     0
 75
     0
  3
ISO-25
100
AcDbAlignedDimension
 13
-409.31533302315
 23
852.763766576932
 33
0.0
 14
-410.81533302315
 24
854.263766576932
 34
0.0
 50
180.0
100
AcDbRotatedDimension
1001
ACAD
1000
DSTYLE
1002
{
1070
     3
1000
<>
1070
   340
1005
71
1070
    44
1040
12.59920665196
1070
   280
1070
     3
1070
    77
1070
     1
1070
    78
1070
     8
1070
   179
1070
     2
1070
   271
1070
     2
1070
   173
1070
     1
1070
    41
1040
17.638889312744
1070
   147
1040
2.519841330392
1070
   140
1040
17.638889312744
1070
   178
1070
    18
1070
   177
1070
    96
1070
   176
1070
    96
1002
}
  0
DIMENSION
  5
1B3
330
1F
100
AcDbEntity
  8
Bemaßung
  6
AUSGEZOGEN
 62
    96
420
    32768
370
    18
100
AcDbDimension
280
     0
  2
*D9
 10
-870.81533302315
 20
950.0
 30
0.0
 11
-915.0
 21
965.0
 31
0.0
 70
   160
 71
     5
 42
-1.0
 73
     0
 74
     0
 75
     0
  3
ISO-25
100
AcDbAlignedDimension
 13
-872.31533302315
 23
852.763766576932
 33
0.0
 14
-870.81533302315
 24
852.763766576932
 34
0.0
100
AcDbRotatedDimension
1001
ACAD
1000
DSTYLE
1002
{
1070
     3
1000
<>
1070
   340
1005
71
1070
    44
1040
12.59920665196
1070
   280
1070
     3
1070
    77
1070
     1
1070
    78
1070
     8
1070
   179
1070
     2
1070
   271
1070
     2
1070
   173
1070
     1
1070
    41
1040
17.638889312744
1070
   147
1040
2.519841330392
1070
   140
1040
17.638889312744
1070
   178
1070
    18
1070
   177
1070
    96
1070
   176
1070
    96
1002
}
  0
DIMENSION
  5
1C1
330
1F
100
AcDbEntity
  8
Bemaßung
  6
AUSGEZOGEN
 62
    96
420
    32768
370
    18
100
AcDbDimension
280
     0
  2
*D10
 10
355.306273061904
 20
345.0
 30
0.0
 11
395.0
 21
360.0
 31
0.0
 70
   160
 71
     5
 42
-1.0
 73
     0
 74
     0
 75
     0
  3
ISO-25
100
AcDbAlignedDimension
 13
356.806273061904
 23
394.234731500399
 33
0.0
 14
355.306273061904
 24
394.234731500399
 34
0.0
 50
180.0
100
AcDbRotatedDimension
1001
ACAD
1000
DSTYLE
1002
{
1070
     3
1000
<>
1070
   340
1005
71
1070
    44
1040
12.59920665196
1070
   280
1070
     3
1070
    77
1070
     1
1070
    78
1070
     8
1070
   179
1070
     2
1070
   271
1070
     2
1070
   173
1070
     1
1070
    41
1040
17.638889312744
1070
   147
1040
2.519841330392
1070
   140
1040
17.638889312744
1070
   178
1070
    18
1070
   177
1070
    96
1070
   176
1070
    96
1002
}
  0
DIMENSION
  5
1CC
330
1F
100
AcDbEntity
  8
Bemaßung
  6
AUSGEZOGEN
 62
    96
420
    32768
370
    18
100
AcDbDimension
280
     0
  2
*D11
 10
428.53776720058
 20
852.763766576932
 30
0.0
 11
416.190544681659
 21
623.499249038665
 31
0.0
 70
    32
 71
     5
 42
-1.0
 73
     0
 74
     0
 75
     0
 53
90.0
  3
ISO-25
100
AcDbAlignedDimension
 13
356.806273061904
 23
394.234731500399
 33
0.0
 14
350.306273061904
 24
852.763766576932
 34
0.0
 50
90.0
100
AcDbRotatedDimension
1001
ACAD
1000
DSTYLE
1002
{
1070
     3
1000
<>
1070
   340
1005
71
1070
    44
1040
12.59920665196
1070
   280
1070
     0
1070
    77
1070
     1
1070
    78
1070
     8
1070
   179
1070
     1
1070
   271
1070
     1
1070
   173
1070
     1
1070
    41
1040
17.638889312744
1070
   147
1040
2.519841330392
1070
   140
1040
17.638889312744
1070
   178
1070
    18
1070
   177
1070
    96
1070
   176
1070
    96
1002
}
  0
DIMENSION
  5
1D7
330
1F
100
AcDbEntity
  8
Bemaßung
  6
AUSGEZOGEN
 62
    96
420
    32768
370
    18
100
AcDbDimension
280
     0
  2
*D12
 10
479.121272052354
 20
394.234731500399
 30
0.0
 11
466.774049533434
 21
624.249249038666
 31
0.0
 70
    32
 71
     5
 42
-1.0
 73
     0
 74
     0
 75
     0
 53
90.0
  3
ISO-25
100
AcDbAlignedDimension
 13
350.306273061904
 23
854.263766576932
 33
0.0
 14
356.806273061904
 24
394.234731500399
 34
0.0
 50
-90.0
100
AcDbRotatedDimension
1001
ACAD
1000
DSTYLE
1002
{
1070
     3
1000
<>
1070
   340
1005
71
1070
    44
1040
12.59920665196
1070
   280
1070
     0
1070
    77
1070
     1
1070
    78
1070
     8
1070
   179
1070
     0
1070
   271
1070
     0
1070
   173
1070
     1
1070
    41
1040
17.638889312744
1070
   147
1040
2.519841330392
1070
   140
1040
17.638889312744
1070
   178
1070
    18
1070
   177
1070
    96
1070
   176
1070
    96
1002
}
  0
INSERT
  5
1DE
330
1F
100
AcDbEntity
  8
0
100
AcDbBlockReference
 66
     1
  2
Nummer_nNn012
 10
0.0
 20
0.0
 30
0.0
  0
ATTRIB
  5
1DF
330
1DE
100
AcDbEntity
  8
0
100
AcDbText
 10
0.0
 20
0.0
 30
0.0
 40
0.0
  1

100
AcDbAttribute
  2
NUMBERING
 70
     1
280
     0
  0
SEQEND
  5
1E0
330
1DE
100
AcDbEntity
  8
0
  0
INSERT
  5
1E7
330
1F
100
AcDbEntity
  8
0
100
AcDbBlockReference
 66
     1
  2
Nummer_nNn013
 10
0.0
 20
0.0
 30
0.0
  0
ATTRIB
  5
1E8
330
1E7
100
AcDbEntity
  8
0
100
AcDbText
 10
0.0
 20
0.0
 30
0.0
 40
0.0
  1

100
AcDbAttribute
  2
NUMBERING
 70
     1
280
     0
  0
SEQEND
  5
1E9
330
1E7
100
AcDbEntity
  8
0
  0
INSERT
  5
1F0
330
1F
100
AcDbEntity
  8
0
100
AcDbBlockReference
 66
     1
  2
Nummer_nNn014
 10
0.0
 20
0.0
 30
0.0
  0
ATTRIB
  5
1F1
330
1F0
100
AcDbEntity
  8
0
100
AcDbText
 10
0.0
 20
0.0
 30
0.0
 40
0.0
  1

100
AcDbAttribute
  2
NUMBERING
 70
     1
280
     0
  0
SEQEND
  5
1F2
330
1F0
100
AcDbEntity
  8
0
  0
LINE
  5
1F3
330
1F
100
AcDbEntity
  8
Mittellinie
  6
DASHDOT
 62
     1
420
 15337734
370
    25
100
AcDbLine
 10
-415.81533302315
 20
5.870190359883
 30
0.0
 11
-404.31533302315
 21
5.870190359883
 31
0.0
  0
LINE
  5
1F4
330
1F
100
AcDbEntity
  8
Mittellinie
  6
DASHDOT
 62
     1
420
 15337734
370
    25
100
AcDbLine
 10
-877.31533302315
 20
5.870190359883
 30
0.0
 11
-865.81533302315
 21
5.870190359883
 31
0.0
  0
LINE
  5
1F5
330
1F
100
AcDbEntity
  8
verdeckte Kanten
  6
DASHED
 62
     8
420
  8421504
370
    18
100
AcDbLine
 10
-410.81533302315
 20
9.370190359883
 30
0.0
 11
-409.31533302315
 21
9.370190359883
 31
0.0
  0
LINE
  5
1F6
330
1F
100
AcDbEntity
  8
verdeckte Kanten
  6
DASHED
 62
     8
420
  8421504
370
    18
100
AcDbLine
 10
-410.81533302315
 20
2.370190359883
 30
0.0
 11
-409.31533302315
 21
2.370190359883
 31
0.0
  0
LINE
  5
1F7
330
1F
100
AcDbEntity
  8
verdeckte Kanten
  6
DASHED
 62
     8
420
  8421504
370
    18
100
AcDbLine
 10
-870.81533302315
 20
9.370190359883
 30
0.0
 11
-872.31533302315
 21
9.370190359883
 31
0.0
  0
LINE
  5
1F8
330
1F
100
AcDbEntity
  8
verdeckte Kanten
  6
DASHED
 62
     8
420
  8421504
370
    18
100
AcDbLine
 10
-870.81533302315
 20
2.370190359883
 30
0.0
 11
-872.31533302315
 21
2.370190359883
 31
0.0
  0
LINE
  5
1F9
330
1F
100
AcDbEntity
  8
Mittellinie
  6
DASHDOT
 62
     1
420
 15337734
370
    25
100
AcDbLine
 10
-415.81533302315
 20
812.234731500399
 30
0.0
 11
-404.31533302315
 21
812.234731500399
 31
0.0
  0
LINE
  5
1FA
330
1F
100
AcDbEntity
  8
Mittellinie
  6
DASHDOT
 62
     1
420
 15337734
370
    25
100
AcDbLine
 10
-877.31533302315
 20
812.234731500399
 30
0.0
 11
-865.81533302315
 21
812.234731500399
 31
0.0
  0
LINE
  5
1FB
330
1F
100
AcDbEntity
  8
Mittellinie
  6
DASHDOT
 62
     1
420
 15337734
370
    25
100
AcDbLine
 10
-877.31533302315
 20
414.234731500399
 30
0.0
 11
-865.81533302315
 21
414.234731500399
 31
0.0
  0
LINE
  5
1FC
330
1F
100
AcDbEntity
  8
Mittellinie
  6
DASHDOT
 62
     1
420
 15337734
370
    25
100
AcDbLine
 10
-415.81533302315
 20
414.234731500399
 30
0.0
 11
-404.31533302315
 21
414.234731500399
 31
0.0
  0
LINE
  5
1FD
330
1F
100
AcDbEntity
  8
verdeckte Kanten
  6
DASHED
 62
     8
420
  8421504
370
    18
100
AcDbLine
 10
-870.81533302315
 20
808.734731500399
 30
0.0
 11
-872.31533302315
 21
808.734731500399
 31
0.0
  0
LINE
  5
1FE
330
1F
100
AcDbEntity
  8
verdeckte Kanten
  6
DASHED
 62
     8
420
  8421504
370
    18
100
AcDbLine
 10
-870.81533302315
 20
815.734731500399
 30
0.0
 11
-872.31533302315
 21
815.734731500399
 31
0.0
  0
LINE
  5
1FF
330
1F
100
AcDbEntity
  8
verdeckte Kanten
  6
DASHED
 62
     8
420
  8421504
370
    18
100
AcDbLine
 10
-409.31533302315
 20
815.734731500399
 30
0.0
 11
-410.81533302315
 21
815.734731500399
 31
0.0
  0
LINE
  5
200
330
1F
100
AcDbEntity
  8
verdeckte Kanten
  6
DASHED
 62
     8
420
  8421504
370
    18
100
AcDbLine
 10
-409.31533302315
 20
808.734731500399
 30
0.0
 11
-410.81533302315
 21
808.734731500399
 31
0.0
  0
LINE
  5
201
330
1F
100
AcDbEntity
  8
verdeckte Kanten
  6
DASHED
 62
     8
420
  8421504
370
    18
100
AcDbLine
 10
-409.31533302315
 20
410.734731500399
 30
0.0
 11
-410.81533302315
 21
410.734731500399
 31
0.0
  0
LINE
  5
202
330
1F
100
AcDbEntity
  8
verdeckte Kanten
  6
DASHED
 62
     8
420
  8421504
370
    18
100
AcDbLine
 10
-409.31533302315
 20
417.734731500399
 30
0.0
 11
-410.81533302315
 21
417.734731500399
 31
0.0
  0
LINE
  5
203
330
1F
100
AcDbEntity
  8
verdeckte Kanten
  6
DASHED
 62
     8
420
  8421504
370
    18
100
AcDbLine
 10
-870.81533302315
 20
417.734731500399
 30
0.0
 11
-872.31533302315
 21
417.734731500399
 31
0.0
  0
LINE
  5
204
330
1F
100
AcDbEntity
  8
verdeckte Kanten
  6
DASHED
 62
     8
420
  8421504
370
    18
100
AcDbLine
 10
-870.81533302315
 20
410.734731500399
 30
0.0
 11
-872.31533302315
 21
410.734731500399
 31
0.0
  0
INSERT
  5
2AF
330
1F
100
AcDbEntity
  8
0
100
AcDbBlockReference
 66
     1
  2
A3-ENISO5457_LBT_nNn015
 10
0.0
 20
0.0
 30
0.0
  0
ATTRIB
  5
2B0
330
2AF
100
AcDbEntity
  8
0
100
AcDbText
 10
0.0
 20
0.0
 30
0.0
 40
0.0
  1
 X
100
AcDbAttribute
  2
DB_LOCK
 70
     1
280
     0
  0
ATTRIB
  5
2B1
330
2AF
100
AcDbEntity
  8
0
100
AcDbText
 10
0.0
 20
0.0
 30
0.0
 40
0.0
  1
1
100
AcDbAttribute
  2
Gesperrt
 70
     1
280
     0
  0
SEQEND
  5
2B2
330
2AF
100
AcDbEntity
  8
0
  0
ENDSEC
  0
SECTION
  2
OBJECTS
  0
DICTIONARY
  5
C
330
0
100
AcDbDictionary
281
     1
  3
ACAD_DETAILVIEWSTYLE
350
2EB
  3
ACAD_GROUP
350
D
  3
ACAD_LAYOUT
350
1A
  3
ACAD_MATERIAL
350
43
  3
ACAD_MLEADERSTYLE
350
6B
  3
ACAD_MLINESTYLE
350
17
  3
ACAD_PLOTSETTINGS
350
19
  3
ACAD_PLOTSTYLENAME
350
E
  3
ACAD_SCALELIST
350
47
  3
ACAD_SECTIONVIEWSTYLE
350
2EC
  3
ACAD_TABLESTYLE
350
69
  3
ACAD_VISUALSTYLE
350
2A
  3
ACAD_WIPEOUT_VARS
350
2E8
  3
ACDB_RECOMPOSE_DATA
350
2E7
  3
AcDbVariableDictionary
350
2B3
  0
SUN
  5
6D
330
29
100
AcDbSun
 90
        1
290
     0
 63
     7
421
 16777215
 40
1.0
291
     1
 91
  2455826
 92
 54000000
292
     0
 70
     2
 71
   256
280
     1
  0
DICTIONARY
  5
2EB
102
{ACAD_REACTORS
330
C
102
}
330
C
100
AcDbDictionary
281
     1
  0
DICTIONARY
  5
D
102
{ACAD_REACTORS
330
C
102
}
330
C
100
AcDbDictionary
281
     1
  0
DICTIONARY
  5
1A
102
{ACAD_REACTORS
330
C
102
}
330
C
100
AcDbDictionary
281
     1
  3
Layout1
350
1E
  3
Layout2
350
26
  3
Model
350
22
  0
DICTIONARY
  5
43
102
{ACAD_REACTORS
330
C
102
}
330
C
100
AcDbDictionary
281
     1
  3
ByBlock
350
45
  3
ByLayer
350
44
  3
Global
350
46
  0
DICTIONARY
  5
6B
102
{ACAD_REACTORS
330
C
102
}
330
C
100
AcDbDictionary
281
     1
  3
Standard
350
6C
  0
DICTIONARY
  5
17
102
{ACAD_REACTORS
330
C
102
}
330
C
100
AcDbDictionary
281
     1
  3
Standard
350
18
  0
DICTIONARY
  5
19
102
{ACAD_REACTORS
330
C
102
}
330
C
100
AcDbDictionary
281
     1
  0
ACDBDICTIONARYWDFLT
  5
E
102
{ACAD_REACTORS
330
C
102
}
330
C
100
AcDbDictionary
281
     1
  3
Normal
350
F
100
AcDbDictionaryWithDefault
340
F
  0
DICTIONARY
  5
47
102
{ACAD_REACTORS
330
C
102
}
330
C
100
AcDbDictionary
281
     1
  3
A0
350
48
  3
A1
350
49
  3
A2
350
4A
  3
A3
350
4B
  3
A4
350
4C
  3
A5
350
4D
  3
A6
350
4E
  3
A7
350
4F
  3
A8
350
50
  3
A9
350
51
  3
B0
350
52
  3
B1
350
53
  3
B2
350
54
  3
B3
350
55
  3
B4
350
56
  3
B5
350
57
  3
B6
350
58
  3
B7
350
59
  3
B8
350
5A
  3
B9
350
5B
  3
C0
350
5C
  3
C1
350
5D
  3
C2
350
5E
  3
C3
350
5F
  3
C4
350
60
  3
C5
350
61
  3
C6
350
62
  3
C7
350
63
  3
C8
350
64
  3
C9
350
65
  3
D0
350
66
  3
D1
350
67
  3
D2
350
68
  0
DICTIONARY
  5
2EC
102
{ACAD_REACTORS
330
C
102
}
330
C
100
AcDbDictionary
281
     1
  0
DICTIONARY
  5
69
102
{ACAD_REACTORS
330
C
102
}
330
C
100
AcDbDictionary
281
     1
  3
Standard
350
6A
  0
DICTIONARY
  5
2A
102
{ACAD_REACTORS
330
C
102
}
330
C
100
AcDbDictionary
281
     1
  3
2dWireframe
350
2F
  3
Basic
350
32
  3
Brighten
350
36
  3
ColorChange
350
3A
  3
Conceptual
350
34
  3
Dim
350
35
  3
EdgeColorOff
350
3D
  3
Facepattern
350
39
  3
Flat
350
2B
  3
FlatWithEdges
350
2C
  3
Gouraud
350
2D
  3
GouraudWithEdges
350
2E
  3
Hidden
350
31
  3
JitterOff
350
3B
  3
Linepattern
350
38
  3
OverhangOff
350
3C
  3
Realistic
350
33
  3
Shaded
350
42
  3
Shaded with edges
350
41
  3
Shades of Gray
350
3E
  3
Sketchy
350
3F
  3
Thicken
350
37
  3
Wireframe
350
30
  3
X-Ray
350
40
  0
WIPEOUTVARIABLES
  5
2E8
102
{ACAD_REACTORS
330
C
102
}
330
C
100
AcDbWipeoutVariables
 70
     0
  0
XRECORD
  5
2E7
102
{ACAD_REACTORS
330
C
102
}
330
C
100
AcDbXrecord
280
     1
 90
        1
330
6A
  0
DICTIONARY
  5
2B3
102
{ACAD_REACTORS
330
C
102
}
330
C
100
AcDbDictionary
281
     1
  3
CANNOSCALE
350
2B4
  3
CENTEREXE
350
2EE
  3
CENTERLTYPEFILE
350
2EF
  3
CMLEADERSTYLE
350
2EA
  3
CTABLESTYLE
350
2E9
  3
WIPEOUTFRAME
350
2ED
  0
LAYOUT
  5
1E
102
{ACAD_REACTORS
330
1A
102
}
330
1A
100
AcDbPlotSettings
  1

  2
none_device
  4

  6

 40
0.0
 41
0.0
 42
0.0
 43
0.0
 44
0.0
 45
0.0
 46
0.0
 47
0.0
 48
0.0
 49
0.0
140
0.0
141
0.0
142
1.0
143
1.0
 70
   688
 72
     1
 73
     0
 74
     5
  7

 75
    16
 76
     0
 77
     2
 78
   300
147
1.0
148
0.0
149
0.0
100
AcDbLayout
  1
Layout1
 70
     1
 71
     1
 10
0.0
 20
0.0
 11
420.0
 21
297.0
 12
0.0
 22
0.0
 32
0.0
 14
1.000000000000E+20
 24
1.000000000000E+20
 34
1.000000000000E+20
 15
-1.000000000000E+20
 25
-1.000000000000E+20
 35
-1.000000000000E+20
146
0.0
 13
0.0
 23
0.0
 33
0.0
 16
1.0
 26
0.0
 36
0.0
 17
0.0
 27
1.0
 37
0.0
 76
     0
330
1B
  0
LAYOUT
  5
26
102
{ACAD_REACTORS
330
1A
102
}
330
1A
100
AcDbPlotSettings
  1

  2
none_device
  4

  6

 40
0.0
 41
0.0
 42
0.0
 43
0.0
 44
0.0
 45
0.0
 46
0.0
 47
0.0
 48
0.0
 49
0.0
140
0.0
141
0.0
142
1.0
143
1.0
 70
   688
 72
     1
 73
     0
 74
     5
  7

 75
    16
 76
     0
 77
     2
 78
   300
147
1.0
148
0.0
149
0.0
100
AcDbLayout
  1
Layout2
 70
     1
 71
     2
 10
0.0
 20
0.0
 11
0.0
 21
0.0
 12
0.0
 22
0.0
 32
0.0
 14
0.0
 24
0.0
 34
0.0
 15
0.0
 25
0.0
 35
0.0
146
0.0
 13
0.0
 23
0.0
 33
0.0
 16
1.0
 26
0.0
 36
0.0
 17
0.0
 27
1.0
 37
0.0
 76
     0
330
23
  0
LAYOUT
  5
22
102
{ACAD_REACTORS
330
1A
102
}
330
1A
100
AcDbPlotSettings
  1

  2
none_device
  4
Letter_(8.50_x_11.00_Inches)
  6

 40
6.35
 41
6.35
 42
6.35000508
 43
6.35000508
 44
215.9
 45
279.4
 46
0.0
 47
0.0
 48
0.0
 49
0.0
140
0.0
141
0.0
142
1.0
143
1.0
 70
  1712
 72
     1
 73
     0
 74
     0
  7

 75
     0
 76
     0
 77
     2
 78
   300
147
1.0
148
0.0
149
0.0
100
AcDbLayout
  1
Model
 70
     1
 71
     0
 10
0.0
 20
0.0
 11
420.0
 21
297.0
 12
0.0
 22
0.0
 32
0.0
 14
-1659.840587623833
 24
-397.024260410668
 34
0.0
 15
1277.023332385765
 25
1236.475739589332
 35
0.0
146
0.0
 13
0.0
 23
0.0
 33
0.0
 16
1.0
 26
0.0
 36
0.0
 17
0.0
 27
1.0
 37
0.0
 76
     0
330
1F
331
29
  0
MATERIAL
  5
45
102
{ACAD_REACTORS
330
43
102
}
330
43
100
AcDbMaterial
  1
ByBlock
 72
     1
 94
      127
  0
MATERIAL
  5
44
102
{ACAD_REACTORS
330
43
102
}
330
43
100
AcDbMaterial
  1
ByLayer
 72
     1
 94
      127
  0
MATERIAL
  5
46
102
{ACAD_REACTORS
330
43
102
}
330
43
100
AcDbMaterial
  1
Global
 72
     1
 94
      127
  0
MLEADERSTYLE
  5
6C
102
{ACAD_REACTORS
330
6B
102
}
330
6B
100
AcDbMLeaderStyle
179
     2
170
     2
171
     1
172
     0
 90
        2
 40
0.0
 41
0.0
173
     1
 91
-1056964608
340
14
 92
       -2
290
     1
 42
2.0
291
     1
 43
8.0
  3
Standard
341
0
 44
4.0
300

342
11
174
     1
178
     6
175
     1
176
     0
 93
-1056964608
 45
4.0
292
     0
297
     0
 46
4.0
343
0
 94
-1056964608
 47
1.0
 49
1.0
140
1.0
293
     1
141
0.0
294
     1
177
     0
142
1.0
295
     0
296
     0
143
3.75
271
     0
272
     9
273
     9
  0
MLINESTYLE
  5
18
102
{ACAD_REACTORS
330
17
102
}
330
17
100
AcDbMlineStyle
  2
Standard
 70
     0
  3

 62
   256
 51
90.0
 52
90.0
 71
     2
 49
0.5
 62
   256
  6
BYLAYER
 49
-0.5
 62
   256
  6
BYLAYER
  0
ACDBPLACEHOLDER
  5
F
102
{ACAD_REACTORS
330
E
102
}
330
E
  0
SCALE
  5
48
102
{ACAD_REACTORS
330
47
102
}
330
47
100
AcDbScale
 70
     0
300
1:1
140
1.0
141
1.0
290
     1
  0
SCALE
  5
49
102
{ACAD_REACTORS
330
47
102
}
330
47
100
AcDbScale
 70
     0
300
1:2
140
1.0
141
2.0
290
     0
  0
SCALE
  5
4A
102
{ACAD_REACTORS
330
47
102
}
330
47
100
AcDbScale
 70
     0
300
1:4
140
1.0
141
4.0
290
     0
  0
SCALE
  5
4B
102
{ACAD_REACTORS
330
47
102
}
330
47
100
AcDbScale
 70
     0
300
1:5
140
1.0
141
5.0
290
     0
  0
SCALE
  5
4C
102
{ACAD_REACTORS
330
47
102
}
330
47
100
AcDbScale
 70
     0
300
1:8
140
1.0
141
8.0
290
     0
  0
SCALE
  5
4D
102
{ACAD_REACTORS
330
47
102
}
330
47
100
AcDbScale
 70
     0
300
1:10
140
1.0
141
10.0
290
     0
  0
SCALE
  5
4E
102
{ACAD_REACTORS
330
47
102
}
330
47
100
AcDbScale
 70
     0
300
1:16
140
1.0
141
16.0
290
     0
  0
SCALE
  5
4F
102
{ACAD_REACTORS
330
47
102
}
330
47
100
AcDbScale
 70
     0
300
1:20
140
1.0
141
20.0
290
     0
  0
SCALE
  5
50
102
{ACAD_REACTORS
330
47
102
}
330
47
100
AcDbScale
 70
     0
300
1:30
140
1.0
141
30.0
290
     0
  0
SCALE
  5
51
102
{ACAD_REACTORS
330
47
102
}
330
47
100
AcDbScale
 70
     0
300
1:40
140
1.0
141
40.0
290
     0
  0
SCALE
  5
52
102
{ACAD_REACTORS
330
47
102
}
330
47
100
AcDbScale
 70
     0
300
1:50
140
1.0
141
50.0
290
     0
  0
SCALE
  5
53
102
{ACAD_REACTORS
330
47
102
}
330
47
100
AcDbScale
 70
     0
300
1:100
140
1.0
141
100.0
290
     0
  0
SCALE
  5
54
102
{ACAD_REACTORS
330
47
102
}
330
47
100
AcDbScale
 70
     0
300
2:1
140
2.0
141
1.0
290
     0
  0
SCALE
  5
55
102
{ACAD_REACTORS
330
47
102
}
330
47
100
AcDbScale
 70
     0
300
4:1
140
4.0
141
1.0
290
     0
  0
SCALE
  5
56
102
{ACAD_REACTORS
330
47
102
}
330
47
100
AcDbScale
 70
     0
300
8:1
140
8.0
141
1.0
290
     0
  0
SCALE
  5
57
102
{ACAD_REACTORS
330
47
102
}
330
47
100
AcDbScale
 70
     0
300
10:1
140
10.0
141
1.0
290
     0
  0
SCALE
  5
58
102
{ACAD_REACTORS
330
47
102
}
330
47
100
AcDbScale
 70
     0
300
100:1
140
100.0
141
1.0
290
     0
  0
SCALE
  5
59
102
{ACAD_REACTORS
330
47
102
}
330
47
100
AcDbScale
 70
     0
300
1/128" = 1'-0"
140
0.0078125
141
12.0
290
     0
  0
SCALE
  5
5A
102
{ACAD_REACTORS
330
47
102
}
330
47
100
AcDbScale
 70
     0
300
1/64" = 1'-0"
140
0.015625
141
12.0
290
     0
  0
SCALE
  5
5B
102
{ACAD_REACTORS
330
47
102
}
330
47
100
AcDbScale
 70
     0
300
1/32" = 1'-0"
140
0.03125
141
12.0
290
     0
  0
SCALE
  5
5C
102
{ACAD_REACTORS
330
47
102
}
330
47
100
AcDbScale
 70
     0
300
1/16" = 1'-0"
140
0.0625
141
12.0
290
     0
  0
SCALE
  5
5D
102
{ACAD_REACTORS
330
47
102
}
330
47
100
AcDbScale
 70
     0
300
3/32" = 1'-0"
140
0.09375
141
12.0
290
     0
  0
SCALE
  5
5E
102
{ACAD_REACTORS
330
47
102
}
330
47
100
AcDbScale
 70
     0
300
1/8" = 1'-0"
140
0.125
141
12.0
290
     0
  0
SCALE
  5
5F
102
{ACAD_REACTORS
330
47
102
}
330
47
100
AcDbScale
 70
     0
300
3/16" = 1'-0"
140
0.1875
141
12.0
290
     0
  0
SCALE
  5
60
102
{ACAD_REACTORS
330
47
102
}
330
47
100
AcDbScale
 70
     0
300
1/4" = 1'-0"
140
0.25
141
12.0
290
     0
  0
SCALE
  5
61
102
{ACAD_REACTORS
330
47
102
}
330
47
100
AcDbScale
 70
     0
300
3/8" = 1'-0"
140
0.375
141
12.0
290
     0
  0
SCALE
  5
62
102
{ACAD_REACTORS
330
47
102
}
330
47
100
AcDbScale
 70
     0
300
1/2" = 1'-0"
140
0.5
141
12.0
290
     0
  0
SCALE
  5
63
102
{ACAD_REACTORS
330
47
102
}
330
47
100
AcDbScale
 70
     0
300
3/4" = 1'-0"
140
0.75
141
12.0
290
     0
  0
SCALE
  5
64
102
{ACAD_REACTORS
330
47
102
}
330
47
100
AcDbScale
 70
     0
300
1" = 1'-0"
140
1.0
141
12.0
290
     0
  0
SCALE
  5
65
102
{ACAD_REACTORS
330
47
102
}
330
47
100
AcDbScale
 70
     0
300
1-1/2" = 1'-0"
140
1.5
141
12.0
290
     0
  0
SCALE
  5
66
102
{ACAD_REACTORS
330
47
102
}
330
47
100
AcDbScale
 70
     0
300
3" = 1'-0"
140
3.0
141
12.0
290
     0
  0
SCALE
  5
67
102
{ACAD_REACTORS
330
47
102
}
330
47
100
AcDbScale
 70
     0
300
6" = 1'-0"
140
6.0
141
12.0
290
     0
  0
SCALE
  5
68
102
{ACAD_REACTORS
330
47
102
}
330
47
100
AcDbScale
 70
     0
300
1'-0" = 1'-0"
140
12.0
141
12.0
290
     0
  0
TABLESTYLE
  5
6A
102
{ACAD_REACTORS
330
69
102
}
102
{ACAD_XDICTIONARY
360
2E5
102
}
330
69
100
AcDbTableStyle
  3
Standard
 70
     0
 71
     0
 40
0.06
 41
0.06
280
     0
281
     0
  7
Standard
140
4.5
170
     2
 62
     0
 63
   257
283
     0
 90
        4
 91
        0
  1

274
    -2
284
     1
 64
     0
275
    -2
285
     1
 65
     0
276
    -2
286
     1
 66
     0
277
    -2
287
     1
 67
     0
278
    -2
288
     1
 68
     0
279
    -2
289
     1
 69
     0
  7
Standard
140
6.0
170
     5
 62
     0
 63
   257
283
     0
 90
        4
 91
        0
  1

274
    -2
284
     1
 64
     0
275
    -2
285
     1
 65
     0
276
    -2
286
     1
 66
     0
277
    -2
287
     1
 67
     0
278
    -2
288
     1
 68
     0
279
    -2
289
     1
 69
     0
  7
Standard
140
4.5
170
     5
 62
     0
 63
   257
283
     0
 90
        4
 91
        0
  1

274
    -2
284
     1
 64
     0
275
    -2
285
     1
 65
     0
276
    -2
286
     1
 66
     0
277
    -2
287
     1
 67
     0
278
    -2
288
     1
 68
     0
279
    -2
289
     1
 69
     0
  0
VISUALSTYLE
  5
2F
102
{ACAD_REACTORS
330
2A
102
}
102
{ACAD_XDICTIONARY
360
2BD
102
}
330
2A
100
AcDbVisualStyle
  2
2dWireframe
 70
     4
177
     2
291
     0
 71
     0
176
     1
 72
     2
176
     1
 73
     0
176
     1
 90
        0
176
     1
 40
0.6
176
     1
 41
30.0
176
     1
 62
     5
 63
     7
421
 16777215
176
     1
 74
     1
176
     1
 91
        4
176
     1
 64
     7
176
     1
 65
   257
176
     1
 75
     1
176
     1
175
     1
176
     1
 42
1.0
176
     1
 92
        0
176
     1
 66
   257
176
     1
 43
1.0
176
     1
 76
     1
176
     1
 77
     6
176
     1
 78
     2
176
     1
 67
     7
176
     1
 79
     5
176
     1
170
     0
176
     1
171
     0
176
     1
290
     0
176
     1
 93
        1
176
     1
 44
0.0
176
     1
173
     0
176
     1
  0
VISUALSTYLE
  5
32
102
{ACAD_REACTORS
330
2A
102
}
102
{ACAD_XDICTIONARY
360
2C3
102
}
330
2A
100
AcDbVisualStyle
  2
Basic
 70
     7
177
     2
291
     1
 71
     1
176
     1
 72
     0
176
     1
 73
     1
176
     1
 90
        0
176
     1
 40
0.6
176
     1
 41
30.0
176
     1
 62
     5
 63
     7
421
 16777215
176
     1
 74
     0
176
     1
 91
        4
176
     1
 64
     7
176
     1
 65
   257
176
     1
 75
     1
176
     1
175
     1
176
     1
 42
1.0
176
     1
 92
        8
176
     1
 66
     7
176
     1
 43
1.0
176
     1
 76
     1
176
     1
 77
     6
176
     1
 78
     2
176
     1
 67
     7
176
     1
 79
     5
176
     1
170
     0
176
     1
171
     0
176
     1
290
     0
176
     1
 93
        1
176
     1
 44
0.0
176
     1
173
     0
176
     1
  0
VISUALSTYLE
  5
36
102
{ACAD_REACTORS
330
2A
102
}
102
{ACAD_XDICTIONARY
360
2CB
102
}
330
2A
100
AcDbVisualStyle
  2
Brighten
 70
    12
177
     2
291
     1
 71
     2
176
     1
 72
     2
176
     1
 73
     0
176
     1
 90
        0
176
     1
 40
0.6
176
     1
 41
30.0
176
     1
 62
     5
 63
     7
421
 16777215
176
     1
 74
     1
176
     1
 91
        4
176
     1
 64
     7
176
     1
 65
   257
176
     1
 75
     1
176
     1
175
     1
176
     1
 42
1.0
176
     1
 92
        8
176
     1
 66
     7
176
     1
 43
1.0
176
     1
 76
     1
176
     1
 77
     6
176
     1
 78
     2
176
     1
 67
     7
176
     1
 79
     5
176
     1
170
     0
176
     1
171
     0
176
     1
290
     0
176
     1
 93
        1
176
     1
 44
50.0
176
     1
173
     0
176
     1
  0
VISUALSTYLE
  5
3A
102
{ACAD_REACTORS
330
2A
102
}
102
{ACAD_XDICTIONARY
360
2D3
102
}
330
2A
100
AcDbVisualStyle
  2
ColorChange
 70
    16
177
     2
291
     1
 71
     2
176
     1
 72
     2
176
     1
 73
     3
176
     1
 90
        0
176
     1
 40
0.6
176
     1
 41
30.0
176
     1
 62
     5
 63
     8
421
  8421504
176
     1
 74
     1
176
     1
 91
        4
176
     1
 64
     7
176
     1
 65
   257
176
     1
 75
     1
176
     1
175
     1
176
     1
 42
1.0
176
     1
 92
        8
176
     1
 66
     8
424
  8421504
176
     1
 43
1.0
176
     1
 76
     1
176
     1
 77
     6
176
     1
 78
     2
176
     1
 67
     7
176
     1
 79
     5
176
     1
170
     0
176
     1
171
     0
176
     1
290
     0
176
     1
 93
        1
176
     1
 44
0.0
176
     1
173
     0
176
     1
  0
VISUALSTYLE
  5
34
102
{ACAD_REACTORS
330
2A
102
}
102
{ACAD_XDICTIONARY
360
2C7
102
}
330
2A
100
AcDbVisualStyle
  2
Conceptual
 70
     9
177
     2
291
     0
 71
     3
176
     1
 72
     2
176
     1
 73
     0
176
     1
 90
        0
176
     1
 40
0.6
176
     1
 41
30.0
176
     1
 62
     5
 63
     7
421
 16777215
176
     1
 74
     2
176
     1
 91
        2
176
     1
 64
     7
176
     1
 65
   257
176
     1
 75
     1
176
     1
175
     1
176
     1
 42
179.0
176
     1
 92
        8
176
     1
 66
     7
176
     1
 43
1.0
176
     1
 76
     1
176
     1
 77
     6
176
     1
 78
     2
176
     1
 67
     7
176
     1
 79
     3
176
     1
170
     0
176
     1
171
     0
176
     1
290
     0
176
     1
 93
        1
176
     1
 44
0.0
176
     1
173
     0
176
     1
  0
VISUALSTYLE
  5
35
102
{ACAD_REACTORS
330
2A
102
}
102
{ACAD_XDICTIONARY
360
2C9
102
}
330
2A
100
AcDbVisualStyle
  2
Dim
 70
    11
177
     2
291
     1
 71
     2
176
     1
 72
     2
176
     1
 73
     0
176
     1
 90
        0
176
     1
 40
0.6
176
     1
 41
30.0
176
     1
 62
     5
 63
     7
421
 16777215
176
     1
 74
     1
176
     1
 91
        4
176
     1
 64
     7
176
     1
 65
   257
176
     1
 75
     1
176
     1
175
     1
176
     1
 42
1.0
176
     1
 92
        8
176
     1
 66
     7
176
     1
 43
1.0
176
     1
 76
     1
176
     1
 77
     6
176
     1
 78
     2
176
     1
 67
     7
176
     1
 79
     5
176
     1
170
     0
176
     1
171
     0
176
     1
290
     0
176
     1
 93
        1
176
     1
 44
-50.0
176
     1
173
     0
176
     1
  0
VISUALSTYLE
  5
3D
102
{ACAD_REACTORS
330
2A
102
}
102
{ACAD_XDICTIONARY
360
2D9
102
}
330
2A
100
AcDbVisualStyle
  2
EdgeColorOff
 70
    22
177
     2
291
     1
 71
     2
176
     0
 72
     2
176
     0
 73
     0
176
     0
 90
        0
176
     0
 40
0.6
176
     0
 41
30.0
176
     0
 62
     5
 63
     7
421
 16777215
176
     0
 74
     1
176
     0
 91
        4
176
     0
 64
     7
176
     0
 65
   257
176
     0
 75
     1
176
     0
175
     1
176
     0
 42
1.0
176
     0
 92
        8
176
     2
 66
     7
176
     0
 43
1.0
176
     0
 76
     1
176
     0
 77
     6
176
     0
 78
     2
176
     0
 67
     7
176
     0
 79
     5
176
     0
170
     0
176
     0
171
     0
176
     0
290
     0
176
     0
 93
        1
176
     0
 44
0.0
176
     0
173
     0
176
     0
  0
VISUALSTYLE
  5
39
102
{ACAD_REACTORS
330
2A
102
}
102
{ACAD_XDICTIONARY
360
2D1
102
}
330
2A
100
AcDbVisualStyle
  2
Facepattern
 70
    15
177
     2
291
     1
 71
     2
176
     1
 72
     2
176
     1
 73
     0
176
     1
 90
        0
176
     1
 40
0.6
176
     1
 41
30.0
176
     1
 62
     5
 63
     7
421
 16777215
176
     1
 74
     1
176
     1
 91
        4
176
     1
 64
     7
176
     1
 65
   257
176
     1
 75
     1
176
     1
175
     1
176
     1
 42
1.0
176
     1
 92
        8
176
     1
 66
     7
176
     1
 43
1.0
176
     1
 76
     1
176
     1
 77
     6
176
     1
 78
     2
176
     1
 67
     7
176
     1
 79
     5
176
     1
170
     0
176
     1
171
     0
176
     1
290
     0
176
     1
 93
        1
176
     1
 44
0.0
176
     1
173
     0
176
     1
  0
VISUALSTYLE
  5
2B
102
{ACAD_REACTORS
330
2A
102
}
102
{ACAD_XDICTIONARY
360
2B5
102
}
330
2A
100
AcDbVisualStyle
  2
Flat
 70
     0
177
     2
291
     1
 71
     2
176
     1
 72
     1
176
     1
 73
     1
176
     1
 90
        2
176
     1
 40
0.6
176
     1
 41
30.0
176
     1
 62
     5
 63
     7
421
 16777215
176
     1
 74
     0
176
     1
 91
        0
176
     1
 64
     7
176
     1
 65
   257
176
     1
 75
     1
176
     1
175
     1
176
     1
 42
1.0
176
     1
 92
        8
176
     1
 66
     7
176
     1
 43
1.0
176
     1
 76
     1
176
     1
 77
     6
176
     1
 78
     2
176
     1
 67
     7
176
     1
 79
     5
176
     1
170
     0
176
     1
171
     0
176
     1
290
     0
176
     1
 93
       13
176
     1
 44
0.0
176
     1
173
     0
176
     1
  0
VISUALSTYLE
  5
2C
102
{ACAD_REACTORS
330
2A
102
}
102
{ACAD_XDICTIONARY
360
2B7
102
}
330
2A
100
AcDbVisualStyle
  2
FlatWithEdges
 70
     1
177
     2
291
     1
 71
     2
176
     1
 72
     1
176
     1
 73
     1
176
     1
 90
        2
176
     1
 40
0.6
176
     1
 41
30.0
176
     1
 62
     5
 63
     7
421
 16777215
176
     1
 74
     1
176
     1
 91
        0
176
     1
 64
     7
176
     1
 65
   257
176
     1
 75
     1
176
     1
175
     1
176
     1
 42
1.0
176
     1
 92
        0
176
     1
 66
   257
176
     1
 43
1.0
176
     1
 76
     1
176
     1
 77
     6
176
     1
 78
     2
176
     1
 67
     7
176
     1
 79
     5
176
     1
170
     0
176
     1
171
     0
176
     1
290
     0
176
     1
 93
       13
176
     1
 44
0.0
176
     1
173
     0
176
     1
  0
VISUALSTYLE
  5
2D
102
{ACAD_REACTORS
330
2A
102
}
102
{ACAD_XDICTIONARY
360
2B9
102
}
330
2A
100
AcDbVisualStyle
  2
Gouraud
 70
     2
177
     2
291
     1
 71
     2
176
     1
 72
     2
176
     1
 73
     1
176
     1
 90
        2
176
     1
 40
0.6
176
     1
 41
30.0
176
     1
 62
     5
 63
     7
421
 16777215
176
     1
 74
     0
176
     1
 91
        0
176
     1
 64
     7
176
     1
 65
   257
176
     1
 75
     1
176
     1
175
     1
176
     1
 42
1.0
176
     1
 92
        0
176
     1
 66
     7
176
     1
 43
1.0
176
     1
 76
     1
176
     1
 77
     6
176
     1
 78
     2
176
     1
 67
     7
176
     1
 79
     5
176
     1
170
     0
176
     1
171
     0
176
     1
290
     0
176
     1
 93
       13
176
     1
 44
0.0
176
     1
173
     0
176
     1
  0
VISUALSTYLE
  5
2E
102
{ACAD_REACTORS
330
2A
102
}
102
{ACAD_XDICTIONARY
360
2BB
102
}
330
2A
100
AcDbVisualStyle
  2
GouraudWithEdges
 70
     3
177
     2
291
     1
 71
     2
176
     1
 72
     2
176
     1
 73
     1
176
     1
 90
        2
176
     1
 40
0.6
176
     1
 41
30.0
176
     1
 62
     5
 63
     7
421
 16777215
176
     1
 74
     1
176
     1
 91
        0
176
     1
 64
     7
176
     1
 65
   257
176
     1
 75
     1
176
     1
175
     1
176
     1
 42
1.0
176
     1
 92
        0
176
     1
 66
   257
176
     1
 43
1.0
176
     1
 76
     1
176
     1
 77
     6
176
     1
 78
     2
176
     1
 67
     7
176
     1
 79
     5
176
     1
170
     0
176
     1
171
     0
176
     1
290
     0
176
     1
 93
       13
176
     1
 44
0.0
176
     1
173
     0
176
     1
  0
VISUALSTYLE
  5
31
102
{ACAD_REACTORS
330
2A
102
}
102
{ACAD_XDICTIONARY
360
2C1
102
}
330
2A
100
AcDbVisualStyle
  2
Hidden
 70
     6
177
     2
291
     0
 71
     1
176
     1
 72
     2
176
     1
 73
     2
176
     1
 90
        0
176
     1
 40
0.6
176
     1
 41
30.0
176
     1
 62
     5
 63
     7
421
 16777215
176
     1
 74
     2
176
     1
 91
        2
176
     1
 64
     7
176
     1
 65
   257
176
     1
 75
     2
176
     1
175
     1
176
     1
 42
40.0
176
     1
 92
        0
176
     1
 66
   257
176
     1
 43
1.0
176
     1
 76
     1
176
     1
 77
     6
176
     1
 78
     2
176
     1
 67
     7
176
     1
 79
     3
176
     1
170
     0
176
     1
171
     0
176
     1
290
     0
176
     1
 93
        1
176
     1
 44
0.0
176
     1
173
     0
176
     1
  0
VISUALSTYLE
  5
3B
102
{ACAD_REACTORS
330
2A
102
}
102
{ACAD_XDICTIONARY
360
2D5
102
}
330
2A
100
AcDbVisualStyle
  2
JitterOff
 70
    20
177
     2
291
     1
 71
     2
176
     0
 72
     2
176
     0
 73
     0
176
     0
 90
        0
176
     0
 40
0.6
176
     0
 41
30.0
176
     0
 62
     5
 63
     7
421
 16777215
176
     0
 74
     1
176
     0
 91
        4
176
     0
 64
     7
176
     0
 65
   257
176
     0
 75
     1
176
     0
175
     1
176
     0
 42
1.0
176
     0
 92
       10
176
     2
 66
     7
176
     0
 43
1.0
176
     0
 76
     1
176
     0
 77
     6
176
     0
 78
     2
176
     0
 67
     7
176
     0
 79
     5
176
     0
170
     0
176
     0
171
     0
176
     0
290
     0
176
     0
 93
        1
176
     0
 44
0.0
176
     0
173
     0
176
     0
  0
VISUALSTYLE
  5
38
102
{ACAD_REACTORS
330
2A
102
}
102
{ACAD_XDICTIONARY
360
2CF
102
}
330
2A
100
AcDbVisualStyle
  2
Linepattern
 70
    14
177
     2
291
     1
 71
     2
176
     1
 72
     2
176
     1
 73
     0
176
     1
 90
        0
176
     1
 40
0.6
176
     1
 41
30.0
176
     1
 62
     5
 63
     7
421
 16777215
176
     1
 74
     1
176
     1
 91
        4
176
     1
 64
     7
176
     1
 65
   257
176
     1
 75
     7
176
     1
175
     7
176
     1
 42
1.0
176
     1
 92
        8
176
     1
 66
     7
176
     1
 43
1.0
176
     1
 76
     1
176
     1
 77
     6
176
     1
 78
     2
176
     1
 67
     7
176
     1
 79
     5
176
     1
170
     0
176
     1
171
     0
176
     1
290
     0
176
     1
 93
        1
176
     1
 44
0.0
176
     1
173
     0
176
     1
  0
VISUALSTYLE
  5
3C
102
{ACAD_REACTORS
330
2A
102
}
102
{ACAD_XDICTIONARY
360
2D7
102
}
330
2A
100
AcDbVisualStyle
  2
OverhangOff
 70
    21
177
     2
291
     1
 71
     2
176
     0
 72
     2
176
     0
 73
     0
176
     0
 90
        0
176
     0
 40
0.6
176
     0
 41
30.0
176
     0
 62
     5
 63
     7
421
 16777215
176
     0
 74
     1
176
     0
 91
        4
176
     0
 64
     7
176
     0
 65
   257
176
     0
 75
     1
176
     0
175
     1
176
     0
 42
1.0
176
     0
 92
        9
176
     2
 66
     7
176
     0
 43
1.0
176
     0
 76
     1
176
     0
 77
     6
176
     0
 78
     2
176
     0
 67
     7
176
     0
 79
     5
176
     0
170
     0
176
     0
171
     0
176
     0
290
     0
176
     0
 93
        1
176
     0
 44
0.0
176
     0
173
     0
176
     0
  0
VISUALSTYLE
  5
33
102
{ACAD_REACTORS
330
2A
102
}
102
{ACAD_XDICTIONARY
360
2C5
102
}
330
2A
100
AcDbVisualStyle
  2
Realistic
 70
     8
177
     2
291
     0
 71
     2
176
     1
 72
     3
176
     1
 73
     0
176
     1
 90
        2
176
     1
 40
0.6
176
     1
 41
30.0
176
     1
 62
     5
 63
     7
421
 16777215
176
     1
 74
     0
176
     1
 91
        0
176
     1
 64
     7
176
     1
 65
   257
176
     1
 75
     1
176
     1
175
     1
176
     1
 42
1.0
176
     1
 92
        8
176
     1
 66
   257
176
     1
 43
1.0
176
     1
 76
     1
176
     1
 77
     6
176
     1
 78
     2
176
     1
 67
     7
176
     1
 79
     3
176
     1
170
     0
176
     1
171
     0
176
     1
290
     0
176
     1
 93
       13
176
     1
 44
0.0
176
     1
173
     0
176
     1
  0
VISUALSTYLE
  5
42
102
{ACAD_REACTORS
330
2A
102
}
102
{ACAD_XDICTIONARY
360
2E3
102
}
330
2A
100
AcDbVisualStyle
  2
Shaded
 70
    27
177
     2
291
     0
 71
     2
176
     1
 72
     2
176
     1
 73
     1
176
     1
 90
        2
176
     1
 40
0.6
176
     1
 41
30.0
176
     1
 62
     5
 63
     7
421
 16777215
176
     1
 74
     0
176
     1
 91
        4
176
     1
 64
     7
176
     1
 65
   257
176
     1
 75
     1
176
     1
175
     1
176
     1
 42
1.0
176
     1
 92
        8
176
     1
 66
   257
176
     1
 43
1.0
176
     1
 76
     1
176
     1
 77
     6
176
     1
 78
     2
176
     1
 67
     8
425
  7895160
176
     1
 79
     3
176
     1
170
     0
176
     1
171
     0
176
     1
290
     0
176
     1
 93
        5
176
     1
 44
0.0
176
     1
173
     0
176
     1
  0
VISUALSTYLE
  5
41
102
{ACAD_REACTORS
330
2A
102
}
102
{ACAD_XDICTIONARY
360
2E1
102
}
330
2A
100
AcDbVisualStyle
  2
Shaded with edges
 70
    26
177
     2
291
     0
 71
     2
176
     1
 72
     2
176
     1
 73
     1
176
     1
 90
        2
176
     1
 40
0.6
176
     1
 41
30.0
176
     1
 62
     5
 63
     7
421
 16777215
176
     1
 74
     1
176
     1
 91
       10
176
     1
 64
     7
176
     1
 65
   257
176
     1
 75
     2
176
     1
175
     1
176
     1
 42
1.0
176
     1
 92
        8
176
     1
 66
   257
176
     1
 43
1.0
176
     1
 76
     1
176
     1
 77
     6
176
     1
 78
     2
176
     1
 67
     7
176
     1
 79
     3
176
     1
170
     0
176
     1
171
     0
176
     1
290
     0
176
     1
 93
        5
176
     1
 44
0.0
176
     1
173
     0
176
     1
  0
VISUALSTYLE
  5
3E
102
{ACAD_REACTORS
330
2A
102
}
102
{ACAD_XDICTIONARY
360
2DB
102
}
330
2A
100
AcDbVisualStyle
  2
Shades of Gray
 70
    23
177
     2
291
     0
 71
     2
176
     1
 72
     2
176
     1
 73
     3
176
     1
 90
        0
176
     1
 40
0.6
176
     1
 41
30.0
176
     1
 62
     5
 63
     7
421
 16777215
176
     1
 74
     2
176
     1
 91
        2
176
     1
 64
     7
176
     1
 65
     7
176
     1
 75
     1
176
     1
175
     1
176
     1
 42
40.0
176
     1
 92
        8
176
     1
 66
     7
176
     1
 43
1.0
176
     1
 76
     1
176
     1
 77
     6
176
     1
 78
     2
176
     1
 67
     7
176
     1
 79
     3
176
     1
170
     0
176
     1
171
     0
176
     1
290
     0
176
     1
 93
        1
176
     1
 44
0.0
176
     1
173
     0
176
     1
  0
VISUALSTYLE
  5
3F
102
{ACAD_REACTORS
330
2A
102
}
102
{ACAD_XDICTIONARY
360
2DD
102
}
330
2A
100
AcDbVisualStyle
  2
Sketchy
 70
    24
177
     2
291
     0
 71
     1
176
     1
 72
     2
176
     1
 73
     2
176
     1
 90
        0
176
     1
 40
0.6
176
     1
 41
30.0
176
     1
 62
     5
 63
     7
421
 16777215
176
     1
 74
     2
176
     1
 91
        2
176
     1
 64
     7
176
     1
 65
     7
176
     1
 75
     1
176
     1
175
     1
176
     1
 42
40.0
176
     1
 92
       11
176
     1
 66
     7
176
     1
 43
1.0
176
     1
 76
     1
176
     1
 77
     6
176
     1
 78
     2
176
     1
 67
     7
176
     1
 79
     6
176
     1
170
     0
176
     1
171
     0
176
     1
290
     0
176
     1
 93
        1
176
     1
 44
0.0
176
     1
173
     0
176
     1
  0
VISUALSTYLE
  5
37
102
{ACAD_REACTORS
330
2A
102
}
102
{ACAD_XDICTIONARY
360
2CD
102
}
330
2A
100
AcDbVisualStyle
  2
Thicken
 70
    13
177
     2
291
     1
 71
     2
176
     1
 72
     2
176
     1
 73
     0
176
     1
 90
        0
176
     1
 40
0.6
176
     1
 41
30.0
176
     1
 62
     5
 63
     7
421
 16777215
176
     1
 74
     1
176
     1
 91
        4
176
     1
 64
     7
176
     1
 65
   257
176
     1
 75
     1
176
     1
175
     1
176
     1
 42
1.0
176
     1
 92
       12
176
     1
 66
     7
176
     1
 43
1.0
176
     1
 76
     1
176
     1
 77
     6
176
     1
 78
     2
176
     1
 67
     7
176
     1
 79
     5
176
     1
170
     0
176
     1
171
     0
176
     1
290
     0
176
     1
 93
        1
176
     1
 44
0.0
176
     1
173
     0
176
     1
  0
VISUALSTYLE
  5
30
102
{ACAD_REACTORS
330
2A
102
}
102
{ACAD_XDICTIONARY
360
2BF
102
}
330
2A
100
AcDbVisualStyle
  2
Wireframe
 70
     5
177
     2
291
     0
 71
     0
176
     1
 72
     2
176
     1
 73
     0
176
     1
 90
        0
176
     1
 40
0.6
176
     1
 41
30.0
176
     1
 62
     5
 63
     7
421
 16777215
176
     1
 74
     1
176
     1
 91
        4
176
     1
 64
     7
176
     1
 65
   257
176
     1
 75
     1
176
     1
175
     1
176
     1
 42
1.0
176
     1
 92
        0
176
     1
 66
   257
176
     1
 43
1.0
176
     1
 76
     1
176
     1
 77
     6
176
     1
 78
     2
176
     1
 67
     7
176
     1
 79
     3
176
     1
170
     0
176
     1
171
     0
176
     1
290
     0
176
     1
 93
        1
176
     1
 44
0.0
176
     1
173
     0
176
     1
  0
VISUALSTYLE
  5
40
102
{ACAD_REACTORS
330
2A
102
}
102
{ACAD_XDICTIONARY
360
2DF
102
}
330
2A
100
AcDbVisualStyle
  2
X-Ray
 70
    25
177
     2
291
     0
 71
     2
176
     1
 72
     2
176
     1
 73
     1
176
     1
 90
        1
176
     1
 40
0.5
176
     1
 41
30.0
176
     1
 62
     5
 63
     7
421
 16777215
176
     1
 74
     1
176
     1
 91
        0
176
     1
 64
     7
176
     1
 65
   257
176
     1
 75
     1
176
     1
175
     1
176
     1
 42
1.0
176
     1
 92
        8
176
     1
 66
     7
176
     1
 43
1.0
176
     1
 76
     1
176
     1
 77
     6
176
     1
 78
     2
176
     1
 67
     7
176
     1
 79
     3
176
     1
170
     0
176
     1
171
     0
176
     1
290
     0
176
     1
 93
       13
176
     1
 44
0.0
176
     1
173
     0
176
     1
  0
DICTIONARYVAR
  5
2B4
102
{ACAD_REACTORS
330
2B3
102
}
330
2B3
100
DictionaryVariables
280
     0
  1
1:1
  0
DICTIONARYVAR
  5
2EE
102
{ACAD_REACTORS
330
2B3
102
}
330
2B3
100
DictionaryVariables
280
     0
  1
3.500000
  0
DICTIONARYVAR
  5
2EF
102
{ACAD_REACTORS
330
2B3
102
}
330
2B3
100
DictionaryVariables
280
     0
  1
acadiso.lin
  0
DICTIONARYVAR
  5
2EA
102
{ACAD_REACTORS
330
2B3
102
}
330
2B3
100
DictionaryVariables
280
     0
  1
Standard
  0
DICTIONARYVAR
  5
2E9
102
{ACAD_REACTORS
330
2B3
102
}
330
2B3
100
DictionaryVariables
280
     0
  1
Standard
  0
DICTIONARYVAR
  5
2ED
102
{ACAD_REACTORS
330
2B3
102
}
330
2B3
100
DictionaryVariables
280
     0
  1
0
  0
DICTIONARY
  5
2E5
330
6A
100
AcDbDictionary
280
     1
281
     1
  3
ACAD_ROUNDTRIP_2008_TABLESTYLE_CELLSTYLEMAP
360
2E6
  0
DICTIONARY
  5
2BD
330
2F
100
AcDbDictionary
280
     1
281
     1
  3
ACAD_XREC_ROUNDTRIP
360
2BE
  0
DICTIONARY
  5
2C3
330
32
100
AcDbDictionary
280
     1
281
     1
  3
ACAD_XREC_ROUNDTRIP
360
2C4
  0
DICTIONARY
  5
2CB
330
36
100
AcDbDictionary
280
     1
281
     1
  3
ACAD_XREC_ROUNDTRIP
360
2CC
  0
DICTIONARY
  5
2D3
330
3A
100
AcDbDictionary
280
     1
281
     1
  3
ACAD_XREC_ROUNDTRIP
360
2D4
  0
DICTIONARY
  5
2C7
330
34
100
AcDbDictionary
280
     1
281
     1
  3
ACAD_XREC_ROUNDTRIP
360
2C8
  0
DICTIONARY
  5
2C9
330
35
100
AcDbDictionary
280
     1
281
     1
  3
ACAD_XREC_ROUNDTRIP
360
2CA
  0
DICTIONARY
  5
2D9
330
3D
100
AcDbDictionary
280
     1
281
     1
  3
ACAD_XREC_ROUNDTRIP
360
2DA
  0
DICTIONARY
  5
2D1
330
39
100
AcDbDictionary
280
     1
281
     1
  3
ACAD_XREC_ROUNDTRIP
360
2D2
  0
DICTIONARY
  5
2B5
330
2B
100
AcDbDictionary
280
     1
281
     1
  3
ACAD_XREC_ROUNDTRIP
360
2B6
  0
DICTIONARY
  5
2B7
330
2C
100
AcDbDictionary
280
     1
281
     1
  3
ACAD_XREC_ROUNDTRIP
360
2B8
  0
DICTIONARY
  5
2B9
330
2D
100
AcDbDictionary
280
     1
281
     1
  3
ACAD_XREC_ROUNDTRIP
360
2BA
  0
DICTIONARY
  5
2BB
330
2E
100
AcDbDictionary
280
     1
281
     1
  3
ACAD_XREC_ROUNDTRIP
360
2BC
  0
DICTIONARY
  5
2C1
330
31
100
AcDbDictionary
280
     1
281
     1
  3
ACAD_XREC_ROUNDTRIP
360
2C2
  0
DICTIONARY
  5
2D5
330
3B
100
AcDbDictionary
280
     1
281
     1
  3
ACAD_XREC_ROUNDTRIP
360
2D6
  0
DICTIONARY
  5
2CF
330
38
100
AcDbDictionary
280
     1
281
     1
  3
ACAD_XREC_ROUNDTRIP
360
2D0
  0
DICTIONARY
  5
2D7
330
3C
100
AcDbDictionary
280
     1
281
     1
  3
ACAD_XREC_ROUNDTRIP
360
2D8
  0
DICTIONARY
  5
2C5
330
33
100
AcDbDictionary
280
     1
281
     1
  3
ACAD_XREC_ROUNDTRIP
360
2C6
  0
DICTIONARY
  5
2E3
330
42
100
AcDbDictionary
280
     1
281
     1
  3
ACAD_XREC_ROUNDTRIP
360
2E4
  0
DICTIONARY
  5
2E1
330
41
100
AcDbDictionary
280
     1
281
     1
  3
ACAD_XREC_ROUNDTRIP
360
2E2
  0
DICTIONARY
  5
2DB
330
3E
100
AcDbDictionary
280
     1
281
     1
  3
ACAD_XREC_ROUNDTRIP
360
2DC
  0
DICTIONARY
  5
2DD
330
3F
100
AcDbDictionary
280
     1
281
     1
  3
ACAD_XREC_ROUNDTRIP
360
2DE
  0
DICTIONARY
  5
2CD
330
37
100
AcDbDictionary
280
     1
281
     1
  3
ACAD_XREC_ROUNDTRIP
360
2CE
  0
DICTIONARY
  5
2BF
330
30
100
AcDbDictionary
280
     1
281
     1
  3
ACAD_XREC_ROUNDTRIP
360
2C0
  0
DICTIONARY
  5
2DF
330
40
100
AcDbDictionary
280
     1
281
     1
  3
ACAD_XREC_ROUNDTRIP
360
2E0
  0
CELLSTYLEMAP
  5
2E6
102
{ACAD_REACTORS
330
2E5
102
}
330
2E5
100
AcDbCellStyleMap
 90
        3
300
CELLSTYLE
  1
TABLEFORMAT_BEGIN
 90
        5
170
     1
 91
        0
 92
    32768
 62
   257
 93
        1
300
CONTENTFORMAT
  1
CONTENTFORMAT_BEGIN
 90
        0
 91
        0
 92
        4
 93
        0
300

 40
0.0
140
1.0
 94
        5
 62
     0
340
11
144
6.0
309
CONTENTFORMAT_END
171
     1
301
MARGIN
  1
CELLMARGIN_BEGIN
 40
1.5
 40
1.5
 40
1.5
 40
1.5
 40
1.5
 40
1.5
309
CELLMARGIN_END
 94
        6
 95
        1
302
GRIDFORMAT
  1
GRIDFORMAT_BEGIN
 90
        0
 91
        1
 62
     0
 92
       -2
340
14
 93
        0
 40
0.045
309
GRIDFORMAT_END
 95
        2
302
GRIDFORMAT
  1
GRIDFORMAT_BEGIN
 90
        0
 91
        1
 62
     0
 92
       -2
340
14
 93
        0
 40
0.045
309
GRIDFORMAT_END
 95
        4
302
GRIDFORMAT
  1
GRIDFORMAT_BEGIN
 90
        0
 91
        1
 62
     0
 92
       -2
340
14
 93
        0
 40
0.045
309
GRIDFORMAT_END
 95
        8
302
GRIDFORMAT
  1
GRIDFORMAT_BEGIN
 90
        0
 91
        1
 62
     0
 92
       -2
340
14
 93
        0
 40
0.045
309
GRIDFORMAT_END
 95
       16
302
GRIDFORMAT
  1
GRIDFORMAT_BEGIN
 90
        0
 91
        1
 62
     0
 92
       -2
340
14
 93
        0
 40
0.045
309
GRIDFORMAT_END
 95
       32
302
GRIDFORMAT
  1
GRIDFORMAT_BEGIN
 90
        0
 91
        1
 62
     0
 92
       -2
340
14
 93
        0
 40
0.045
309
GRIDFORMAT_END
309
TABLEFORMAT_END
  1
CELLSTYLE_BEGIN
 90
        1
 91
        1
300
_TITLE
309
CELLSTYLE_END
300
CELLSTYLE
  1
TABLEFORMAT_BEGIN
 90
        5
170
     1
 91
        0
 92
        0
 62
   257
 93
        1
300
CONTENTFORMAT
  1
CONTENTFORMAT_BEGIN
 90
        0
 91
        0
 92
        4
 93
        0
300

 40
0.0
140
1.0
 94
        5
 62
     0
340
11
144
4.5
309
CONTENTFORMAT_END
171
     1
301
MARGIN
  1
CELLMARGIN_BEGIN
 40
1.5
 40
1.5
 40
1.5
 40
1.5
 40
1.5
 40
1.5
309
CELLMARGIN_END
 94
        6
 95
        1
302
GRIDFORMAT
  1
GRIDFORMAT_BEGIN
 90
        0
 91
        1
 62
     0
 92
       -2
340
14
 93
        0
 40
0.045
309
GRIDFORMAT_END
 95
        2
302
GRIDFORMAT
  1
GRIDFORMAT_BEGIN
 90
        0
 91
        1
 62
     0
 92
       -2
340
14
 93
        0
 40
0.045
309
GRIDFORMAT_END
 95
        4
302
GRIDFORMAT
  1
GRIDFORMAT_BEGIN
 90
        0
 91
        1
 62
     0
 92
       -2
340
14
 93
        0
 40
0.045
309
GRIDFORMAT_END
 95
        8
302
GRIDFORMAT
  1
GRIDFORMAT_BEGIN
 90
        0
 91
        1
 62
     0
 92
       -2
340
14
 93
        0
 40
0.045
309
GRIDFORMAT_END
 95
       16
302
GRIDFORMAT
  1
GRIDFORMAT_BEGIN
 90
        0
 91
        1
 62
     0
 92
       -2
340
14
 93
        0
 40
0.045
309
GRIDFORMAT_END
 95
       32
302
GRIDFORMAT
  1
GRIDFORMAT_BEGIN
 90
        0
 91
        1
 62
     0
 92
       -2
340
14
 93
        0
 40
0.045
309
GRIDFORMAT_END
309
TABLEFORMAT_END
  1
CELLSTYLE_BEGIN
 90
        2
 91
        1
300
_HEADER
309
CELLSTYLE_END
300
CELLSTYLE
  1
TABLEFORMAT_BEGIN
 90
        5
170
     1
 91
        0
 92
        0
 62
   257
 93
        1
300
CONTENTFORMAT
  1
CONTENTFORMAT_BEGIN
 90
        0
 91
        0
 92
        4
 93
        0
300

 40
0.0
140
1.0
 94
        2
 62
     0
340
11
144
4.5
309
CONTENTFORMAT_END
171
     1
301
MARGIN
  1
CELLMARGIN_BEGIN
 40
1.5
 40
1.5
 40
1.5
 40
1.5
 40
1.5
 40
1.5
309
CELLMARGIN_END
 94
        6
 95
        1
302
GRIDFORMAT
  1
GRIDFORMAT_BEGIN
 90
        0
 91
        1
 62
     0
 92
       -2
340
14
 93
        0
 40
0.045
309
GRIDFORMAT_END
 95
        2
302
GRIDFORMAT
  1
GRIDFORMAT_BEGIN
 90
        0
 91
        1
 62
     0
 92
       -2
340
14
 93
        0
 40
0.045
309
GRIDFORMAT_END
 95
        4
302
GRIDFORMAT
  1
GRIDFORMAT_BEGIN
 90
        0
 91
        1
 62
     0
 92
       -2
340
14
 93
        0
 40
0.045
309
GRIDFORMAT_END
 95
        8
302
GRIDFORMAT
  1
GRIDFORMAT_BEGIN
 90
        0
 91
        1
 62
     0
 92
       -2
340
14
 93
        0
 40
0.045
309
GRIDFORMAT_END
 95
       16
302
GRIDFORMAT
  1
GRIDFORMAT_BEGIN
 90
        0
 91
        1
 62
     0
 92
       -2
340
14
 93
        0
 40
0.045
309
GRIDFORMAT_END
 95
       32
302
GRIDFORMAT
  1
GRIDFORMAT_BEGIN
 90
        0
 91
        1
 62
     0
 92
       -2
340
14
 93
        0
 40
0.045
309
GRIDFORMAT_END
309
TABLEFORMAT_END
  1
CELLSTYLE_BEGIN
 90
        3
 91
        2
300
_DATA
309
CELLSTYLE_END
  0
XRECORD
  5
2BE
102
{ACAD_REACTORS
330
2BD
102
}
330
2BD
100
AcDbXrecord
280
     1
102
RTVSPost2010Prop28
280
     1
102
RTVSPost2010PropOp28
 70
     1
102
RTVSPost2010Prop29
280
     1
102
RTVSPost2010PropOp29
 70
     1
102
RTVSPost2010Prop30
280
     0
102
RTVSPost2010PropOp30
 70
     1
102
RTVSPost2010Prop31
280
     0
102
RTVSPost2010PropOp31
 70
     1
102
RTVSPost2010Prop32
280
     0
102
RTVSPost2010PropOp32
 70
     1
102
RTVSPost2010Prop33
280
     0
102
RTVSPost2010PropOp33
 70
     1
102
RTVSPost2010Prop34
280
     0
102
RTVSPost2010PropOp34
 70
     1
102
RTVSPost2010Prop35
280
     0
102
RTVSPost2010PropOp35
 70
     1
102
RTVSPost2010Prop36
280
     0
102
RTVSPost2010PropOp36
 70
     1
102
RTVSPost2010Prop37
 90
       50
102
RTVSPost2010PropOp37
 70
     1
102
RTVSPost2010Prop38
140
0.0
102
RTVSPost2010PropOp38
 70
     1
102
RTVSPost2010Prop39
140
1.0
102
RTVSPost2010PropOp39
 70
     1
102
RTVSPost2010Prop40
 90
        0
102
RTVSPost2010PropOp40
 70
     1
102
RTVSPost2010Prop41ColorIndex
 90
       18
102
RTVSPost2010Prop41ColorRGB
 90
        0
102
RTVSPost2010PropOp41
 70
     1
102
RTVSPost2010Prop42
 90
       50
102
RTVSPost2010PropOp42
 70
     1
102
RTVSPost2010Prop43
 90
        3
102
RTVSPost2010PropOp43
 70
     1
102
RTVSPost2010Prop44ColorIndex
 90
        5
102
RTVSPost2010Prop44ColorRGB
 90
      255
102
RTVSPost2010PropOp44
 70
     1
102
RTVSPost2010Prop45
280
     0
102
RTVSPost2010PropOp45
 70
     1
102
RTVSPost2010Prop46
 90
       50
102
RTVSPost2010PropOp46
 70
     1
102
RTVSPost2010Prop47
 90
       50
102
RTVSPost2010PropOp47
 70
     1
102
RTVSPost2010Prop48
 90
       50
102
RTVSPost2010PropOp48
 70
     1
102
RTVSPost2010Prop49
280
     0
102
RTVSPost2010PropOp49
 70
     1
102
RTVSPost2010Prop50
 90
       50
102
RTVSPost2010PropOp50
 70
     1
102
RTVSPost2010Prop51ColorIndex
 90
      256
102
RTVSPost2010Prop51ColorRGB
 90
-16777216
102
RTVSPost2010PropOp51
 70
     0
102
RTVSPost2010Prop52
140
1.0
102
RTVSPost2010PropOp52
 70
     0
102
RTVSPost2010Prop53
 90
        2
102
RTVSPost2010PropOp53
 70
     1
102
RTVSPost2010Prop54
  1
strokes_ogs.tif
102
RTVSPost2010PropOp54
 70
     1
102
RTVSPost2010Prop55
280
     0
102
RTVSPost2010PropOp55
 70
     1
102
RTVSPost2010Prop56
140
1.0
102
RTVSPost2010PropOp56
 70
     1
102
RTVSPost2010Prop57
140
1.0
102
RTVSPost2010PropOp57
 70
     1
  0
XRECORD
  5
2C4
102
{ACAD_REACTORS
330
2C3
102
}
330
2C3
100
AcDbXrecord
280
     1
102
RTVSPost2010Prop28
280
     0
102
RTVSPost2010PropOp28
 70
     1
102
RTVSPost2010Prop29
280
     1
102
RTVSPost2010PropOp29
 70
     1
102
RTVSPost2010Prop30
280
     1
102
RTVSPost2010PropOp30
 70
     1
102
RTVSPost2010Prop31
280
     0
102
RTVSPost2010PropOp31
 70
     1
102
RTVSPost2010Prop32
280
     0
102
RTVSPost2010PropOp32
 70
     1
102
RTVSPost2010Prop33
280
     0
102
RTVSPost2010PropOp33
 70
     1
102
RTVSPost2010Prop34
280
     0
102
RTVSPost2010PropOp34
 70
     1
102
RTVSPost2010Prop35
280
     0
102
RTVSPost2010PropOp35
 70
     1
102
RTVSPost2010Prop36
280
     0
102
RTVSPost2010PropOp36
 70
     1
102
RTVSPost2010Prop37
 90
       50
102
RTVSPost2010PropOp37
 70
     1
102
RTVSPost2010Prop38
140
0.0
102
RTVSPost2010PropOp38
 70
     1
102
RTVSPost2010Prop39
140
1.0
102
RTVSPost2010PropOp39
 70
     1
102
RTVSPost2010Prop40
 90
        0
102
RTVSPost2010PropOp40
 70
     1
102
RTVSPost2010Prop41ColorIndex
 90
       18
102
RTVSPost2010Prop41ColorRGB
 90
        0
102
RTVSPost2010PropOp41
 70
     1
102
RTVSPost2010Prop42
 90
       50
102
RTVSPost2010PropOp42
 70
     1
102
RTVSPost2010Prop43
 90
        3
102
RTVSPost2010PropOp43
 70
     1
102
RTVSPost2010Prop44ColorIndex
 90
        5
102
RTVSPost2010Prop44ColorRGB
 90
      255
102
RTVSPost2010PropOp44
 70
     1
102
RTVSPost2010Prop45
280
     0
102
RTVSPost2010PropOp45
 70
     1
102
RTVSPost2010Prop46
 90
       50
102
RTVSPost2010PropOp46
 70
     1
102
RTVSPost2010Prop47
 90
       50
102
RTVSPost2010PropOp47
 70
     1
102
RTVSPost2010Prop48
 90
       50
102
RTVSPost2010PropOp48
 70
     1
102
RTVSPost2010Prop49
280
     0
102
RTVSPost2010PropOp49
 70
     1
102
RTVSPost2010Prop50
 90
       50
102
RTVSPost2010PropOp50
 70
     1
102
RTVSPost2010Prop51ColorIndex
 90
      256
102
RTVSPost2010Prop51ColorRGB
 90
-16777216
102
RTVSPost2010PropOp51
 70
     0
102
RTVSPost2010Prop52
140
1.0
102
RTVSPost2010PropOp52
 70
     0
102
RTVSPost2010Prop53
 90
        2
102
RTVSPost2010PropOp53
 70
     1
102
RTVSPost2010Prop54
  1
strokes_ogs.tif
102
RTVSPost2010PropOp54
 70
     1
102
RTVSPost2010Prop55
280
     0
102
RTVSPost2010PropOp55
 70
     1
102
RTVSPost2010Prop56
140
1.0
102
RTVSPost2010PropOp56
 70
     1
102
RTVSPost2010Prop57
140
1.0
102
RTVSPost2010PropOp57
 70
     1
  0
XRECORD
  5
2CC
102
{ACAD_REACTORS
330
2CB
102
}
330
2CB
100
AcDbXrecord
280
     1
102
RTVSPost2010Prop28
280
     0
102
RTVSPost2010PropOp28
 70
     1
102
RTVSPost2010Prop29
280
     1
102
RTVSPost2010PropOp29
 70
     1
102
RTVSPost2010Prop30
280
     1
102
RTVSPost2010PropOp30
 70
     1
102
RTVSPost2010Prop31
280
     0
102
RTVSPost2010PropOp31
 70
     1
102
RTVSPost2010Prop32
280
     0
102
RTVSPost2010PropOp32
 70
     1
102
RTVSPost2010Prop33
280
     0
102
RTVSPost2010PropOp33
 70
     1
102
RTVSPost2010Prop34
280
     0
102
RTVSPost2010PropOp34
 70
     1
102
RTVSPost2010Prop35
280
     0
102
RTVSPost2010PropOp35
 70
     1
102
RTVSPost2010Prop36
280
     0
102
RTVSPost2010PropOp36
 70
     1
102
RTVSPost2010Prop37
 90
       50
102
RTVSPost2010PropOp37
 70
     1
102
RTVSPost2010Prop38
140
0.0
102
RTVSPost2010PropOp38
 70
     1
102
RTVSPost2010Prop39
140
1.0
102
RTVSPost2010PropOp39
 70
     1
102
RTVSPost2010Prop40
 90
        0
102
RTVSPost2010PropOp40
 70
     1
102
RTVSPost2010Prop41ColorIndex
 90
       18
102
RTVSPost2010Prop41ColorRGB
 90
        0
102
RTVSPost2010PropOp41
 70
     1
102
RTVSPost2010Prop42
 90
       50
102
RTVSPost2010PropOp42
 70
     1
102
RTVSPost2010Prop43
 90
        3
102
RTVSPost2010PropOp43
 70
     1
102
RTVSPost2010Prop44ColorIndex
 90
        5
102
RTVSPost2010Prop44ColorRGB
 90
      255
102
RTVSPost2010PropOp44
 70
     1
102
RTVSPost2010Prop45
280
     0
102
RTVSPost2010PropOp45
 70
     1
102
RTVSPost2010Prop46
 90
       50
102
RTVSPost2010PropOp46
 70
     1
102
RTVSPost2010Prop47
 90
       50
102
RTVSPost2010PropOp47
 70
     1
102
RTVSPost2010Prop48
 90
       50
102
RTVSPost2010PropOp48
 70
     1
102
RTVSPost2010Prop49
280
     0
102
RTVSPost2010PropOp49
 70
     1
102
RTVSPost2010Prop50
 90
       50
102
RTVSPost2010PropOp50
 70
     1
102
RTVSPost2010Prop51ColorIndex
 90
      256
102
RTVSPost2010Prop51ColorRGB
 90
-16777216
102
RTVSPost2010PropOp51
 70
     0
102
RTVSPost2010Prop52
140
1.0
102
RTVSPost2010PropOp52
 70
     0
102
RTVSPost2010Prop53
 90
        2
102
RTVSPost2010PropOp53
 70
     1
102
RTVSPost2010Prop54
  1
strokes_ogs.tif
102
RTVSPost2010PropOp54
 70
     1
102
RTVSPost2010Prop55
280
     0
102
RTVSPost2010PropOp55
 70
     1
102
RTVSPost2010Prop56
140
1.0
102
RTVSPost2010PropOp56
 70
     1
102
RTVSPost2010Prop57
140
1.0
102
RTVSPost2010PropOp57
 70
     1
  0
XRECORD
  5
2D4
102
{ACAD_REACTORS
330
2D3
102
}
330
2D3
100
AcDbXrecord
280
     1
102
RTVSPost2010Prop28
280
     0
102
RTVSPost2010PropOp28
 70
     1
102
RTVSPost2010Prop29
280
     1
102
RTVSPost2010PropOp29
 70
     1
102
RTVSPost2010Prop30
280
     1
102
RTVSPost2010PropOp30
 70
     1
102
RTVSPost2010Prop31
280
     0
102
RTVSPost2010PropOp31
 70
     1
102
RTVSPost2010Prop32
280
     0
102
RTVSPost2010PropOp32
 70
     1
102
RTVSPost2010Prop33
280
     0
102
RTVSPost2010PropOp33
 70
     1
102
RTVSPost2010Prop34
280
     0
102
RTVSPost2010PropOp34
 70
     1
102
RTVSPost2010Prop35
280
     0
102
RTVSPost2010PropOp35
 70
     1
102
RTVSPost2010Prop36
280
     0
102
RTVSPost2010PropOp36
 70
     1
102
RTVSPost2010Prop37
 90
       50
102
RTVSPost2010PropOp37
 70
     1
102
RTVSPost2010Prop38
140
0.0
102
RTVSPost2010PropOp38
 70
     1
102
RTVSPost2010Prop39
140
1.0
102
RTVSPost2010PropOp39
 70
     1
102
RTVSPost2010Prop40
 90
        0
102
RTVSPost2010PropOp40
 70
     1
102
RTVSPost2010Prop41ColorIndex
 90
       18
102
RTVSPost2010Prop41ColorRGB
 90
        0
102
RTVSPost2010PropOp41
 70
     1
102
RTVSPost2010Prop42
 90
       50
102
RTVSPost2010PropOp42
 70
     1
102
RTVSPost2010Prop43
 90
        3
102
RTVSPost2010PropOp43
 70
     1
102
RTVSPost2010Prop44ColorIndex
 90
        5
102
RTVSPost2010Prop44ColorRGB
 90
      255
102
RTVSPost2010PropOp44
 70
     1
102
RTVSPost2010Prop45
280
     0
102
RTVSPost2010PropOp45
 70
     1
102
RTVSPost2010Prop46
 90
       50
102
RTVSPost2010PropOp46
 70
     1
102
RTVSPost2010Prop47
 90
       50
102
RTVSPost2010PropOp47
 70
     1
102
RTVSPost2010Prop48
 90
       50
102
RTVSPost2010PropOp48
 70
     1
102
RTVSPost2010Prop49
280
     0
102
RTVSPost2010PropOp49
 70
     1
102
RTVSPost2010Prop50
 90
       50
102
RTVSPost2010PropOp50
 70
     1
102
RTVSPost2010Prop51ColorIndex
 90
      256
102
RTVSPost2010Prop51ColorRGB
 90
-16777216
102
RTVSPost2010PropOp51
 70
     0
102
RTVSPost2010Prop52
140
1.0
102
RTVSPost2010PropOp52
 70
     0
102
RTVSPost2010Prop53
 90
        2
102
RTVSPost2010PropOp53
 70
     1
102
RTVSPost2010Prop54
  1
strokes_ogs.tif
102
RTVSPost2010PropOp54
 70
     1
102
RTVSPost2010Prop55
280
     0
102
RTVSPost2010PropOp55
 70
     1
102
RTVSPost2010Prop56
140
1.0
102
RTVSPost2010PropOp56
 70
     1
102
RTVSPost2010Prop57
140
1.0
102
RTVSPost2010PropOp57
 70
     1
  0
XRECORD
  5
2C8
102
{ACAD_REACTORS
330
2C7
102
}
330
2C7
100
AcDbXrecord
280
     1
102
RTVSPost2010Prop28
280
     0
102
RTVSPost2010PropOp28
 70
     1
102
RTVSPost2010Prop29
280
     1
102
RTVSPost2010PropOp29
 70
     1
102
RTVSPost2010Prop30
280
     1
102
RTVSPost2010PropOp30
 70
     1
102
RTVSPost2010Prop31
280
     0
102
RTVSPost2010PropOp31
 70
     1
102
RTVSPost2010Prop32
280
     0
102
RTVSPost2010PropOp32
 70
     1
102
RTVSPost2010Prop33
280
     0
102
RTVSPost2010PropOp33
 70
     1
102
RTVSPost2010Prop34
280
     0
102
RTVSPost2010PropOp34
 70
     1
102
RTVSPost2010Prop35
280
     0
102
RTVSPost2010PropOp35
 70
     1
102
RTVSPost2010Prop36
280
     0
102
RTVSPost2010PropOp36
 70
     1
102
RTVSPost2010Prop37
 90
       50
102
RTVSPost2010PropOp37
 70
     1
102
RTVSPost2010Prop38
140
0.0
102
RTVSPost2010PropOp38
 70
     1
102
RTVSPost2010Prop39
140
1.0
102
RTVSPost2010PropOp39
 70
     1
102
RTVSPost2010Prop40
 90
        0
102
RTVSPost2010PropOp40
 70
     1
102
RTVSPost2010Prop41ColorIndex
 90
       18
102
RTVSPost2010Prop41ColorRGB
 90
        0
102
RTVSPost2010PropOp41
 70
     1
102
RTVSPost2010Prop42
 90
       50
102
RTVSPost2010PropOp42
 70
     1
102
RTVSPost2010Prop43
 90
        3
102
RTVSPost2010PropOp43
 70
     1
102
RTVSPost2010Prop44ColorIndex
 90
        5
102
RTVSPost2010Prop44ColorRGB
 90
      255
102
RTVSPost2010PropOp44
 70
     1
102
RTVSPost2010Prop45
280
     0
102
RTVSPost2010PropOp45
 70
     1
102
RTVSPost2010Prop46
 90
       50
102
RTVSPost2010PropOp46
 70
     1
102
RTVSPost2010Prop47
 90
       50
102
RTVSPost2010PropOp47
 70
     1
102
RTVSPost2010Prop48
 90
       50
102
RTVSPost2010PropOp48
 70
     1
102
RTVSPost2010Prop49
280
     0
102
RTVSPost2010PropOp49
 70
     1
102
RTVSPost2010Prop50
 90
       50
102
RTVSPost2010PropOp50
 70
     1
102
RTVSPost2010Prop51ColorIndex
 90
      256
102
RTVSPost2010Prop51ColorRGB
 90
-16777216
102
RTVSPost2010PropOp51
 70
     0
102
RTVSPost2010Prop52
140
1.0
102
RTVSPost2010PropOp52
 70
     0
102
RTVSPost2010Prop53
 90
        2
102
RTVSPost2010PropOp53
 70
     1
102
RTVSPost2010Prop54
  1
strokes_ogs.tif
102
RTVSPost2010PropOp54
 70
     1
102
RTVSPost2010Prop55
280
     0
102
RTVSPost2010PropOp55
 70
     1
102
RTVSPost2010Prop56
140
1.0
102
RTVSPost2010PropOp56
 70
     1
102
RTVSPost2010Prop57
140
1.0
102
RTVSPost2010PropOp57
 70
     1
  0
XRECORD
  5
2CA
102
{ACAD_REACTORS
330
2C9
102
}
330
2C9
100
AcDbXrecord
280
     1
102
RTVSPost2010Prop28
280
     0
102
RTVSPost2010PropOp28
 70
     1
102
RTVSPost2010Prop29
280
     1
102
RTVSPost2010PropOp29
 70
     1
102
RTVSPost2010Prop30
280
     1
102
RTVSPost2010PropOp30
 70
     1
102
RTVSPost2010Prop31
280
     0
102
RTVSPost2010PropOp31
 70
     1
102
RTVSPost2010Prop32
280
     0
102
RTVSPost2010PropOp32
 70
     1
102
RTVSPost2010Prop33
280
     0
102
RTVSPost2010PropOp33
 70
     1
102
RTVSPost2010Prop34
280
     0
102
RTVSPost2010PropOp34
 70
     1
102
RTVSPost2010Prop35
280
     0
102
RTVSPost2010PropOp35
 70
     1
102
RTVSPost2010Prop36
280
     0
102
RTVSPost2010PropOp36
 70
     1
102
RTVSPost2010Prop37
 90
       50
102
RTVSPost2010PropOp37
 70
     1
102
RTVSPost2010Prop38
140
0.0
102
RTVSPost2010PropOp38
 70
     1
102
RTVSPost2010Prop39
140
1.0
102
RTVSPost2010PropOp39
 70
     1
102
RTVSPost2010Prop40
 90
        0
102
RTVSPost2010PropOp40
 70
     1
102
RTVSPost2010Prop41ColorIndex
 90
       18
102
RTVSPost2010Prop41ColorRGB
 90
        0
102
RTVSPost2010PropOp41
 70
     1
102
RTVSPost2010Prop42
 90
       50
102
RTVSPost2010PropOp42
 70
     1
102
RTVSPost2010Prop43
 90
        3
102
RTVSPost2010PropOp43
 70
     1
102
RTVSPost2010Prop44ColorIndex
 90
        5
102
RTVSPost2010Prop44ColorRGB
 90
      255
102
RTVSPost2010PropOp44
 70
     1
102
RTVSPost2010Prop45
280
     0
102
RTVSPost2010PropOp45
 70
     1
102
RTVSPost2010Prop46
 90
       50
102
RTVSPost2010PropOp46
 70
     1
102
RTVSPost2010Prop47
 90
       50
102
RTVSPost2010PropOp47
 70
     1
102
RTVSPost2010Prop48
 90
       50
102
RTVSPost2010PropOp48
 70
     1
102
RTVSPost2010Prop49
280
     0
102
RTVSPost2010PropOp49
 70
     1
102
RTVSPost2010Prop50
 90
       50
102
RTVSPost2010PropOp50
 70
     1
102
RTVSPost2010Prop51ColorIndex
 90
      256
102
RTVSPost2010Prop51ColorRGB
 90
-16777216
102
RTVSPost2010PropOp51
 70
     0
102
RTVSPost2010Prop52
140
1.0
102
RTVSPost2010PropOp52
 70
     0
102
RTVSPost2010Prop53
 90
        2
102
RTVSPost2010PropOp53
 70
     1
102
RTVSPost2010Prop54
  1
strokes_ogs.tif
102
RTVSPost2010PropOp54
 70
     1
102
RTVSPost2010Prop55
280
     0
102
RTVSPost2010PropOp55
 70
     1
102
RTVSPost2010Prop56
140
1.0
102
RTVSPost2010PropOp56
 70
     1
102
RTVSPost2010Prop57
140
1.0
102
RTVSPost2010PropOp57
 70
     1
  0
XRECORD
  5
2DA
102
{ACAD_REACTORS
330
2D9
102
}
330
2D9
100
AcDbXrecord
280
     1
102
RTVSPost2010Prop28
280
     0
102
RTVSPost2010PropOp28
 70
     0
102
RTVSPost2010Prop29
280
     1
102
RTVSPost2010PropOp29
 70
     0
102
RTVSPost2010Prop30
280
     1
102
RTVSPost2010PropOp30
 70
     0
102
RTVSPost2010Prop31
280
     0
102
RTVSPost2010PropOp31
 70
     0
102
RTVSPost2010Prop32
280
     0
102
RTVSPost2010PropOp32
 70
     0
102
RTVSPost2010Prop33
280
     0
102
RTVSPost2010PropOp33
 70
     0
102
RTVSPost2010Prop34
280
     0
102
RTVSPost2010PropOp34
 70
     0
102
RTVSPost2010Prop35
280
     0
102
RTVSPost2010PropOp35
 70
     0
102
RTVSPost2010Prop36
280
     0
102
RTVSPost2010PropOp36
 70
     0
102
RTVSPost2010Prop37
 90
       50
102
RTVSPost2010PropOp37
 70
     0
102
RTVSPost2010Prop38
140
0.0
102
RTVSPost2010PropOp38
 70
     0
102
RTVSPost2010Prop39
140
1.0
102
RTVSPost2010PropOp39
 70
     0
102
RTVSPost2010Prop40
 90
        0
102
RTVSPost2010PropOp40
 70
     0
102
RTVSPost2010Prop41ColorIndex
 90
       18
102
RTVSPost2010Prop41ColorRGB
 90
        0
102
RTVSPost2010PropOp41
 70
     0
102
RTVSPost2010Prop42
 90
       50
102
RTVSPost2010PropOp42
 70
     0
102
RTVSPost2010Prop43
 90
        3
102
RTVSPost2010PropOp43
 70
     0
102
RTVSPost2010Prop44ColorIndex
 90
        5
102
RTVSPost2010Prop44ColorRGB
 90
      255
102
RTVSPost2010PropOp44
 70
     0
102
RTVSPost2010Prop45
280
     0
102
RTVSPost2010PropOp45
 70
     0
102
RTVSPost2010Prop46
 90
       50
102
RTVSPost2010PropOp46
 70
     0
102
RTVSPost2010Prop47
 90
       50
102
RTVSPost2010PropOp47
 70
     0
102
RTVSPost2010Prop48
 90
       50
102
RTVSPost2010PropOp48
 70
     0
102
RTVSPost2010Prop49
280
     0
102
RTVSPost2010PropOp49
 70
     0
102
RTVSPost2010Prop50
 90
       50
102
RTVSPost2010PropOp50
 70
     0
102
RTVSPost2010Prop51ColorIndex
 90
      256
102
RTVSPost2010Prop51ColorRGB
 90
-16777216
102
RTVSPost2010PropOp51
 70
     0
102
RTVSPost2010Prop52
140
1.0
102
RTVSPost2010PropOp52
 70
     0
102
RTVSPost2010Prop53
 90
        2
102
RTVSPost2010PropOp53
 70
     0
102
RTVSPost2010Prop54
  1
strokes_ogs.tif
102
RTVSPost2010PropOp54
 70
     0
102
RTVSPost2010Prop55
280
     0
102
RTVSPost2010PropOp55
 70
     0
102
RTVSPost2010Prop56
140
1.0
102
RTVSPost2010PropOp56
 70
     0
102
RTVSPost2010Prop57
140
1.0
102
RTVSPost2010PropOp57
 70
     0
  0
XRECORD
  5
2D2
102
{ACAD_REACTORS
330
2D1
102
}
330
2D1
100
AcDbXrecord
280
     1
102
RTVSPost2010Prop28
280
     0
102
RTVSPost2010PropOp28
 70
     1
102
RTVSPost2010Prop29
280
     1
102
RTVSPost2010PropOp29
 70
     1
102
RTVSPost2010Prop30
280
     1
102
RTVSPost2010PropOp30
 70
     1
102
RTVSPost2010Prop31
280
     0
102
RTVSPost2010PropOp31
 70
     1
102
RTVSPost2010Prop32
280
     0
102
RTVSPost2010PropOp32
 70
     1
102
RTVSPost2010Prop33
280
     0
102
RTVSPost2010PropOp33
 70
     1
102
RTVSPost2010Prop34
280
     0
102
RTVSPost2010PropOp34
 70
     1
102
RTVSPost2010Prop35
280
     0
102
RTVSPost2010PropOp35
 70
     1
102
RTVSPost2010Prop36
280
     0
102
RTVSPost2010PropOp36
 70
     1
102
RTVSPost2010Prop37
 90
       50
102
RTVSPost2010PropOp37
 70
     1
102
RTVSPost2010Prop38
140
0.0
102
RTVSPost2010PropOp38
 70
     1
102
RTVSPost2010Prop39
140
1.0
102
RTVSPost2010PropOp39
 70
     1
102
RTVSPost2010Prop40
 90
        0
102
RTVSPost2010PropOp40
 70
     1
102
RTVSPost2010Prop41ColorIndex
 90
       18
102
RTVSPost2010Prop41ColorRGB
 90
        0
102
RTVSPost2010PropOp41
 70
     1
102
RTVSPost2010Prop42
 90
       50
102
RTVSPost2010PropOp42
 70
     1
102
RTVSPost2010Prop43
 90
        3
102
RTVSPost2010PropOp43
 70
     1
102
RTVSPost2010Prop44ColorIndex
 90
        5
102
RTVSPost2010Prop44ColorRGB
 90
      255
102
RTVSPost2010PropOp44
 70
     1
102
RTVSPost2010Prop45
280
     0
102
RTVSPost2010PropOp45
 70
     1
102
RTVSPost2010Prop46
 90
       50
102
RTVSPost2010PropOp46
 70
     1
102
RTVSPost2010Prop47
 90
       50
102
RTVSPost2010PropOp47
 70
     1
102
RTVSPost2010Prop48
 90
       50
102
RTVSPost2010PropOp48
 70
     1
102
RTVSPost2010Prop49
280
     0
102
RTVSPost2010PropOp49
 70
     1
102
RTVSPost2010Prop50
 90
       50
102
RTVSPost2010PropOp50
 70
     1
102
RTVSPost2010Prop51ColorIndex
 90
      256
102
RTVSPost2010Prop51ColorRGB
 90
-16777216
102
RTVSPost2010PropOp51
 70
     0
102
RTVSPost2010Prop52
140
1.0
102
RTVSPost2010PropOp52
 70
     0
102
RTVSPost2010Prop53
 90
        2
102
RTVSPost2010PropOp53
 70
     1
102
RTVSPost2010Prop54
  1
strokes_ogs.tif
102
RTVSPost2010PropOp54
 70
     1
102
RTVSPost2010Prop55
280
     0
102
RTVSPost2010PropOp55
 70
     1
102
RTVSPost2010Prop56
140
1.0
102
RTVSPost2010PropOp56
 70
     1
102
RTVSPost2010Prop57
140
1.0
102
RTVSPost2010PropOp57
 70
     1
  0
XRECORD
  5
2B6
102
{ACAD_REACTORS
330
2B5
102
}
330
2B5
100
AcDbXrecord
280
     1
102
RTVSPost2010Prop28
280
     0
102
RTVSPost2010PropOp28
 70
     1
102
RTVSPost2010Prop29
280
     1
102
RTVSPost2010PropOp29
 70
     1
102
RTVSPost2010Prop30
280
     1
102
RTVSPost2010PropOp30
 70
     1
102
RTVSPost2010Prop31
280
     0
102
RTVSPost2010PropOp31
 70
     1
102
RTVSPost2010Prop32
280
     0
102
RTVSPost2010PropOp32
 70
     1
102
RTVSPost2010Prop33
280
     0
102
RTVSPost2010PropOp33
 70
     1
102
RTVSPost2010Prop34
280
     0
102
RTVSPost2010PropOp34
 70
     1
102
RTVSPost2010Prop35
280
     0
102
RTVSPost2010PropOp35
 70
     1
102
RTVSPost2010Prop36
280
     0
102
RTVSPost2010PropOp36
 70
     1
102
RTVSPost2010Prop37
 90
       50
102
RTVSPost2010PropOp37
 70
     1
102
RTVSPost2010Prop38
140
0.0
102
RTVSPost2010PropOp38
 70
     1
102
RTVSPost2010Prop39
140
1.0
102
RTVSPost2010PropOp39
 70
     1
102
RTVSPost2010Prop40
 90
        0
102
RTVSPost2010PropOp40
 70
     1
102
RTVSPost2010Prop41ColorIndex
 90
       18
102
RTVSPost2010Prop41ColorRGB
 90
        0
102
RTVSPost2010PropOp41
 70
     1
102
RTVSPost2010Prop42
 90
       50
102
RTVSPost2010PropOp42
 70
     1
102
RTVSPost2010Prop43
 90
        3
102
RTVSPost2010PropOp43
 70
     1
102
RTVSPost2010Prop44ColorIndex
 90
        5
102
RTVSPost2010Prop44ColorRGB
 90
      255
102
RTVSPost2010PropOp44
 70
     1
102
RTVSPost2010Prop45
280
     0
102
RTVSPost2010PropOp45
 70
     1
102
RTVSPost2010Prop46
 90
       50
102
RTVSPost2010PropOp46
 70
     1
102
RTVSPost2010Prop47
 90
       50
102
RTVSPost2010PropOp47
 70
     1
102
RTVSPost2010Prop48
 90
       50
102
RTVSPost2010PropOp48
 70
     1
102
RTVSPost2010Prop49
280
     0
102
RTVSPost2010PropOp49
 70
     1
102
RTVSPost2010Prop50
 90
       50
102
RTVSPost2010PropOp50
 70
     1
102
RTVSPost2010Prop51ColorIndex
 90
      256
102
RTVSPost2010Prop51ColorRGB
 90
-16777216
102
RTVSPost2010PropOp51
 70
     0
102
RTVSPost2010Prop52
140
1.0
102
RTVSPost2010PropOp52
 70
     0
102
RTVSPost2010Prop53
 90
        2
102
RTVSPost2010PropOp53
 70
     1
102
RTVSPost2010Prop54
  1
strokes_ogs.tif
102
RTVSPost2010PropOp54
 70
     1
102
RTVSPost2010Prop55
280
     0
102
RTVSPost2010PropOp55
 70
     1
102
RTVSPost2010Prop56
140
1.0
102
RTVSPost2010PropOp56
 70
     1
102
RTVSPost2010Prop57
140
1.0
102
RTVSPost2010PropOp57
 70
     1
  0
XRECORD
  5
2B8
102
{ACAD_REACTORS
330
2B7
102
}
330
2B7
100
AcDbXrecord
280
     1
102
RTVSPost2010Prop28
280
     0
102
RTVSPost2010PropOp28
 70
     1
102
RTVSPost2010Prop29
280
     1
102
RTVSPost2010PropOp29
 70
     1
102
RTVSPost2010Prop30
280
     1
102
RTVSPost2010PropOp30
 70
     1
102
RTVSPost2010Prop31
280
     0
102
RTVSPost2010PropOp31
 70
     1
102
RTVSPost2010Prop32
280
     0
102
RTVSPost2010PropOp32
 70
     1
102
RTVSPost2010Prop33
280
     0
102
RTVSPost2010PropOp33
 70
     1
102
RTVSPost2010Prop34
280
     0
102
RTVSPost2010PropOp34
 70
     1
102
RTVSPost2010Prop35
280
     0
102
RTVSPost2010PropOp35
 70
     1
102
RTVSPost2010Prop36
280
     0
102
RTVSPost2010PropOp36
 70
     1
102
RTVSPost2010Prop37
 90
       50
102
RTVSPost2010PropOp37
 70
     1
102
RTVSPost2010Prop38
140
0.0
102
RTVSPost2010PropOp38
 70
     1
102
RTVSPost2010Prop39
140
1.0
102
RTVSPost2010PropOp39
 70
     1
102
RTVSPost2010Prop40
 90
        0
102
RTVSPost2010PropOp40
 70
     1
102
RTVSPost2010Prop41ColorIndex
 90
       18
102
RTVSPost2010Prop41ColorRGB
 90
        0
102
RTVSPost2010PropOp41
 70
     1
102
RTVSPost2010Prop42
 90
       50
102
RTVSPost2010PropOp42
 70
     1
102
RTVSPost2010Prop43
 90
        3
102
RTVSPost2010PropOp43
 70
     1
102
RTVSPost2010Prop44ColorIndex
 90
        5
102
RTVSPost2010Prop44ColorRGB
 90
      255
102
RTVSPost2010PropOp44
 70
     1
102
RTVSPost2010Prop45
280
     0
102
RTVSPost2010PropOp45
 70
     1
102
RTVSPost2010Prop46
 90
       50
102
RTVSPost2010PropOp46
 70
     1
102
RTVSPost2010Prop47
 90
       50
102
RTVSPost2010PropOp47
 70
     1
102
RTVSPost2010Prop48
 90
       50
102
RTVSPost2010PropOp48
 70
     1
102
RTVSPost2010Prop49
280
     0
102
RTVSPost2010PropOp49
 70
     1
102
RTVSPost2010Prop50
 90
       50
102
RTVSPost2010PropOp50
 70
     1
102
RTVSPost2010Prop51ColorIndex
 90
      256
102
RTVSPost2010Prop51ColorRGB
 90
-16777216
102
RTVSPost2010PropOp51
 70
     0
102
RTVSPost2010Prop52
140
1.0
102
RTVSPost2010PropOp52
 70
     0
102
RTVSPost2010Prop53
 90
        2
102
RTVSPost2010PropOp53
 70
     1
102
RTVSPost2010Prop54
  1
strokes_ogs.tif
102
RTVSPost2010PropOp54
 70
     1
102
RTVSPost2010Prop55
280
     0
102
RTVSPost2010PropOp55
 70
     1
102
RTVSPost2010Prop56
140
1.0
102
RTVSPost2010PropOp56
 70
     1
102
RTVSPost2010Prop57
140
1.0
102
RTVSPost2010PropOp57
 70
     1
  0
XRECORD
  5
2BA
102
{ACAD_REACTORS
330
2B9
102
}
330
2B9
100
AcDbXrecord
280
     1
102
RTVSPost2010Prop28
280
     0
102
RTVSPost2010PropOp28
 70
     1
102
RTVSPost2010Prop29
280
     1
102
RTVSPost2010PropOp29
 70
     1
102
RTVSPost2010Prop30
280
     1
102
RTVSPost2010PropOp30
 70
     1
102
RTVSPost2010Prop31
280
     0
102
RTVSPost2010PropOp31
 70
     1
102
RTVSPost2010Prop32
280
     0
102
RTVSPost2010PropOp32
 70
     1
102
RTVSPost2010Prop33
280
     0
102
RTVSPost2010PropOp33
 70
     1
102
RTVSPost2010Prop34
280
     0
102
RTVSPost2010PropOp34
 70
     1
102
RTVSPost2010Prop35
280
     0
102
RTVSPost2010PropOp35
 70
     1
102
RTVSPost2010Prop36
280
     0
102
RTVSPost2010PropOp36
 70
     1
102
RTVSPost2010Prop37
 90
       50
102
RTVSPost2010PropOp37
 70
     1
102
RTVSPost2010Prop38
140
0.0
102
RTVSPost2010PropOp38
 70
     1
102
RTVSPost2010Prop39
140
1.0
102
RTVSPost2010PropOp39
 70
     1
102
RTVSPost2010Prop40
 90
        0
102
RTVSPost2010PropOp40
 70
     1
102
RTVSPost2010Prop41ColorIndex
 90
       18
102
RTVSPost2010Prop41ColorRGB
 90
        0
102
RTVSPost2010PropOp41
 70
     1
102
RTVSPost2010Prop42
 90
       50
102
RTVSPost2010PropOp42
 70
     1
102
RTVSPost2010Prop43
 90
        3
102
RTVSPost2010PropOp43
 70
     1
102
RTVSPost2010Prop44ColorIndex
 90
        5
102
RTVSPost2010Prop44ColorRGB
 90
      255
102
RTVSPost2010PropOp44
 70
     1
102
RTVSPost2010Prop45
280
     0
102
RTVSPost2010PropOp45
 70
     1
102
RTVSPost2010Prop46
 90
       50
102
RTVSPost2010PropOp46
 70
     1
102
RTVSPost2010Prop47
 90
       50
102
RTVSPost2010PropOp47
 70
     1
102
RTVSPost2010Prop48
 90
       50
102
RTVSPost2010PropOp48
 70
     1
102
RTVSPost2010Prop49
280
     0
102
RTVSPost2010PropOp49
 70
     1
102
RTVSPost2010Prop50
 90
       50
102
RTVSPost2010PropOp50
 70
     1
102
RTVSPost2010Prop51ColorIndex
 90
      256
102
RTVSPost2010Prop51ColorRGB
 90
-16777216
102
RTVSPost2010PropOp51
 70
     0
102
RTVSPost2010Prop52
140
1.0
102
RTVSPost2010PropOp52
 70
     0
102
RTVSPost2010Prop53
 90
        2
102
RTVSPost2010PropOp53
 70
     1
102
RTVSPost2010Prop54
  1
strokes_ogs.tif
102
RTVSPost2010PropOp54
 70
     1
102
RTVSPost2010Prop55
280
     0
102
RTVSPost2010PropOp55
 70
     1
102
RTVSPost2010Prop56
140
1.0
102
RTVSPost2010PropOp56
 70
     1
102
RTVSPost2010Prop57
140
1.0
102
RTVSPost2010PropOp57
 70
     1
  0
XRECORD
  5
2BC
102
{ACAD_REACTORS
330
2BB
102
}
330
2BB
100
AcDbXrecord
280
     1
102
RTVSPost2010Prop28
280
     0
102
RTVSPost2010PropOp28
 70
     1
102
RTVSPost2010Prop29
280
     1
102
RTVSPost2010PropOp29
 70
     1
102
RTVSPost2010Prop30
280
     1
102
RTVSPost2010PropOp30
 70
     1
102
RTVSPost2010Prop31
280
     0
102
RTVSPost2010PropOp31
 70
     1
102
RTVSPost2010Prop32
280
     0
102
RTVSPost2010PropOp32
 70
     1
102
RTVSPost2010Prop33
280
     0
102
RTVSPost2010PropOp33
 70
     1
102
RTVSPost2010Prop34
280
     0
102
RTVSPost2010PropOp34
 70
     1
102
RTVSPost2010Prop35
280
     0
102
RTVSPost2010PropOp35
 70
     1
102
RTVSPost2010Prop36
280
     0
102
RTVSPost2010PropOp36
 70
     1
102
RTVSPost2010Prop37
 90
       50
102
RTVSPost2010PropOp37
 70
     1
102
RTVSPost2010Prop38
140
0.0
102
RTVSPost2010PropOp38
 70
     1
102
RTVSPost2010Prop39
140
1.0
102
RTVSPost2010PropOp39
 70
     1
102
RTVSPost2010Prop40
 90
        0
102
RTVSPost2010PropOp40
 70
     1
102
RTVSPost2010Prop41ColorIndex
 90
       18
102
RTVSPost2010Prop41ColorRGB
 90
        0
102
RTVSPost2010PropOp41
 70
     1
102
RTVSPost2010Prop42
 90
       50
102
RTVSPost2010PropOp42
 70
     1
102
RTVSPost2010Prop43
 90
        3
102
RTVSPost2010PropOp43
 70
     1
102
RTVSPost2010Prop44ColorIndex
 90
        5
102
RTVSPost2010Prop44ColorRGB
 90
      255
102
RTVSPost2010PropOp44
 70
     1
102
RTVSPost2010Prop45
280
     0
102
RTVSPost2010PropOp45
 70
     1
102
RTVSPost2010Prop46
 90
       50
102
RTVSPost2010PropOp46
 70
     1
102
RTVSPost2010Prop47
 90
       50
102
RTVSPost2010PropOp47
 70
     1
102
RTVSPost2010Prop48
 90
       50
102
RTVSPost2010PropOp48
 70
     1
102
RTVSPost2010Prop49
280
     0
102
RTVSPost2010PropOp49
 70
     1
102
RTVSPost2010Prop50
 90
       50
102
RTVSPost2010PropOp50
 70
     1
102
RTVSPost2010Prop51ColorIndex
 90
      256
102
RTVSPost2010Prop51ColorRGB
 90
-16777216
102
RTVSPost2010PropOp51
 70
     0
102
RTVSPost2010Prop52
140
1.0
102
RTVSPost2010PropOp52
 70
     0
102
RTVSPost2010Prop53
 90
        2
102
RTVSPost2010PropOp53
 70
     1
102
RTVSPost2010Prop54
  1
strokes_ogs.tif
102
RTVSPost2010PropOp54
 70
     1
102
RTVSPost2010Prop55
280
     0
102
RTVSPost2010PropOp55
 70
     1
102
RTVSPost2010Prop56
140
1.0
102
RTVSPost2010PropOp56
 70
     1
102
RTVSPost2010Prop57
140
1.0
102
RTVSPost2010PropOp57
 70
     1
  0
XRECORD
  5
2C2
102
{ACAD_REACTORS
330
2C1
102
}
330
2C1
100
AcDbXrecord
280
     1
102
RTVSPost2010Prop28
280
     0
102
RTVSPost2010PropOp28
 70
     1
102
RTVSPost2010Prop29
280
     1
102
RTVSPost2010PropOp29
 70
     1
102
RTVSPost2010Prop30
280
     1
102
RTVSPost2010PropOp30
 70
     1
102
RTVSPost2010Prop31
280
     0
102
RTVSPost2010PropOp31
 70
     1
102
RTVSPost2010Prop32
280
     0
102
RTVSPost2010PropOp32
 70
     1
102
RTVSPost2010Prop33
280
     0
102
RTVSPost2010PropOp33
 70
     1
102
RTVSPost2010Prop34
280
     0
102
RTVSPost2010PropOp34
 70
     1
102
RTVSPost2010Prop35
280
     0
102
RTVSPost2010PropOp35
 70
     1
102
RTVSPost2010Prop36
280
     0
102
RTVSPost2010PropOp36
 70
     1
102
RTVSPost2010Prop37
 90
       50
102
RTVSPost2010PropOp37
 70
     1
102
RTVSPost2010Prop38
140
0.0
102
RTVSPost2010PropOp38
 70
     1
102
RTVSPost2010Prop39
140
1.0
102
RTVSPost2010PropOp39
 70
     1
102
RTVSPost2010Prop40
 90
        0
102
RTVSPost2010PropOp40
 70
     1
102
RTVSPost2010Prop41ColorIndex
 90
       18
102
RTVSPost2010Prop41ColorRGB
 90
        0
102
RTVSPost2010PropOp41
 70
     1
102
RTVSPost2010Prop42
 90
       50
102
RTVSPost2010PropOp42
 70
     1
102
RTVSPost2010Prop43
 90
        3
102
RTVSPost2010PropOp43
 70
     1
102
RTVSPost2010Prop44ColorIndex
 90
        5
102
RTVSPost2010Prop44ColorRGB
 90
      255
102
RTVSPost2010PropOp44
 70
     1
102
RTVSPost2010Prop45
280
     0
102
RTVSPost2010PropOp45
 70
     1
102
RTVSPost2010Prop46
 90
       50
102
RTVSPost2010PropOp46
 70
     1
102
RTVSPost2010Prop47
 90
       50
102
RTVSPost2010PropOp47
 70
     1
102
RTVSPost2010Prop48
 90
       50
102
RTVSPost2010PropOp48
 70
     1
102
RTVSPost2010Prop49
280
     0
102
RTVSPost2010PropOp49
 70
     1
102
RTVSPost2010Prop50
 90
       50
102
RTVSPost2010PropOp50
 70
     1
102
RTVSPost2010Prop51ColorIndex
 90
      256
102
RTVSPost2010Prop51ColorRGB
 90
-16777216
102
RTVSPost2010PropOp51
 70
     0
102
RTVSPost2010Prop52
140
1.0
102
RTVSPost2010PropOp52
 70
     0
102
RTVSPost2010Prop53
 90
        2
102
RTVSPost2010PropOp53
 70
     1
102
RTVSPost2010Prop54
  1
strokes_ogs.tif
102
RTVSPost2010PropOp54
 70
     1
102
RTVSPost2010Prop55
280
     0
102
RTVSPost2010PropOp55
 70
     1
102
RTVSPost2010Prop56
140
1.0
102
RTVSPost2010PropOp56
 70
     1
102
RTVSPost2010Prop57
140
1.0
102
RTVSPost2010PropOp57
 70
     1
  0
XRECORD
  5
2D6
102
{ACAD_REACTORS
330
2D5
102
}
330
2D5
100
AcDbXrecord
280
     1
102
RTVSPost2010Prop28
280
     0
102
RTVSPost2010PropOp28
 70
     0
102
RTVSPost2010Prop29
280
     1
102
RTVSPost2010PropOp29
 70
     0
102
RTVSPost2010Prop30
280
     1
102
RTVSPost2010PropOp30
 70
     0
102
RTVSPost2010Prop31
280
     0
102
RTVSPost2010PropOp31
 70
     0
102
RTVSPost2010Prop32
280
     0
102
RTVSPost2010PropOp32
 70
     0
102
RTVSPost2010Prop33
280
     0
102
RTVSPost2010PropOp33
 70
     0
102
RTVSPost2010Prop34
280
     0
102
RTVSPost2010PropOp34
 70
     0
102
RTVSPost2010Prop35
280
     0
102
RTVSPost2010PropOp35
 70
     0
102
RTVSPost2010Prop36
280
     0
102
RTVSPost2010PropOp36
 70
     0
102
RTVSPost2010Prop37
 90
       50
102
RTVSPost2010PropOp37
 70
     0
102
RTVSPost2010Prop38
140
0.0
102
RTVSPost2010PropOp38
 70
     0
102
RTVSPost2010Prop39
140
1.0
102
RTVSPost2010PropOp39
 70
     0
102
RTVSPost2010Prop40
 90
        0
102
RTVSPost2010PropOp40
 70
     0
102
RTVSPost2010Prop41ColorIndex
 90
       18
102
RTVSPost2010Prop41ColorRGB
 90
        0
102
RTVSPost2010PropOp41
 70
     0
102
RTVSPost2010Prop42
 90
       50
102
RTVSPost2010PropOp42
 70
     0
102
RTVSPost2010Prop43
 90
        3
102
RTVSPost2010PropOp43
 70
     0
102
RTVSPost2010Prop44ColorIndex
 90
        5
102
RTVSPost2010Prop44ColorRGB
 90
      255
102
RTVSPost2010PropOp44
 70
     0
102
RTVSPost2010Prop45
280
     0
102
RTVSPost2010PropOp45
 70
     0
102
RTVSPost2010Prop46
 90
       50
102
RTVSPost2010PropOp46
 70
     0
102
RTVSPost2010Prop47
 90
       50
102
RTVSPost2010PropOp47
 70
     0
102
RTVSPost2010Prop48
 90
       50
102
RTVSPost2010PropOp48
 70
     0
102
RTVSPost2010Prop49
280
     0
102
RTVSPost2010PropOp49
 70
     0
102
RTVSPost2010Prop50
 90
       50
102
RTVSPost2010PropOp50
 70
     0
102
RTVSPost2010Prop51ColorIndex
 90
      256
102
RTVSPost2010Prop51ColorRGB
 90
-16777216
102
RTVSPost2010PropOp51
 70
     0
102
RTVSPost2010Prop52
140
1.0
102
RTVSPost2010PropOp52
 70
     0
102
RTVSPost2010Prop53
 90
        2
102
RTVSPost2010PropOp53
 70
     0
102
RTVSPost2010Prop54
  1
strokes_ogs.tif
102
RTVSPost2010PropOp54
 70
     0
102
RTVSPost2010Prop55
280
     0
102
RTVSPost2010PropOp55
 70
     0
102
RTVSPost2010Prop56
140
1.0
102
RTVSPost2010PropOp56
 70
     0
102
RTVSPost2010Prop57
140
1.0
102
RTVSPost2010PropOp57
 70
     0
  0
XRECORD
  5
2D0
102
{ACAD_REACTORS
330
2CF
102
}
330
2CF
100
AcDbXrecord
280
     1
102
RTVSPost2010Prop28
280
     0
102
RTVSPost2010PropOp28
 70
     1
102
RTVSPost2010Prop29
280
     1
102
RTVSPost2010PropOp29
 70
     1
102
RTVSPost2010Prop30
280
     1
102
RTVSPost2010PropOp30
 70
     1
102
RTVSPost2010Prop31
280
     0
102
RTVSPost2010PropOp31
 70
     1
102
RTVSPost2010Prop32
280
     0
102
RTVSPost2010PropOp32
 70
     1
102
RTVSPost2010Prop33
280
     0
102
RTVSPost2010PropOp33
 70
     1
102
RTVSPost2010Prop34
280
     0
102
RTVSPost2010PropOp34
 70
     1
102
RTVSPost2010Prop35
280
     0
102
RTVSPost2010PropOp35
 70
     1
102
RTVSPost2010Prop36
280
     0
102
RTVSPost2010PropOp36
 70
     1
102
RTVSPost2010Prop37
 90
       50
102
RTVSPost2010PropOp37
 70
     1
102
RTVSPost2010Prop38
140
0.0
102
RTVSPost2010PropOp38
 70
     1
102
RTVSPost2010Prop39
140
1.0
102
RTVSPost2010PropOp39
 70
     1
102
RTVSPost2010Prop40
 90
        0
102
RTVSPost2010PropOp40
 70
     1
102
RTVSPost2010Prop41ColorIndex
 90
       18
102
RTVSPost2010Prop41ColorRGB
 90
        0
102
RTVSPost2010PropOp41
 70
     1
102
RTVSPost2010Prop42
 90
       50
102
RTVSPost2010PropOp42
 70
     1
102
RTVSPost2010Prop43
 90
        3
102
RTVSPost2010PropOp43
 70
     1
102
RTVSPost2010Prop44ColorIndex
 90
        5
102
RTVSPost2010Prop44ColorRGB
 90
      255
102
RTVSPost2010PropOp44
 70
     1
102
RTVSPost2010Prop45
280
     0
102
RTVSPost2010PropOp45
 70
     1
102
RTVSPost2010Prop46
 90
       50
102
RTVSPost2010PropOp46
 70
     1
102
RTVSPost2010Prop47
 90
       50
102
RTVSPost2010PropOp47
 70
     1
102
RTVSPost2010Prop48
 90
       50
102
RTVSPost2010PropOp48
 70
     1
102
RTVSPost2010Prop49
280
     0
102
RTVSPost2010PropOp49
 70
     1
102
RTVSPost2010Prop50
 90
       50
102
RTVSPost2010PropOp50
 70
     1
102
RTVSPost2010Prop51ColorIndex
 90
      256
102
RTVSPost2010Prop51ColorRGB
 90
-16777216
102
RTVSPost2010PropOp51
 70
     0
102
RTVSPost2010Prop52
140
1.0
102
RTVSPost2010PropOp52
 70
     0
102
RTVSPost2010Prop53
 90
        2
102
RTVSPost2010PropOp53
 70
     1
102
RTVSPost2010Prop54
  1
strokes_ogs.tif
102
RTVSPost2010PropOp54
 70
     1
102
RTVSPost2010Prop55
280
     0
102
RTVSPost2010PropOp55
 70
     1
102
RTVSPost2010Prop56
140
1.0
102
RTVSPost2010PropOp56
 70
     1
102
RTVSPost2010Prop57
140
1.0
102
RTVSPost2010PropOp57
 70
     1
  0
XRECORD
  5
2D8
102
{ACAD_REACTORS
330
2D7
102
}
330
2D7
100
AcDbXrecord
280
     1
102
RTVSPost2010Prop28
280
     0
102
RTVSPost2010PropOp28
 70
     0
102
RTVSPost2010Prop29
280
     1
102
RTVSPost2010PropOp29
 70
     0
102
RTVSPost2010Prop30
280
     1
102
RTVSPost2010PropOp30
 70
     0
102
RTVSPost2010Prop31
280
     0
102
RTVSPost2010PropOp31
 70
     0
102
RTVSPost2010Prop32
280
     0
102
RTVSPost2010PropOp32
 70
     0
102
RTVSPost2010Prop33
280
     0
102
RTVSPost2010PropOp33
 70
     0
102
RTVSPost2010Prop34
280
     0
102
RTVSPost2010PropOp34
 70
     0
102
RTVSPost2010Prop35
280
     0
102
RTVSPost2010PropOp35
 70
     0
102
RTVSPost2010Prop36
280
     0
102
RTVSPost2010PropOp36
 70
     0
102
RTVSPost2010Prop37
 90
       50
102
RTVSPost2010PropOp37
 70
     0
102
RTVSPost2010Prop38
140
0.0
102
RTVSPost2010PropOp38
 70
     0
102
RTVSPost2010Prop39
140
1.0
102
RTVSPost2010PropOp39
 70
     0
102
RTVSPost2010Prop40
 90
        0
102
RTVSPost2010PropOp40
 70
     0
102
RTVSPost2010Prop41ColorIndex
 90
       18
102
RTVSPost2010Prop41ColorRGB
 90
        0
102
RTVSPost2010PropOp41
 70
     0
102
RTVSPost2010Prop42
 90
       50
102
RTVSPost2010PropOp42
 70
     0
102
RTVSPost2010Prop43
 90
        3
102
RTVSPost2010PropOp43
 70
     0
102
RTVSPost2010Prop44ColorIndex
 90
        5
102
RTVSPost2010Prop44ColorRGB
 90
      255
102
RTVSPost2010PropOp44
 70
     0
102
RTVSPost2010Prop45
280
     0
102
RTVSPost2010PropOp45
 70
     0
102
RTVSPost2010Prop46
 90
       50
102
RTVSPost2010PropOp46
 70
     0
102
RTVSPost2010Prop47
 90
       50
102
RTVSPost2010PropOp47
 70
     0
102
RTVSPost2010Prop48
 90
       50
102
RTVSPost2010PropOp48
 70
     0
102
RTVSPost2010Prop49
280
     0
102
RTVSPost2010PropOp49
 70
     0
102
RTVSPost2010Prop50
 90
       50
102
RTVSPost2010PropOp50
 70
     0
102
RTVSPost2010Prop51ColorIndex
 90
      256
102
RTVSPost2010Prop51ColorRGB
 90
-16777216
102
RTVSPost2010PropOp51
 70
     0
102
RTVSPost2010Prop52
140
1.0
102
RTVSPost2010PropOp52
 70
     0
102
RTVSPost2010Prop53
 90
        2
102
RTVSPost2010PropOp53
 70
     0
102
RTVSPost2010Prop54
  1
strokes_ogs.tif
102
RTVSPost2010PropOp54
 70
     0
102
RTVSPost2010Prop55
280
     0
102
RTVSPost2010PropOp55
 70
     0
102
RTVSPost2010Prop56
140
1.0
102
RTVSPost2010PropOp56
 70
     0
102
RTVSPost2010Prop57
140
1.0
102
RTVSPost2010PropOp57
 70
     0
  0
XRECORD
  5
2C6
102
{ACAD_REACTORS
330
2C5
102
}
330
2C5
100
AcDbXrecord
280
     1
102
RTVSPost2010Prop28
280
     0
102
RTVSPost2010PropOp28
 70
     1
102
RTVSPost2010Prop29
280
     1
102
RTVSPost2010PropOp29
 70
     1
102
RTVSPost2010Prop30
280
     1
102
RTVSPost2010PropOp30
 70
     1
102
RTVSPost2010Prop31
280
     0
102
RTVSPost2010PropOp31
 70
     1
102
RTVSPost2010Prop32
280
     0
102
RTVSPost2010PropOp32
 70
     1
102
RTVSPost2010Prop33
280
     0
102
RTVSPost2010PropOp33
 70
     1
102
RTVSPost2010Prop34
280
     0
102
RTVSPost2010PropOp34
 70
     1
102
RTVSPost2010Prop35
280
     0
102
RTVSPost2010PropOp35
 70
     1
102
RTVSPost2010Prop36
280
     0
102
RTVSPost2010PropOp36
 70
     1
102
RTVSPost2010Prop37
 90
       50
102
RTVSPost2010PropOp37
 70
     1
102
RTVSPost2010Prop38
140
0.0
102
RTVSPost2010PropOp38
 70
     1
102
RTVSPost2010Prop39
140
1.0
102
RTVSPost2010PropOp39
 70
     1
102
RTVSPost2010Prop40
 90
        0
102
RTVSPost2010PropOp40
 70
     1
102
RTVSPost2010Prop41ColorIndex
 90
       18
102
RTVSPost2010Prop41ColorRGB
 90
        0
102
RTVSPost2010PropOp41
 70
     1
102
RTVSPost2010Prop42
 90
       50
102
RTVSPost2010PropOp42
 70
     1
102
RTVSPost2010Prop43
 90
        3
102
RTVSPost2010PropOp43
 70
     1
102
RTVSPost2010Prop44ColorIndex
 90
        5
102
RTVSPost2010Prop44ColorRGB
 90
      255
102
RTVSPost2010PropOp44
 70
     1
102
RTVSPost2010Prop45
280
     0
102
RTVSPost2010PropOp45
 70
     1
102
RTVSPost2010Prop46
 90
       50
102
RTVSPost2010PropOp46
 70
     1
102
RTVSPost2010Prop47
 90
       50
102
RTVSPost2010PropOp47
 70
     1
102
RTVSPost2010Prop48
 90
       50
102
RTVSPost2010PropOp48
 70
     1
102
RTVSPost2010Prop49
280
     0
102
RTVSPost2010PropOp49
 70
     1
102
RTVSPost2010Prop50
 90
       50
102
RTVSPost2010PropOp50
 70
     1
102
RTVSPost2010Prop51ColorIndex
 90
      256
102
RTVSPost2010Prop51ColorRGB
 90
-16777216
102
RTVSPost2010PropOp51
 70
     0
102
RTVSPost2010Prop52
140
1.0
102
RTVSPost2010PropOp52
 70
     0
102
RTVSPost2010Prop53
 90
        2
102
RTVSPost2010PropOp53
 70
     1
102
RTVSPost2010Prop54
  1
strokes_ogs.tif
102
RTVSPost2010PropOp54
 70
     1
102
RTVSPost2010Prop55
280
     0
102
RTVSPost2010PropOp55
 70
     1
102
RTVSPost2010Prop56
140
1.0
102
RTVSPost2010PropOp56
 70
     1
102
RTVSPost2010Prop57
140
1.0
102
RTVSPost2010PropOp57
 70
     1
  0
XRECORD
  5
2E4
102
{ACAD_REACTORS
330
2E3
102
}
330
2E3
100
AcDbXrecord
280
     1
102
RTVSPost2010Prop28
280
     0
102
RTVSPost2010PropOp28
 70
     1
102
RTVSPost2010Prop29
280
     1
102
RTVSPost2010PropOp29
 70
     1
102
RTVSPost2010Prop30
280
     1
102
RTVSPost2010PropOp30
 70
     1
102
RTVSPost2010Prop31
280
     0
102
RTVSPost2010PropOp31
 70
     1
102
RTVSPost2010Prop32
280
     0
102
RTVSPost2010PropOp32
 70
     1
102
RTVSPost2010Prop33
280
     0
102
RTVSPost2010PropOp33
 70
     1
102
RTVSPost2010Prop34
280
     0
102
RTVSPost2010PropOp34
 70
     1
102
RTVSPost2010Prop35
280
     0
102
RTVSPost2010PropOp35
 70
     1
102
RTVSPost2010Prop36
280
     0
102
RTVSPost2010PropOp36
 70
     1
102
RTVSPost2010Prop37
 90
       50
102
RTVSPost2010PropOp37
 70
     1
102
RTVSPost2010Prop38
140
0.0
102
RTVSPost2010PropOp38
 70
     1
102
RTVSPost2010Prop39
140
1.0
102
RTVSPost2010PropOp39
 70
     1
102
RTVSPost2010Prop40
 90
        0
102
RTVSPost2010PropOp40
 70
     1
102
RTVSPost2010Prop41ColorIndex
 90
       18
102
RTVSPost2010Prop41ColorRGB
 90
        0
102
RTVSPost2010PropOp41
 70
     1
102
RTVSPost2010Prop42
 90
       50
102
RTVSPost2010PropOp42
 70
     1
102
RTVSPost2010Prop43
 90
        3
102
RTVSPost2010PropOp43
 70
     1
102
RTVSPost2010Prop44ColorIndex
 90
        5
102
RTVSPost2010Prop44ColorRGB
 90
      255
102
RTVSPost2010PropOp44
 70
     1
102
RTVSPost2010Prop45
280
     0
102
RTVSPost2010PropOp45
 70
     1
102
RTVSPost2010Prop46
 90
       50
102
RTVSPost2010PropOp46
 70
     1
102
RTVSPost2010Prop47
 90
       50
102
RTVSPost2010PropOp47
 70
     1
102
RTVSPost2010Prop48
 90
       50
102
RTVSPost2010PropOp48
 70
     1
102
RTVSPost2010Prop49
280
     0
102
RTVSPost2010PropOp49
 70
     1
102
RTVSPost2010Prop50
 90
       50
102
RTVSPost2010PropOp50
 70
     1
102
RTVSPost2010Prop51ColorIndex
 90
      256
102
RTVSPost2010Prop51ColorRGB
 90
-16777216
102
RTVSPost2010PropOp51
 70
     0
102
RTVSPost2010Prop52
140
1.0
102
RTVSPost2010PropOp52
 70
     0
102
RTVSPost2010Prop53
 90
        2
102
RTVSPost2010PropOp53
 70
     1
102
RTVSPost2010Prop54
  1
strokes_ogs.tif
102
RTVSPost2010PropOp54
 70
     1
102
RTVSPost2010Prop55
280
     0
102
RTVSPost2010PropOp55
 70
     1
102
RTVSPost2010Prop56
140
1.0
102
RTVSPost2010PropOp56
 70
     1
102
RTVSPost2010Prop57
140
1.0
102
RTVSPost2010PropOp57
 70
     1
  0
XRECORD
  5
2E2
102
{ACAD_REACTORS
330
2E1
102
}
330
2E1
100
AcDbXrecord
280
     1
102
RTVSPost2010Prop28
280
     0
102
RTVSPost2010PropOp28
 70
     1
102
RTVSPost2010Prop29
280
     1
102
RTVSPost2010PropOp29
 70
     1
102
RTVSPost2010Prop30
280
     1
102
RTVSPost2010PropOp30
 70
     1
102
RTVSPost2010Prop31
280
     0
102
RTVSPost2010PropOp31
 70
     1
102
RTVSPost2010Prop32
280
     0
102
RTVSPost2010PropOp32
 70
     1
102
RTVSPost2010Prop33
280
     0
102
RTVSPost2010PropOp33
 70
     1
102
RTVSPost2010Prop34
280
     0
102
RTVSPost2010PropOp34
 70
     1
102
RTVSPost2010Prop35
280
     0
102
RTVSPost2010PropOp35
 70
     1
102
RTVSPost2010Prop36
280
     0
102
RTVSPost2010PropOp36
 70
     1
102
RTVSPost2010Prop37
 90
       50
102
RTVSPost2010PropOp37
 70
     1
102
RTVSPost2010Prop38
140
0.0
102
RTVSPost2010PropOp38
 70
     1
102
RTVSPost2010Prop39
140
1.0
102
RTVSPost2010PropOp39
 70
     1
102
RTVSPost2010Prop40
 90
        0
102
RTVSPost2010PropOp40
 70
     1
102
RTVSPost2010Prop41ColorIndex
 90
       18
102
RTVSPost2010Prop41ColorRGB
 90
        0
102
RTVSPost2010PropOp41
 70
     1
102
RTVSPost2010Prop42
 90
       50
102
RTVSPost2010PropOp42
 70
     1
102
RTVSPost2010Prop43
 90
        3
102
RTVSPost2010PropOp43
 70
     1
102
RTVSPost2010Prop44ColorIndex
 90
        5
102
RTVSPost2010Prop44ColorRGB
 90
      255
102
RTVSPost2010PropOp44
 70
     1
102
RTVSPost2010Prop45
280
     0
102
RTVSPost2010PropOp45
 70
     1
102
RTVSPost2010Prop46
 90
       50
102
RTVSPost2010PropOp46
 70
     1
102
RTVSPost2010Prop47
 90
       50
102
RTVSPost2010PropOp47
 70
     1
102
RTVSPost2010Prop48
 90
       50
102
RTVSPost2010PropOp48
 70
     1
102
RTVSPost2010Prop49
280
     0
102
RTVSPost2010PropOp49
 70
     1
102
RTVSPost2010Prop50
 90
       50
102
RTVSPost2010PropOp50
 70
     1
102
RTVSPost2010Prop51ColorIndex
 90
      256
102
RTVSPost2010Prop51ColorRGB
 90
-16777216
102
RTVSPost2010PropOp51
 70
     0
102
RTVSPost2010Prop52
140
1.0
102
RTVSPost2010PropOp52
 70
     0
102
RTVSPost2010Prop53
 90
        2
102
RTVSPost2010PropOp53
 70
     1
102
RTVSPost2010Prop54
  1
strokes_ogs.tif
102
RTVSPost2010PropOp54
 70
     1
102
RTVSPost2010Prop55
280
     0
102
RTVSPost2010PropOp55
 70
     1
102
RTVSPost2010Prop56
140
1.0
102
RTVSPost2010PropOp56
 70
     1
102
RTVSPost2010Prop57
140
1.0
102
RTVSPost2010PropOp57
 70
     1
  0
XRECORD
  5
2DC
102
{ACAD_REACTORS
330
2DB
102
}
330
2DB
100
AcDbXrecord
280
     1
102
RTVSPost2010Prop28
280
     0
102
RTVSPost2010PropOp28
 70
     1
102
RTVSPost2010Prop29
280
     1
102
RTVSPost2010PropOp29
 70
     1
102
RTVSPost2010Prop30
280
     1
102
RTVSPost2010PropOp30
 70
     1
102
RTVSPost2010Prop31
280
     0
102
RTVSPost2010PropOp31
 70
     1
102
RTVSPost2010Prop32
280
     0
102
RTVSPost2010PropOp32
 70
     1
102
RTVSPost2010Prop33
280
     0
102
RTVSPost2010PropOp33
 70
     1
102
RTVSPost2010Prop34
280
     0
102
RTVSPost2010PropOp34
 70
     1
102
RTVSPost2010Prop35
280
     0
102
RTVSPost2010PropOp35
 70
     1
102
RTVSPost2010Prop36
280
     0
102
RTVSPost2010PropOp36
 70
     1
102
RTVSPost2010Prop37
 90
       50
102
RTVSPost2010PropOp37
 70
     1
102
RTVSPost2010Prop38
140
0.0
102
RTVSPost2010PropOp38
 70
     1
102
RTVSPost2010Prop39
140
1.0
102
RTVSPost2010PropOp39
 70
     1
102
RTVSPost2010Prop40
 90
        0
102
RTVSPost2010PropOp40
 70
     1
102
RTVSPost2010Prop41ColorIndex
 90
       18
102
RTVSPost2010Prop41ColorRGB
 90
        0
102
RTVSPost2010PropOp41
 70
     1
102
RTVSPost2010Prop42
 90
       50
102
RTVSPost2010PropOp42
 70
     1
102
RTVSPost2010Prop43
 90
        3
102
RTVSPost2010PropOp43
 70
     1
102
RTVSPost2010Prop44ColorIndex
 90
        5
102
RTVSPost2010Prop44ColorRGB
 90
      255
102
RTVSPost2010PropOp44
 70
     1
102
RTVSPost2010Prop45
280
     0
102
RTVSPost2010PropOp45
 70
     1
102
RTVSPost2010Prop46
 90
       50
102
RTVSPost2010PropOp46
 70
     1
102
RTVSPost2010Prop47
 90
       50
102
RTVSPost2010PropOp47
 70
     1
102
RTVSPost2010Prop48
 90
       50
102
RTVSPost2010PropOp48
 70
     1
102
RTVSPost2010Prop49
280
     0
102
RTVSPost2010PropOp49
 70
     1
102
RTVSPost2010Prop50
 90
       50
102
RTVSPost2010PropOp50
 70
     1
102
RTVSPost2010Prop51ColorIndex
 90
      256
102
RTVSPost2010Prop51ColorRGB
 90
-16777216
102
RTVSPost2010PropOp51
 70
     0
102
RTVSPost2010Prop52
140
1.0
102
RTVSPost2010PropOp52
 70
     0
102
RTVSPost2010Prop53
 90
        2
102
RTVSPost2010PropOp53
 70
     1
102
RTVSPost2010Prop54
  1
strokes_ogs.tif
102
RTVSPost2010PropOp54
 70
     1
102
RTVSPost2010Prop55
280
     0
102
RTVSPost2010PropOp55
 70
     1
102
RTVSPost2010Prop56
140
1.0
102
RTVSPost2010PropOp56
 70
     1
102
RTVSPost2010Prop57
140
1.0
102
RTVSPost2010PropOp57
 70
     1
  0
XRECORD
  5
2DE
102
{ACAD_REACTORS
330
2DD
102
}
330
2DD
100
AcDbXrecord
280
     1
102
RTVSPost2010Prop28
280
     0
102
RTVSPost2010PropOp28
 70
     1
102
RTVSPost2010Prop29
280
     1
102
RTVSPost2010PropOp29
 70
     1
102
RTVSPost2010Prop30
280
     1
102
RTVSPost2010PropOp30
 70
     1
102
RTVSPost2010Prop31
280
     0
102
RTVSPost2010PropOp31
 70
     1
102
RTVSPost2010Prop32
280
     0
102
RTVSPost2010PropOp32
 70
     1
102
RTVSPost2010Prop33
280
     0
102
RTVSPost2010PropOp33
 70
     1
102
RTVSPost2010Prop34
280
     0
102
RTVSPost2010PropOp34
 70
     1
102
RTVSPost2010Prop35
280
     0
102
RTVSPost2010PropOp35
 70
     1
102
RTVSPost2010Prop36
280
     0
102
RTVSPost2010PropOp36
 70
     1
102
RTVSPost2010Prop37
 90
       50
102
RTVSPost2010PropOp37
 70
     1
102
RTVSPost2010Prop38
140
0.0
102
RTVSPost2010PropOp38
 70
     1
102
RTVSPost2010Prop39
140
1.0
102
RTVSPost2010PropOp39
 70
     1
102
RTVSPost2010Prop40
 90
        0
102
RTVSPost2010PropOp40
 70
     1
102
RTVSPost2010Prop41ColorIndex
 90
       18
102
RTVSPost2010Prop41ColorRGB
 90
        0
102
RTVSPost2010PropOp41
 70
     1
102
RTVSPost2010Prop42
 90
       50
102
RTVSPost2010PropOp42
 70
     1
102
RTVSPost2010Prop43
 90
        3
102
RTVSPost2010PropOp43
 70
     1
102
RTVSPost2010Prop44ColorIndex
 90
        5
102
RTVSPost2010Prop44ColorRGB
 90
      255
102
RTVSPost2010PropOp44
 70
     1
102
RTVSPost2010Prop45
280
     0
102
RTVSPost2010PropOp45
 70
     1
102
RTVSPost2010Prop46
 90
       50
102
RTVSPost2010PropOp46
 70
     1
102
RTVSPost2010Prop47
 90
       50
102
RTVSPost2010PropOp47
 70
     1
102
RTVSPost2010Prop48
 90
       50
102
RTVSPost2010PropOp48
 70
     1
102
RTVSPost2010Prop49
280
     0
102
RTVSPost2010PropOp49
 70
     1
102
RTVSPost2010Prop50
 90
       50
102
RTVSPost2010PropOp50
 70
     1
102
RTVSPost2010Prop51ColorIndex
 90
      256
102
RTVSPost2010Prop51ColorRGB
 90
-16777216
102
RTVSPost2010PropOp51
 70
     0
102
RTVSPost2010Prop52
140
1.0
102
RTVSPost2010PropOp52
 70
     0
102
RTVSPost2010Prop53
 90
        2
102
RTVSPost2010PropOp53
 70
     1
102
RTVSPost2010Prop54
  1
strokes_ogs.tif
102
RTVSPost2010PropOp54
 70
     1
102
RTVSPost2010Prop55
280
     0
102
RTVSPost2010PropOp55
 70
     1
102
RTVSPost2010Prop56
140
1.0
102
RTVSPost2010PropOp56
 70
     1
102
RTVSPost2010Prop57
140
1.0
102
RTVSPost2010PropOp57
 70
     1
  0
XRECORD
  5
2CE
102
{ACAD_REACTORS
330
2CD
102
}
330
2CD
100
AcDbXrecord
280
     1
102
RTVSPost2010Prop28
280
     0
102
RTVSPost2010PropOp28
 70
     1
102
RTVSPost2010Prop29
280
     1
102
RTVSPost2010PropOp29
 70
     1
102
RTVSPost2010Prop30
280
     1
102
RTVSPost2010PropOp30
 70
     1
102
RTVSPost2010Prop31
280
     0
102
RTVSPost2010PropOp31
 70
     1
102
RTVSPost2010Prop32
280
     0
102
RTVSPost2010PropOp32
 70
     1
102
RTVSPost2010Prop33
280
     0
102
RTVSPost2010PropOp33
 70
     1
102
RTVSPost2010Prop34
280
     0
102
RTVSPost2010PropOp34
 70
     1
102
RTVSPost2010Prop35
280
     0
102
RTVSPost2010PropOp35
 70
     1
102
RTVSPost2010Prop36
280
     0
102
RTVSPost2010PropOp36
 70
     1
102
RTVSPost2010Prop37
 90
       50
102
RTVSPost2010PropOp37
 70
     1
102
RTVSPost2010Prop38
140
0.0
102
RTVSPost2010PropOp38
 70
     1
102
RTVSPost2010Prop39
140
1.0
102
RTVSPost2010PropOp39
 70
     1
102
RTVSPost2010Prop40
 90
        0
102
RTVSPost2010PropOp40
 70
     1
102
RTVSPost2010Prop41ColorIndex
 90
       18
102
RTVSPost2010Prop41ColorRGB
 90
        0
102
RTVSPost2010PropOp41
 70
     1
102
RTVSPost2010Prop42
 90
       50
102
RTVSPost2010PropOp42
 70
     1
102
RTVSPost2010Prop43
 90
        3
102
RTVSPost2010PropOp43
 70
     1
102
RTVSPost2010Prop44ColorIndex
 90
        5
102
RTVSPost2010Prop44ColorRGB
 90
      255
102
RTVSPost2010PropOp44
 70
     1
102
RTVSPost2010Prop45
280
     0
102
RTVSPost2010PropOp45
 70
     1
102
RTVSPost2010Prop46
 90
       50
102
RTVSPost2010PropOp46
 70
     1
102
RTVSPost2010Prop47
 90
       50
102
RTVSPost2010PropOp47
 70
     1
102
RTVSPost2010Prop48
 90
       50
102
RTVSPost2010PropOp48
 70
     1
102
RTVSPost2010Prop49
280
     0
102
RTVSPost2010PropOp49
 70
     1
102
RTVSPost2010Prop50
 90
       50
102
RTVSPost2010PropOp50
 70
     1
102
RTVSPost2010Prop51ColorIndex
 90
      256
102
RTVSPost2010Prop51ColorRGB
 90
-16777216
102
RTVSPost2010PropOp51
 70
     0
102
RTVSPost2010Prop52
140
1.0
102
RTVSPost2010PropOp52
 70
     0
102
RTVSPost2010Prop53
 90
        2
102
RTVSPost2010PropOp53
 70
     1
102
RTVSPost2010Prop54
  1
strokes_ogs.tif
102
RTVSPost2010PropOp54
 70
     1
102
RTVSPost2010Prop55
280
     0
102
RTVSPost2010PropOp55
 70
     1
102
RTVSPost2010Prop56
140
1.0
102
RTVSPost2010PropOp56
 70
     1
102
RTVSPost2010Prop57
140
1.0
102
RTVSPost2010PropOp57
 70
     1
  0
XRECORD
  5
2C0
102
{ACAD_REACTORS
330
2BF
102
}
330
2BF
100
AcDbXrecord
280
     1
102
RTVSPost2010Prop28
280
     0
102
RTVSPost2010PropOp28
 70
     1
102
RTVSPost2010Prop29
280
     1
102
RTVSPost2010PropOp29
 70
     1
102
RTVSPost2010Prop30
280
     1
102
RTVSPost2010PropOp30
 70
     1
102
RTVSPost2010Prop31
280
     0
102
RTVSPost2010PropOp31
 70
     1
102
RTVSPost2010Prop32
280
     0
102
RTVSPost2010PropOp32
 70
     1
102
RTVSPost2010Prop33
280
     0
102
RTVSPost2010PropOp33
 70
     1
102
RTVSPost2010Prop34
280
     0
102
RTVSPost2010PropOp34
 70
     1
102
RTVSPost2010Prop35
280
     0
102
RTVSPost2010PropOp35
 70
     1
102
RTVSPost2010Prop36
280
     0
102
RTVSPost2010PropOp36
 70
     1
102
RTVSPost2010Prop37
 90
       50
102
RTVSPost2010PropOp37
 70
     1
102
RTVSPost2010Prop38
140
0.0
102
RTVSPost2010PropOp38
 70
     1
102
RTVSPost2010Prop39
140
1.0
102
RTVSPost2010PropOp39
 70
     1
102
RTVSPost2010Prop40
 90
        0
102
RTVSPost2010PropOp40
 70
     1
102
RTVSPost2010Prop41ColorIndex
 90
       18
102
RTVSPost2010Prop41ColorRGB
 90
        0
102
RTVSPost2010PropOp41
 70
     1
102
RTVSPost2010Prop42
 90
       50
102
RTVSPost2010PropOp42
 70
     1
102
RTVSPost2010Prop43
 90
        3
102
RTVSPost2010PropOp43
 70
     1
102
RTVSPost2010Prop44ColorIndex
 90
        5
102
RTVSPost2010Prop44ColorRGB
 90
      255
102
RTVSPost2010PropOp44
 70
     1
102
RTVSPost2010Prop45
280
     0
102
RTVSPost2010PropOp45
 70
     1
102
RTVSPost2010Prop46
 90
       50
102
RTVSPost2010PropOp46
 70
     1
102
RTVSPost2010Prop47
 90
       50
102
RTVSPost2010PropOp47
 70
     1
102
RTVSPost2010Prop48
 90
       50
102
RTVSPost2010PropOp48
 70
     1
102
RTVSPost2010Prop49
280
     0
102
RTVSPost2010PropOp49
 70
     1
102
RTVSPost2010Prop50
 90
       50
102
RTVSPost2010PropOp50
 70
     1
102
RTVSPost2010Prop51ColorIndex
 90
      256
102
RTVSPost2010Prop51ColorRGB
 90
-16777216
102
RTVSPost2010PropOp51
 70
     0
102
RTVSPost2010Prop52
140
1.0
102
RTVSPost2010PropOp52
 70
     0
102
RTVSPost2010Prop53
 90
        2
102
RTVSPost2010PropOp53
 70
     1
102
RTVSPost2010Prop54
  1
strokes_ogs.tif
102
RTVSPost2010PropOp54
 70
     1
102
RTVSPost2010Prop55
280
     0
102
RTVSPost2010PropOp55
 70
     1
102
RTVSPost2010Prop56
140
1.0
102
RTVSPost2010PropOp56
 70
     1
102
RTVSPost2010Prop57
140
1.0
102
RTVSPost2010PropOp57
 70
     1
  0
XRECORD
  5
2E0
102
{ACAD_REACTORS
330
2DF
102
}
330
2DF
100
AcDbXrecord
280
     1
102
RTVSPost2010Prop28
280
     0
102
RTVSPost2010PropOp28
 70
     1
102
RTVSPost2010Prop29
280
     1
102
RTVSPost2010PropOp29
 70
     1
102
RTVSPost2010Prop30
280
     1
102
RTVSPost2010PropOp30
 70
     1
102
RTVSPost2010Prop31
280
     0
102
RTVSPost2010PropOp31
 70
     1
102
RTVSPost2010Prop32
280
     0
102
RTVSPost2010PropOp32
 70
     1
102
RTVSPost2010Prop33
280
     0
102
RTVSPost2010PropOp33
 70
     1
102
RTVSPost2010Prop34
280
     0
102
RTVSPost2010PropOp34
 70
     1
102
RTVSPost2010Prop35
280
     0
102
RTVSPost2010PropOp35
 70
     1
102
RTVSPost2010Prop36
280
     0
102
RTVSPost2010PropOp36
 70
     1
102
RTVSPost2010Prop37
 90
       50
102
RTVSPost2010PropOp37
 70
     1
102
RTVSPost2010Prop38
140
0.0
102
RTVSPost2010PropOp38
 70
     1
102
RTVSPost2010Prop39
140
1.0
102
RTVSPost2010PropOp39
 70
     1
102
RTVSPost2010Prop40
 90
        0
102
RTVSPost2010PropOp40
 70
     1
102
RTVSPost2010Prop41ColorIndex
 90
       18
102
RTVSPost2010Prop41ColorRGB
 90
        0
102
RTVSPost2010PropOp41
 70
     1
102
RTVSPost2010Prop42
 90
       50
102
RTVSPost2010PropOp42
 70
     1
102
RTVSPost2010Prop43
 90
        3
102
RTVSPost2010PropOp43
 70
     1
102
RTVSPost2010Prop44ColorIndex
 90
        5
102
RTVSPost2010Prop44ColorRGB
 90
      255
102
RTVSPost2010PropOp44
 70
     1
102
RTVSPost2010Prop45
280
     0
102
RTVSPost2010PropOp45
 70
     1
102
RTVSPost2010Prop46
 90
       50
102
RTVSPost2010PropOp46
 70
     1
102
RTVSPost2010Prop47
 90
       50
102
RTVSPost2010PropOp47
 70
     1
102
RTVSPost2010Prop48
 90
       50
102
RTVSPost2010PropOp48
 70
     1
102
RTVSPost2010Prop49
280
     0
102
RTVSPost2010PropOp49
 70
     1
102
RTVSPost2010Prop50
 90
       50
102
RTVSPost2010PropOp50
 70
     1
102
RTVSPost2010Prop51ColorIndex
 90
      256
102
RTVSPost2010Prop51ColorRGB
 90
-16777216
102
RTVSPost2010PropOp51
 70
     0
102
RTVSPost2010Prop52
140
1.0
102
RTVSPost2010PropOp52
 70
     0
102
RTVSPost2010Prop53
 90
        2
102
RTVSPost2010PropOp53
 70
     1
102
RTVSPost2010Prop54
  1
strokes_ogs.tif
102
RTVSPost2010PropOp54
 70
     1
102
RTVSPost2010Prop55
280
     0
102
RTVSPost2010PropOp55
 70
     1
102
RTVSPost2010Prop56
140
1.0
102
RTVSPost2010PropOp56
 70
     1
102
RTVSPost2010Prop57
140
1.0
102
RTVSPost2010PropOp57
 70
     1
  0
ENDSEC
  0
EOF
