  0
SECTION
  2
HEADER
  9
$ACADVER
  1
AC1014
  9
$ACADMAINTVER
 70
     9
  9
$DWGCODEPAGE
  3
ANSI_1252
  9
$INSBASE
 10
0.0
 20
0.0
 30
0.0
  9
$EXTMIN
 10
1.000000000000000E+20
 20
1.000000000000000E+20
 30
1.000000000000000E+20
  9
$EXTMAX
 10
-1.000000000000000E+20
 20
-1.000000000000000E+20
 30
-1.000000000000000E+20
  9
$LIMMIN
 10
0.0
 20
0.0
  9
$LIMMAX
 10
297.0000000001
 20
210.0
  9
$ORTHOMODE
 70
     0
  9
$REGENMODE
 70
     1
  9
$FILLMODE
 70
     1
  9
$QTEXTMODE
 70
     0
  9
$MIRRTEXT
 70
     0
  9
$DRAGMODE
 70
     0
  9
$LTSCALE
 40
1.0
  9
$OSMODE
 70
     0
  9
$ATTMODE
 70
     1
  9
$TEXTSIZE
 40
5.0
  9
$TRACEWID
 40
1.0
  9
$TEXTSTYLE
  7
STANDARD
  9
$CLAYER
  8
0
  9
$CELTYPE
  6
BYLAYER
  9
$CECOLOR
 62
    84
  9
$CELTSCALE
 40
1.0
  9
$DELOBJ
 70
     1
  9
$DISPSILH
 70
     0
  9
$DIMSCALE
 40
1.0
  9
$DIMASZ
 40
3.0
  9
$DIMEXO
 40
1.0
  9
$DIMDLI
 40
7.5
  9
$DIMRND
 40
0.2
  9
$DIMDLE
 40
0.0
  9
$DIMEXE
 40
2.0
  9
$DIMTP
 40
0.0
  9
$DIMTM
 40
0.0
  9
$DIMTXT
 40
3.0
  9
$DIMCEN
 40
0.0
  9
$DIMTSZ
 40
0.0
  9
$DIMTOL
 70
     0
  9
$DIMLIM
 70
     0
  9
$DIMTIH
 70
     1
  9
$DIMTOH
 70
     0
  9
$DIMSE1
 70
     0
  9
$DIMSE2
 70
     0
  9
$DIMTAD
 70
     1
  9
$DIMZIN
 70
     1
  9
$DIMBLK
  1

  9
$DIMASO
 70
     1
  9
$DIMSHO
 70
     1
  9
$DIMPOST
  1
 mm
  9
$DIMAPOST
  1
 mm
  9
$DIMALT
 70
     0
  9
$DIMALTD
 70
     2
  9
$DIMALTF
 40
1.0
  9
$DIMLFAC
 40
1.0
  9
$DIMTOFL
 70
     1
  9
$DIMTVP
 40
0.0
  9
$DIMTIX
 70
     0
  9
$DIMSOXD
 70
     0
  9
$DIMSAH
 70
     0
  9
$DIMBLK1
  1

  9
$DIMBLK2
  1

  9
$DIMSTYLE
  2
STANDARD
  9
$DIMCLRD
 70
     7
  9
$DIMCLRE
 70
     7
  9
$DIMCLRT
 70
     7
  9
$DIMTFAC
 40
1.0
  9
$DIMGAP
 40
2.0
  9
$DIMJUST
 70
     0
  9
$DIMSD1
 70
     0
  9
$DIMSD2
 70
     0
  9
$DIMTOLJ
 70
     1
  9
$DIMTZIN
 70
     0
  9
$DIMALTZ
 70
     0
  9
$DIMALTTZ
 70
     0
  9
$DIMFIT
 70
     3
  9
$DIMUPT
 70
     0
  9
$DIMUNIT
 70
     2
  9
$DIMDEC
 70
     2
  9
$DIMTDEC
 70
     3
  9
$DIMALTU
 70
     2
  9
$DIMALTTD
 70
     2
  9
$DIMTXSTY
  7
STANDARD
  9
$DIMAUNIT
 70
     0
  9
$LUNITS
 70
     2
  9
$LUPREC
 70
     2
  9
$SKETCHINC
 40
1.0
  9
$FILLETRAD
 40
5.0
  9
$AUNITS
 70
     0
  9
$AUPREC
 70
     3
  9
$MENU
  1
.
  9
$ELEVATION
 40
0.0
  9
$PELEVATION
 40
0.0
  9
$THICKNESS
 40
0.0
  9
$LIMCHECK
 70
     0
  9
$CHAMFERA
 40
0.5
  9
$CHAMFERB
 40
0.5
  9
$CHAMFERC
 40
1.0
  9
$CHAMFERD
 40
0.0
  9
$SKPOLY
 70
     0
  9
$TDCREATE
 40
2458191.644675081
  9
$TDUPDATE
 40
2458191.644675093
  9
$TDINDWG
 40
0.0
  9
$TDUSRTIMER
 40
0.0
  9
$USRTIMER
 70
     1
  9
$ANGBASE
 50
0.0
  9
$ANGDIR
 70
     0
  9
$PDMODE
 70
     0
  9
$PDSIZE
 40
0.0
  9
$PLINEWID
 40
0.0
  9
$COORDS
 70
     1
  9
$SPLFRAME
 70
     0
  9
$SPLINETYPE
 70
     5
  9
$SPLINESEGS
 70
    20
  9
$ATTDIA
 70
     0
  9
$ATTREQ
 70
     1
  9
$HANDLING
 70
     1
  9
$HANDSEED
  5
31F
  9
$SURFTAB1
 70
     6
  9
$SURFTAB2
 70
     6
  9
$SURFTYPE
 70
     6
  9
$SURFU
 70
     6
  9
$SURFV
 70
     6
  9
$UCSNAME
  2

  9
$UCSORG
 10
0.0
 20
0.0
 30
0.0
  9
$UCSXDIR
 10
1.0
 20
0.0
 30
0.0
  9
$UCSYDIR
 10
0.0
 20
1.0
 30
0.0
  9
$PUCSNAME
  2

  9
$PUCSORG
 10
0.0
 20
0.0
 30
0.0
  9
$PUCSXDIR
 10
1.0
 20
0.0
 30
0.0
  9
$PUCSYDIR
 10
0.0
 20
1.0
 30
0.0
  9
$USERI1
 70
     0
  9
$USERI2
 70
     0
  9
$USERI3
 70
     0
  9
$USERI4
 70
     0
  9
$USERI5
 70
     0
  9
$USERR1
 40
0.0
  9
$USERR2
 40
0.0
  9
$USERR3
 40
0.0
  9
$USERR4
 40
0.0
  9
$USERR5
 40
0.0
  9
$WORLDVIEW
 70
     1
  9
$SHADEDGE
 70
     3
  9
$SHADEDIF
 70
    70
  9
$TILEMODE
 70
     0
  9
$MAXACTVP
 70
    64
  9
$PINSBASE
 10
0.0
 20
0.0
 30
0.0
  9
$PLIMCHECK
 70
     0
  9
$PEXTMIN
 10
0.0
 20
0.05
 30
0.0
  9
$PEXTMAX
 10
297.0
 20
210.05
 30
0.0
  9
$PLIMMIN
 10
0.0
 20
0.05
  9
$PLIMMAX
 10
297.0
 20
210.05
  9
$UNITMODE
 70
     0
  9
$VISRETAIN
 70
     1
  9
$PLINEGEN
 70
     0
  9
$PSLTSCALE
 70
     1
  9
$TREEDEPTH
 70
  3020
  9
$PICKSTYLE
 70
     1
  9
$CMLSTYLE
  2
STANDARD
  9
$CMLJUST
 70
     0
  9
$CMLSCALE
 40
1.0
  9
$PROXYGRAPHICS
 70
     1
  9
$MEASUREMENT
 70
     1
  0
ENDSEC
  0
SECTION
  2
CLASSES
  0
CLASS
  1
ACDBDICTIONARYWDFLT
  2
AcDbDictionaryWithDefault
  3
ObjectDBX Classes
 90
        0
280
     0
281
     0
  0
CLASS
  1
VISUALSTYLE
  2
AcDbVisualStyle
  3
ObjectDBX Classes
 90
     4095
280
     0
281
     0
  0
CLASS
  1
MATERIAL
  2
AcDbMaterial
  3
ObjectDBX Classes
 90
     1153
280
     0
281
     0
  0
CLASS
  1
AEC_VARS_DWG_SETUP
  2
AecDbVarsDwgSetup
  3
AecBase60
 90
      129
280
     0
281
     0
  0
CLASS
  1
AEC_DISP_REP_2D_SECTION
  2
AecDbDispRep2dSection
  3
AecBase60
 90
      129
280
     0
281
     0
  0
CLASS
  1
AEC_DISP_PROPS_2D_SECTION
  2
AecDbDispProps2dSection
  3
AecBase60
 90
      129
280
     0
281
     0
  0
CLASS
  1
AEC_DISP_REP_CLIP_VOLUME_MODEL
  2
AecDbDispRepClipVolModel
  3
AecBase60
 90
      129
280
     0
281
     0
  0
CLASS
  1
AEC_DISP_PROPS_CLIP_VOLUME
  2
AecDbDispPropsClipVol
  3
AecBase60
 90
      129
280
     0
281
     0
  0
CLASS
  1
AEC_DISP_REP_CLIP_VOLUME_PLAN
  2
AecDbDispRepClipVolPlan
  3
AecBase60
 90
      129
280
     0
281
     0
  0
CLASS
  1
AEC_DISP_REP_CLIP_VOLUME_RESULT
  2
AecDbDispRepClipVolResult
  3
AecBase60
 90
      129
280
     0
281
     0
  0
CLASS
  1
AEC_DISP_REP_CLIP_VOLUME_RESULT_SUBDIV
  2
AecDbDispRepClipVolResSubDiv
  3
AecBase60
 90
      129
280
     0
281
     0
  0
CLASS
  1
AEC_DISP_PROPS_CLIP_VOLUME_RESULT
  2
AecDbDispPropsClipVolResSubDiv
  3
AecBase60
 90
      129
280
     0
281
     0
  0
CLASS
  1
AEC_DISP_REP_DISPLAYTHEME
  2
AecDbDispRepDisplayTheme
  3
AecBase60
 90
      129
280
     0
281
     0
  0
CLASS
  1
AEC_DISP_REP_ENT_REF
  2
AecDbDispRepEntRef
  3
AecBase60
 90
      129
280
     0
281
     0
  0
CLASS
  1
AEC_DISP_PROPS_ENT_REF
  2
AecDbDispPropsEntRef
  3
AecBase60
 90
      129
280
     0
281
     0
  0
CLASS
  1
AEC_DISP_REP_LAYOUT_CURVE
  2
AecDbDispRepLayoutCurve
  3
AecBase60
 90
      129
280
     0
281
     0
  0
CLASS
  1
AEC_DISP_PROPS_LAYOUT_CURVE
  2
AecDbDispPropsLayoutCurve
  3
AecBase60
 90
      129
280
     0
281
     0
  0
CLASS
  1
AEC_DISP_REP_LAYOUT_GRID2D
  2
AecDbDispRepLayoutGrid2d
  3
AecBase60
 90
      129
280
     0
281
     0
  0
CLASS
  1
AEC_DISP_PROPS_LAYOUT_GRID2D
  2
AecDbDispPropsLayoutGrid2d
  3
AecBase60
 90
      129
280
     0
281
     0
  0
CLASS
  1
AEC_DISP_REP_LAYOUT_GRID3D
  2
AecDbDispRepLayoutGrid3d
  3
AecBase60
 90
      129
280
     0
281
     0
  0
CLASS
  1
AEC_DISP_PROPS_LAYOUT_GRID3D
  2
AecDbDispPropsLayoutGrid3d
  3
AecBase60
 90
      129
280
     0
281
     0
  0
CLASS
  1
AEC_DISP_REP_MASKBLOCK_REF
  2
AecDbDispRepMaskBlockRef
  3
AecBase60
 90
      129
280
     0
281
     0
  0
CLASS
  1
AEC_DISP_PROPS_MASKBLOCK
  2
AecDbDispPropsMaskBlock
  3
AecBase60
 90
      129
280
     0
281
     0
  0
CLASS
  1
AEC_DISP_REP_MASKBLOCK_REF_RCP
  2
AecDbDispRepMaskBlockRefRcp
  3
AecArchBase60
 90
      129
280
     0
281
     0
  0
CLASS
  1
AEC_DISP_REP_MASS_ELEM_MODEL
  2
AecDbDispRepMassElemModel
  3
AecBase60
 90
      129
280
     0
281
     0
  0
CLASS
  1
AEC_DISP_PROPS_MASS_ELEM_MODEL
  2
AecDbDispPropsMassElem
  3
AecBase60
 90
      129
280
     0
281
     0
  0
CLASS
  1
AEC_DISP_REP_MASS_ELEM_SCHEM
  2
AecDbDispRepMassElemSchem
  3
AecBase60
 90
      129
280
     0
281
     0
  0
CLASS
  1
AEC_DISPREPAECDBDISPREPMASSELEMPLAN50
  2
AecDbDispRepMassElemPlan50
  3
AecArchDACHBase60
 90
      129
280
     0
281
     0
  0
CLASS
  1
AEC_DISPROPSMASSELEMPLANCOMMON
  2
AecDbDispPropsMassElemPlanCommon
  3
AecArchDACHBase60
 90
      129
280
     0
281
     0
  0
CLASS
  1
AEC_DISPREPAECDBDISPREPMASSELEMPLAN100
  2
AecDbDispRepMassElemPlan100
  3
AecArchDACHBase60
 90
      129
280
     0
281
     0
  0
CLASS
  1
AEC_DISP_REP_MASS_ELEM_RCP
  2
AecDbDispRepMassElemRcp
  3
AecArchBase60
 90
      129
280
     0
281
     0
  0
CLASS
  1
AEC_DISP_REP_MASS_GROUP_MODEL
  2
AecDbDispRepMassGroupModel
  3
AecBase60
 90
      129
280
     0
281
     0
  0
CLASS
  1
AEC_DISP_PROPS_MASS_GROUP
  2
AecDbDispPropsMassGroup
  3
AecBase60
 90
      129
280
     0
281
     0
  0
CLASS
  1
AEC_DISP_REP_MASS_GROUP_PLAN
  2
AecDbDispRepMassGroupPlan
  3
AecBase60
 90
      129
280
     0
281
     0
  0
CLASS
  1
AEC_DISPREPAECDBDISPREPMASSGROUPPLAN50
  2
AecDbDispRepMassGroupPlan50
  3
AecArchDACHBase60
 90
      129
280
     0
281
     0
  0
CLASS
  1
AEC_DISPROPSMASSGROUPPLANCOMMON
  2
AecDbDispPropsMassGroupPlanCommon
  3
AecArchDACHBase60
 90
      129
280
     0
281
     0
  0
CLASS
  1
AEC_DISPREPAECDBDISPREPMASSGROUPPLAN100
  2
AecDbDispRepMassGroupPlan100
  3
AecArchDACHBase60
 90
      129
280
     0
281
     0
  0
CLASS
  1
AEC_DISP_REP_MASS_GROUP_RCP
  2
AecDbDispRepMassGroupRcp
  3
AecArchBase60
 90
      129
280
     0
281
     0
  0
CLASS
  1
AEC_DISP_REP_MVBLOCK_REF
  2
AecDbDispRepMvBlockRef
  3
AecBase60
 90
      129
280
     0
281
     0
  0
CLASS
  1
AEC_DISP_REP_MVBLOCK_REF_MODEL
  2
AecDbDispRepMvBlockRefModel
  3
AecBase60
 90
      129
280
     0
281
     0
  0
CLASS
  1
AEC_AECDBDISPREPMVBLOCKREFPLAN100
  2
AecDbDispRepMvBlockRefPlan100
  3
AecBase60
 90
      129
280
     0
281
     0
  0
CLASS
  1
AEC_AECDBDISPREPMVBLOCKREFPLAN50
  2
AecDbDispRepMvBlockRefPlan50
  3
AecBase60
 90
      129
280
     0
281
     0
  0
CLASS
  1
AEC_DISP_REP_POLYGON_MODEL
  2
AecDbDispRepPolygonModel
  3
AecBase60
 90
      129
280
     0
281
     0
  0
CLASS
  1
AEC_DISP_PROPS_POLYGON_MODEL
  2
AecDbDispPropsPolygonModel
  3
AecBase60
 90
      129
280
     0
281
     0
  0
CLASS
  1
AEC_DISP_REP_POLYGON_TRUECOLOUR
  2
AecDbDispRepPolygonTrueColour
  3
AecBase60
 90
      129
280
     0
281
     0
  0
CLASS
  1
AEC_DISP_PROPS_POLYGON_TRUECOLOUR
  2
AecDbDispPropsPolygonTrueColour
  3
AecBase60
 90
      129
280
     0
281
     0
  0
CLASS
  1
AEC_DISP_REP_SLICE
  2
AecDbDispRepSlice
  3
AecBase60
 90
      129
280
     0
281
     0
  0
CLASS
  1
AEC_DISP_PROPS_SLICE
  2
AecDbDispPropsSlice
  3
AecBase60
 90
      129
280
     0
281
     0
  0
CLASS
  1
AEC_DISP_REP_ANCHOR
  2
AecDbDispRepAnchor
  3
AecBase60
 90
      129
280
     0
281
     0
  0
CLASS
  1
AEC_DISP_REP_ANCHOR_ENT_TO_NODE
  2
AecDbDispRepAnchorEntToNode
  3
AecBase60
 90
      129
280
     0
281
     0
  0
CLASS
  1
AEC_DISP_PROPS_ENT
  2
AecDbDispPropsEnt
  3
AecBase60
 90
      129
280
     0
281
     0
  0
CLASS
  1
AEC_DISP_REP_MATERIAL
  2
AecDbDispRepMaterial
  3
AecBase60
 90
      129
280
     0
281
     0
  0
CLASS
  1
AEC_DISP_PROPS_MATERIAL
  2
AecDbDispPropsMaterial
  3
AecBase60
 90
      129
280
     0
281
     0
  0
CLASS
  1
AEC_DISP_REP_EDITINPLACEPROFILE
  2
AecDbDispRepEditInPlaceProfile
  3
AecBase60
 90
      129
280
     0
281
     0
  0
CLASS
  1
AEC_DISP_PROPS_EDITINPLACEPROFILE_MODEL
  2
AecDbDispPropsEditInPlaceProfile
  3
AecBase60
 90
      129
280
     0
281
     0
  0
CLASS
  1
AEC_VARS_ARCHBASE
  2
AecDbVarsArchBase
  3
AecArchBase60
 90
      129
280
     0
281
     0
  0
CLASS
  1
AEC_DISP_REP_BDG_ELEVLINE_PLAN
  2
AecDbDispRepBdgElevLinePlan
  3
AecArchBase60
 90
      129
280
     0
281
     0
  0
CLASS
  1
AEC_DISP_REP_BDG_ELEVLINE_MODEL
  2
AecDbDispRepBdgElevLineModel
  3
AecArchBase60
 90
      129
280
     0
281
     0
  0
CLASS
  1
AEC_DISP_REP_BDG_ELEVLINE_RCP
  2
AecDbDispRepBdgElevLineRcp
  3
AecArchBase60
 90
      129
280
     0
281
     0
  0
CLASS
  1
AEC_AECDBDISPREPBDGELEVLINEPLAN100
  2
AecDbDispRepBdgElevLinePlan100
  3
AecBase60
 90
      129
280
     0
281
     0
  0
CLASS
  1
AEC_AECDBDISPREPBDGELEVLINEPLAN50
  2
AecDbDispRepBdgElevLinePlan50
  3
AecBase60
 90
      129
280
     0
281
     0
  0
CLASS
  1
AEC_DISP_REP_BDG_SECTIONLINE_MODEL
  2
AecDbDispRepBdgSectionLineModel
  3
AecArchBase60
 90
      129
280
     0
281
     0
  0
CLASS
  1
AEC_DISP_REP_BDG_SECTIONLINE_PLAN
  2
AecDbDispRepBdgSectionLinePlan
  3
AecArchBase60
 90
      129
280
     0
281
     0
  0
CLASS
  1
AEC_DISP_REP_BDG_SECTIONLINE_RCP
  2
AecDbDispRepBdgSectionLineRcp
  3
AecArchBase60
 90
      129
280
     0
281
     0
  0
CLASS
  1
AEC_AECDBDISPREPBDGSECTIONLINEPLAN100
  2
AecDbDispRepBdgSectionLinePlan100
  3
AecBase60
 90
      129
280
     0
281
     0
  0
CLASS
  1
AEC_AECDBDISPREPBDGSECTIONLINEPLAN50
  2
AecDbDispRepBdgSectionLinePlan50
  3
AecBase60
 90
      129
280
     0
281
     0
  0
CLASS
  1
AEC_DISP_REP_BDG_SECTION_SUBDIV
  2
AecDbDispRepBdgSectionSubDiv
  3
AecArchBase60
 90
      129
280
     0
281
     0
  0
CLASS
  1
AEC_DISP_REP_BDG_SECTION_MODEL
  2
AecDbDispRepBdgSectionModel
  3
AecArchBase60
 90
      129
280
     0
281
     0
  0
CLASS
  1
AEC_DISP_REP_CEILING_GRID
  2
AecDbDispRepCeilingGrid
  3
AecArchBase60
 90
      893
280
     0
281
     0
  0
CLASS
  1
AEC_DISP_REP_CEILING_GRID_MODEL
  2
AecDbDispRepCeilingGridModel
  3
AecArchBase60
 90
      129
280
     0
281
     0
  0
CLASS
  1
AEC_DISP_REP_CEILING_GRID_RCP
  2
AecDbDispRepCeilingGridRcp
  3
AecArchBase60
 90
      129
280
     0
281
     0
  0
CLASS
  1
AEC_AECDBDISPREPCEILINGGRIDPLAN100
  2
AecDbDispRepCeilingGridPlan100
  3
AecBase60
 90
      129
280
     0
281
     0
  0
CLASS
  1
AEC_AECDBDISPREPCEILINGGRIDPLAN50
  2
AecDbDispRepCeilingGridPlan50
  3
AecBase60
 90
      129
280
     0
281
     0
  0
CLASS
  1
AEC_DISP_REP_CURTAIN_WALL_LAYOUT_MODEL
  2
AecDbDispRepCurtainWallLayoutModel
  3
AecArchBase60
 90
      129
280
     0
281
     0
  0
CLASS
  1
AEC_DISP_PROPS_GRID_ASSEMBLY_MODEL
  2
AecDbDispPropsGridAssemblyModel
  3
AecArchBase60
 90
      129
280
     0
281
     0
  0
CLASS
  1
AEC_DISP_REP_CURTAIN_WALL_LAYOUT_PLAN
  2
AecDbDispRepCurtainWallLayoutPlan
  3
AecArchBase60
 90
      129
280
     0
281
     0
  0
CLASS
  1
AEC_DISP_PROPS_GRID_ASSEMBLY_PLAN
  2
AecDbDispPropsGridAssemblyPlan
  3
AecArchBase60
 90
      129
280
     0
281
     0
  0
CLASS
  1
AEC_AECDBDISPREPCURTAINWALLLAYOUTPLAN100
  2
AecDbDispRepCurtainWallLayoutPlan100
  3
AecBase60
 90
      129
280
     0
281
     0
  0
CLASS
  1
AEC_AECDBDISPREPCURTAINWALLLAYOUTPLAN50
  2
AecDbDispRepCurtainWallLayoutPlan50
  3
AecBase60
 90
      129
280
     0
281
     0
  0
CLASS
  1
AEC_DISP_REP_CURTAIN_WALL_UNIT_MODEL
  2
AecDbDispRepCurtainWallUnitModel
  3
AecArchBase60
 90
      129
280
     0
281
     0
  0
CLASS
  1
AEC_DISP_REP_CURTAIN_WALL_UNIT_PLAN
  2
AecDbDispRepCurtainWallUnitPlan
  3
AecArchBase60
 90
      129
280
     0
281
     0
  0
CLASS
  1
AEC_AECDBDISPREPCURTAINWALLUNITPLAN100
  2
AecDbDispRepCurtainWallUnitPlan100
  3
AecBase60
 90
      129
280
     0
281
     0
  0
CLASS
  1
AEC_AECDBDISPREPCURTAINWALLUNITPLAN50
  2
AecDbDispRepCurtainWallUnitPlan50
  3
AecBase60
 90
      129
280
     0
281
     0
  0
CLASS
  1
AEC_DISP_REP_DOOR_MODEL
  2
AecDbDispRepDoorModel
  3
AecArchBase60
 90
      129
280
     0
281
     0
  0
CLASS
  1
AEC_DISP_PROPS_DOOR
  2
AecDbDispPropsDoor
  3
AecArchBase60
 90
      129
280
     0
281
     0
  0
CLASS
  1
AEC_DISP_REP_DOOR_ELEV
  2
AecDbDispRepDoorElev
  3
AecArchBase60
 90
      129
280
     0
281
     0
  0
CLASS
  1
AEC_DISP_REP_DOOR_PLAN
  2
AecDbDispRepDoorPlan
  3
AecArchBase60
 90
      129
280
     0
281
     0
  0
CLASS
  1
AEC_DISP_REP_DOOR_NOMINAL
  2
AecDbDispRepDoorNominal
  3
AecArchBase60
 90
      129
280
     0
281
     0
  0
CLASS
  1
AEC_DISP_PROPS_DOOR_NOMINAL
  2
AecDbDispPropsDoorNominal
  3
AecArchBase60
 90
      129
280
     0
281
     0
  0
CLASS
  1
AEC_DISP_REP_DOOR_THRESHOLD_PLAN
  2
AecDbDispRepDoorThresholdPlan
  3
AecArchBase60
 90
      129
280
     0
281
     0
  0
CLASS
  1
AEC_DISP_PROPS_DOOR_THRESHOLD_PLAN
  2
AecDbDispPropsDoorThresholdPlan
  3
AecArchBase60
 90
      129
280
     0
281
     0
  0
CLASS
  1
AEC_DISP_REP_DOOR_PLAN_50
  2
AecDbDispRepDoorPlan50
  3
AecArchDACHBase60
 90
      129
280
     0
281
     0
  0
CLASS
  1
AEC_DISP_PROPS_DOOR_PLAN_50
  2
AecDbDispPropsDoorPlan50
  3
AecArchDACHBase60
 90
      129
280
     0
281
     0
  0
CLASS
  1
AEC_DISP_REP_DOOR_PLAN_HEKTO
  2
AecDbDispRepDoorPlanHekto
  3
AecArchDACHBase60
 90
      129
280
     0
281
     0
  0
CLASS
  1
AEC_DISP_PROPS_DOOR_PLAN_100
  2
AecDbDispPropsDoorPlan100
  3
AecArchDACHBase60
 90
      129
280
     0
281
     0
  0
CLASS
  1
AEC_DISP_REP_DOOR_RCP
  2
AecDbDispRepDoorRcp
  3
AecArchBase60
 90
      129
280
     0
281
     0
  0
CLASS
  1
AEC_DISP_REP_DOOR_THRESHOLD_SYMBOL_PLAN
  2
AecDbDispRepDoorThresholdSymbolPlan
  3
AecArchDACHBase60
 90
      129
280
     0
281
     0
  0
CLASS
  1
AEC_DISP_PROPS_DOOR_THRESHOLD_SYMBOL_PLAN
  2
AecDbDispPropsDoorThresholdSymbolPlan
  3
AecArchDACHBase60
 90
      129
280
     0
281
     0
  0
CLASS
  1
AEC_DISP_REP_OPENING
  2
AecDbDispRepOpening
  3
AecArchBase60
 90
      129
280
     0
281
     0
  0
CLASS
  1
AEC_DISP_PROPS_OPENING
  2
AecDbDispPropsOpening
  3
AecArchBase60
 90
      129
280
     0
281
     0
  0
CLASS
  1
AEC_DISP_REP_OPENING_MODEL
  2
AecDbDispRepOpeningModel
  3
AecArchBase60
 90
      129
280
     0
281
     0
  0
CLASS
  1
AEC_DISPREPAECDBDISPREPOPENINGPLAN100
  2
AecDbDispRepOpeningPlan100
  3
AecArchDACHBase60
 90
      129
280
     0
281
     0
  0
CLASS
  1
AEC_DISPROPSOPENINGPLANCOMMONHATCHED
  2
AecDbDispPropsOpeningPlanCommonHatched
  3
AecArchDACHBase60
 90
      129
280
     0
281
     0
  0
CLASS
  1
AEC_DISPREPAECDBDISPREPOPENINGPLAN50
  2
AecDbDispRepOpeningPlan50
  3
AecArchDACHBase60
 90
      129
280
     0
281
     0
  0
CLASS
  1
AEC_DISPREPAECDBDISPREPOPENINGPLANREFLECTED
  2
AecDbDispRepOpeningPlanReflected
  3
AecArchDACHBase60
 90
      129
280
     0
281
     0
  0
CLASS
  1
AEC_DISPROPSOPENINGPLANCOMMON
  2
AecDbDispPropsOpeningPlanCommon
  3
AecArchDACHBase60
 90
      129
280
     0
281
     0
  0
CLASS
  1
AEC_DISPREPAECDBDISPREPOPENINGSILLPLAN
  2
AecDbDispRepOpeningSillPlan
  3
AecArchDACHBase60
 90
      129
280
     0
281
     0
  0
CLASS
  1
AEC_DISPROPSOPENINGSILLPLAN
  2
AecDbDispPropsOpeningSillPlan
  3
AecArchDACHBase60
 90
      129
280
     0
281
     0
  0
CLASS
  1
AEC_DISP_REP_RAILING_MODEL
  2
AecDbDispRepRailingModel
  3
AecArchBase60
 90
      129
280
     0
281
     0
  0
CLASS
  1
AEC_DISP_PROPS_RAILING_MODEL
  2
AecDbDispPropsRailingModel
  3
AecArchBase60
 90
      129
280
     0
281
     0
  0
CLASS
  1
AEC_DISP_REP_RAILING_PLAN
  2
AecDbDispRepRailingPlan
  3
AecArchBase60
 90
      129
280
     0
281
     0
  0
CLASS
  1
AEC_DISP_PROPS_RAILING_PLAN
  2
AecDbDispPropsRailingPlan
  3
AecArchBase60
 90
      129
280
     0
281
     0
  0
CLASS
  1
AEC_DISP_REP_RAILING_PLAN_100
  2
AecDbDispRepRailingPlan100
  3
AecArchDACHBase60
 90
      129
280
     0
281
     0
  0
CLASS
  1
AEC_DISP_ROPS_RAILING_PLAN_100
  2
AecDbDispPropsRailingPlan100
  3
AecArchDACHBase60
 90
      129
280
     0
281
     0
  0
CLASS
  1
AEC_DISP_REP_RAILING_PLAN_50
  2
AecDbDispRepRailingPlan50
  3
AecArchDACHBase60
 90
      129
280
     0
281
     0
  0
CLASS
  1
AEC_DISP_ROPS_RAILING_PLAN_50
  2
AecDbDispPropsRailingPlan50
  3
AecArchDACHBase60
 90
      129
280
     0
281
     0
  0
CLASS
  1
AEC_DISP_REP_ROOF_MODEL
  2
AecDbDispRepRoofModel
  3
AecArchBase60
 90
      129
280
     0
281
     0
  0
CLASS
  1
AEC_DISP_PROPS_ROOF
  2
AecDbDispPropsRoof
  3
AecArchBase60
 90
      129
280
     0
281
     0
  0
CLASS
  1
AEC_DISP_REP_ROOF_PLAN
  2
AecDbDispRepRoofPlan
  3
AecArchBase60
 90
      129
280
     0
281
     0
  0
CLASS
  1
AEC_DISP_REP_ROOF_RCP
  2
AecDbDispRepRoofRcp
  3
AecArchBase60
 90
      129
280
     0
281
     0
  0
CLASS
  1
AEC_AECDBDISPREPROOFPLAN100
  2
AecDbDispRepRoofPlan100
  3
AecBase60
 90
      129
280
     0
281
     0
  0
CLASS
  1
AEC_AECDBDISPREPROOFPLAN50
  2
AecDbDispRepRoofPlan50
  3
AecBase60
 90
      129
280
     0
281
     0
  0
CLASS
  1
AEC_DISP_REP_ROOFSLAB_MODEL
  2
AecDbDispRepRoofSlabModel
  3
AecArchBase60
 90
      129
280
     0
281
     0
  0
CLASS
  1
AEC_DISP_PROPS_ROOFSLAB
  2
AecDbDispPropsRoofSlab
  3
AecArchBase60
 90
      129
280
     0
281
     0
  0
CLASS
  1
AEC_DISP_REP_ROOFSLAB_PLAN
  2
AecDbDispRepRoofSlabPlan
  3
AecArchBase60
 90
      129
280
     0
281
     0
  0
CLASS
  1
AEC_DISP_PROPS_ROOFSLAB_PLAN
  2
AecDbDispPropsRoofSlabPlan
  3
AecArchBase60
 90
      129
280
     0
281
     0
  0
CLASS
  1
AEC_AECDBDISPREPROOFSLABPLAN100
  2
AecDbDispRepRoofSlabPlan100
  3
AecBase60
 90
      129
280
     0
281
     0
  0
CLASS
  1
AEC_AECDBDISPREPROOFSLABPLAN50
  2
AecDbDispRepRoofSlabPlan50
  3
AecBase60
 90
      129
280
     0
281
     0
  0
CLASS
  1
AEC_DISP_REP_SLAB_MODEL
  2
AecDbDispRepSlabModel
  3
AecArchBase60
 90
      129
280
     0
281
     0
  0
CLASS
  1
AEC_DISP_PROPS_SLAB
  2
AecDbDispPropsSlab
  3
AecArchBase60
 90
      129
280
     0
281
     0
  0
CLASS
  1
AEC_DISP_REP_SLAB_PLAN
  2
AecDbDispRepSlabPlan
  3
AecArchBase60
 90
      129
280
     0
281
     0
  0
CLASS
  1
AEC_DISP_PROPS_SLAB_PLAN
  2
AecDbDispPropsSlabPlan
  3
AecArchBase60
 90
      129
280
     0
281
     0
  0
CLASS
  1
AEC_AECDBDISPREPSLABPLAN100
  2
AecDbDispRepSlabPlan100
  3
AecBase60
 90
      129
280
     0
281
     0
  0
CLASS
  1
AEC_AECDBDISPREPSLABPLAN50
  2
AecDbDispRepSlabPlan50
  3
AecBase60
 90
      129
280
     0
281
     0
  0
CLASS
  1
AEC_DISP_REP_SPACE_MODEL
  2
AecDbDispRepSpaceModel
  3
AecArchBase60
 90
      129
280
     0
281
     0
  0
CLASS
  1
AEC_DISP_PROPS_SPACE_MODEL
  2
AecDbDispPropsSpaceModel
  3
AecArchBase60
 90
      129
280
     0
281
     0
  0
CLASS
  1
AEC_DISP_REP_SPACE_PLAN
  2
AecDbDispRepSpacePlan
  3
AecArchBase60
 90
      129
280
     0
281
     0
  0
CLASS
  1
AEC_DISP_PROPS_SPACE_PLAN
  2
AecDbDispPropsSpacePlan
  3
AecArchBase60
 90
      129
280
     0
281
     0
  0
CLASS
  1
AEC_DISP_REP_SPACE_RCP
  2
AecDbDispRepSpaceRcp
  3
AecArchBase60
 90
      129
280
     0
281
     0
  0
CLASS
  1
AEC_DISP_REP_SPACE_VOLUME
  2
AecDbDispRepSpaceVolume
  3
AecArchBase60
 90
      129
280
     0
281
     0
  0
CLASS
  1
AEC_DISP_REP_SPACE_DECOMPOSED
  2
AecDbDispRepSpaceDecomposed
  3
AecArchBase60
 90
      129
280
     0
281
     0
  0
CLASS
  1
AEC_DISP_PROPS_SPACE_DECOMPOSED
  2
AecDbDispPropsSpaceDecomposed
  3
AecArchBase60
 90
      129
280
     0
281
     0
  0
CLASS
  1
AEC_AECDBDISPREPSPACEPLAN100
  2
AecDbDispRepSpacePlan100
  3
AecBase60
 90
      129
280
     0
281
     0
  0
CLASS
  1
AEC_AECDBDISPREPSPACEPLAN50
  2
AecDbDispRepSpacePlan50
  3
AecBase60
 90
      129
280
     0
281
     0
  0
CLASS
  1
AEC_DISP_REP_STAIR_MODEL
  2
AecDbDispRepStairModel
  3
AecArchBase60
 90
      129
280
     0
281
     0
  0
CLASS
  1
AEC_DISP_PROPS_STAIR_MODEL
  2
AecDbDispPropsStairModel
  3
AecArchBase60
 90
      129
280
     0
281
     0
  0
CLASS
  1
AEC_DISP_REP_STAIR_PLAN
  2
AecDbDispRepStairPlan
  3
AecArchBase60
 90
      129
280
     0
281
     0
  0
CLASS
  1
AEC_DISP_PROPS_STAIR_PLAN
  2
AecDbDispPropsStairPlan
  3
AecArchBase60
 90
      129
280
     0
281
     0
  0
CLASS
  1
AEC_DISP_REP_STAIR_RCP
  2
AecDbDispRepStairRcp
  3
AecArchBase60
 90
      129
280
     0
281
     0
  0
CLASS
  1
AEC_DISP_REP_STAIR_PLAN_100
  2
AecDbDispRepStairPlan100
  3
AecArchDACHBase60
 90
      129
280
     0
281
     0
  0
CLASS
  1
AEC_DISP_ROPS_STAIR_PLAN_100
  2
AecDbDispPropsStairPlan100
  3
AecArchDACHBase60
 90
      129
280
     0
281
     0
  0
CLASS
  1
AEC_DISP_REP_STAIR_PLAN_50
  2
AecDbDispRepStairPlan50
  3
AecArchDACHBase60
 90
      129
280
     0
281
     0
  0
CLASS
  1
AEC_DISP_ROPS_STAIR_PLAN_50
  2
AecDbDispPropsStairPlan50
  3
AecArchDACHBase60
 90
      129
280
     0
281
     0
  0
CLASS
  1
AEC_DISP_REP_STAIR_PLAN_OVERLAPPING
  2
AecDbDispRepStairPlanOverlapping
  3
AecArchBase60
 90
      129
280
     0
281
     0
  0
CLASS
  1
AEC_DISP_PROPS_STAIR_PLAN_OVERLAPPING
  2
AecDbDispPropsStairPlanOverlapping
  3
AecArchBase60
 90
      129
280
     0
281
     0
  0
CLASS
  1
AEC_DISP_REP_WALL_GRAPH
  2
AecDbDispRepWallGraph
  3
AecArchBase60
 90
      129
280
     0
281
     0
  0
CLASS
  1
AEC_DISP_PROPS_WALL_GRAPH
  2
AecDbDispPropsWallGraph
  3
AecArchBase60
 90
      129
280
     0
281
     0
  0
CLASS
  1
AEC_DISP_REP_WALL_MODEL
  2
AecDbDispRepWallModel
  3
AecArchBase60
 90
      129
280
     0
281
     0
  0
CLASS
  1
AEC_DISP_PROPS_WALL_MODEL
  2
AecDbDispPropsWallModel
  3
AecArchBase60
 90
      129
280
     0
281
     0
  0
CLASS
  1
AEC_DISP_REP_WALL_PLAN
  2
AecDbDispRepWallPlan
  3
AecArchBase60
 90
      129
280
     0
281
     0
  0
CLASS
  1
AEC_DISP_PROPS_WALL_PLAN
  2
AecDbDispPropsWallPlan
  3
AecArchBase60
 90
      129
280
     0
281
     0
  0
CLASS
  1
AEC_DISP_REP_WALL_RCP
  2
AecDbDispRepWallRcp
  3
AecArchBase60
 90
      129
280
     0
281
     0
  0
CLASS
  1
AEC_DISP_REP_WALL_SCHEM
  2
AecDbDispRepWallSchem
  3
AecArchBase60
 90
      129
280
     0
281
     0
  0
CLASS
  1
AEC_DISP_PROPS_WALL_SCHEM
  2
AecDbDispPropsWallSchem
  3
AecArchBase60
 90
      129
280
     0
281
     0
  0
CLASS
  1
AEC_AECDBDISPREPWALLPLAN100
  2
AecDbDispRepWallPlan100
  3
AecBase60
 90
      129
280
     0
281
     0
  0
CLASS
  1
AEC_AECDBDISPREPWALLPLAN50
  2
AecDbDispRepWallPlan50
  3
AecBase60
 90
      129
280
     0
281
     0
  0
CLASS
  1
AEC_DISP_REP_WINDOW_MODEL
  2
AecDbDispRepWindowModel
  3
AecArchBase60
 90
      129
280
     0
281
     0
  0
CLASS
  1
AEC_DISP_PROPS_WINDOW
  2
AecDbDispPropsWindow
  3
AecArchBase60
 90
      129
280
     0
281
     0
  0
CLASS
  1
AEC_DISP_REP_WINDOW_ELEV
  2
AecDbDispRepWindowElev
  3
AecArchBase60
 90
      129
280
     0
281
     0
  0
CLASS
  1
AEC_DISP_REP_WINDOW_PLAN
  2
AecDbDispRepWindowPlan
  3
AecArchBase60
 90
      129
280
     0
281
     0
  0
CLASS
  1
AEC_DISP_REP_WINDOW_NOMINAL
  2
AecDbDispRepWindowNominal
  3
AecArchBase60
 90
      129
280
     0
281
     0
  0
CLASS
  1
AEC_DISP_PROPS_WINDOW_NOMINAL
  2
AecDbDispPropsWindowNominal
  3
AecArchBase60
 90
      129
280
     0
281
     0
  0
CLASS
  1
AEC_DISP_REP_WINDOW_RCP
  2
AecDbDispRepWindowRcp
  3
AecArchBase60
 90
      129
280
     0
281
     0
  0
CLASS
  1
AEC_DISP_REP_WINDOW_SILL_PLAN
  2
AecDbDispRepWindowSillPlan
  3
AecArchBase60
 90
      129
280
     0
281
     0
  0
CLASS
  1
AEC_DISP_PROPS_WINDOW_SILL_PLAN
  2
AecDbDispPropsWindowSillPlan
  3
AecArchBase60
 90
      129
280
     0
281
     0
  0
CLASS
  1
AEC_DISP_REP_WINDOW_PLAN_100
  2
AecDbDispRepWindowPlan100
  3
AecArchDACHBase60
 90
      129
280
     0
281
     0
  0
CLASS
  1
AEC_DISP_PROPS_WINDOW_PLAN_100
  2
AecDbDispPropsWindowPlan100
  3
AecArchDACHBase60
 90
      129
280
     0
281
     0
  0
CLASS
  1
AEC_DISP_REP_WINDOW_PLAN_50
  2
AecDbDispRepWindowPlan50
  3
AecArchDACHBase60
 90
      129
280
     0
281
     0
  0
CLASS
  1
AEC_DISP_PROPS_WINDOW_PLAN_50
  2
AecDbDispPropsWindowPlan50
  3
AecArchDACHBase60
 90
      129
280
     0
281
     0
  0
CLASS
  1
AEC_DISP_REP_WINDOW_ASSEMBLY_MODEL
  2
AecDbDispRepWindowAssemblyModel
  3
AecArchBase60
 90
      129
280
     0
281
     0
  0
CLASS
  1
AEC_DISP_REP_WINDOW_ASSEMBLY_PLAN
  2
AecDbDispRepWindowAssemblyPlan
  3
AecArchBase60
 90
      129
280
     0
281
     0
  0
CLASS
  1
AEC_DISP_REP_WINDOWASSEMBLY_SILL_PLAN
  2
AecDbDispRepWindowAssemblySillPlan
  3
AecArchBase60
 90
      129
280
     0
281
     0
  0
CLASS
  1
AEC_DISP_PROPS_WINDOW_ASSEMBLY_SILL_PLAN
  2
AecDbDispPropsWindowAssemblySillPlan
  3
AecArchBase60
 90
      129
280
     0
281
     0
  0
CLASS
  1
AEC_AECDBDISPREPWINDOWASSEMBLYPLAN100
  2
AecDbDispRepWindowAssemblyPlan100
  3
AecBase60
 90
      129
280
     0
281
     0
  0
CLASS
  1
AEC_AECDBDISPREPWINDOWASSEMBLYPLAN50
  2
AecDbDispRepWindowAssemblyPlan50
  3
AecBase60
 90
      129
280
     0
281
     0
  0
CLASS
  1
AEC_DB_DISP_REP_DIM_GROUP_PLAN
  2
AecDbDispRepDimGroupPlan
  3
AecArchDACHBase60
 90
      129
280
     0
281
     0
  0
CLASS
  1
AEC_DISP_PROPS_DIM
  2
AecDbDispPropsDimGroup
  3
AecArchDACHBase60
 90
      129
280
     0
281
     0
  0
CLASS
  1
AEC_DB_DISP_REP_DIM_GROUP_PLAN100
  2
AecDbDispRepDimGroupPlan100
  3
AecArchDACHBase60
 90
      129
280
     0
281
     0
  0
CLASS
  1
AEC_DB_DISP_REP_DIM_GROUP_PLAN50
  2
AecDbDispRepDimGroupPlan50
  3
AecArchDACHBase60
 90
      129
280
     0
281
     0
  0
CLASS
  1
AEC_DISP_REP_SCHEDULE_TABLE
  2
AecDbDispRepScheduleTable
  3
AecSchedule50
 90
      129
280
     0
281
     0
  0
CLASS
  1
AEC_DISP_PROPS_SCHEDULE_TABLE
  2
AecDbDispPropsScheduleTable
  3
AecSchedule50
 90
      129
280
     0
281
     0
  0
CLASS
  1
AEC_DISP_REP_ANCHOR_TAG_TO_ENT
  2
AecDbDispRepAnchorTagToEnt
  3
AecScheduleData60
 90
      129
280
     0
281
     0
  0
CLASS
  1
AEC_DISP_REP_ANCHOR_EXT_TAG_TO_ENT
  2
AecDbDispRepAnchorExtendedTagToEnt
  3
AecScheduleData60
 90
      129
280
     0
281
     0
  0
CLASS
  1
AEC_DISP_REP_SET
  2
AecDbDispRepSet
  3
AecBase60
 90
      129
280
     0
281
     0
  0
CLASS
  1
AECS_DISP_REP_MEMBER_MODEL_DESIGN
  2
AecsDbDispRepMemberModelDesign
  3
AecStructureBase60
 90
      129
280
     0
281
     0
  0
CLASS
  1
AECS_DISP_PROPS_MEMBER
  2
AecsDbDispPropsMember
  3
AecStructureBase60
 90
      129
280
     0
281
     0
  0
CLASS
  1
AECS_DISP_REP_MEMBER_PLAN_DESIGN
  2
AecsDbDispRepMemberPlanDesign
  3
AecStructureBase60
 90
      129
280
     0
281
     0
  0
CLASS
  1
AECS_DISP_PROPS_MEMBER_PLAN
  2
AecsDbDispPropsMemberPlan
  3
AecStructureBase60
 90
      129
280
     0
281
     0
  0
CLASS
  1
AEC_DISP_REP_CONFIG
  2
AecDbDispRepConfig
  3
AecBase60
 90
      129
280
     0
281
     0
  0
CLASS
  1
MLEADERSTYLE
  2
AcDbMLeaderStyle
  3
ACDB_MLEADERSTYLE_CLASS
 90
     4095
280
     0
281
     0
  0
CLASS
  1
AEC_WALL_STYLE
  2
AecDbWallStyle
  3
AecArchBase60
 90
      129
280
     0
281
     0
  0
CLASS
  1
AEC_CLEANUP_GROUP_DEF
  2
AecDbCleanupGroupDef
  3
AecArchBase60
 90
      129
280
     0
281
     0
  0
CLASS
  1
AEC_ENDCAP_STYLE
  2
AecDbEndcapStyle
  3
AecArchBase60
 90
      129
280
     0
281
     0
  0
CLASS
  1
AEC_FRAME_DEF
  2
AecDbOpeningEndcapStyle
  3
AecArchBase60
 90
      129
280
     0
281
     0
  0
CLASS
  1
AEC_MATERIAL_DEF
  2
AecDbMaterialDef
  3
AecBase60
 90
      129
280
     0
281
     0
  0
CLASS
  1
TABLESTYLE
  2
AcDbTableStyle
  3
ObjectDBX Classes
 90
     4095
280
     0
281
     0
  0
CLASS
  1
TCOPTIONALDATA
  2
TcOptionalData
  3
ExTcadCustObjs|Description: TurboCAD extension data object
 90
     4095
280
     0
281
     0
  0
CLASS
  1
DIMASSOC
  2
AcDbDimAssoc
  3
"AcDbDimAssoc|Product Desc:     AcDim ARX App For Dimension|Company:          Autodesk, Inc.|WEB Address:      www.autodesk.com"
 90
        0
280
     0
281
     0
  0
CLASS
  1
DICTIONARYVAR
  2
AcDbDictionaryVar
  3
ObjectDBX Classes
 90
        0
280
     0
281
     0
  0
CLASS
  1
XRECORD
  2
AcDbXrecord
  3
AutoCAD 2000
 90
        0
280
     0
281
     0
  0
CLASS
  1
LWPOLYLINE
  2
AcDbPolyline
  3
AutoCAD 2000
 90
        0
280
     0
281
     1
  0
CLASS
  1
HATCH
  2
AcDbHatch
  3
AutoCAD 2000
 90
        0
280
     0
281
     1
  0
CLASS
  1
ACDBPLACEHOLDER
  2
AcDbPlaceHolder
  3
ObjectDBX Classes
 90
        0
280
     0
281
     0
  0
CLASS
  1
LAYOUT
  2
AcDbLayout
  3
ObjectDBX Classes
 90
        0
280
     0
281
     0
  0
ENDSEC
  0
SECTION
  2
TABLES
  0
TABLE
  2
VPORT
  5
8
330
0
100
AcDbSymbolTable
 70
     1
  0
VPORT
  5
29
330
8
100
AcDbSymbolTableRecord
100
AcDbViewportTableRecord
  2
*ACTIVE
 70
     0
 10
0.0
 20
0.0
 11
1.0
 21
1.0
 12
0.0000000000000355
 22
0.0
 13
0.0
 23
0.0
 14
5.0
 24
5.0
 15
5.0
 25
5.0
 16
0.0
 26
0.0
 36
1.0
 17
30.01968797822694
 27
94.2710214238925
 37
0.0
 40
71.71320442982223
 41
1.599755201958384
 42
50.0
 43
0.0
 44
0.0
 50
0.0
 51
0.0
 71
     0
 72
   100
 73
     1
 74
     3
 75
     0
 76
     0
 77
     0
 78
     0
  0
ENDTAB
  0
TABLE
  2
LTYPE
  5
5
330
0
100
AcDbSymbolTable
 70
    23
  0
LTYPE
  5
14
330
5
100
AcDbSymbolTableRecord
100
AcDbLinetypeTableRecord
  2
BYBLOCK
 70
     0
  3

 72
    65
 73
     0
 40
0.0
  0
LTYPE
  5
15
330
5
100
AcDbSymbolTableRecord
100
AcDbLinetypeTableRecord
  2
BYLAYER
 70
     0
  3

 72
    65
 73
     0
 40
0.0
  0
LTYPE
  5
16
330
5
100
AcDbSymbolTableRecord
100
AcDbLinetypeTableRecord
  2
CONTINUOUS
 70
     0
  3
Solid line
 72
    65
 73
     0
 40
0.0
  0
LTYPE
  5
14F
330
5
100
AcDbSymbolTableRecord
100
AcDbLinetypeTableRecord
  2
DURCHGEHEND
 70
     0
  3
Durchgehend
 72
    65
 73
     0
 40
0.0
  0
LTYPE
  5
150
330
5
100
AcDbSymbolTableRecord
100
AcDbLinetypeTableRecord
  2
RAND
 70
     0
  3
Rand
 72
    65
 73
     6
 40
1.75
 49
0.5
 74
     0
 49
-0.25
 74
     0
 49
0.5
 74
     0
 49
-0.25
 74
     0
 49
0.0
 74
     0
 49
-0.25
 74
     0
  0
LTYPE
  5
151
330
5
100
AcDbSymbolTableRecord
100
AcDbLinetypeTableRecord
  2
MITTE
 70
     0
  3
Mitte
 72
    65
 73
     4
 40
2.0
 49
1.25
 74
     0
 49
-0.25
 74
     0
 49
0.25
 74
     0
 49
-0.25
 74
     0
  0
LTYPE
  5
152
330
5
100
AcDbSymbolTableRecord
100
AcDbLinetypeTableRecord
  2
STRICHPUNKT
 70
     0
  3
Strichpunkt
 72
    65
 73
     4
 40
1.0
 49
0.5
 74
     0
 49
-0.25
 74
     0
 49
0.0
 74
     0
 49
-0.25
 74
     0
  0
LTYPE
  5
153
330
5
100
AcDbSymbolTableRecord
100
AcDbLinetypeTableRecord
  2
GESTRICHELT
 70
     0
  3
Gestrichelt
 72
    65
 73
     2
 40
0.75
 49
0.5
 74
     0
 49
-0.25
 74
     0
  0
LTYPE
  5
154
330
5
100
AcDbSymbolTableRecord
100
AcDbLinetypeTableRecord
  2
GETEILT
 70
     0
  3
Geteilt
 72
    65
 73
     6
 40
1.25
 49
0.5
 74
     0
 49
-0.25
 74
     0
 49
0.0
 74
     0
 49
-0.25
 74
     0
 49
0.0
 74
     0
 49
-0.25
 74
     0
  0
LTYPE
  5
155
330
5
100
AcDbSymbolTableRecord
100
AcDbLinetypeTableRecord
  2
PUNKT
 70
     0
  3
Punkt
 72
    65
 73
     2
 40
0.25
 49
0.0
 74
     0
 49
-0.25
 74
     0
  0
LTYPE
  5
156
330
5
100
AcDbSymbolTableRecord
100
AcDbLinetypeTableRecord
  2
VERDECKT
 70
     0
  3
Verdeckt
 72
    65
 73
     2
 40
0.375
 49
0.25
 74
     0
 49
-0.125
 74
     0
  0
LTYPE
  5
157
330
5
100
AcDbSymbolTableRecord
100
AcDbLinetypeTableRecord
  2
$INVISIBLE
 70
     0
  3
$INVISIBLE
 72
    65
 73
     2
 40
200.0
 49
-100.0
 74
     0
 49
-100.0
 74
     0
  0
LTYPE
  5
158
330
5
100
AcDbSymbolTableRecord
100
AcDbLinetypeTableRecord
  2
TEILEN
 70
     0
  3
Teilen
 72
    65
 73
     6
 40
1.25
 49
0.5
 74
     0
 49
-0.25
 74
     0
 49
0.0
 74
     0
 49
-0.25
 74
     0
 49
0.0
 74
     0
 49
-0.25
 74
     0
  0
LTYPE
  5
159
330
5
100
AcDbSymbolTableRecord
100
AcDbLinetypeTableRecord
  2
FORTLAUFEND
 70
     0
  3
Fortlaufend
 72
    65
 73
     0
 40
0.0
  0
LTYPE
  5
15A
330
5
100
AcDbSymbolTableRecord
100
AcDbLinetypeTableRecord
  2
BORDER
 70
     0
  3
BORDER
 72
    65
 73
     6
 40
1.75
 49
0.5
 74
     0
 49
-0.25
 74
     0
 49
0.5
 74
     0
 49
-0.25
 74
     0
 49
0.0
 74
     0
 49
-0.25
 74
     0
  0
LTYPE
  5
15B
330
5
100
AcDbSymbolTableRecord
100
AcDbLinetypeTableRecord
  2
CENTER
 70
     0
  3
CENTER
 72
    65
 73
     4
 40
2.0
 49
1.25
 74
     0
 49
-0.25
 74
     0
 49
0.25
 74
     0
 49
-0.25
 74
     0
  0
LTYPE
  5
15C
330
5
100
AcDbSymbolTableRecord
100
AcDbLinetypeTableRecord
  2
DASHDOT
 70
     0
  3
DASHDOT
 72
    65
 73
     4
 40
1.0
 49
0.5
 74
     0
 49
-0.25
 74
     0
 49
0.0
 74
     0
 49
-0.25
 74
     0
  0
LTYPE
  5
15D
330
5
100
AcDbSymbolTableRecord
100
AcDbLinetypeTableRecord
  2
DASHED
 70
     0
  3
DASHED
 72
    65
 73
     2
 40
0.75
 49
0.5
 74
     0
 49
-0.25
 74
     0
  0
LTYPE
  5
15E
330
5
100
AcDbSymbolTableRecord
100
AcDbLinetypeTableRecord
  2
DIVIDE
 70
     0
  3
DIVIDE
 72
    65
 73
     6
 40
1.25
 49
0.5
 74
     0
 49
-0.25
 74
     0
 49
0.0
 74
     0
 49
-0.25
 74
     0
 49
0.0
 74
     0
 49
-0.25
 74
     0
  0
LTYPE
  5
15F
330
5
100
AcDbSymbolTableRecord
100
AcDbLinetypeTableRecord
  2
DOT
 70
     0
  3
DOT
 72
    65
 73
     2
 40
0.25
 49
0.0
 74
     0
 49
-0.25
 74
     0
  0
LTYPE
  5
160
330
5
100
AcDbSymbolTableRecord
100
AcDbLinetypeTableRecord
  2
HIDDEN
 70
     0
  3
HIDDEN
 72
    65
 73
     2
 40
0.375
 49
0.25
 74
     0
 49
-0.125
 74
     0
  0
LTYPE
  5
161
330
5
100
AcDbSymbolTableRecord
100
AcDbLinetypeTableRecord
  2
PHANTOM
 70
     0
  3
PHANTOM
 72
    65
 73
     6
 40
2.5
 49
1.25
 74
     0
 49
-0.25
 74
     0
 49
0.25
 74
     0
 49
-0.25
 74
     0
 49
0.25
 74
     0
 49
-0.25
 74
     0
  0
LTYPE
  5
162
330
5
100
AcDbSymbolTableRecord
100
AcDbLinetypeTableRecord
  2
$AUXILIARY
 70
     0
  3
$AUXILIARY
 72
    65
 73
     2
 40
0.1
 49
0.05
 74
     0
 49
-0.05
 74
     0
  0
LTYPE
  5
163
330
5
100
AcDbSymbolTableRecord
100
AcDbLinetypeTableRecord
  2
$CONSTRUCTION
 70
     0
  3
$CONSTRUCTION
 72
    65
 73
     4
 40
0.3
 49
0.2
 74
     0
 49
-0.05
 74
     0
 49
0.0
 74
     0
 49
-0.05
 74
     0
  0
LTYPE
  5
164
330
5
100
AcDbSymbolTableRecord
100
AcDbLinetypeTableRecord
  2
$SNAPEXT
 70
     0
  3
$SNAPEXT
 72
    65
 73
     2
 40
0.04
 49
0.02
 74
     0
 49
-0.02
 74
     0
  0
ENDTAB
  0
TABLE
  2
LAYER
  5
2
330
0
100
AcDbSymbolTable
 70
     2
  0
LAYER
  5
10
330
2
100
AcDbSymbolTableRecord
100
AcDbLayerTableRecord
  2
0
 70
     0
 62
   251
  6
DURCHGEHEND
  0
LAYER
  5
277
330
2
100
AcDbSymbolTableRecord
100
AcDbLayerTableRecord
  2
DEFPOINTS
 70
     0
 62
     7
  6
CONTINUOUS
  0
ENDTAB
  0
TABLE
  2
STYLE
  5
3
330
0
100
AcDbSymbolTable
 70
     3
  0
STYLE
  5
11
330
3
100
AcDbSymbolTableRecord
100
AcDbTextStyleTableRecord
  2
STANDARD
 70
     0
 40
0.0
 41
1.0
 50
0.0
 71
     0
 42
3.0
  3
times.ttf
  4

1001
ACAD
1000
Times New Roman
1071
      290
  0
STYLE
  5
24A
330
3
100
AcDbSymbolTableRecord
100
AcDbTextStyleTableRecord
  2
_TCW_TXTSTY_1
 70
     0
 40
4.222222328186035
 41
1.0
 50
0.0
 71
     0
 42
4.222222328186035
  3
courbd.ttf
  4

1001
ACAD
1000
Courier New
1071
 33554466
  0
STYLE
  5
251
330
3
100
AcDbSymbolTableRecord
100
AcDbTextStyleTableRecord
  2
_TCW_TXTSTY_2
 70
     0
 40
4.222222328186035
 41
1.0
 50
0.0
 71
     0
 42
4.222222328186035
  3

  4

1001
ACAD
1000
Courier New
1071
 33554466
  0
ENDTAB
  0
TABLE
  2
VIEW
  5
6
330
0
100
AcDbSymbolTable
 70
     1
  0
VIEW
  5
165
330
6
100
AcDbSymbolTableRecord
100
AcDbViewTableRecord
  2
ANSICHT_0
 70
     0
 40
210.0
 10
148.5
 20
105.0
 41
297.0
 11
0.0
 21
0.0
 31
1.0
 12
0.0
 22
0.0
 32
0.0
 42
50.0
 43
0.0
 44
0.0
 50
0.0
 71
     0
  0
ENDTAB
  0
TABLE
  2
UCS
  5
7
330
0
100
AcDbSymbolTable
 70
     1
  0
UCS
  5
167
330
7
100
AcDbSymbolTableRecord
100
AcDbUCSTableRecord
  2
PREVIOUS
 70
     0
 10
0.0
 20
0.0
 30
0.0
 11
1.0
 21
0.0
 31
0.0
 12
0.0
 22
1.0
 32
0.0
  0
ENDTAB
  0
TABLE
  2
APPID
  5
9
330
0
100
AcDbSymbolTable
 70
     6
  0
APPID
  5
12
330
9
100
AcDbSymbolTableRecord
100
AcDbRegAppTableRecord
  2
ACAD
 70
     0
  0
APPID
  5
3F
330
9
100
AcDbSymbolTableRecord
100
AcDbRegAppTableRecord
  2
TCAD
 70
     0
  0
APPID
  5
40
330
9
100
AcDbSymbolTableRecord
100
AcDbRegAppTableRecord
  2
AECBASE
 70
     0
  0
APPID
  5
41
330
9
100
AcDbSymbolTableRecord
100
AcDbRegAppTableRecord
  2
AEC_2DSECTION_XDATA
 70
     0
  0
APPID
  5
42
330
9
100
AcDbSymbolTableRecord
100
AcDbRegAppTableRecord
  2
AEC_MASSGROUP_XDADA
 70
     0
  0
APPID
  5
16B
330
9
100
AcDbSymbolTableRecord
100
AcDbRegAppTableRecord
  2
ACAD_MLEADERVER
 70
     0
  0
ENDTAB
  0
TABLE
  2
DIMSTYLE
  5
A
330
0
100
AcDbSymbolTable
 70
     2
  0
DIMSTYLE
105
27
102
{ACAD_REACTORS
330
275
330
286
330
296
330
2A8
330
2B7
330
2C7
330
2E8
102
}
330
A
100
AcDbSymbolTableRecord
100
AcDbDimStyleTableRecord
  2
STANDARD
 70
     0
  3
 mm
  4
 mm
  5

  6

  7

 40
1.0
 41
3.0
 42
1.0
 43
7.5
 44
2.0
 45
0.2
 46
0.0
 47
0.0
 48
0.0
140
3.0
141
0.0
142
0.0
143
1.0
144
1.0
145
0.0
146
1.0
147
2.0
 71
     0
 72
     0
 73
     1
 74
     0
 75
     0
 76
     0
 77
     1
 78
     1
170
     0
171
     2
172
     1
173
     0
174
     0
175
     0
176
     7
177
     7
178
     7
270
     2
271
     2
272
     3
273
     2
274
     2
340
11
275
     0
280
     0
281
     0
282
     0
283
     1
284
     0
285
     0
286
     0
287
     3
288
     0
  0
DIMSTYLE
105
166
330
A
100
AcDbSymbolTableRecord
100
AcDbDimStyleTableRecord
  2
ALLGEMEINER_BEMAßUNGSSTIL_
 70
     0
  3
 mm
  4
 mm
  5

  6

  7

 40
1.0
 41
3.0
 42
1.0
 43
7.5
 44
2.0
 45
0.2
 46
0.0
 47
0.0
 48
0.0
140
3.0
141
0.0
142
0.0
143
1.0
144
1.0
145
0.0
146
1.0
147
2.0
 71
     0
 72
     0
 73
     1
 74
     0
 75
     0
 76
     0
 77
     1
 78
     1
170
     0
171
     2
172
     1
173
     0
174
     0
175
     0
176
     7
177
     7
178
     7
270
     2
271
     2
272
     3
273
     2
274
     2
340
11
275
     0
280
     0
281
     0
282
     0
283
     1
284
     0
285
     0
286
     0
287
     3
288
     0
  0
ENDTAB
  0
TABLE
  2
BLOCK_RECORD
  5
1
330
0
100
AcDbSymbolTable
 70
     9
  0
BLOCK_RECORD
  5
1F
330
1
100
AcDbSymbolTableRecord
100
AcDbBlockTableRecord
  2
*MODEL_SPACE
  0
BLOCK_RECORD
  5
1B
330
1
100
AcDbSymbolTableRecord
100
AcDbBlockTableRecord
  2
*PAPER_SPACE
  0
BLOCK_RECORD
  5
278
330
1
100
AcDbSymbolTableRecord
100
AcDbBlockTableRecord
  2
*D2
  0
BLOCK_RECORD
  5
288
330
1
100
AcDbSymbolTableRecord
100
AcDbBlockTableRecord
  2
*D3
  0
BLOCK_RECORD
  5
298
330
1
100
AcDbSymbolTableRecord
100
AcDbBlockTableRecord
  2
*D4
  0
BLOCK_RECORD
  5
2AA
330
1
100
AcDbSymbolTableRecord
100
AcDbBlockTableRecord
  2
*D5
  0
BLOCK_RECORD
  5
2B9
330
1
100
AcDbSymbolTableRecord
100
AcDbBlockTableRecord
  2
*D6
  0
BLOCK_RECORD
  5
2C9
330
1
100
AcDbSymbolTableRecord
100
AcDbBlockTableRecord
  2
*D7
  0
BLOCK_RECORD
  5
2EA
330
1
100
AcDbSymbolTableRecord
100
AcDbBlockTableRecord
  2
*D8
  0
ENDTAB
  0
ENDSEC
  0
SECTION
  2
BLOCKS
  0
BLOCK
  5
20
330
1F
100
AcDbEntity
  8
0
100
AcDbBlockBegin
  2
*MODEL_SPACE
 70
     0
 10
0.0
 20
0.0
 30
0.0
  3
*MODEL_SPACE
  1

  0
ENDBLK
  5
21
330
1F
100
AcDbEntity
  8
0
100
AcDbBlockEnd
  0
BLOCK
  5
1C
330
1B
100
AcDbEntity
 67
     1
  8
0
100
AcDbBlockBegin
  2
*PAPER_SPACE
 70
     0
 10
0.0
 20
0.0
 30
0.0
  3
*PAPER_SPACE
  1

  0
ENDBLK
  5
1D
330
1B
100
AcDbEntity
 67
     1
  8
0
100
AcDbBlockEnd
  0
BLOCK
  5
282
330
278
100
AcDbEntity
  8
0
100
AcDbBlockBegin
  2
*D2
 70
     1
 10
0.0
 20
0.0
 30
0.0
  3
*D2
  1

  0
LINE
  5
279
330
278
100
AcDbEntity
  8
0
  6
BYBLOCK
 62
    84
100
AcDbLine
 10
32.69301585234939
 20
201.6619486180463
 30
0.0
 11
32.69301585234939
 21
187.6619496180463
 31
0.0
  0
LINE
  5
27A
330
278
100
AcDbEntity
  8
0
  6
BYBLOCK
 62
    84
100
AcDbLine
 10
91.85484589211501
 20
201.6619486180463
 30
0.0
 11
91.85484589211501
 21
187.6619496180463
 31
0.0
  0
LINE
  5
27B
330
278
100
AcDbEntity
  8
0
  6
BYBLOCK
 62
    84
100
AcDbLine
 10
37.69301585234939
 20
189.6619496180463
 30
0.0
 11
86.85484589211501
 21
189.6619496180463
 31
0.0
  0
SOLID
  5
27C
330
278
100
AcDbEntity
  8
0
 62
    84
100
AcDbTrace
 10
37.69301585234939
 20
190.4952829513796
 30
0.0
 11
37.69301585234939
 21
188.8286162847129
 31
0.0
 12
32.69301585234939
 22
189.6619496180463
 32
0.0
 13
32.69301585234939
 23
189.6619496180463
 33
0.0
  0
SOLID
  5
27D
330
278
100
AcDbEntity
  8
0
 62
    84
100
AcDbTrace
 10
86.85484589211501
 20
188.8286162847129
 30
0.0
 11
86.85484589211501
 21
190.4952829513796
 31
0.0
 12
91.85484589211501
 22
189.6619496180463
 32
0.0
 13
91.85484589211501
 23
189.6619496180463
 33
0.0
  0
MTEXT
  5
27E
330
278
100
AcDbEntity
  8
0
 62
    40
100
AcDbMText
 10
62.2739308722322
 20
193.8153252158663
 30
0.0
 40
4.222222222222222
 41
0.0
 71
     5
 72
     1
  1
\A1;59.1618
  0
POINT
  5
27F
330
278
100
AcDbEntity
  8
DEFPOINTS
 62
     0
100
AcDbPoint
 10
32.69301585234939
 20
201.6619496180463
 30
0.0
  0
POINT
  5
280
330
278
100
AcDbEntity
  8
DEFPOINTS
 62
     0
100
AcDbPoint
 10
91.85484589211501
 20
201.6619496180463
 30
0.0
  0
POINT
  5
281
330
278
100
AcDbEntity
  8
DEFPOINTS
 62
     0
100
AcDbPoint
 10
91.85484589211501
 20
189.6619496180463
 30
0.0
  0
ENDBLK
  5
283
330
278
100
AcDbEntity
  8
0
100
AcDbBlockEnd
  0
BLOCK
  5
292
330
288
100
AcDbEntity
  8
0
100
AcDbBlockBegin
  2
*D3
 70
     1
 10
0.0
 20
0.0
 30
0.0
  3
*D3
  1

  0
LINE
  5
289
330
288
100
AcDbEntity
  8
0
  6
BYBLOCK
 62
    84
100
AcDbLine
 10
32.69301485234939
 20
201.6619496180463
 30
0.0
 11
23.18115802296654
 21
201.6619496180463
 31
0.0
  0
LINE
  5
28A
330
288
100
AcDbEntity
  8
0
  6
BYBLOCK
 62
    84
100
AcDbLine
 10
32.69301360234942
 20
231.4619496180463
 30
0.0
 11
23.18115802296654
 21
231.4619496180463
 31
0.0
  0
LINE
  5
28B
330
288
100
AcDbEntity
  8
0
  6
BYBLOCK
 62
    84
100
AcDbLine
 10
25.18115802296654
 20
206.6619496180463
 30
0.0
 11
25.18115802296654
 21
226.4619496180463
 31
0.0
  0
SOLID
  5
28C
330
288
100
AcDbEntity
  8
0
 62
    84
100
AcDbTrace
 10
24.34782468963321
 20
206.6619496180463
 30
0.0
 11
26.01449135629987
 21
206.6619496180463
 31
0.0
 12
25.18115802296654
 22
201.6619496180463
 32
0.0
 13
25.18115802296654
 23
201.6619496180463
 33
0.0
  0
SOLID
  5
28D
330
288
100
AcDbEntity
  8
0
 62
    84
100
AcDbTrace
 10
26.01449135629987
 20
226.4619496180463
 30
0.0
 11
24.34782468963321
 21
226.4619496180463
 31
0.0
 12
25.18115802296654
 22
231.4619496180463
 32
0.0
 13
25.18115802296654
 23
231.4619496180463
 33
0.0
  0
MTEXT
  5
28E
330
288
100
AcDbEntity
  8
0
 62
    40
100
AcDbMText
 10
21.02778242514651
 20
216.5619496180463
 30
0.0
 40
4.222222222222222
 41
0.0
 71
     5
 72
     1
  1
\A1;29.8
 11
1.192185798255199E-16
 21
1.0
 31
0.0
  0
POINT
  5
28F
330
288
100
AcDbEntity
  8
DEFPOINTS
 62
     0
100
AcDbPoint
 10
32.69301585234939
 20
201.6619496180463
 30
0.0
  0
POINT
  5
290
330
288
100
AcDbEntity
  8
DEFPOINTS
 62
     0
100
AcDbPoint
 10
32.69301460234942
 20
231.4619496180463
 30
0.0
  0
POINT
  5
291
330
288
100
AcDbEntity
  8
DEFPOINTS
 62
     0
100
AcDbPoint
 10
25.18115802296654
 20
231.4619496180463
 30
0.0
  0
ENDBLK
  5
293
330
288
100
AcDbEntity
  8
0
100
AcDbBlockEnd
  0
BLOCK
  5
2A4
330
298
100
AcDbEntity
  8
0
100
AcDbBlockBegin
  2
*D4
 70
     1
 10
0.0
 20
0.0
 30
0.0
  3
*D4
  1

  0
LINE
  5
299
330
298
100
AcDbEntity
  8
0
  6
BYBLOCK
 62
    84
100
AcDbLine
 10
91.854846892115
 20
201.6619496180463
 30
0.0
 11
111.4893390044795
 21
201.6619496180463
 31
0.0
  0
LINE
  5
29A
330
298
100
AcDbEntity
  8
0
  6
BYBLOCK
 62
    84
100
AcDbLine
 10
91.854846892115
 20
215.0619496180464
 30
0.0
 11
111.4893390044795
 21
215.0619496180464
 31
0.0
  0
LINE
  5
29B
330
298
100
AcDbEntity
  8
0
  6
BYBLOCK
 62
    84
100
AcDbLine
 10
109.4893390044795
 20
220.0619496180464
 30
0.0
 11
109.4893390044795
 21
239.0321420326832
 31
0.0
  0
LINE
  5
29C
330
298
100
AcDbEntity
  8
0
  6
BYBLOCK
 62
    84
100
AcDbLine
 10
109.4893390044795
 20
201.6619496180463
 30
0.0
 11
109.4893390044795
 21
215.0619496180464
 31
0.0
  0
LINE
  5
29D
330
298
100
AcDbEntity
  8
0
  6
BYBLOCK
 62
    84
100
AcDbLine
 10
109.4893390044795
 20
196.6619496180463
 30
0.0
 11
109.4893390044795
 21
191.6619496180463
 31
0.0
  0
SOLID
  5
29E
330
298
100
AcDbEntity
  8
0
 62
    84
100
AcDbTrace
 10
110.3226723378128
 20
196.6619496180463
 30
0.0
 11
108.6560056711461
 21
196.6619496180463
 31
0.0
 12
109.4893390044795
 22
201.6619496180463
 32
0.0
 13
109.4893390044795
 23
201.6619496180463
 33
0.0
  0
SOLID
  5
29F
330
298
100
AcDbEntity
  8
0
 62
    84
100
AcDbTrace
 10
108.6560056711461
 20
220.0619496180464
 30
0.0
 11
110.3226723378128
 21
220.0619496180464
 31
0.0
 12
109.4893390044795
 22
215.0619496180464
 32
0.0
 13
109.4893390044795
 23
215.0619496180464
 33
0.0
  0
MTEXT
  5
2A0
330
298
100
AcDbEntity
  8
0
 62
    40
100
AcDbMText
 10
105.3359634066594
 20
232.0470458253648
 30
0.0
 40
4.222222222222222
 41
0.0
 71
     5
 72
     1
  1
\A1;13.4
 11
0.0
 21
1.0
 31
0.0
  0
POINT
  5
2A1
330
298
100
AcDbEntity
  8
DEFPOINTS
 62
     0
100
AcDbPoint
 10
91.85484589211501
 20
201.6619496180463
 30
0.0
  0
POINT
  5
2A2
330
298
100
AcDbEntity
  8
DEFPOINTS
 62
     0
100
AcDbPoint
 10
91.85484589211501
 20
215.0619496180464
 30
0.0
  0
POINT
  5
2A3
330
298
100
AcDbEntity
  8
DEFPOINTS
 62
     0
100
AcDbPoint
 10
109.4893390044795
 20
215.0619496180464
 30
0.0
  0
ENDBLK
  5
2A5
330
298
100
AcDbEntity
  8
0
100
AcDbBlockEnd
  0
BLOCK
  5
2B0
330
2AA
100
AcDbEntity
  8
0
100
AcDbBlockBegin
  2
*D5
 70
     1
 10
0.0
 20
0.0
 30
0.0
  3
*D5
  1

  0
LINE
  5
2AB
330
2AA
100
AcDbEntity
  8
0
  6
BYBLOCK
 62
    84
100
AcDbLine
 10
101.4541779972078
 20
245.9384681866811
 30
0.0
 11
141.1683165934194
 21
258.5359659298783
 31
0.0
  0
MTEXT
  5
2AC
330
2AA
100
AcDbEntity
  8
0
 62
     1
100
AcDbMText
 10
127.3933306495609
 20
259.0248422347784
 30
0.0
 40
4.222222222222222
 41
0.0
 71
     5
 72
     1
  1
\A1;R??,????
 11
0.9531946045223203
 21
0.3023574803267439
 31
0.0
  0
SOLID
  5
2AD
330
2AA
100
AcDbEntity
  8
0
 62
    84
100
AcDbTrace
 10
101.2022134302688
 20
246.732797023783
 30
0.0
 11
101.7061425641467
 21
245.1441393495791
 31
0.0
 12
96.68820497459616
 22
244.4266807850474
 32
0.0
 13
96.68820497459616
 23
244.4266807850474
 33
0.0
  0
POINT
  5
2AE
330
2AA
100
AcDbEntity
  8
DEFPOINTS
 62
     0
100
AcDbPoint
 10
96.68820497459616
 20
244.4266807850474
 30
0.0
  0
POINT
  5
2AF
330
2AA
100
AcDbEntity
  8
DEFPOINTS
 62
     0
100
AcDbPoint
 10
65.38872566265945
 20
234.4983496180463
 30
0.0
  0
ENDBLK
  5
2B1
330
2AA
100
AcDbEntity
  8
0
100
AcDbBlockEnd
  0
BLOCK
  5
2C3
330
2B9
100
AcDbEntity
  8
0
100
AcDbBlockBegin
  2
*D6
 70
     1
 10
0.0
 20
0.0
 30
0.0
  3
*D6
  1

  0
LINE
  5
2BA
330
2B9
100
AcDbEntity
  8
0
  6
BYBLOCK
 62
    84
100
AcDbLine
 10
69.15108100535937
 20
33.02601150147437
 30
0.0
 11
70.63616224776635
 21
20.60321388287654
 31
0.0
  0
LINE
  5
2BB
330
2B9
100
AcDbEntity
  8
0
  6
BYBLOCK
 62
    84
100
AcDbLine
 10
143.4278844127511
 20
41.9054194152868
 30
0.0
 11
144.9129656551581
 21
29.48262179668897
 31
0.0
  0
LINE
  5
2BC
330
2B9
100
AcDbEntity
  8
0
  6
BYBLOCK
 62
    84
100
AcDbLine
 10
75.36341391490944
 20
23.18257265503154
 30
0.0
 11
139.7109152947062
 21
30.87498383557197
 31
0.0
  0
SOLID
  5
2BD
330
2B9
100
AcDbEntity
  8
0
 62
    84
100
AcDbTrace
 10
75.26449752047012
 20
24.01001449066445
 30
0.0
 11
75.46233030934877
 21
22.35513081939862
 31
0.0
 12
70.39876290111195
 22
22.58907428839554
 32
0.0
 13
70.39876290111195
 23
22.58907428839554
 33
0.0
  0
SOLID
  5
2BE
330
2B9
100
AcDbEntity
  8
0
 62
    84
100
AcDbTrace
 10
139.8098316891455
 20
30.04754199993905
 30
0.0
 11
139.6119989002669
 21
31.70242567120488
 31
0.0
 12
144.6755663085037
 22
31.46848220220797
 32
0.0
 13
144.6755663085037
 23
31.46848220220797
 33
0.0
  0
MTEXT
  5
2BF
330
2B9
100
AcDbEntity
  8
0
 62
    40
100
AcDbMText
 10
107.0398960144906
 20
31.18846115233536
 30
0.0
 40
4.222222222222222
 41
0.0
 71
     5
 72
     1
  1
\A1;ht
 11
0.9929302027594971
 21
0.1186996733272
 31
0.0
  0
POINT
  5
2C0
330
2B9
100
AcDbEntity
  8
DEFPOINTS
 62
     0
100
AcDbPoint
 10
69.03238133203217
 20
34.01894170423387
 30
0.0
  0
POINT
  5
2C1
330
2B9
100
AcDbEntity
  8
DEFPOINTS
 62
     0
100
AcDbPoint
 10
143.3091847394239
 20
42.8983496180463
 30
0.0
  0
POINT
  5
2C2
330
2B9
100
AcDbEntity
  8
DEFPOINTS
 62
     0
100
AcDbPoint
 10
144.6755663085037
 20
31.46848220220797
 30
0.0
  0
ENDBLK
  5
2C4
330
2B9
100
AcDbEntity
  8
0
100
AcDbBlockEnd
  0
BLOCK
  5
2CF
330
2C9
100
AcDbEntity
  8
0
100
AcDbBlockBegin
  2
*D7
 70
     1
 10
0.0
 20
0.0
 30
0.0
  3
*D7
  1

  0
LINE
  5
2CA
330
2C9
100
AcDbEntity
  8
0
  6
BYBLOCK
 62
    84
100
AcDbLine
 10
63.63394181614967
 20
38.33767891070318
 30
0.0
 11
13.9029768457603
 21
35.49104114887329
 31
0.0
  0
MTEXT
  5
2CB
330
2C9
100
AcDbEntity
  8
0
 62
    40
100
AcDbMText
 10
20.86299641730709
 20
40.08559582091364
 30
0.0
 40
4.222222222222222
 41
0.0
 71
     5
 72
     1
  1
\A1;r=ht
 11
0.9983657630792325
 21
0.05714720562916112
 31
0.0
  0
SOLID
  5
2CC
330
2C9
100
AcDbEntity
  8
0
 62
    84
100
AcDbTrace
 10
63.68156448750731
 20
37.50570744147048
 30
0.0
 11
63.58631914479204
 21
39.16965037993587
 31
0.0
 12
68.62577063154583
 22
38.62341493884898
 32
0.0
 13
68.62577063154583
 23
38.62341493884898
 33
0.0
  0
POINT
  5
2CD
330
2C9
100
AcDbEntity
  8
DEFPOINTS
 62
     0
100
AcDbPoint
 10
68.62577063154583
 20
38.62341493884898
 30
0.0
  0
POINT
  5
2CE
330
2C9
100
AcDbEntity
  8
DEFPOINTS
 62
     0
100
AcDbPoint
 10
143.3091847394239
 20
42.8983496180463
 30
0.0
  0
ENDBLK
  5
2D0
330
2C9
100
AcDbEntity
  8
0
100
AcDbBlockEnd
  0
BLOCK
  5
2F0
330
2EA
100
AcDbEntity
  8
0
100
AcDbBlockBegin
  2
*D8
 70
     1
 10
0.0
 20
0.0
 30
0.0
  3
*D8
  1

  0
LINE
  5
2EB
330
2EA
100
AcDbEntity
  8
0
  6
BYBLOCK
 62
    84
100
AcDbLine
 10
245.6482759250295
 20
-2.063840388795382
 30
0.0
 11
278.1507353162192
 21
4.237548135319093
 31
0.0
  0
MTEXT
  5
2EC
330
2EA
100
AcDbEntity
  8
0
 62
    40
100
AcDbMText
 10
263.5632930883638
 20
5.640131826424857
 30
0.0
 40
4.222222222222222
 41
0.0
 71
     5
 72
     1
  1
\A1;R32.8364
 11
0.9817201285519496
 21
0.1903302109386313
 31
0.0
  0
SOLID
  5
2ED
330
2EA
100
AcDbEntity
  8
0
 62
    84
100
AcDbTrace
 10
245.4896674159139
 20
-1.245740281668757
 30
0.0
 11
245.806884434145
 21
-2.881940495922006
 31
0.0
 12
240.7396752822697
 22
-3.015491443488538
 32
0.0
 13
240.7396752822697
 23
-3.015491443488538
 33
0.0
  0
POINT
  5
2EE
330
2EA
100
AcDbEntity
  8
DEFPOINTS
 62
     0
100
AcDbPoint
 10
240.7396752822697
 20
-3.015491443488538
 30
0.0
  0
POINT
  5
2EF
330
2EA
100
AcDbEntity
  8
DEFPOINTS
 62
     0
100
AcDbPoint
 10
208.5035204530866
 20
-9.265250381953791
 30
0.0
  0
ENDBLK
  5
2F1
330
2EA
100
AcDbEntity
  8
0
100
AcDbBlockEnd
  0
ENDSEC
  0
SECTION
  2
ENTITIES
  0
VIEWPORT
  5
17D
330
1B
100
AcDbEntity
 67
     1
  8
0
100
AcDbViewport
 10
144.6634080680582
 20
109.1294699030063
 30
0.0
 40
523.2290435197248
 41
327.0681932330644
 68
     1
 69
     1
1001
ACAD
1000
MVIEW
1002
{
1070
    16
1010
0.0
1020
0.0
1030
0.0
1010
0.0
1020
0.0
1030
1.0
1040
0.0
1040
327.0681932330644
1040
144.6634080680582
1040
109.1294699030063
1040
50.0
1040
0.0
1040
0.0
1070
     0
1070
  1000
1070
     0
1070
     1
1070
     0
1070
     0
1070
     0
1070
     0
1040
0.0
1040
0.0
1040
0.0
1040
5.0
1040
5.0
1040
5.0
1040
5.0
1070
     0
1002
{
1002
}
1002
}
  0
CIRCLE
  5
180
102
{ACAD_XDICTIONARY
360
17E
102
}
330
1B
100
AcDbEntity
 67
     1
  8
0
  6
DURCHGEHEND
 62
   251
100
AcDbCircle
 10
205.3887256626595
 20
-20.50165038195368
 30
0.0
 40
30.69642541752262
  0
CIRCLE
  5
183
102
{ACAD_XDICTIONARY
360
181
102
}
330
1B
100
AcDbEntity
 67
     1
  8
0
  6
DURCHGEHEND
 62
   251
100
AcDbCircle
 10
65.38872566265945
 20
-20.50165038195368
 30
0.0
 40
30.69642541752262
  0
CIRCLE
  5
186
102
{ACAD_XDICTIONARY
360
184
102
}
330
1B
100
AcDbEntity
 67
     1
  8
0
  6
DURCHGEHEND
 62
   251
100
AcDbCircle
 10
205.3887256626595
 20
64.49834961804632
 30
0.0
 40
30.69642541752262
  0
CIRCLE
  5
189
102
{ACAD_XDICTIONARY
360
187
102
}
330
1B
100
AcDbEntity
 67
     1
  8
0
  6
DURCHGEHEND
 62
   251
100
AcDbCircle
 10
65.38872566265945
 20
64.49834961804632
 30
0.0
 40
30.69642541752262
  0
CIRCLE
  5
18C
102
{ACAD_XDICTIONARY
360
18A
102
}
330
1B
100
AcDbEntity
 67
     1
  8
0
  6
DURCHGEHEND
 62
   251
100
AcDbCircle
 10
205.3887256626595
 20
149.4983496180464
 30
0.0
 40
30.69642541752262
  0
CIRCLE
  5
18F
102
{ACAD_XDICTIONARY
360
18D
102
}
330
1B
100
AcDbEntity
 67
     1
  8
0
  6
DURCHGEHEND
 62
   251
100
AcDbCircle
 10
65.38872566265945
 20
149.4983496180463
 30
0.0
 40
30.69642541752262
  0
CIRCLE
  5
192
102
{ACAD_REACTORS
330
2A9
102
}
102
{ACAD_XDICTIONARY
360
190
102
}
330
1B
100
AcDbEntity
 67
     1
  8
0
  6
DURCHGEHEND
 62
     1
100
AcDbCircle
 10
65.38872566265945
 20
234.4983496180463
 30
0.0
 40
32.8364
  0
LINE
  5
195
102
{ACAD_REACTORS
330
276
330
276
330
287
330
297
102
}
102
{ACAD_XDICTIONARY
360
193
102
}
330
1B
100
AcDbEntity
 67
     1
  8
0
  6
DURCHGEHEND
 62
     2
100
AcDbLine
 10
32.69301585234939
 20
201.6619496180463
 30
0.0
 11
91.85484589211501
 21
201.6619496180463
 31
0.0
  0
LINE
  5
198
102
{ACAD_REACTORS
330
297
102
}
102
{ACAD_XDICTIONARY
360
196
102
}
330
1B
100
AcDbEntity
 67
     1
  8
0
  6
DURCHGEHEND
 62
     2
100
AcDbLine
 10
91.85484589211501
 20
215.0619496180464
 30
0.0
 11
91.85484589211501
 21
201.6619496180463
 31
0.0
  0
LINE
  5
19B
102
{ACAD_XDICTIONARY
360
199
102
}
330
1B
100
AcDbEntity
 67
     1
  8
0
  6
DURCHGEHEND
 62
     2
100
AcDbLine
 10
32.69301585234939
 20
231.4619496180463
 30
0.0
 11
32.69301585234939
 21
201.6619496180463
 31
0.0
  0
LINE
  5
19E
102
{ACAD_XDICTIONARY
360
19C
102
}
330
1B
100
AcDbEntity
 67
     1
  8
0
  6
DURCHGEHEND
 62
     2
100
AcDbLine
 10
175.8078106427766
 20
212.8983496180463
 30
0.0
 11
234.9696406825423
 21
212.8983496180463
 31
0.0
  0
LINE
  5
1A1
102
{ACAD_XDICTIONARY
360
19F
102
}
330
1B
100
AcDbEntity
 67
     1
  8
0
  6
DURCHGEHEND
 62
     2
100
AcDbLine
 10
234.9696406825423
 20
226.2983496180464
 30
0.0
 11
234.9696406825423
 21
212.8983496180463
 31
0.0
  0
LINE
  5
1A4
102
{ACAD_XDICTIONARY
360
1A2
102
}
330
1B
100
AcDbEntity
 67
     1
  8
0
  6
DURCHGEHEND
 62
     2
100
AcDbLine
 10
175.8078106427766
 20
242.6983496180463
 30
0.0
 11
175.8078106427766
 21
212.8983496180463
 31
0.0
  0
LINE
  5
1A7
102
{ACAD_XDICTIONARY
360
1A5
102
}
330
1B
100
AcDbEntity
 67
     1
  8
0
  6
DURCHGEHEND
 62
    84
100
AcDbLine
 10
234.9696406825423
 20
212.8983496180463
 30
0.0
 11
295.4723784026886
 21
212.8983496180463
 31
0.0
  0
LINE
  5
1AA
102
{ACAD_XDICTIONARY
360
1A8
102
}
330
1B
100
AcDbEntity
 67
     1
  8
0
  6
DURCHGEHEND
 62
     2
100
AcDbLine
 10
35.80781064277664
 20
127.8983496180463
 30
0.0
 11
94.96964068254226
 21
127.8983496180463
 31
0.0
  0
LINE
  5
1AD
102
{ACAD_XDICTIONARY
360
1AB
102
}
330
1B
100
AcDbEntity
 67
     1
  8
0
  6
DURCHGEHEND
 62
     2
100
AcDbLine
 10
94.96964068254226
 20
141.2983496180463
 30
0.0
 11
94.96964068254226
 21
127.8983496180463
 31
0.0
  0
LINE
  5
1B0
102
{ACAD_XDICTIONARY
360
1AE
102
}
330
1B
100
AcDbEntity
 67
     1
  8
0
  6
DURCHGEHEND
 62
     2
100
AcDbLine
 10
35.80781064277664
 20
157.6983496180463
 30
0.0
 11
35.80781064277664
 21
127.8983496180463
 31
0.0
  0
LINE
  5
1B3
102
{ACAD_XDICTIONARY
360
1B1
102
}
330
1B
100
AcDbEntity
 67
     1
  8
0
  6
DURCHGEHEND
 62
    84
100
AcDbLine
 10
94.96964068254226
 20
127.8983496180463
 30
0.0
 11
155.4723784026886
 21
127.8983496180463
 31
0.0
  0
LINE
  5
1B6
102
{ACAD_XDICTIONARY
360
1B4
102
}
330
1B
100
AcDbEntity
 67
     1
  8
0
  6
DURCHGEHEND
 62
     2
100
AcDbLine
 10
175.8078106427766
 20
127.8983496180464
 30
0.0
 11
234.9696406825423
 21
127.8983496180464
 31
0.0
  0
LINE
  5
1B9
102
{ACAD_XDICTIONARY
360
1B7
102
}
330
1B
100
AcDbEntity
 67
     1
  8
0
  6
DURCHGEHEND
 62
     2
100
AcDbLine
 10
234.9696406825423
 20
141.2983496180463
 30
0.0
 11
234.9696406825423
 21
127.8983496180464
 31
0.0
  0
LINE
  5
1BC
102
{ACAD_XDICTIONARY
360
1BA
102
}
330
1B
100
AcDbEntity
 67
     1
  8
0
  6
DURCHGEHEND
 62
     2
100
AcDbLine
 10
175.8078106427766
 20
157.6983496180464
 30
0.0
 11
175.8078106427766
 21
127.8983496180464
 31
0.0
  0
LINE
  5
1BF
102
{ACAD_XDICTIONARY
360
1BD
102
}
330
1B
100
AcDbEntity
 67
     1
  8
0
  6
DURCHGEHEND
 62
    84
100
AcDbLine
 10
234.9696406825423
 20
127.8983496180464
 30
0.0
 11
295.4723784026886
 21
127.8983496180464
 31
0.0
  0
LINE
  5
1C2
102
{ACAD_XDICTIONARY
360
1C0
102
}
330
1B
100
AcDbEntity
 67
     1
  8
0
  6
DURCHGEHEND
 62
   150
100
AcDbLine
 10
209.0323813320322
 20
119.0189417042339
 30
0.0
 11
283.3091847394239
 21
127.8983496180464
 31
0.0
  0
LINE
  5
1C5
102
{ACAD_XDICTIONARY
360
1C3
102
}
330
1B
100
AcDbEntity
 67
     1
  8
0
  6
DURCHGEHEND
 62
     2
100
AcDbLine
 10
35.80781064277664
 20
42.8983496180463
 30
0.0
 11
94.96964068254226
 21
42.8983496180463
 31
0.0
  0
LINE
  5
1C8
102
{ACAD_XDICTIONARY
360
1C6
102
}
330
1B
100
AcDbEntity
 67
     1
  8
0
  6
DURCHGEHEND
 62
     2
100
AcDbLine
 10
94.96964068254226
 20
56.29834961804633
 30
0.0
 11
94.96964068254226
 21
42.8983496180463
 31
0.0
  0
LINE
  5
1CB
102
{ACAD_XDICTIONARY
360
1C9
102
}
330
1B
100
AcDbEntity
 67
     1
  8
0
  6
DURCHGEHEND
 62
     2
100
AcDbLine
 10
35.80781064277664
 20
72.69834961804634
 30
0.0
 11
35.80781064277664
 21
42.8983496180463
 31
0.0
  0
LINE
  5
1CE
102
{ACAD_XDICTIONARY
360
1CC
102
}
330
1B
100
AcDbEntity
 67
     1
  8
0
  6
DURCHGEHEND
 62
    84
100
AcDbLine
 10
94.96964068254226
 20
42.8983496180463
 30
0.0
 11
155.4723784026886
 21
42.8983496180463
 31
0.0
  0
LINE
  5
1D1
102
{ACAD_REACTORS
330
2B8
330
2B8
102
}
102
{ACAD_XDICTIONARY
360
1CF
102
}
330
1B
100
AcDbEntity
 67
     1
  8
0
  6
DURCHGEHEND
 62
   150
100
AcDbLine
 10
69.03238133203217
 20
34.01894170423387
 30
0.0
 11
143.3091847394239
 21
42.8983496180463
 31
0.0
  0
ARC
  5
1D4
102
{ACAD_REACTORS
330
2C8
102
}
102
{ACAD_XDICTIONARY
360
1D2
102
}
330
1B
100
AcDbEntity
 67
     1
  8
0
  6
DURCHGEHEND
 62
     4
100
AcDbCircle
 10
143.3091847394239
 20
42.8983496180463
 30
0.0
 40
74.80566428633733
100
AcDbArc
 50
170.0
 51
186.8170629801444
  0
LINE
  5
1D7
102
{ACAD_XDICTIONARY
360
1D5
102
}
330
1B
100
AcDbEntity
 67
     1
  8
0
  6
DURCHGEHEND
 62
     2
100
AcDbLine
 10
175.8078106427766
 20
42.8983496180463
 30
0.0
 11
234.9696406825423
 21
42.8983496180463
 31
0.0
  0
LINE
  5
1DA
102
{ACAD_XDICTIONARY
360
1D8
102
}
330
1B
100
AcDbEntity
 67
     1
  8
0
  6
DURCHGEHEND
 62
     2
100
AcDbLine
 10
234.9696406825423
 20
56.29834961804627
 30
0.0
 11
234.9696406825423
 21
42.8983496180463
 31
0.0
  0
LINE
  5
1DD
102
{ACAD_XDICTIONARY
360
1DB
102
}
330
1B
100
AcDbEntity
 67
     1
  8
0
  6
DURCHGEHEND
 62
     2
100
AcDbLine
 10
175.8078106427766
 20
72.69834961804631
 30
0.0
 11
175.8078106427766
 21
42.8983496180463
 31
0.0
  0
LINE
  5
1E0
102
{ACAD_XDICTIONARY
360
1DE
102
}
330
1B
100
AcDbEntity
 67
     1
  8
0
  6
DURCHGEHEND
 62
     7
100
AcDbLine
 10
175.8078106427766
 20
72.69834961804631
 30
0.0
 11
234.9696406825423
 21
56.29834961804627
 31
0.0
  0
LINE
  5
1E3
102
{ACAD_XDICTIONARY
360
1E1
102
}
330
1B
100
AcDbEntity
 67
     1
  8
0
  6
DURCHGEHEND
 62
    84
100
AcDbLine
 10
234.9696406825423
 20
56.29834961804627
 30
0.0
 11
295.6401553452904
 21
39.48013355204083
 31
0.0
  0
LINE
  5
1E6
102
{ACAD_XDICTIONARY
360
1E4
102
}
330
1B
100
AcDbEntity
 67
     1
  8
0
  6
DURCHGEHEND
 62
    84
100
AcDbLine
 10
234.9696406825423
 20
42.8983496180463
 30
0.0
 11
295.4723784026886
 21
42.8983496180463
 31
0.0
  0
LINE
  5
1E9
102
{ACAD_XDICTIONARY
360
1E7
102
}
330
1B
100
AcDbEntity
 67
     1
  8
0
  6
DURCHGEHEND
 62
   150
100
AcDbLine
 10
209.0323813320322
 20
34.01894170423381
 30
0.0
 11
283.3091847394239
 21
42.8983496180463
 31
0.0
  0
ARC
  5
1EC
102
{ACAD_XDICTIONARY
360
1EA
102
}
330
1B
100
AcDbEntity
 67
     1
  8
0
  6
DURCHGEHEND
 62
     4
100
AcDbCircle
 10
283.3091847394239
 20
42.8983496180463
 30
0.0
 40
74.80566428633733
100
AcDbArc
 50
170.0
 51
186.8170629801444
  0
LINE
  5
1EF
102
{ACAD_XDICTIONARY
360
1ED
102
}
330
1B
100
AcDbEntity
 67
     1
  8
0
  6
DURCHGEHEND
 62
     3
100
AcDbLine
 10
208.5035204530866
 20
42.8983496180463
 30
0.0
 11
208.5035204530866
 21
86.22495306273882
 31
0.0
  0
LINE
  5
1F2
102
{ACAD_XDICTIONARY
360
1F0
102
}
330
1B
100
AcDbEntity
 67
     1
  8
0
  6
DURCHGEHEND
 62
     2
100
AcDbLine
 10
35.80781064277664
 20
-42.1016503819537
 30
0.0
 11
94.96964068254226
 21
-42.1016503819537
 31
0.0
  0
LINE
  5
1F5
102
{ACAD_XDICTIONARY
360
1F3
102
}
330
1B
100
AcDbEntity
 67
     1
  8
0
  6
DURCHGEHEND
 62
     2
100
AcDbLine
 10
94.96964068254226
 20
-28.70165038195373
 30
0.0
 11
94.96964068254226
 21
-42.1016503819537
 31
0.0
  0
LINE
  5
1F8
102
{ACAD_XDICTIONARY
360
1F6
102
}
330
1B
100
AcDbEntity
 67
     1
  8
0
  6
DURCHGEHEND
 62
     2
100
AcDbLine
 10
35.80781064277664
 20
-12.30165038195369
 30
0.0
 11
35.80781064277664
 21
-42.1016503819537
 31
0.0
  0
LINE
  5
1FB
102
{ACAD_XDICTIONARY
360
1F9
102
}
330
1B
100
AcDbEntity
 67
     1
  8
0
  6
DURCHGEHEND
 62
     7
100
AcDbLine
 10
35.80781064277664
 20
-12.30165038195369
 30
0.0
 11
94.96964068254226
 21
-28.70165038195373
 31
0.0
  0
LINE
  5
1FE
102
{ACAD_XDICTIONARY
360
1FC
102
}
330
1B
100
AcDbEntity
 67
     1
  8
0
  6
DURCHGEHEND
 62
    84
100
AcDbLine
 10
94.96964068254226
 20
-28.70165038195373
 30
0.0
 11
155.6401553452904
 21
-45.51986644795917
 31
0.0
  0
LINE
  5
201
102
{ACAD_XDICTIONARY
360
1FF
102
}
330
1B
100
AcDbEntity
 67
     1
  8
0
  6
DURCHGEHEND
 62
    84
100
AcDbLine
 10
94.96964068254226
 20
-42.1016503819537
 30
0.0
 11
155.4723784026886
 21
-42.1016503819537
 31
0.0
  0
LINE
  5
204
102
{ACAD_XDICTIONARY
360
202
102
}
330
1B
100
AcDbEntity
 67
     1
  8
0
  6
DURCHGEHEND
 62
   150
100
AcDbLine
 10
69.03238133203217
 20
-50.98105829576619
 30
0.0
 11
143.3091847394239
 21
-42.1016503819537
 31
0.0
  0
ARC
  5
207
102
{ACAD_XDICTIONARY
360
205
102
}
330
1B
100
AcDbEntity
 67
     1
  8
0
  6
DURCHGEHEND
 62
     4
100
AcDbCircle
 10
143.3091847394239
 20
-42.1016503819537
 30
0.0
 40
74.80566428633733
100
AcDbArc
 50
170.0
 51
186.8170629801444
  0
LINE
  5
20A
102
{ACAD_XDICTIONARY
360
208
102
}
330
1B
100
AcDbEntity
 67
     1
  8
0
  6
DURCHGEHEND
 62
     3
100
AcDbLine
 10
68.5035204530866
 20
-42.1016503819537
 30
0.0
 11
68.5035204530866
 21
1.22495306273882
 31
0.0
  0
LINE
  5
20D
102
{ACAD_XDICTIONARY
360
20B
102
}
330
1B
100
AcDbEntity
 67
     1
  8
0
  6
DURCHGEHEND
 62
     4
100
AcDbLine
 10
71.26675266237942
 20
0.7029126867404045
 30
0.0
 11
65.38872566265945
 21
-20.50165038195368
 31
0.0
  0
LINE
  5
210
102
{ACAD_XDICTIONARY
360
20E
102
}
330
1B
100
AcDbEntity
 67
     1
  8
0
  6
DURCHGEHEND
 62
     2
100
AcDbLine
 10
175.8078106427766
 20
-42.1016503819537
 30
0.0
 11
234.9696406825423
 21
-42.1016503819537
 31
0.0
  0
LINE
  5
213
102
{ACAD_XDICTIONARY
360
211
102
}
330
1B
100
AcDbEntity
 67
     1
  8
0
  6
DURCHGEHEND
 62
     2
100
AcDbLine
 10
234.9696406825423
 20
-28.70165038195373
 30
0.0
 11
234.9696406825423
 21
-42.1016503819537
 31
0.0
  0
LINE
  5
216
102
{ACAD_XDICTIONARY
360
214
102
}
330
1B
100
AcDbEntity
 67
     1
  8
0
  6
DURCHGEHEND
 62
     2
100
AcDbLine
 10
175.8078106427766
 20
-12.30165038195369
 30
0.0
 11
175.8078106427766
 21
-42.1016503819537
 31
0.0
  0
LINE
  5
219
102
{ACAD_XDICTIONARY
360
217
102
}
330
1B
100
AcDbEntity
 67
     1
  8
0
  6
DURCHGEHEND
 62
     7
100
AcDbLine
 10
175.8078106427766
 20
-12.30165038195369
 30
0.0
 11
234.9696406825423
 21
-28.70165038195373
 31
0.0
  0
LINE
  5
21C
102
{ACAD_XDICTIONARY
360
21A
102
}
330
1B
100
AcDbEntity
 67
     1
  8
0
  6
DURCHGEHEND
 62
    84
100
AcDbLine
 10
234.9696406825423
 20
-28.70165038195373
 30
0.0
 11
295.6401553452904
 21
-45.51986644795917
 31
0.0
  0
LINE
  5
21F
102
{ACAD_XDICTIONARY
360
21D
102
}
330
1B
100
AcDbEntity
 67
     1
  8
0
  6
DURCHGEHEND
 62
    84
100
AcDbLine
 10
234.9696406825423
 20
-42.1016503819537
 30
0.0
 11
295.4723784026886
 21
-42.1016503819537
 31
0.0
  0
LINE
  5
222
102
{ACAD_XDICTIONARY
360
220
102
}
330
1B
100
AcDbEntity
 67
     1
  8
0
  6
DURCHGEHEND
 62
   150
100
AcDbLine
 10
209.0323813320322
 20
-50.98105829576625
 30
0.0
 11
283.3091847394239
 21
-42.1016503819537
 31
0.0
  0
ARC
  5
225
102
{ACAD_XDICTIONARY
360
223
102
}
330
1B
100
AcDbEntity
 67
     1
  8
0
  6
DURCHGEHEND
 62
     4
100
AcDbCircle
 10
283.3091847394239
 20
-42.1016503819537
 30
0.0
 40
74.80566428633733
100
AcDbArc
 50
170.0
 51
186.8170629801445
  0
LINE
  5
228
102
{ACAD_XDICTIONARY
360
226
102
}
330
1B
100
AcDbEntity
 67
     1
  8
0
  6
DURCHGEHEND
 62
     3
100
AcDbLine
 10
208.5035204530866
 20
-42.1016503819537
 30
0.0
 11
208.5035204530866
 21
1.22495306273882
 31
0.0
  0
LINE
  5
22B
102
{ACAD_XDICTIONARY
360
229
102
}
330
1B
100
AcDbEntity
 67
     1
  8
0
  6
DURCHGEHEND
 62
     4
100
AcDbLine
 10
211.2667526623794
 20
0.7029126867404045
 30
0.0
 11
205.3887256626595
 21
-20.50165038195368
 31
0.0
  0
CIRCLE
  5
22E
102
{ACAD_REACTORS
330
2E9
102
}
102
{ACAD_XDICTIONARY
360
22C
102
}
330
1B
100
AcDbEntity
 67
     1
  8
0
  6
DURCHGEHEND
 62
     1
100
AcDbCircle
 10
208.5035204530866
 20
-9.265250381953791
 30
0.0
 40
32.83639999999991
  0
LINE
  5
231
102
{ACAD_XDICTIONARY
360
22F
102
}
330
1B
100
AcDbEntity
 67
     1
  8
0
  6
DURCHGEHEND
 62
     7
100
AcDbLine
 10
175.8078106427766
 20
157.6983496180464
 30
0.0
 11
234.9696406825423
 21
141.2983496180463
 31
0.0
  0
LINE
  5
234
102
{ACAD_XDICTIONARY
360
232
102
}
330
1B
100
AcDbEntity
 67
     1
  8
0
  6
DURCHGEHEND
 62
    84
100
AcDbLine
 10
234.9696406825423
 20
141.2983496180463
 30
0.0
 11
295.6401553452904
 21
124.4801335520409
 31
0.0
  0
LINE
  5
237
102
{ACAD_XDICTIONARY
360
235
102
}
330
1B
100
AcDbEntity
 67
     1
  8
0
  6
DURCHGEHEND
 62
     7
100
AcDbLine
 10
35.80781064277664
 20
72.69834961804634
 30
0.0
 11
94.96964068254226
 21
56.2983496180463
 31
0.0
  0
LINE
  5
23A
102
{ACAD_XDICTIONARY
360
238
102
}
330
1B
100
AcDbEntity
 67
     1
  8
0
  6
DURCHGEHEND
 62
    84
100
AcDbLine
 10
94.96964068254226
 20
56.2983496180463
 30
0.0
 11
155.6401553452904
 21
39.48013355204085
 31
0.0
  0
LINE
  5
23D
102
{ACAD_XDICTIONARY
360
23B
102
}
330
1B
100
AcDbEntity
 67
     1
  8
0
  6
DURCHGEHEND
 62
     7
100
AcDbLine
 10
35.80781064277664
 20
157.6983496180463
 30
0.0
 11
94.96964068254226
 21
141.2983496180463
 31
0.0
  0
LINE
  5
240
102
{ACAD_XDICTIONARY
360
23E
102
}
330
1B
100
AcDbEntity
 67
     1
  8
0
  6
DURCHGEHEND
 62
    84
100
AcDbLine
 10
94.96964068254226
 20
141.2983496180463
 30
0.0
 11
155.6401553452904
 21
124.4801335520408
 31
0.0
  0
LINE
  5
243
102
{ACAD_XDICTIONARY
360
241
102
}
330
1B
100
AcDbEntity
 67
     1
  8
0
  6
DURCHGEHEND
 62
     7
100
AcDbLine
 10
175.8078106427766
 20
242.6983496180463
 30
0.0
 11
234.9696406825423
 21
226.2983496180462
 31
0.0
  0
LINE
  5
246
102
{ACAD_XDICTIONARY
360
244
102
}
330
1B
100
AcDbEntity
 67
     1
  8
0
  6
DURCHGEHEND
 62
    84
100
AcDbLine
 10
234.9696406825423
 20
226.2983496180462
 30
0.0
 11
295.6401553452904
 21
209.4801335520408
 31
0.0
  0
CIRCLE
  5
249
102
{ACAD_XDICTIONARY
360
247
102
}
330
1B
100
AcDbEntity
 67
     1
  8
0
  6
CONTINUOUS
 62
   150
100
AcDbCircle
 10
166.3087077241428
 20
229.2925236858676
 30
0.0
 40
5.0
  0
TEXT
  5
24D
102
{ACAD_XDICTIONARY
360
24B
102
}
330
1B
100
AcDbEntity
 67
     1
  8
0
  6
DURCHGEHEND
 62
     2
100
AcDbText
 10
164.1701521685872
 20
227.5147459080899
 30
0.0
 40
4.222222222222222
  1
1
  7
_TCW_TXTSTY_1
 72
     1
 11
166.3087077241428
 21
229.625857019201
 31
0.0
100
AcDbText
 73
     2
  0
CIRCLE
  5
250
102
{ACAD_XDICTIONARY
360
24E
102
}
330
1B
100
AcDbEntity
 67
     1
  8
0
  6
CONTINUOUS
 62
   150
100
AcDbCircle
 10
26.30870772414278
 20
144.2925236858676
 30
0.0
 40
5.0
  0
TEXT
  5
254
102
{ACAD_XDICTIONARY
360
252
102
}
330
1B
100
AcDbEntity
 67
     1
  8
0
  6
DURCHGEHEND
 62
     2
100
AcDbText
 10
24.17015216858722
 20
142.5147459080899
 30
0.0
 40
4.222222222222222
  1
2
  7
_TCW_TXTSTY_2
 72
     1
 11
26.30870772414278
 21
144.625857019201
 31
0.0
100
AcDbText
 73
     2
  0
CIRCLE
  5
257
102
{ACAD_XDICTIONARY
360
255
102
}
330
1B
100
AcDbEntity
 67
     1
  8
0
  6
CONTINUOUS
 62
   150
100
AcDbCircle
 10
166.3087077241428
 20
144.2925236858677
 30
0.0
 40
5.0
  0
TEXT
  5
25A
102
{ACAD_XDICTIONARY
360
258
102
}
330
1B
100
AcDbEntity
 67
     1
  8
0
  6
DURCHGEHEND
 62
     2
100
AcDbText
 10
164.1701521685872
 20
142.5147459080899
 30
0.0
 40
4.222222222222222
  1
3
  7
_TCW_TXTSTY_2
 72
     1
 11
166.3087077241428
 21
144.625857019201
 31
0.0
100
AcDbText
 73
     2
  0
CIRCLE
  5
25D
102
{ACAD_XDICTIONARY
360
25B
102
}
330
1B
100
AcDbEntity
 67
     1
  8
0
  6
CONTINUOUS
 62
   150
100
AcDbCircle
 10
26.30870772414278
 20
59.29252368586765
 30
0.0
 40
5.0
  0
TEXT
  5
260
102
{ACAD_XDICTIONARY
360
25E
102
}
330
1B
100
AcDbEntity
 67
     1
  8
0
  6
DURCHGEHEND
 62
     2
100
AcDbText
 10
24.17015216858722
 20
57.51474590808987
 30
0.0
 40
4.222222222222222
  1
4
  7
_TCW_TXTSTY_2
 72
     1
 11
26.30870772414278
 21
59.62585701920099
 31
0.0
100
AcDbText
 73
     2
  0
CIRCLE
  5
263
102
{ACAD_XDICTIONARY
360
261
102
}
330
1B
100
AcDbEntity
 67
     1
  8
0
  6
CONTINUOUS
 62
   150
100
AcDbCircle
 10
166.3087077241428
 20
59.29252368586765
 30
0.0
 40
5.0
  0
TEXT
  5
266
102
{ACAD_XDICTIONARY
360
264
102
}
330
1B
100
AcDbEntity
 67
     1
  8
0
  6
DURCHGEHEND
 62
     2
100
AcDbText
 10
164.1701521685872
 20
57.51474590808987
 30
0.0
 40
4.222222222222222
  1
5
  7
_TCW_TXTSTY_2
 72
     1
 11
166.3087077241428
 21
59.62585701920099
 31
0.0
100
AcDbText
 73
     2
  0
CIRCLE
  5
269
102
{ACAD_XDICTIONARY
360
267
102
}
330
1B
100
AcDbEntity
 67
     1
  8
0
  6
CONTINUOUS
 62
   150
100
AcDbCircle
 10
26.30870772414278
 20
-25.70747631413235
 30
0.0
 40
5.0
  0
TEXT
  5
26C
102
{ACAD_XDICTIONARY
360
26A
102
}
330
1B
100
AcDbEntity
 67
     1
  8
0
  6
DURCHGEHEND
 62
     2
100
AcDbText
 10
24.17015216858722
 20
-27.48525409191013
 30
0.0
 40
4.222222222222222
  1
6
  7
_TCW_TXTSTY_2
 72
     1
 11
26.30870772414278
 21
-25.37414298079902
 31
0.0
100
AcDbText
 73
     2
  0
CIRCLE
  5
26F
102
{ACAD_XDICTIONARY
360
26D
102
}
330
1B
100
AcDbEntity
 67
     1
  8
0
  6
CONTINUOUS
 62
   150
100
AcDbCircle
 10
166.3087077241428
 20
-25.70747631413235
 30
0.0
 40
5.0
  0
TEXT
  5
272
102
{ACAD_XDICTIONARY
360
270
102
}
330
1B
100
AcDbEntity
 67
     1
  8
0
  6
DURCHGEHEND
 62
     2
100
AcDbText
 10
164.1701521685872
 20
-27.48525409191013
 30
0.0
 40
4.222222222222222
  1
7
  7
_TCW_TXTSTY_2
 72
     1
 11
166.3087077241428
 21
-25.37414298079902
 31
0.0
100
AcDbText
 73
     2
  0
DIMENSION
  5
275
102
{ACAD_REACTORS
330
276
102
}
102
{ACAD_XDICTIONARY
360
273
102
}
330
1B
100
AcDbEntity
 67
     1
  8
0
  6
DURCHGEHEND
 62
     7
100
AcDbDimension
  2
*D2
 10
91.85484589211501
 20
189.6619496180463
 30
0.0
 11
62.2739308722322
 21
193.8153252158663
 31
0.0
 70
    33
  1
<>
  3
STANDARD
100
AcDbAlignedDimension
 13
32.69301585234939
 23
201.6619496180463
 33
0.0
 14
91.85484589211501
 24
201.6619496180463
 34
0.0
1001
ACAD
1000
DSTYLE
1002
{
1070
    41
1040
5.0
1070
   176
1070
    84
1070
   177
1070
    84
1070
   178
1070
    40
1070
   271
1070
     5
1070
    43
1040
5.0
1070
    42
1040
0.000001
1070
     3
1000

1070
    45
1040
0.0001
1070
    73
1070
     0
1070
   174
1070
     1
1070
   140
1040
4.222222222222222
1070
    78
1070
     9
1002
}
  0
DIMENSION
  5
286
102
{ACAD_REACTORS
330
287
102
}
102
{ACAD_XDICTIONARY
360
284
102
}
330
1B
100
AcDbEntity
 67
     1
  8
0
  6
DURCHGEHEND
 62
     7
100
AcDbDimension
  2
*D3
 10
25.18115802296654
 20
231.4619496180463
 30
0.0
 11
21.02778242514651
 21
216.5619496180463
 31
0.0
 70
    32
  1
<>
  3
STANDARD
100
AcDbAlignedDimension
 13
32.69301585234939
 23
201.6619496180463
 33
0.0
 14
32.69301460234942
 24
231.4619496180463
 34
0.0
 50
90.0
100
AcDbRotatedDimension
1001
ACAD
1000
DSTYLE
1002
{
1070
    41
1040
5.0
1070
   176
1070
    84
1070
   177
1070
    84
1070
   178
1070
    40
1070
   271
1070
     5
1070
    43
1040
5.0
1070
    42
1040
0.000001
1070
     3
1000

1070
    45
1040
0.0001
1070
    73
1070
     0
1070
   174
1070
     1
1070
   140
1040
4.222222222222222
1070
    78
1070
     9
1002
}
  0
DIMENSION
  5
296
102
{ACAD_REACTORS
330
297
102
}
102
{ACAD_XDICTIONARY
360
294
102
}
330
1B
100
AcDbEntity
 67
     1
  8
0
  6
DURCHGEHEND
 62
     7
100
AcDbDimension
  2
*D4
 10
109.4893390044795
 20
215.0619496180464
 30
0.0
 11
105.3359634066594
 21
232.0470458253648
 31
0.0
 70
    33
  1
<>
  3
STANDARD
100
AcDbAlignedDimension
 13
91.85484589211501
 23
201.6619496180463
 33
0.0
 14
91.85484589211501
 24
215.0619496180464
 34
0.0
1001
ACAD
1000
DSTYLE
1002
{
1070
    41
1040
5.0
1070
   176
1070
    84
1070
   177
1070
    84
1070
   178
1070
    40
1070
   271
1070
     5
1070
    43
1040
5.0
1070
    42
1040
0.000001
1070
     3
1000

1070
    45
1040
0.0001
1070
    73
1070
     0
1070
   140
1040
4.222222222222222
1070
    78
1070
     9
1002
}
  0
DIMENSION
  5
2A8
102
{ACAD_REACTORS
330
2A9
102
}
102
{ACAD_XDICTIONARY
360
2A6
102
}
330
1B
100
AcDbEntity
 67
     1
  8
0
  6
DURCHGEHEND
 62
     7
100
AcDbDimension
  2
*D5
 10
65.38872566265945
 20
234.4983496180463
 30
0.0
 11
128.7935373460757
 21
254.610632052541
 31
0.0
 70
   164
  1
R??,????
  3
STANDARD
100
AcDbRadialDimension
 15
96.68820497459616
 25
244.4266807850474
 35
0.0
 40
0.0
1001
ACAD
1000
DSTYLE
1002
{
1070
    41
1040
5.0
1070
   176
1070
    84
1070
   177
1070
    84
1070
   178
1070
     1
1070
   271
1070
     5
1070
    43
1040
5.0
1070
     3
1000

1070
    45
1040
0.0001
1070
    73
1070
     0
1070
   172
1070
     0
1070
   140
1040
4.222222222222222
1070
    78
1070
     9
1002
}
  0
LINE
  5
2B4
102
{ACAD_XDICTIONARY
360
2B2
102
}
330
1B
100
AcDbEntity
 67
     1
  8
0
  6
DURCHGEHEND
 62
    84
100
AcDbLine
 10
96.68820497459615
 20
244.4266807850474
 30
0.0
 11
65.38872566265945
 21
234.4983496180463
 31
0.0
  0
DIMENSION
  5
2B7
102
{ACAD_REACTORS
330
2B8
102
}
102
{ACAD_XDICTIONARY
360
2B5
102
}
330
1B
100
AcDbEntity
 67
     1
  8
0
  6
DURCHGEHEND
 62
     7
100
AcDbDimension
  2
*D6
 10
144.6755663085037
 20
31.46848220220797
 30
0.0
 11
107.0398960144906
 21
31.18846115233536
 31
0.0
 70
    33
  1
ht
  3
STANDARD
100
AcDbAlignedDimension
 13
69.03238133203217
 23
34.01894170423387
 33
0.0
 14
143.3091847394239
 24
42.8983496180463
 34
0.0
1001
ACAD
1000
DSTYLE
1002
{
1070
    41
1040
5.0
1070
   176
1070
    84
1070
   177
1070
    84
1070
   178
1070
    40
1070
   271
1070
     5
1070
    43
1040
5.0
1070
     3
1000

1070
    45
1040
0.0001
1070
    73
1070
     0
1070
   172
1070
     0
1070
   140
1040
4.222222222222222
1070
    78
1070
     9
1002
}
  0
DIMENSION
  5
2C7
102
{ACAD_REACTORS
330
2C8
102
}
102
{ACAD_XDICTIONARY
360
2C5
102
}
330
1B
100
AcDbEntity
 67
     1
  8
0
  6
DURCHGEHEND
 62
     7
100
AcDbDimension
  2
*D7
 10
143.3091847394239
 20
42.8983496180463
 30
0.0
 11
21.1024032293667
 21
35.90314171879569
 31
0.0
 70
   164
  1
r=ht
  3
STANDARD
100
AcDbRadialDimension
 15
68.62577063154583
 25
38.62341493884898
 35
0.0
 40
0.0
1001
ACAD
1000
DSTYLE
1002
{
1070
    41
1040
5.0
1070
   176
1070
    84
1070
   177
1070
    84
1070
   178
1070
    40
1070
   271
1070
     5
1070
    43
1040
5.0
1070
     3
1000

1070
    45
1040
0.0001
1070
    73
1070
     0
1070
   172
1070
     0
1070
   140
1040
4.222222222222222
1070
    78
1070
     9
1002
}
  0
ARC
  5
2D3
102
{ACAD_XDICTIONARY
360
2D1
102
}
330
1B
100
AcDbEntity
 67
     1
  8
0
  6
DURCHGEHEND
 62
    84
100
AcDbCircle
 10
65.38872566265945
 20
-20.50165038195368
 30
0.0
 40
6.033882540821931
100
AcDbArc
 50
74.50632002460873
 51
164.506320024609
  0
CIRCLE
  5
2D6
102
{ACAD_REACTORS
330
2D7
102
}
102
{ACAD_XDICTIONARY
360
2D4
102
}
330
1B
100
AcDbEntity
 67
     1
  8
0
  6
DURCHGEHEND
 62
    84
100
AcDbCircle
 10
63.84275217273603
 20
-17.76985461963638
 30
0.0
 40
0.3500000000000121
  0
HATCH
  5
2D7
102
{ACAD_XDICTIONARY
360
2D8
102
}
330
1B
100
AcDbEntity
 67
     1
  8
0
  6
DURCHGEHEND
 62
    84
100
AcDbHatch
 10
0.0
 20
0.0
 30
0.0
210
0.0
220
0.0
230
1.0
  2
SOLID
 70
     1
 71
     1
 91
        1
 92
        0
 93
        1
 72
     2
 10
63.84275217273603
 20
-17.76985461963638
 40
0.3500000000000121
 50
0.0
 51
360.0
 73
     1
 97
        1
330
2D6
 75
     0
 76
     1
 98
        0
  0
ARC
  5
2DC
102
{ACAD_XDICTIONARY
360
2DA
102
}
330
1B
100
AcDbEntity
 67
     1
  8
0
  6
DURCHGEHEND
 62
    84
100
AcDbCircle
 10
205.3887256626595
 20
-20.50165038195368
 30
0.0
 40
6.033882540821931
100
AcDbArc
 50
74.50632002460873
 51
164.506320024609
  0
CIRCLE
  5
2DF
102
{ACAD_REACTORS
330
2E0
102
}
102
{ACAD_XDICTIONARY
360
2DD
102
}
330
1B
100
AcDbEntity
 67
     1
  8
0
  6
DURCHGEHEND
 62
    84
100
AcDbCircle
 10
203.842752172736
 20
-17.76985461963638
 30
0.0
 40
0.3500000000000121
  0
HATCH
  5
2E0
102
{ACAD_XDICTIONARY
360
2E1
102
}
330
1B
100
AcDbEntity
 67
     1
  8
0
  6
DURCHGEHEND
 62
    84
100
AcDbHatch
 10
0.0
 20
0.0
 30
0.0
210
0.0
220
0.0
230
1.0
  2
SOLID
 70
     1
 71
     1
 91
        1
 92
        0
 93
        1
 72
     2
 10
203.842752172736
 20
-17.76985461963638
 40
0.3500000000000121
 50
0.0
 51
360.0
 73
     1
 97
        1
330
2DF
 75
     0
 76
     1
 98
        0
  0
MTEXT
  5
2E5
102
{ACAD_XDICTIONARY
360
2E3
102
}
330
1B
100
AcDbEntity
 67
     1
  8
0
  6
DURCHGEHEND
 62
     2
100
AcDbMText
 10
12.83509829082595
 20
256.1589128319521
 30
0.0
 40
4.222222222222222
 41
0.0
 71
     5
 72
     1
  1
{Ausgangs-\Psituation}
  7
_TCW_TXTSTY_2
  0
DIMENSION
  5
2E8
102
{ACAD_REACTORS
330
2E9
102
}
102
{ACAD_XDICTIONARY
360
2E6
102
}
330
1B
100
AcDbEntity
 67
     1
  8
0
  6
DURCHGEHEND
 62
     7
100
AcDbDimension
  2
*D8
 10
208.5035204530866
 20
-9.265250381953791
 30
0.0
 11
264.3538059420042
 21
1.562679400608434
 31
0.0
 70
   164
  1
<>
  3
STANDARD
100
AcDbRadialDimension
 15
240.7396752822697
 25
-3.015491443488538
 35
0.0
 40
0.0
1001
ACAD
1000
DSTYLE
1002
{
1070
    41
1040
5.0
1070
   176
1070
    84
1070
   177
1070
    84
1070
   178
1070
    40
1070
   271
1070
     5
1070
    43
1040
5.0
1070
     3
1000

1070
    45
1040
0.0001
1070
    73
1070
     0
1070
   172
1070
     0
1070
   140
1040
4.222222222222222
1070
    78
1070
     9
1002
}
  0
LINE
  5
2F4
102
{ACAD_XDICTIONARY
360
2F2
102
}
330
1B
100
AcDbEntity
 67
     1
  8
0
  6
DURCHGEHEND
 62
    84
100
AcDbLine
 10
208.5035204530866
 20
-9.265250381953905
 30
0.0
 11
240.7396752822697
 21
-3.015491443488543
 31
0.0
  0
ENDSEC
  0
SECTION
  2
OBJECTS
  0
DICTIONARY
  5
C
330
0
100
AcDbDictionary
  3
ACAD_GROUP
350
D
  3
ACAD_LAYOUT
350
1A
  3
ACAD_MATERIAL
350
3B
  3
ACAD_MLEADERSTYLE
350
169
  3
ACAD_MLINESTYLE
350
17
  3
ACAD_PLOTSETTINGS
350
19
  3
ACAD_VISUALSTYLE
350
2A
  3
ACDBHEADERROUNDTRIPXREC
350
2F5
  3
ACDBVARIABLEDICTIONARY
350
315
  3
TC_CUSTOM_TABLES
350
168
  0
DICTIONARY
  5
17E
330
180
100
AcDbDictionary
280
     1
  3
TC_EXTENDED_DATA
360
17F
  0
DICTIONARY
  5
181
330
183
100
AcDbDictionary
280
     1
  3
TC_EXTENDED_DATA
360
182
  0
DICTIONARY
  5
184
330
186
100
AcDbDictionary
280
     1
  3
TC_EXTENDED_DATA
360
185
  0
DICTIONARY
  5
187
330
189
100
AcDbDictionary
280
     1
  3
TC_EXTENDED_DATA
360
188
  0
DICTIONARY
  5
18A
330
18C
100
AcDbDictionary
280
     1
  3
TC_EXTENDED_DATA
360
18B
  0
DICTIONARY
  5
18D
330
18F
100
AcDbDictionary
280
     1
  3
TC_EXTENDED_DATA
360
18E
  0
DICTIONARY
  5
190
330
192
100
AcDbDictionary
280
     1
  3
TC_EXTENDED_DATA
360
191
  0
DICTIONARY
  5
193
330
195
100
AcDbDictionary
280
     1
  3
TC_EXTENDED_DATA
360
194
  0
DICTIONARY
  5
196
330
198
100
AcDbDictionary
280
     1
  3
TC_EXTENDED_DATA
360
197
  0
DICTIONARY
  5
199
330
19B
100
AcDbDictionary
280
     1
  3
TC_EXTENDED_DATA
360
19A
  0
DICTIONARY
  5
19C
330
19E
100
AcDbDictionary
280
     1
  3
TC_EXTENDED_DATA
360
19D
  0
DICTIONARY
  5
19F
330
1A1
100
AcDbDictionary
280
     1
  3
TC_EXTENDED_DATA
360
1A0
  0
DICTIONARY
  5
1A2
330
1A4
100
AcDbDictionary
280
     1
  3
TC_EXTENDED_DATA
360
1A3
  0
DICTIONARY
  5
1A5
330
1A7
100
AcDbDictionary
280
     1
  3
TC_EXTENDED_DATA
360
1A6
  0
DICTIONARY
  5
1A8
330
1AA
100
AcDbDictionary
280
     1
  3
TC_EXTENDED_DATA
360
1A9
  0
DICTIONARY
  5
1AB
330
1AD
100
AcDbDictionary
280
     1
  3
TC_EXTENDED_DATA
360
1AC
  0
DICTIONARY
  5
1AE
330
1B0
100
AcDbDictionary
280
     1
  3
TC_EXTENDED_DATA
360
1AF
  0
DICTIONARY
  5
1B1
330
1B3
100
AcDbDictionary
280
     1
  3
TC_EXTENDED_DATA
360
1B2
  0
DICTIONARY
  5
1B4
330
1B6
100
AcDbDictionary
280
     1
  3
TC_EXTENDED_DATA
360
1B5
  0
DICTIONARY
  5
1B7
330
1B9
100
AcDbDictionary
280
     1
  3
TC_EXTENDED_DATA
360
1B8
  0
DICTIONARY
  5
1BA
330
1BC
100
AcDbDictionary
280
     1
  3
TC_EXTENDED_DATA
360
1BB
  0
DICTIONARY
  5
1BD
330
1BF
100
AcDbDictionary
280
     1
  3
TC_EXTENDED_DATA
360
1BE
  0
DICTIONARY
  5
1C0
330
1C2
100
AcDbDictionary
280
     1
  3
TC_EXTENDED_DATA
360
1C1
  0
DICTIONARY
  5
1C3
330
1C5
100
AcDbDictionary
280
     1
  3
TC_EXTENDED_DATA
360
1C4
  0
DICTIONARY
  5
1C6
330
1C8
100
AcDbDictionary
280
     1
  3
TC_EXTENDED_DATA
360
1C7
  0
DICTIONARY
  5
1C9
330
1CB
100
AcDbDictionary
280
     1
  3
TC_EXTENDED_DATA
360
1CA
  0
DICTIONARY
  5
1CC
330
1CE
100
AcDbDictionary
280
     1
  3
TC_EXTENDED_DATA
360
1CD
  0
DICTIONARY
  5
1CF
330
1D1
100
AcDbDictionary
280
     1
  3
TC_EXTENDED_DATA
360
1D0
  0
DICTIONARY
  5
1D2
330
1D4
100
AcDbDictionary
280
     1
  3
TC_EXTENDED_DATA
360
1D3
  0
DICTIONARY
  5
1D5
330
1D7
100
AcDbDictionary
280
     1
  3
TC_EXTENDED_DATA
360
1D6
  0
DICTIONARY
  5
1D8
330
1DA
100
AcDbDictionary
280
     1
  3
TC_EXTENDED_DATA
360
1D9
  0
DICTIONARY
  5
1DB
330
1DD
100
AcDbDictionary
280
     1
  3
TC_EXTENDED_DATA
360
1DC
  0
DICTIONARY
  5
1DE
330
1E0
100
AcDbDictionary
280
     1
  3
TC_EXTENDED_DATA
360
1DF
  0
DICTIONARY
  5
1E1
330
1E3
100
AcDbDictionary
280
     1
  3
TC_EXTENDED_DATA
360
1E2
  0
DICTIONARY
  5
1E4
330
1E6
100
AcDbDictionary
280
     1
  3
TC_EXTENDED_DATA
360
1E5
  0
DICTIONARY
  5
1E7
330
1E9
100
AcDbDictionary
280
     1
  3
TC_EXTENDED_DATA
360
1E8
  0
DICTIONARY
  5
1EA
330
1EC
100
AcDbDictionary
280
     1
  3
TC_EXTENDED_DATA
360
1EB
  0
DICTIONARY
  5
1ED
330
1EF
100
AcDbDictionary
280
     1
  3
TC_EXTENDED_DATA
360
1EE
  0
DICTIONARY
  5
1F0
330
1F2
100
AcDbDictionary
280
     1
  3
TC_EXTENDED_DATA
360
1F1
  0
DICTIONARY
  5
1F3
330
1F5
100
AcDbDictionary
280
     1
  3
TC_EXTENDED_DATA
360
1F4
  0
DICTIONARY
  5
1F6
330
1F8
100
AcDbDictionary
280
     1
  3
TC_EXTENDED_DATA
360
1F7
  0
DICTIONARY
  5
1F9
330
1FB
100
AcDbDictionary
280
     1
  3
TC_EXTENDED_DATA
360
1FA
  0
DICTIONARY
  5
1FC
330
1FE
100
AcDbDictionary
280
     1
  3
TC_EXTENDED_DATA
360
1FD
  0
DICTIONARY
  5
1FF
330
201
100
AcDbDictionary
280
     1
  3
TC_EXTENDED_DATA
360
200
  0
DICTIONARY
  5
202
330
204
100
AcDbDictionary
280
     1
  3
TC_EXTENDED_DATA
360
203
  0
DICTIONARY
  5
205
330
207
100
AcDbDictionary
280
     1
  3
TC_EXTENDED_DATA
360
206
  0
DICTIONARY
  5
208
330
20A
100
AcDbDictionary
280
     1
  3
TC_EXTENDED_DATA
360
209
  0
DICTIONARY
  5
20B
330
20D
100
AcDbDictionary
280
     1
  3
TC_EXTENDED_DATA
360
20C
  0
DICTIONARY
  5
20E
330
210
100
AcDbDictionary
280
     1
  3
TC_EXTENDED_DATA
360
20F
  0
DICTIONARY
  5
211
330
213
100
AcDbDictionary
280
     1
  3
TC_EXTENDED_DATA
360
212
  0
DICTIONARY
  5
214
330
216
100
AcDbDictionary
280
     1
  3
TC_EXTENDED_DATA
360
215
  0
DICTIONARY
  5
217
330
219
100
AcDbDictionary
280
     1
  3
TC_EXTENDED_DATA
360
218
  0
DICTIONARY
  5
21A
330
21C
100
AcDbDictionary
280
     1
  3
TC_EXTENDED_DATA
360
21B
  0
DICTIONARY
  5
21D
330
21F
100
AcDbDictionary
280
     1
  3
TC_EXTENDED_DATA
360
21E
  0
DICTIONARY
  5
220
330
222
100
AcDbDictionary
280
     1
  3
TC_EXTENDED_DATA
360
221
  0
DICTIONARY
  5
223
330
225
100
AcDbDictionary
280
     1
  3
TC_EXTENDED_DATA
360
224
  0
DICTIONARY
  5
226
330
228
100
AcDbDictionary
280
     1
  3
TC_EXTENDED_DATA
360
227
  0
DICTIONARY
  5
229
330
22B
100
AcDbDictionary
280
     1
  3
TC_EXTENDED_DATA
360
22A
  0
DICTIONARY
  5
22C
330
22E
100
AcDbDictionary
280
     1
  3
TC_EXTENDED_DATA
360
22D
  0
DICTIONARY
  5
22F
330
231
100
AcDbDictionary
280
     1
  3
TC_EXTENDED_DATA
360
230
  0
DICTIONARY
  5
232
330
234
100
AcDbDictionary
280
     1
  3
TC_EXTENDED_DATA
360
233
  0
DICTIONARY
  5
235
330
237
100
AcDbDictionary
280
     1
  3
TC_EXTENDED_DATA
360
236
  0
DICTIONARY
  5
238
330
23A
100
AcDbDictionary
280
     1
  3
TC_EXTENDED_DATA
360
239
  0
DICTIONARY
  5
23B
330
23D
100
AcDbDictionary
280
     1
  3
TC_EXTENDED_DATA
360
23C
  0
DICTIONARY
  5
23E
330
240
100
AcDbDictionary
280
     1
  3
TC_EXTENDED_DATA
360
23F
  0
DICTIONARY
  5
241
330
243
100
AcDbDictionary
280
     1
  3
TC_EXTENDED_DATA
360
242
  0
DICTIONARY
  5
244
330
246
100
AcDbDictionary
280
     1
  3
TC_EXTENDED_DATA
360
245
  0
DICTIONARY
  5
247
330
249
100
AcDbDictionary
280
     1
  3
TC_EXTENDED_DATA
360
248
  0
DICTIONARY
  5
24B
330
24D
100
AcDbDictionary
280
     1
  3
TC_EXTENDED_DATA
360
24C
  0
DICTIONARY
  5
24E
330
250
100
AcDbDictionary
280
     1
  3
TC_EXTENDED_DATA
360
24F
  0
DICTIONARY
  5
252
330
254
100
AcDbDictionary
280
     1
  3
TC_EXTENDED_DATA
360
253
  0
DICTIONARY
  5
255
330
257
100
AcDbDictionary
280
     1
  3
TC_EXTENDED_DATA
360
256
  0
DICTIONARY
  5
258
330
25A
100
AcDbDictionary
280
     1
  3
TC_EXTENDED_DATA
360
259
  0
DICTIONARY
  5
25B
330
25D
100
AcDbDictionary
280
     1
  3
TC_EXTENDED_DATA
360
25C
  0
DICTIONARY
  5
25E
330
260
100
AcDbDictionary
280
     1
  3
TC_EXTENDED_DATA
360
25F
  0
DICTIONARY
  5
261
330
263
100
AcDbDictionary
280
     1
  3
TC_EXTENDED_DATA
360
262
  0
DICTIONARY
  5
264
330
266
100
AcDbDictionary
280
     1
  3
TC_EXTENDED_DATA
360
265
  0
DICTIONARY
  5
267
330
269
100
AcDbDictionary
280
     1
  3
TC_EXTENDED_DATA
360
268
  0
DICTIONARY
  5
26A
330
26C
100
AcDbDictionary
280
     1
  3
TC_EXTENDED_DATA
360
26B
  0
DICTIONARY
  5
26D
330
26F
100
AcDbDictionary
280
     1
  3
TC_EXTENDED_DATA
360
26E
  0
DICTIONARY
  5
270
330
272
100
AcDbDictionary
280
     1
  3
TC_EXTENDED_DATA
360
271
  0
DICTIONARY
  5
273
330
275
100
AcDbDictionary
280
     1
  3
ACAD_DIMASSOC
360
276
  3
TC_EXTENDED_DATA
360
274
  0
DICTIONARY
  5
284
330
286
100
AcDbDictionary
280
     1
  3
ACAD_DIMASSOC
360
287
  3
TC_EXTENDED_DATA
360
285
  0
DICTIONARY
  5
294
330
296
100
AcDbDictionary
280
     1
  3
ACAD_DIMASSOC
360
297
  3
TC_EXTENDED_DATA
360
295
  0
DICTIONARY
  5
2A6
330
2A8
100
AcDbDictionary
280
     1
  3
ACAD_DIMASSOC
360
2A9
  3
TC_EXTENDED_DATA
360
2A7
  0
DICTIONARY
  5
2B2
330
2B4
100
AcDbDictionary
280
     1
  3
TC_EXTENDED_DATA
360
2B3
  0
DICTIONARY
  5
2B5
330
2B7
100
AcDbDictionary
280
     1
  3
ACAD_DIMASSOC
360
2B8
  3
TC_EXTENDED_DATA
360
2B6
  0
DICTIONARY
  5
2C5
330
2C7
100
AcDbDictionary
280
     1
  3
ACAD_DIMASSOC
360
2C8
  3
TC_EXTENDED_DATA
360
2C6
  0
DICTIONARY
  5
2D1
330
2D3
100
AcDbDictionary
280
     1
  3
TC_EXTENDED_DATA
360
2D2
  0
DICTIONARY
  5
2D4
330
2D6
100
AcDbDictionary
280
     1
  3
TC_EXTENDED_DATA
360
2D5
  0
DICTIONARY
  5
2D8
330
2D7
100
AcDbDictionary
280
     1
  3
TC_EXTENDED_DATA
360
2D9
  0
DICTIONARY
  5
2DA
330
2DC
100
AcDbDictionary
280
     1
  3
TC_EXTENDED_DATA
360
2DB
  0
DICTIONARY
  5
2DD
330
2DF
100
AcDbDictionary
280
     1
  3
TC_EXTENDED_DATA
360
2DE
  0
DICTIONARY
  5
2E1
330
2E0
100
AcDbDictionary
280
     1
  3
TC_EXTENDED_DATA
360
2E2
  0
DICTIONARY
  5
2E3
330
2E5
100
AcDbDictionary
280
     1
  3
TC_EXTENDED_DATA
360
2E4
  0
DICTIONARY
  5
2E6
330
2E8
100
AcDbDictionary
280
     1
  3
ACAD_DIMASSOC
360
2E9
  3
TC_EXTENDED_DATA
360
2E7
  0
DICTIONARY
  5
2F2
330
2F4
100
AcDbDictionary
280
     1
  3
TC_EXTENDED_DATA
360
2F3
  0
DICTIONARY
  5
D
102
{ACAD_REACTORS
330
C
102
}
330
C
100
AcDbDictionary
  0
DICTIONARY
  5
1A
102
{ACAD_REACTORS
330
C
102
}
330
C
100
AcDbDictionary
  0
DICTIONARY
  5
3B
102
{ACAD_REACTORS
330
C
102
}
330
C
100
AcDbDictionary
  3
BYBLOCK
350
3D
  3
BYLAYER
350
3C
  3
GLOBAL
350
3E
  0
DICTIONARY
  5
169
102
{ACAD_REACTORS
330
C
102
}
330
C
100
AcDbDictionary
  3
STANDARD
350
16A
  0
DICTIONARY
  5
17
102
{ACAD_REACTORS
330
C
102
}
330
C
100
AcDbDictionary
  3
STANDARD
350
18
  0
DICTIONARY
  5
19
102
{ACAD_REACTORS
330
C
102
}
330
C
100
AcDbDictionary
  0
DICTIONARY
  5
2A
102
{ACAD_REACTORS
330
C
102
}
330
C
100
AcDbDictionary
  3
2DWIREFRAME
350
2F
  3
3D_HIDDEN
350
31
  3
3DWIREFRAME
350
30
  3
BASIC
350
32
  3
BRIGHTEN
350
36
  3
COLORCHANGE
350
3A
  3
CONCEPTUAL
350
34
  3
DIM
350
35
  3
FACEPATTERN
350
39
  3
FLAT
350
2B
  3
FLATWITHEDGES
350
2C
  3
GOURAUD
350
2D
  3
GOURAUDWITHEDGES
350
2E
  3
LINEPATTERN
350
38
  3
REALISTIC
350
33
  3
THICKEN
350
37
  0
DICTIONARY
  5
2F5
102
{ACAD_REACTORS
330
C
102
}
330
C
100
AcDbDictionary
  3
CEPSNTYPE
350
2FE
  3
DIMSTYLEDATA
350
314
  3
FINGERPRINTGUID
350
2FF
  3
HYPERLINKBASE
350
2F8
  3
INSUNITS
350
2FD
  3
LAYOUTDICT
350
2FA
  3
LWETCUNION
350
2FC
  3
PLOTSETDICT
350
2FB
  3
PSVPSCALE
350
301
  3
PUCSBASE
350
304
  3
PUCSORGBACK
350
30A
  3
PUCSORGBOTTOM
350
306
  3
PUCSORGFRONT
350
309
  3
PUCSORGLEFT
350
307
  3
PUCSORGRIGHT
350
308
  3
PUCSORGTOP
350
305
  3
PUCSORTHOREF
350
302
  3
PUCSORTHOVIEW
350
303
  3
STYLESHEET
350
2F9
  3
TSTACKALIGN
350
2F6
  3
TSTACKSIZE
350
2F7
  3
UCSBASE
350
30D
  3
UCSORGBACK
350
313
  3
UCSORGBOTTOM
350
30F
  3
UCSORGFRONT
350
312
  3
UCSORGLEFT
350
310
  3
UCSORGRIGHT
350
311
  3
UCSORGTOP
350
30E
  3
UCSORTHOREF
350
30B
  3
UCSORTHOVIEW
350
30C
  3
VERSIONGUID
350
300
  0
DICTIONARY
  5
315
102
{ACAD_REACTORS
330
C
102
}
330
C
100
AcDbDictionary
  3
DIMASSOC
350
317
  3
HIDETEXT
350
318
  0
DICTIONARY
  5
168
102
{ACAD_REACTORS
330
C
102
}
330
C
100
AcDbDictionary
  0
TCOPTIONALDATA
  5
17F
102
{ACAD_REACTORS
330
17E
102
}
330
17E
100
TcOptionalData
 70
     2
 70
   128
 90
        1
  1
#$AUX@_ToolInfo Properties
 70
     8
 90
       19
310
434D445F444F55424C455054434952434C4540
  0
TCOPTIONALDATA
  5
182
102
{ACAD_REACTORS
330
181
102
}
330
181
100
TcOptionalData
 70
     2
 70
   128
 90
        1
  1
#$AUX@_ToolInfo Properties
 70
     8
 90
       19
310
434D445F444F55424C455054434952434C4540
  0
TCOPTIONALDATA
  5
185
102
{ACAD_REACTORS
330
184
102
}
330
184
100
TcOptionalData
 70
     2
 70
   128
 90
        1
  1
#$AUX@_ToolInfo Properties
 70
     8
 90
       19
310
434D445F444F55424C455054434952434C4540
  0
TCOPTIONALDATA
  5
188
102
{ACAD_REACTORS
330
187
102
}
330
187
100
TcOptionalData
 70
     2
 70
   128
 90
        1
  1
#$AUX@_ToolInfo Properties
 70
     8
 90
       19
310
434D445F444F55424C455054434952434C4540
  0
TCOPTIONALDATA
  5
18B
102
{ACAD_REACTORS
330
18A
102
}
330
18A
100
TcOptionalData
 70
     2
 70
   128
 90
        1
  1
#$AUX@_ToolInfo Properties
 70
     8
 90
       19
310
434D445F444F55424C455054434952434C4540
  0
TCOPTIONALDATA
  5
18E
102
{ACAD_REACTORS
330
18D
102
}
330
18D
100
TcOptionalData
 70
     2
 70
   128
 90
        1
  1
#$AUX@_ToolInfo Properties
 70
     8
 90
       19
310
434D445F444F55424C455054434952434C4540
  0
TCOPTIONALDATA
  5
191
102
{ACAD_REACTORS
330
190
102
}
330
190
100
TcOptionalData
 70
     2
 70
   160
 90
        1
  1
#$AUX@_ToolInfo Properties
 70
     8
 90
       18
310
434D445F434952434C4554414E454E545340
 40
0.0275590550154448
  0
TCOPTIONALDATA
  5
194
102
{ACAD_REACTORS
330
193
102
}
330
193
100
TcOptionalData
 70
     2
 70
   160
 90
        1
  1
#$AUX@_ToolInfo Properties
 70
     8
 90
       17
310
434D445F4D454554324C494E45535F5640
 40
0.0275590550154448
  0
TCOPTIONALDATA
  5
197
102
{ACAD_REACTORS
330
196
102
}
330
196
100
TcOptionalData
 70
     2
 70
   160
 90
        1
  1
#$AUX@_ToolInfo Properties
 70
     8
 90
       17
310
434D445F4D454554324C494E45535F5640
 40
0.0275590550154448
  0
TCOPTIONALDATA
  5
19A
102
{ACAD_REACTORS
330
199
102
}
330
199
100
TcOptionalData
 70
     2
 70
   160
 90
        1
  1
#$AUX@_ToolInfo Properties
 70
     8
 90
       17
310
434D445F4D454554324C494E45535F5640
 40
0.0275590550154448
  0
TCOPTIONALDATA
  5
19D
102
{ACAD_REACTORS
330
19C
102
}
330
19C
100
TcOptionalData
 70
     2
 70
   128
 90
        1
  1
#$AUX@_ToolInfo Properties
 70
     8
 90
       17
310
434D445F4D454554324C494E45535F5640
  0
TCOPTIONALDATA
  5
1A0
102
{ACAD_REACTORS
330
19F
102
}
330
19F
100
TcOptionalData
 70
     2
 70
   128
 90
        1
  1
#$AUX@_ToolInfo Properties
 70
     8
 90
       17
310
434D445F4D454554324C494E45535F5640
  0
TCOPTIONALDATA
  5
1A3
102
{ACAD_REACTORS
330
1A2
102
}
330
1A2
100
TcOptionalData
 70
     2
 70
   128
 90
        1
  1
#$AUX@_ToolInfo Properties
 70
     8
 90
       17
310
434D445F4D454554324C494E45535F5640
  0
TCOPTIONALDATA
  5
1A6
102
{ACAD_REACTORS
330
1A5
102
}
330
1A5
100
TcOptionalData
 70
     2
 70
   128
 90
        1
  1
#$AUX@_ToolInfo Properties
 70
     8
 90
        9
310
434D445F4C494E4540
  0
TCOPTIONALDATA
  5
1A9
102
{ACAD_REACTORS
330
1A8
102
}
330
1A8
100
TcOptionalData
 70
     2
 70
   128
 90
        1
  1
#$AUX@_ToolInfo Properties
 70
     8
 90
       17
310
434D445F4D454554324C494E45535F5640
  0
TCOPTIONALDATA
  5
1AC
102
{ACAD_REACTORS
330
1AB
102
}
330
1AB
100
TcOptionalData
 70
     2
 70
   128
 90
        1
  1
#$AUX@_ToolInfo Properties
 70
     8
 90
       17
310
434D445F4D454554324C494E45535F5640
  0
TCOPTIONALDATA
  5
1AF
102
{ACAD_REACTORS
330
1AE
102
}
330
1AE
100
TcOptionalData
 70
     2
 70
   128
 90
        1
  1
#$AUX@_ToolInfo Properties
 70
     8
 90
       17
310
434D445F4D454554324C494E45535F5640
  0
TCOPTIONALDATA
  5
1B2
102
{ACAD_REACTORS
330
1B1
102
}
330
1B1
100
TcOptionalData
 70
     2
 70
   128
 90
        1
  1
#$AUX@_ToolInfo Properties
 70
     8
 90
        9
310
434D445F4C494E4540
  0
TCOPTIONALDATA
  5
1B5
102
{ACAD_REACTORS
330
1B4
102
}
330
1B4
100
TcOptionalData
 70
     2
 70
   128
 90
        1
  1
#$AUX@_ToolInfo Properties
 70
     8
 90
       17
310
434D445F4D454554324C494E45535F5640
  0
TCOPTIONALDATA
  5
1B8
102
{ACAD_REACTORS
330
1B7
102
}
330
1B7
100
TcOptionalData
 70
     2
 70
   128
 90
        1
  1
#$AUX@_ToolInfo Properties
 70
     8
 90
       17
310
434D445F4D454554324C494E45535F5640
  0
TCOPTIONALDATA
  5
1BB
102
{ACAD_REACTORS
330
1BA
102
}
330
1BA
100
TcOptionalData
 70
     2
 70
   128
 90
        1
  1
#$AUX@_ToolInfo Properties
 70
     8
 90
       17
310
434D445F4D454554324C494E45535F5640
  0
TCOPTIONALDATA
  5
1BE
102
{ACAD_REACTORS
330
1BD
102
}
330
1BD
100
TcOptionalData
 70
     2
 70
   128
 90
        1
  1
#$AUX@_ToolInfo Properties
 70
     8
 90
        9
310
434D445F4C494E4540
  0
TCOPTIONALDATA
  5
1C1
102
{ACAD_REACTORS
330
1C0
102
}
330
1C0
100
TcOptionalData
 70
     2
 70
   128
 90
        1
  1
#$AUX@_ToolInfo Properties
 70
     8
 90
       19
310
434D445F54414E47454E5446524F4D41524340
  0
TCOPTIONALDATA
  5
1C4
102
{ACAD_REACTORS
330
1C3
102
}
330
1C3
100
TcOptionalData
 70
     2
 70
   128
 90
        1
  1
#$AUX@_ToolInfo Properties
 70
     8
 90
       17
310
434D445F4D454554324C494E45535F5640
  0
TCOPTIONALDATA
  5
1C7
102
{ACAD_REACTORS
330
1C6
102
}
330
1C6
100
TcOptionalData
 70
     2
 70
   128
 90
        1
  1
#$AUX@_ToolInfo Properties
 70
     8
 90
       17
310
434D445F4D454554324C494E45535F5640
  0
TCOPTIONALDATA
  5
1CA
102
{ACAD_REACTORS
330
1C9
102
}
330
1C9
100
TcOptionalData
 70
     2
 70
   128
 90
        1
  1
#$AUX@_ToolInfo Properties
 70
     8
 90
       17
310
434D445F4D454554324C494E45535F5640
  0
TCOPTIONALDATA
  5
1CD
102
{ACAD_REACTORS
330
1CC
102
}
330
1CC
100
TcOptionalData
 70
     2
 70
   128
 90
        1
  1
#$AUX@_ToolInfo Properties
 70
     8
 90
        9
310
434D445F4C494E4540
  0
TCOPTIONALDATA
  5
1D0
102
{ACAD_REACTORS
330
1CF
102
}
330
1CF
100
TcOptionalData
 70
     2
 70
   128
 90
        1
  1
#$AUX@_ToolInfo Properties
 70
     8
 90
       19
310
434D445F54414E47454E5446524F4D41524340
  0
TCOPTIONALDATA
  5
1D3
102
{ACAD_REACTORS
330
1D2
102
}
330
1D2
100
TcOptionalData
 70
     2
 70
   128
 90
        1
  1
#$AUX@_ToolInfo Properties
 70
     8
 90
       16
310
434D445F43454E544552505441524340
  0
TCOPTIONALDATA
  5
1D6
102
{ACAD_REACTORS
330
1D5
102
}
330
1D5
100
TcOptionalData
 70
     2
 70
   128
 90
        1
  1
#$AUX@_ToolInfo Properties
 70
     8
 90
       17
310
434D445F4D454554324C494E45535F5640
  0
TCOPTIONALDATA
  5
1D9
102
{ACAD_REACTORS
330
1D8
102
}
330
1D8
100
TcOptionalData
 70
     2
 70
   128
 90
        1
  1
#$AUX@_ToolInfo Properties
 70
     8
 90
       17
310
434D445F4D454554324C494E45535F5640
  0
TCOPTIONALDATA
  5
1DC
102
{ACAD_REACTORS
330
1DB
102
}
330
1DB
100
TcOptionalData
 70
     2
 70
   128
 90
        1
  1
#$AUX@_ToolInfo Properties
 70
     8
 90
       17
310
434D445F4D454554324C494E45535F5640
  0
TCOPTIONALDATA
  5
1DF
102
{ACAD_REACTORS
330
1DE
102
}
330
1DE
100
TcOptionalData
 70
     2
 70
   128
 90
        1
  1
#$AUX@_ToolInfo Properties
 70
     8
 90
        9
310
434D445F4C494E4540
  0
TCOPTIONALDATA
  5
1E2
102
{ACAD_REACTORS
330
1E1
102
}
330
1E1
100
TcOptionalData
 70
     2
 70
   128
 90
        1
  1
#$AUX@_ToolInfo Properties
 70
     8
 90
        9
310
434D445F4C494E4540
  0
TCOPTIONALDATA
  5
1E5
102
{ACAD_REACTORS
330
1E4
102
}
330
1E4
100
TcOptionalData
 70
     2
 70
   128
 90
        1
  1
#$AUX@_ToolInfo Properties
 70
     8
 90
        9
310
434D445F4C494E4540
  0
TCOPTIONALDATA
  5
1E8
102
{ACAD_REACTORS
330
1E7
102
}
330
1E7
100
TcOptionalData
 70
     2
 70
   128
 90
        1
  1
#$AUX@_ToolInfo Properties
 70
     8
 90
       19
310
434D445F54414E47454E5446524F4D41524340
  0
TCOPTIONALDATA
  5
1EB
102
{ACAD_REACTORS
330
1EA
102
}
330
1EA
100
TcOptionalData
 70
     2
 70
   128
 90
        1
  1
#$AUX@_ToolInfo Properties
 70
     8
 90
       16
310
434D445F43454E544552505441524340
  0
TCOPTIONALDATA
  5
1EE
102
{ACAD_REACTORS
330
1ED
102
}
330
1ED
100
TcOptionalData
 70
     2
 70
   128
 90
        1
  1
#$AUX@_ToolInfo Properties
 70
     8
 90
        9
310
434D445F4C494E4540
  0
TCOPTIONALDATA
  5
1F1
102
{ACAD_REACTORS
330
1F0
102
}
330
1F0
100
TcOptionalData
 70
     2
 70
   128
 90
        1
  1
#$AUX@_ToolInfo Properties
 70
     8
 90
       17
310
434D445F4D454554324C494E45535F5640
  0
TCOPTIONALDATA
  5
1F4
102
{ACAD_REACTORS
330
1F3
102
}
330
1F3
100
TcOptionalData
 70
     2
 70
   128
 90
        1
  1
#$AUX@_ToolInfo Properties
 70
     8
 90
       17
310
434D445F4D454554324C494E45535F5640
  0
TCOPTIONALDATA
  5
1F7
102
{ACAD_REACTORS
330
1F6
102
}
330
1F6
100
TcOptionalData
 70
     2
 70
   128
 90
        1
  1
#$AUX@_ToolInfo Properties
 70
     8
 90
       17
310
434D445F4D454554324C494E45535F5640
  0
TCOPTIONALDATA
  5
1FA
102
{ACAD_REACTORS
330
1F9
102
}
330
1F9
100
TcOptionalData
 70
     2
 70
   128
 90
        1
  1
#$AUX@_ToolInfo Properties
 70
     8
 90
        9
310
434D445F4C494E4540
  0
TCOPTIONALDATA
  5
1FD
102
{ACAD_REACTORS
330
1FC
102
}
330
1FC
100
TcOptionalData
 70
     2
 70
   128
 90
        1
  1
#$AUX@_ToolInfo Properties
 70
     8
 90
        9
310
434D445F4C494E4540
  0
TCOPTIONALDATA
  5
200
102
{ACAD_REACTORS
330
1FF
102
}
330
1FF
100
TcOptionalData
 70
     2
 70
   128
 90
        1
  1
#$AUX@_ToolInfo Properties
 70
     8
 90
        9
310
434D445F4C494E4540
  0
TCOPTIONALDATA
  5
203
102
{ACAD_REACTORS
330
202
102
}
330
202
100
TcOptionalData
 70
     2
 70
   128
 90
        1
  1
#$AUX@_ToolInfo Properties
 70
     8
 90
       19
310
434D445F54414E47454E5446524F4D41524340
  0
TCOPTIONALDATA
  5
206
102
{ACAD_REACTORS
330
205
102
}
330
205
100
TcOptionalData
 70
     2
 70
   128
 90
        1
  1
#$AUX@_ToolInfo Properties
 70
     8
 90
       16
310
434D445F43454E544552505441524340
  0
TCOPTIONALDATA
  5
209
102
{ACAD_REACTORS
330
208
102
}
330
208
100
TcOptionalData
 70
     2
 70
   128
 90
        1
  1
#$AUX@_ToolInfo Properties
 70
     8
 90
        9
310
434D445F4C494E4540
  0
TCOPTIONALDATA
  5
20C
102
{ACAD_REACTORS
330
20B
102
}
330
20B
100
TcOptionalData
 70
     2
 70
   128
 90
        1
  1
#$AUX@_ToolInfo Properties
 70
     8
 90
       13
310
434D445F44524F504C494E4540
  0
TCOPTIONALDATA
  5
20F
102
{ACAD_REACTORS
330
20E
102
}
330
20E
100
TcOptionalData
 70
     2
 70
   128
 90
        1
  1
#$AUX@_ToolInfo Properties
 70
     8
 90
       17
310
434D445F4D454554324C494E45535F5640
  0
TCOPTIONALDATA
  5
212
102
{ACAD_REACTORS
330
211
102
}
330
211
100
TcOptionalData
 70
     2
 70
   128
 90
        1
  1
#$AUX@_ToolInfo Properties
 70
     8
 90
       17
310
434D445F4D454554324C494E45535F5640
  0
TCOPTIONALDATA
  5
215
102
{ACAD_REACTORS
330
214
102
}
330
214
100
TcOptionalData
 70
     2
 70
   128
 90
        1
  1
#$AUX@_ToolInfo Properties
 70
     8
 90
       17
310
434D445F4D454554324C494E45535F5640
  0
TCOPTIONALDATA
  5
218
102
{ACAD_REACTORS
330
217
102
}
330
217
100
TcOptionalData
 70
     2
 70
   128
 90
        1
  1
#$AUX@_ToolInfo Properties
 70
     8
 90
        9
310
434D445F4C494E4540
  0
TCOPTIONALDATA
  5
21B
102
{ACAD_REACTORS
330
21A
102
}
330
21A
100
TcOptionalData
 70
     2
 70
   128
 90
        1
  1
#$AUX@_ToolInfo Properties
 70
     8
 90
        9
310
434D445F4C494E4540
  0
TCOPTIONALDATA
  5
21E
102
{ACAD_REACTORS
330
21D
102
}
330
21D
100
TcOptionalData
 70
     2
 70
   128
 90
        1
  1
#$AUX@_ToolInfo Properties
 70
     8
 90
        9
310
434D445F4C494E4540
  0
TCOPTIONALDATA
  5
221
102
{ACAD_REACTORS
330
220
102
}
330
220
100
TcOptionalData
 70
     2
 70
   128
 90
        1
  1
#$AUX@_ToolInfo Properties
 70
     8
 90
       19
310
434D445F54414E47454E5446524F4D41524340
  0
TCOPTIONALDATA
  5
224
102
{ACAD_REACTORS
330
223
102
}
330
223
100
TcOptionalData
 70
     2
 70
   128
 90
        1
  1
#$AUX@_ToolInfo Properties
 70
     8
 90
       16
310
434D445F43454E544552505441524340
  0
TCOPTIONALDATA
  5
227
102
{ACAD_REACTORS
330
226
102
}
330
226
100
TcOptionalData
 70
     2
 70
   128
 90
        1
  1
#$AUX@_ToolInfo Properties
 70
     8
 90
        9
310
434D445F4C494E4540
  0
TCOPTIONALDATA
  5
22A
102
{ACAD_REACTORS
330
229
102
}
330
229
100
TcOptionalData
 70
     2
 70
   128
 90
        1
  1
#$AUX@_ToolInfo Properties
 70
     8
 90
       13
310
434D445F44524F504C494E4540
  0
TCOPTIONALDATA
  5
22D
102
{ACAD_REACTORS
330
22C
102
}
330
22C
100
TcOptionalData
 70
     2
 70
   128
 90
        1
  1
#$AUX@_ToolInfo Properties
 70
     8
 90
       19
310
434D445F43454E5445525054434952434C4540
  0
TCOPTIONALDATA
  5
230
102
{ACAD_REACTORS
330
22F
102
}
330
22F
100
TcOptionalData
 70
     2
 70
   128
 90
        1
  1
#$AUX@_ToolInfo Properties
 70
     8
 90
        9
310
434D445F4C494E4540
  0
TCOPTIONALDATA
  5
233
102
{ACAD_REACTORS
330
232
102
}
330
232
100
TcOptionalData
 70
     2
 70
   128
 90
        1
  1
#$AUX@_ToolInfo Properties
 70
     8
 90
        9
310
434D445F4C494E4540
  0
TCOPTIONALDATA
  5
236
102
{ACAD_REACTORS
330
235
102
}
330
235
100
TcOptionalData
 70
     2
 70
   128
 90
        1
  1
#$AUX@_ToolInfo Properties
 70
     8
 90
        9
310
434D445F4C494E4540
  0
TCOPTIONALDATA
  5
239
102
{ACAD_REACTORS
330
238
102
}
330
238
100
TcOptionalData
 70
     2
 70
   128
 90
        1
  1
#$AUX@_ToolInfo Properties
 70
     8
 90
        9
310
434D445F4C494E4540
  0
TCOPTIONALDATA
  5
23C
102
{ACAD_REACTORS
330
23B
102
}
330
23B
100
TcOptionalData
 70
     2
 70
   128
 90
        1
  1
#$AUX@_ToolInfo Properties
 70
     8
 90
        9
310
434D445F4C494E4540
  0
TCOPTIONALDATA
  5
23F
102
{ACAD_REACTORS
330
23E
102
}
330
23E
100
TcOptionalData
 70
     2
 70
   128
 90
        1
  1
#$AUX@_ToolInfo Properties
 70
     8
 90
        9
310
434D445F4C494E4540
  0
TCOPTIONALDATA
  5
242
102
{ACAD_REACTORS
330
241
102
}
330
241
100
TcOptionalData
 70
     2
 70
   128
 90
        1
  1
#$AUX@_ToolInfo Properties
 70
     8
 90
        9
310
434D445F4C494E4540
  0
TCOPTIONALDATA
  5
245
102
{ACAD_REACTORS
330
244
102
}
330
244
100
TcOptionalData
 70
     2
 70
   128
 90
        1
  1
#$AUX@_ToolInfo Properties
 70
     8
 90
        9
310
434D445F4C494E4540
  0
TCOPTIONALDATA
  5
248
102
{ACAD_REACTORS
330
247
102
}
330
247
100
TcOptionalData
 70
     2
 70
    32
 40
0.0275590550154448
  0
TCOPTIONALDATA
  5
24C
102
{ACAD_REACTORS
330
24B
102
}
330
24B
100
TcOptionalData
 70
     2
 70
    16
  1
Courier New
 70
     2
  0
TCOPTIONALDATA
  5
24F
102
{ACAD_REACTORS
330
24E
102
}
330
24E
100
TcOptionalData
 70
     2
 70
    32
 40
0.0275590550154448
  0
TCOPTIONALDATA
  5
253
102
{ACAD_REACTORS
330
252
102
}
330
252
100
TcOptionalData
 70
     2
 70
    16
  1
Courier New
 70
     2
  0
TCOPTIONALDATA
  5
256
102
{ACAD_REACTORS
330
255
102
}
330
255
100
TcOptionalData
 70
     2
 70
    32
 40
0.0275590550154448
  0
TCOPTIONALDATA
  5
259
102
{ACAD_REACTORS
330
258
102
}
330
258
100
TcOptionalData
 70
     2
 70
    16
  1
Courier New
 70
     2
  0
TCOPTIONALDATA
  5
25C
102
{ACAD_REACTORS
330
25B
102
}
330
25B
100
TcOptionalData
 70
     2
 70
    32
 40
0.0275590550154448
  0
TCOPTIONALDATA
  5
25F
102
{ACAD_REACTORS
330
25E
102
}
330
25E
100
TcOptionalData
 70
     2
 70
    16
  1
Courier New
 70
     2
  0
TCOPTIONALDATA
  5
262
102
{ACAD_REACTORS
330
261
102
}
330
261
100
TcOptionalData
 70
     2
 70
    32
 40
0.0275590550154448
  0
TCOPTIONALDATA
  5
265
102
{ACAD_REACTORS
330
264
102
}
330
264
100
TcOptionalData
 70
     2
 70
    16
  1
Courier New
 70
     2
  0
TCOPTIONALDATA
  5
268
102
{ACAD_REACTORS
330
267
102
}
330
267
100
TcOptionalData
 70
     2
 70
    32
 40
0.0275590550154448
  0
TCOPTIONALDATA
  5
26B
102
{ACAD_REACTORS
330
26A
102
}
330
26A
100
TcOptionalData
 70
     2
 70
    16
  1
Courier New
 70
     2
  0
TCOPTIONALDATA
  5
26E
102
{ACAD_REACTORS
330
26D
102
}
330
26D
100
TcOptionalData
 70
     2
 70
    32
 40
0.0275590550154448
  0
TCOPTIONALDATA
  5
271
102
{ACAD_REACTORS
330
270
102
}
330
270
100
TcOptionalData
 70
     2
 70
    16
  1
Courier New
 70
     2
  0
DIMASSOC
  5
276
102
{ACAD_REACTORS
330
273
102
}
330
273
100
AcDbDimAssoc
330
275
 90
        3
 70
     0
 71
     1
  1
AcDbOsnapPointRef
 72
    13
331
195
 73
     2
 91
        0
 40
13.0
 10
0.0
 20
0.0
 30
2.000000000000000E+50
 75
     0
  1
AcDbOsnapPointRef
 72
     1
331
195
 73
     2
 91
        0
 40
1.0
 10
0.0
 20
0.0
 30
2.000000000000000E+50
 75
     0
  0
TCOPTIONALDATA
  5
274
102
{ACAD_REACTORS
330
273
102
}
330
273
100
TcOptionalData
 70
     2
 70
   128
 90
        1
  1
#$AUX@_ToolInfo Properties
 70
     8
 90
       18
310
434D445F4F5254484F474F4E414C44494D40
  0
DIMASSOC
  5
287
102
{ACAD_REACTORS
330
284
102
}
330
284
100
AcDbDimAssoc
330
286
 90
        1
 70
     0
 71
     1
  1
AcDbOsnapPointRef
 72
    13
331
195
 73
     2
 91
        0
 40
13.0
 10
0.0
 20
0.0
 30
2.000000000000000E+50
 75
     0
  0
TCOPTIONALDATA
  5
285
102
{ACAD_REACTORS
330
284
102
}
330
284
100
TcOptionalData
 70
     2
 70
   128
 90
        1
  1
#$AUX@_ToolInfo Properties
 70
     8
 90
       18
310
434D445F4F5254484F474F4E414C44494D40
  0
DIMASSOC
  5
297
102
{ACAD_REACTORS
330
294
102
}
330
294
100
AcDbDimAssoc
330
296
 90
        3
 70
     0
 71
     1
  1
AcDbOsnapPointRef
 72
     1
331
195
 73
     2
 91
        0
 40
1.0
 10
0.0
 20
0.0
 30
2.000000000000000E+50
 75
     0
  1
AcDbOsnapPointRef
 72
    13
331
198
 73
     2
 91
        0
 40
13.0
 10
0.0
 20
0.0
 30
2.000000000000000E+50
 75
     0
  0
TCOPTIONALDATA
  5
295
102
{ACAD_REACTORS
330
294
102
}
330
294
100
TcOptionalData
 70
     2
 70
   128
 90
        1
  1
#$AUX@_ToolInfo Properties
 70
     8
 90
       18
310
434D445F4F5254484F474F4E414C44494D40
  0
DIMASSOC
  5
2A9
102
{ACAD_REACTORS
330
2A6
102
}
330
2A6
100
AcDbDimAssoc
330
2A8
 90
        2
 70
     0
 71
     1
  1
AcDbOsnapPointRef
 72
     3
331
192
 73
     2
 91
        0
 40
3.0
 10
0.0
 20
0.0
 30
0.0
 75
     0
  0
TCOPTIONALDATA
  5
2A7
102
{ACAD_REACTORS
330
2A6
102
}
330
2A6
100
TcOptionalData
 70
     2
 70
   128
 90
        1
  1
#$AUX@_ToolInfo Properties
 70
     8
 90
       14
310
434D445F52414449414C44494D40
  0
TCOPTIONALDATA
  5
2B3
102
{ACAD_REACTORS
330
2B2
102
}
330
2B2
100
TcOptionalData
 70
     2
 70
   128
 90
        1
  1
#$AUX@_ToolInfo Properties
 70
     8
 90
        9
310
434D445F4C494E4540
  0
DIMASSOC
  5
2B8
102
{ACAD_REACTORS
330
2B5
102
}
330
2B5
100
AcDbDimAssoc
330
2B7
 90
        3
 70
     0
 71
     1
  1
AcDbOsnapPointRef
 72
    13
331
1D1
 73
     2
 91
        0
 40
13.0
 10
0.0
 20
0.0
 30
2.000000000000000E+50
 75
     0
  1
AcDbOsnapPointRef
 72
     1
331
1D1
 73
     2
 91
        0
 40
1.0
 10
0.0
 20
0.0
 30
2.000000000000000E+50
 75
     0
  0
TCOPTIONALDATA
  5
2B6
102
{ACAD_REACTORS
330
2B5
102
}
330
2B5
100
TcOptionalData
 70
     2
 70
   128
 90
        1
  1
#$AUX@_ToolInfo Properties
 70
     8
 90
       16
310
434D445F504152414C4C454C44494D40
  0
DIMASSOC
  5
2C8
102
{ACAD_REACTORS
330
2C5
102
}
330
2C5
100
AcDbDimAssoc
330
2C7
 90
        2
 70
     0
 71
     1
  1
AcDbOsnapPointRef
 72
     1
331
1D4
 73
     2
 91
        0
 40
1.0
 10
0.0
 20
0.0
 30
2.000000000000000E+50
 75
     0
  0
TCOPTIONALDATA
  5
2C6
102
{ACAD_REACTORS
330
2C5
102
}
330
2C5
100
TcOptionalData
 70
     2
 70
   128
 90
        1
  1
#$AUX@_ToolInfo Properties
 70
     8
 90
       14
310
434D445F52414449414C44494D40
  0
TCOPTIONALDATA
  5
2D2
102
{ACAD_REACTORS
330
2D1
102
}
330
2D1
100
TcOptionalData
 70
     2
 70
   128
 90
        1
  1
#$AUX@_ToolInfo Properties
 70
     8
 90
       16
310
434D445F43454E544552505441524340
  0
TCOPTIONALDATA
  5
2D5
102
{ACAD_REACTORS
330
2D4
102
}
330
2D4
100
TcOptionalData
 70
     2
 70
   128
 90
        1
  1
#$AUX@_ToolInfo Properties
 70
     8
 90
       19
310
434D445F43454E5445525054434952434C4540
  0
TCOPTIONALDATA
  5
2D9
102
{ACAD_REACTORS
330
2D8
102
}
330
2D8
100
TcOptionalData
 70
     2
 70
   128
 90
        1
  1
#$AUX@_ToolInfo Properties
 70
     8
 90
       19
310
434D445F43454E5445525054434952434C4540
  0
TCOPTIONALDATA
  5
2DB
102
{ACAD_REACTORS
330
2DA
102
}
330
2DA
100
TcOptionalData
 70
     2
 70
   128
 90
        1
  1
#$AUX@_ToolInfo Properties
 70
     8
 90
       16
310
434D445F43454E544552505441524340
  0
TCOPTIONALDATA
  5
2DE
102
{ACAD_REACTORS
330
2DD
102
}
330
2DD
100
TcOptionalData
 70
     2
 70
   128
 90
        1
  1
#$AUX@_ToolInfo Properties
 70
     8
 90
       19
310
434D445F43454E5445525054434952434C4540
  0
TCOPTIONALDATA
  5
2E2
102
{ACAD_REACTORS
330
2E1
102
}
330
2E1
100
TcOptionalData
 70
     2
 70
   128
 90
        1
  1
#$AUX@_ToolInfo Properties
 70
     8
 90
       19
310
434D445F43454E5445525054434952434C4540
  0
TCOPTIONALDATA
  5
2E4
102
{ACAD_REACTORS
330
2E3
102
}
330
2E3
100
TcOptionalData
 70
     2
 70
    16
  1
Courier New
 70
     2
  0
DIMASSOC
  5
2E9
102
{ACAD_REACTORS
330
2E6
102
}
330
2E6
100
AcDbDimAssoc
330
2E8
 90
        2
 70
     0
 71
     1
  1
AcDbOsnapPointRef
 72
     3
331
22E
 73
     2
 91
        0
 40
3.0
 10
0.0
 20
0.0
 30
0.0
 75
     0
  0
TCOPTIONALDATA
  5
2E7
102
{ACAD_REACTORS
330
2E6
102
}
330
2E6
100
TcOptionalData
 70
     2
 70
   128
 90
        1
  1
#$AUX@_ToolInfo Properties
 70
     8
 90
       14
310
434D445F52414449414C44494D40
  0
TCOPTIONALDATA
  5
2F3
102
{ACAD_REACTORS
330
2F2
102
}
330
2F2
100
TcOptionalData
 70
     2
 70
   128
 90
        1
  1
#$AUX@_ToolInfo Properties
 70
     8
 90
        9
310
434D445F4C494E4540
  0
MATERIAL
  5
3D
102
{ACAD_REACTORS
330
3B
102
}
102
{ACAD_XDICTIONARY
360
31B
102
}
330
3B
100
AcDbMaterial
  1
ByBlock
  0
MATERIAL
  5
3C
102
{ACAD_REACTORS
330
3B
102
}
102
{ACAD_XDICTIONARY
360
319
102
}
330
3B
100
AcDbMaterial
  1
ByLayer
  0
MATERIAL
  5
3E
102
{ACAD_REACTORS
330
3B
102
}
102
{ACAD_XDICTIONARY
360
31D
102
}
330
3B
100
AcDbMaterial
  1
Global
  0
ACAD_PROXY_OBJECT
  5
16A
102
{ACAD_REACTORS
330
169
102
}
330
169
100
AcDbProxyObject
 90
      499
 91
      699
 93
      538
310
40901902A4063FBFFFFFE0000000000000420400000000000008408000000000000084090140501A0000000000000210002B5E8DC0F42B1CFE5764000000000000300FC0
340
14
340
0
340
11
340
0
 94
        0
1001
ACAD_MLEADERVER
1070
     2
  0
MLINESTYLE
  5
18
102
{ACAD_REACTORS
330
17
102
}
330
17
100
AcDbMlineStyle
  2
Standard
 70
     0
  3

 62
   256
 51
90.0
 52
90.0
 71
     5
 49
0.5
 62
   256
  6
BYLAYER
 49
-0.5
 62
   256
  6
BYLAYER
 49
5.0
 62
     0
  6
BYLAYER
 49
0.0
 62
     0
  6
BYLAYER
 49
-5.0
 62
     0
  6
BYLAYER
  0
ACAD_PROXY_OBJECT
  5
2F
102
{ACAD_REACTORS
330
2A
102
}
330
2A
100
AcDbProxyObject
 90
      499
 91
      501
 93
      436
310
42CC9915DA5C99599C985B595049028333333333333E3BF0000000000000FB0107901411070040501600405405064090741402480A0340
1001
ACAD
1000
AcDbSavedByObjectVersion
1070
     0
  0
ACAD_PROXY_OBJECT
  5
31
102
{ACAD_REACTORS
330
2A
102
}
330
2A
100
AcDbProxyObject
 90
      499
 91
      501
 93
      500
310
424CD108121A5919195B90640502408333333333333E3BF0000000000000FB01079024090700405020000000000001110200405405064090740C02480A0340
1001
ACAD
1000
AcDbSavedByObjectVersion
1070
     0
  0
ACAD_PROXY_OBJECT
  5
30
102
{ACAD_REACTORS
330
2A
102
}
330
2A
100
AcDbProxyObject
 90
      499
 91
      501
 93
      436
310
42CCD915DA5C99599C985B595059028333333333333E3BF0000000000000FB0107901411070040501600405405064090741402480A0340
1001
ACAD
1000
AcDbSavedByObjectVersion
1070
     0
  0
ACAD_PROXY_OBJECT
  5
32
102
{ACAD_REACTORS
330
2A
102
}
330
2A
100
AcDbProxyObject
 90
      499
 91
      501
 93
      388
310
4150985CDA58D07406404333333333333E3BF0000000000000FB0107A41107004050150841D405064090741402480A0350
1001
ACAD
1000
AcDbSavedByObjectVersion
1070
     0
  0
ACAD_PROXY_OBJECT
  5
36
102
{ACAD_REACTORS
330
2A
102
}
330
2A
100
AcDbProxyObject
 90
      499
 91
      501
 93
      428
310
42109C9A59DA1D195B90C409028333333333333E3BF0000000000000FB010790141107004050150841D405064090741402480A029950
1001
ACAD
1000
AcDbSavedByObjectVersion
1070
     0
  0
ACAD_PROXY_OBJECT
  5
3A
102
{ACAD_REACTORS
330
2A
102
}
330
2A
100
AcDbProxyObject
 90
      499
 91
      501
 93
      452
310
42D0DBDB1BDC90DA185B99D95104090240C333333333333E3BF0000000000000FB0108901411070040501508421405064090741402480A0350
1001
ACAD
1000
AcDbSavedByObjectVersion
1070
     0
  0
ACAD_PROXY_OBJECT
  5
34
102
{ACAD_REACTORS
330
2A
102
}
330
2A
100
AcDbProxyObject
 90
      499
 91
      501
 93
      500
310
4290DBDB98D95C1D1D585B10940D028333333333333E3BF0000000000000FB0107902409070040501000000000000111010841D405064090740C02480A0340
1001
ACAD
1000
AcDbSavedByObjectVersion
1070
     0
  0
ACAD_PROXY_OBJECT
  5
35
102
{ACAD_REACTORS
330
2A
102
}
330
2A
100
AcDbProxyObject
 90
      499
 91
      501
 93
      412
310
40D11A5B50B409028333333333333E3BF0000000000000FB010790141107004050150841D405064090741402480A02677FFFFFD0
1001
ACAD
1000
AcDbSavedByObjectVersion
1070
     0
  0
ACAD_PROXY_OBJECT
  5
39
102
{ACAD_REACTORS
330
2A
102
}
330
2A
100
AcDbProxyObject
 90
      499
 91
      501
 93
      444
310
42D19858D95C185D1D195C9B90F409028333333333333E3BF0000000000000FB010790141107004050150841D405064090741402480A0350
1001
ACAD
1000
AcDbSavedByObjectVersion
1070
     0
  0
ACAD_PROXY_OBJECT
  5
2B
102
{ACAD_REACTORS
330
2A
102
}
330
2A
100
AcDbProxyObject
 90
      499
 91
      501
 93
      388
310
41119B185D240901404333333333333E3BF0000000000000F9010740A41107004050150841D405064090741402480A1B50
1001
ACAD
1000
AcDbSavedByObjectVersion
1070
     0
  0
ACAD_PROXY_OBJECT
  5
2C
102
{ACAD_REACTORS
330
2A
102
}
330
2A
100
AcDbProxyObject
 90
      499
 91
      501
 93
      476
310
43519B185D15DA5D1A115919D95CD0140901404333333333333E3BF0000000000000F9010740901411070040501600405405064090741402480A1B50
1001
ACAD
1000
AcDbSavedByObjectVersion
1070
     0
  0
ACAD_PROXY_OBJECT
  5
2D
102
{ACAD_REACTORS
330
2A
102
}
330
2A
100
AcDbProxyObject
 90
      499
 91
      501
 93
      412
310
41D1DBDD5C985D5910240902404333333333333E3BF0000000000000F9010740A411070040501641D405064090741402480A1B50
1001
ACAD
1000
AcDbSavedByObjectVersion
1070
     0
  0
ACAD_PROXY_OBJECT
  5
2E
102
{ACAD_REACTORS
330
2A
102
}
330
2A
100
AcDbProxyObject
 90
      499
 91
      501
 93
      500
310
4411DBDD5C985D5915DA5D1A115919D95CD0340902404333333333333E3BF0000000000000F9010740901411070040501600405405064090741402480A1B50
1001
ACAD
1000
AcDbSavedByObjectVersion
1070
     0
  0
ACAD_PROXY_OBJECT
  5
38
102
{ACAD_REACTORS
330
2A
102
}
330
2A
100
AcDbProxyObject
 90
      499
 91
      501
 93
      444
310
42D31A5B995C185D1D195C9B90E409028333333333333E3BF0000000000000FB010790141107004050750841D405064090741402483A0350
1001
ACAD
1000
AcDbSavedByObjectVersion
1070
     0
  0
ACAD_PROXY_OBJECT
  5
33
102
{ACAD_REACTORS
330
2A
102
}
330
2A
100
AcDbProxyObject
 90
      499
 91
      501
 93
      420
310
425499585B1A5CDD1A58D08409028333333333333E3BF0000000000000FB01079019070040501508421405064090741402480A1B40
1001
ACAD
1000
AcDbSavedByObjectVersion
1070
     0
  0
ACAD_PROXY_OBJECT
  5
37
102
{ACAD_REACTORS
330
2A
102
}
330
2A
100
AcDbProxyObject
 90
      499
 91
      501
 93
      412
310
41D51A1A58DAD95B90D409028333333333333E3BF0000000000000FB010790141107004050150C41D405064090741402480A0350
1001
ACAD
1000
AcDbSavedByObjectVersion
1070
     0
  0
XRECORD
  5
2FE
102
{ACAD_REACTORS
330
2F5
102
}
330
2F5
100
AcDbXrecord
 90
        0
  0
XRECORD
  5
314
102
{ACAD_REACTORS
330
2F5
102
}
330
2F5
100
AcDbXrecord
1000
DSTYLE
1002
{
1070
   171
 70
     2
1070
   143
 40
1.0
1070
   148
 40
0.01
1070
   274
 70
     2
1070
     4
  1
 mm
1070
    41
 40
3.0
1070
   141
 40
0.0
1070
   176
 70
     7
1070
   177
 70
     7
1070
   178
 70
     7
1070
    43
 40
7.5
1070
   278
 70
     0
1070
    44
 40
2.0
1070
    42
 40
1.0
1070
   276
 70
     2
1070
   147
 40
2.0
1070
     3
  1
 mm
1070
    45
 40
0.2
1070
   272
 70
     3
1070
    73
 70
     1
1070
   283
 70
     1
1070
   340
340
11
1070
   140
 40
3.0
1070
   284
 70
     0
1070
    78
 70
     1
1070
   345
340
14
1070
   346
340
14
1070
   347
340
14
1002
}
  0
XRECORD
  5
2FF
102
{ACAD_REACTORS
330
2F5
102
}
330
2F5
100
AcDbXrecord
  1
{D6547404-3968-486B-9AAA-B078FBC4B2A6}
  0
XRECORD
  5
2F8
102
{ACAD_REACTORS
330
2F5
102
}
330
2F5
100
AcDbXrecord
  1

  0
XRECORD
  5
2FD
102
{ACAD_REACTORS
330
2F5
102
}
330
2F5
100
AcDbXrecord
 90
        1
  0
XRECORD
  5
2FA
102
{ACAD_REACTORS
330
2F5
102
}
330
2F5
100
AcDbXrecord
340
1A
  0
XRECORD
  5
2FC
102
{ACAD_REACTORS
330
2F5
102
}
330
2F5
100
AcDbXrecord
 90
    10781
  0
XRECORD
  5
2FB
102
{ACAD_REACTORS
330
2F5
102
}
330
2F5
100
AcDbXrecord
340
19
  0
XRECORD
  5
301
102
{ACAD_REACTORS
330
2F5
102
}
330
2F5
100
AcDbXrecord
 40
0.0
  0
XRECORD
  5
304
102
{ACAD_REACTORS
330
2F5
102
}
330
2F5
100
AcDbXrecord
340
0
  0
XRECORD
  5
30A
102
{ACAD_REACTORS
330
2F5
102
}
330
2F5
100
AcDbXrecord
 10
0.0
 20
0.0
 30
0.0
  0
XRECORD
  5
306
102
{ACAD_REACTORS
330
2F5
102
}
330
2F5
100
AcDbXrecord
 10
0.0
 20
0.0
 30
0.0
  0
XRECORD
  5
309
102
{ACAD_REACTORS
330
2F5
102
}
330
2F5
100
AcDbXrecord
 10
0.0
 20
0.0
 30
0.0
  0
XRECORD
  5
307
102
{ACAD_REACTORS
330
2F5
102
}
330
2F5
100
AcDbXrecord
 10
0.0
 20
0.0
 30
0.0
  0
XRECORD
  5
308
102
{ACAD_REACTORS
330
2F5
102
}
330
2F5
100
AcDbXrecord
 10
0.0
 20
0.0
 30
0.0
  0
XRECORD
  5
305
102
{ACAD_REACTORS
330
2F5
102
}
330
2F5
100
AcDbXrecord
 10
0.0
 20
0.0
 30
0.0
  0
XRECORD
  5
302
102
{ACAD_REACTORS
330
2F5
102
}
330
2F5
100
AcDbXrecord
340
0
  0
XRECORD
  5
303
102
{ACAD_REACTORS
330
2F5
102
}
330
2F5
100
AcDbXrecord
 70
     0
  0
XRECORD
  5
2F9
102
{ACAD_REACTORS
330
2F5
102
}
330
2F5
100
AcDbXrecord
  1

  0
XRECORD
  5
2F6
102
{ACAD_REACTORS
330
2F5
102
}
330
2F5
100
AcDbXrecord
 90
        1
  0
XRECORD
  5
2F7
102
{ACAD_REACTORS
330
2F5
102
}
330
2F5
100
AcDbXrecord
 90
       70
  0
XRECORD
  5
30D
102
{ACAD_REACTORS
330
2F5
102
}
330
2F5
100
AcDbXrecord
340
0
  0
XRECORD
  5
313
102
{ACAD_REACTORS
330
2F5
102
}
330
2F5
100
AcDbXrecord
 10
0.0
 20
0.0
 30
0.0
  0
XRECORD
  5
30F
102
{ACAD_REACTORS
330
2F5
102
}
330
2F5
100
AcDbXrecord
 10
0.0
 20
0.0
 30
0.0
  0
XRECORD
  5
312
102
{ACAD_REACTORS
330
2F5
102
}
330
2F5
100
AcDbXrecord
 10
0.0
 20
0.0
 30
0.0
  0
XRECORD
  5
310
102
{ACAD_REACTORS
330
2F5
102
}
330
2F5
100
AcDbXrecord
 10
0.0
 20
0.0
 30
0.0
  0
XRECORD
  5
311
102
{ACAD_REACTORS
330
2F5
102
}
330
2F5
100
AcDbXrecord
 10
0.0
 20
0.0
 30
0.0
  0
XRECORD
  5
30E
102
{ACAD_REACTORS
330
2F5
102
}
330
2F5
100
AcDbXrecord
 10
0.0
 20
0.0
 30
0.0
  0
XRECORD
  5
30B
102
{ACAD_REACTORS
330
2F5
102
}
330
2F5
100
AcDbXrecord
340
0
  0
XRECORD
  5
30C
102
{ACAD_REACTORS
330
2F5
102
}
330
2F5
100
AcDbXrecord
 70
     0
  0
XRECORD
  5
300
102
{ACAD_REACTORS
330
2F5
102
}
330
2F5
100
AcDbXrecord
  1
{FAEB1C32-E019-11D5-929B-00C0DF256EC4}
  0
DICTIONARYVAR
  5
317
102
{ACAD_REACTORS
330
315
102
}
330
315
100
DictionaryVariables
280
     0
  1
2
  0
DICTIONARYVAR
  5
318
102
{ACAD_REACTORS
330
315
102
}
330
315
100
DictionaryVariables
280
     0
  1
1
  0
DICTIONARY
  5
31B
330
3D
100
AcDbDictionary
280
     1
  3
ACAD_XREC_ROUNDTRIP
360
31C
  0
DICTIONARY
  5
319
330
3C
100
AcDbDictionary
280
     1
  3
ACAD_XREC_ROUNDTRIP
360
31A
  0
DICTIONARY
  5
31D
330
3E
100
AcDbDictionary
280
     1
  3
ACAD_XREC_ROUNDTRIP
360
31E
  0
XRECORD
  5
31C
102
{ACAD_REACTORS
330
31B
102
}
330
31B
100
AcDbXrecord
102
MATERIAL
148
0.0
149
0.0
149
0.0
 93
        0
 94
      127
282
     0
 72
     1
 77
     1
171
     1
175
     1
179
     1
273
     0
  0
XRECORD
  5
31A
102
{ACAD_REACTORS
330
319
102
}
330
319
100
AcDbXrecord
102
MATERIAL
148
0.0
149
0.0
149
0.0
 93
        0
 94
      127
282
     0
 72
     1
 77
     1
171
     1
175
     1
179
     1
273
     0
  0
XRECORD
  5
31E
102
{ACAD_REACTORS
330
31D
102
}
330
31D
100
AcDbXrecord
102
MATERIAL
148
0.0
149
0.0
149
0.0
 93
        0
 94
      127
282
     0
 72
     1
 77
     1
171
     1
175
     1
179
     1
273
     0
  0
ENDSEC
  0
EOF
