  0
SECTION
  2
HEADER
  9
$ACADVER
  1
AC1021
  9
$ACADMAINTVER
 70
    25
  9
$DWGCODEPAGE
  3
ANSI_1252
  9
$INSBASE
 10
0.0
 20
0.0
 30
0.0
  9
$EXTMIN
 10
-60.04830133129688
 20
-20.01797759581144
 30
0.0
  9
$EXTMAX
 10
100.9955241799053
 20
20.17517610899152
 30
0.0
  9
$LIMMIN
 10
0.0
 20
0.0
  9
$LIMMAX
 10
297.0
 20
210.0
  9
$ORTHOMODE
 70
     0
  9
$REGENMODE
 70
     1
  9
$FILLMODE
 70
     1
  9
$QTEXTMODE
 70
     0
  9
$MIRRTEXT
 70
     0
  9
$LTSCALE
 40
1.0
  9
$ATTMODE
 70
     1
  9
$TEXTSIZE
 40
5.0
  9
$TRACEWID
 40
1.0
  9
$TEXTSTYLE
  7
Standard
  9
$CLAYER
  8
0
  9
$CELTYPE
  6
ByLayer
  9
$CECOLOR
 62
   256
  9
$CELTSCALE
 40
1.0
  9
$DISPSILH
 70
     0
  9
$DIMSCALE
 40
1.0
  9
$DIMASZ
 40
3.0
  9
$DIMEXO
 40
0.9999999999999999
  9
$DIMDLI
 40
7.5
  9
$DIMRND
 40
0.001
  9
$DIMDLE
 40
0.0
  9
$DIMEXE
 40
2.0
  9
$DIMTP
 40
0.0
  9
$DIMTM
 40
0.0
  9
$DIMTXT
 40
3.0
  9
$DIMCEN
 40
0.0
  9
$DIMTSZ
 40
0.0
  9
$DIMTOL
 70
     0
  9
$DIMLIM
 70
     0
  9
$DIMTIH
 70
     1
  9
$DIMTOH
 70
     0
  9
$DIMSE1
 70
     0
  9
$DIMSE2
 70
     0
  9
$DIMTAD
 70
     1
  9
$DIMZIN
 70
     1
  9
$DIMBLK
  1

  9
$DIMASO
 70
     1
  9
$DIMSHO
 70
     1
  9
$DIMPOST
  1

  9
$DIMAPOST
  1

  9
$DIMALT
 70
     0
  9
$DIMALTD
 70
     3
  9
$DIMALTF
 40
1.0
  9
$DIMLFAC
 40
1.0
  9
$DIMTOFL
 70
     1
  9
$DIMTVP
 40
0.0
  9
$DIMTIX
 70
     0
  9
$DIMSOXD
 70
     0
  9
$DIMSAH
 70
     0
  9
$DIMBLK1
  1

  9
$DIMBLK2
  1

  9
$DIMSTYLE
  2
Standard
  9
$DIMCLRD
 70
     7
  9
$DIMCLRE
 70
     7
  9
$DIMCLRT
 70
     7
  9
$DIMTFAC
 40
1.0
  9
$DIMGAP
 40
2.0
  9
$DIMJUST
 70
     0
  9
$DIMSD1
 70
     0
  9
$DIMSD2
 70
     0
  9
$DIMTOLJ
 70
     1
  9
$DIMTZIN
 70
     0
  9
$DIMALTZ
 70
     0
  9
$DIMALTTZ
 70
     0
  9
$DIMUPT
 70
     0
  9
$DIMDEC
 70
     3
  9
$DIMTDEC
 70
     3
  9
$DIMALTU
 70
     2
  9
$DIMALTTD
 70
     2
  9
$DIMTXSTY
  7
Standard
  9
$DIMAUNIT
 70
     0
  9
$DIMADEC
 70
     0
  9
$DIMALTRND
 40
0.01
  9
$DIMAZIN
 70
     0
  9
$DIMDSEP
 70
     0
  9
$DIMATFIT
 70
     3
  9
$DIMFRAC
 70
     2
  9
$DIMLDRBLK
  1

  9
$DIMLUNIT
 70
     2
  9
$DIMLWD
 70
    -2
  9
$DIMLWE
 70
    -2
  9
$DIMTMOVE
 70
     0
  9
$DIMFXL
 40
1.0
  9
$DIMFXLON
 70
     0
  9
$DIMJOGANG
 40
0.7853981633974483
  9
$DIMTFILL
 70
     0
  9
$DIMTFILLCLR
 70
     7
  9
$DIMARCSYM
 70
     0
  9
$DIMLTYPE
  6
ByBlock
  9
$DIMLTEX1
  6
ByBlock
  9
$DIMLTEX2
  6
ByBlock
  9
$LUNITS
 70
     2
  9
$LUPREC
 70
     3
  9
$SKETCHINC
 40
1.0
  9
$FILLETRAD
 40
5.0
  9
$AUNITS
 70
     0
  9
$AUPREC
 70
     2
  9
$MENU
  1
.
  9
$ELEVATION
 40
0.0
  9
$PELEVATION
 40
0.0
  9
$THICKNESS
 40
0.0
  9
$LIMCHECK
 70
     0
  9
$CHAMFERA
 40
0.5
  9
$CHAMFERB
 40
0.5
  9
$CHAMFERC
 40
1.0
  9
$CHAMFERD
 40
0.0
  9
$SKPOLY
 70
     0
  9
$TDCREATE
 40
2456094.988902095
  9
$TDUCREATE
 40
2456094.905568762
  9
$TDUPDATE
 40
2456094.988903356
  9
$TDUUPDATE
 40
2456094.905570023
  9
$TDINDWG
 40
0.0
  9
$TDUSRTIMER
 40
0.0
  9
$USRTIMER
 70
     1
  9
$ANGBASE
 50
0.0
  9
$ANGDIR
 70
     0
  9
$PDMODE
 70
     0
  9
$PDSIZE
 40
0.0
  9
$PLINEWID
 40
0.0
  9
$SPLFRAME
 70
     0
  9
$SPLINETYPE
 70
     5
  9
$SPLINESEGS
 70
    20
  9
$HANDSEED
  5
673
  9
$SURFTAB1
 70
     6
  9
$SURFTAB2
 70
     6
  9
$SURFTYPE
 70
     6
  9
$SURFU
 70
     6
  9
$SURFV
 70
     6
  9
$UCSBASE
  2

  9
$UCSNAME
  2

  9
$UCSORG
 10
0.0
 20
0.0
 30
0.0
  9
$UCSXDIR
 10
1.0
 20
0.0
 30
0.0
  9
$UCSYDIR
 10
0.0
 20
1.0
 30
0.0
  9
$UCSORTHOREF
  2

  9
$UCSORTHOVIEW
 70
     0
  9
$UCSORGTOP
 10
0.0
 20
0.0
 30
0.0
  9
$UCSORGBOTTOM
 10
0.0
 20
0.0
 30
0.0
  9
$UCSORGLEFT
 10
0.0
 20
0.0
 30
0.0
  9
$UCSORGRIGHT
 10
0.0
 20
0.0
 30
0.0
  9
$UCSORGFRONT
 10
0.0
 20
0.0
 30
0.0
  9
$UCSORGBACK
 10
0.0
 20
0.0
 30
0.0
  9
$PUCSBASE
  2

  9
$PUCSNAME
  2

  9
$PUCSORG
 10
0.0
 20
0.0
 30
0.0
  9
$PUCSXDIR
 10
1.0
 20
0.0
 30
0.0
  9
$PUCSYDIR
 10
0.0
 20
1.0
 30
0.0
  9
$PUCSORTHOREF
  2

  9
$PUCSORTHOVIEW
 70
     0
  9
$PUCSORGTOP
 10
0.0
 20
0.0
 30
0.0
  9
$PUCSORGBOTTOM
 10
0.0
 20
0.0
 30
0.0
  9
$PUCSORGLEFT
 10
0.0
 20
0.0
 30
0.0
  9
$PUCSORGRIGHT
 10
0.0
 20
0.0
 30
0.0
  9
$PUCSORGFRONT
 10
0.0
 20
0.0
 30
0.0
  9
$PUCSORGBACK
 10
0.0
 20
0.0
 30
0.0
  9
$USERI1
 70
     0
  9
$USERI2
 70
     0
  9
$USERI3
 70
     0
  9
$USERI4
 70
     0
  9
$USERI5
 70
     0
  9
$USERR1
 40
0.0
  9
$USERR2
 40
0.0
  9
$USERR3
 40
0.0
  9
$USERR4
 40
0.0
  9
$USERR5
 40
0.0
  9
$WORLDVIEW
 70
     1
  9
$SHADEDGE
 70
     3
  9
$SHADEDIF
 70
    70
  9
$TILEMODE
 70
     1
  9
$MAXACTVP
 70
    64
  9
$PINSBASE
 10
0.0
 20
0.0
 30
0.0
  9
$PLIMCHECK
 70
     0
  9
$PEXTMIN
 10
0.0
 20
0.0
 30
0.0
  9
$PEXTMAX
 10
420.0
 20
297.0
 30
0.0
  9
$PLIMMIN
 10
0.0
 20
0.0
  9
$PLIMMAX
 10
420.0
 20
297.0
  9
$UNITMODE
 70
     0
  9
$VISRETAIN
 70
     1
  9
$PLINEGEN
 70
     0
  9
$PSLTSCALE
 70
     1
  9
$TREEDEPTH
 70
  3020
  9
$CMLSTYLE
  2
Standard
  9
$CMLJUST
 70
     0
  9
$CMLSCALE
 40
1.0
  9
$PROXYGRAPHICS
 70
     1
  9
$MEASUREMENT
 70
     1
  9
$CELWEIGHT
370
    -1
  9
$ENDCAPS
280
     0
  9
$JOINSTYLE
280
     0
  9
$LWDISPLAY
290
     0
  9
$INSUNITS
 70
     1
  9
$HYPERLINKBASE
  1

  9
$STYLESHEET
  1

  9
$XEDIT
290
     1
  9
$CEPSNTYPE
380
     0
  9
$PSTYLEMODE
290
     1
  9
$FINGERPRINTGUID
  2
{F9EFC04A-2263-4949-B404-1421446B5542}
  9
$VERSIONGUID
  2
{FAEB1C32-E019-11D5-929B-00C0DF256EC4}
  9
$EXTNAMES
290
     1
  9
$PSVPSCALE
 40
0.0
  9
$OLESTARTUP
290
     0
  9
$SORTENTS
280
   127
  9
$INDEXCTL
280
     0
  9
$HIDETEXT
280
     1
  9
$XCLIPFRAME
290
     0
  9
$HALOGAP
280
     0
  9
$OBSCOLOR
 70
   257
  9
$OBSLTYPE
280
     0
  9
$INTERSECTIONDISPLAY
280
     0
  9
$INTERSECTIONCOLOR
 70
   257
  9
$DIMASSOC
280
     2
  9
$PROJECTNAME
  1

  9
$CAMERADISPLAY
290
     0
  9
$LENSLENGTH
 40
50.0
  9
$CAMERAHEIGHT
 40
0.0
  9
$STEPSPERSEC
 40
2.0
  9
$STEPSIZE
 40
6.0
  9
$3DDWFPREC
 40
2.0
  9
$PSOLWIDTH
 40
0.25
  9
$PSOLHEIGHT
 40
4.0
  9
$LOFTANG1
 40
1.570796326794897
  9
$LOFTANG2
 40
1.570796326794897
  9
$LOFTMAG1
 40
0.0
  9
$LOFTMAG2
 40
0.0
  9
$LOFTPARAM
 70
     7
  9
$LOFTNORMALS
280
     1
  9
$LATITUDE
 40
37.795
  9
$LONGITUDE
 40
-122.394
  9
$NORTHDIRECTION
 40
0.0
  9
$TIMEZONE
 70
 -8000
  9
$LIGHTGLYPHDISPLAY
280
     1
  9
$TILEMODELIGHTSYNCH
280
     1
  9
$SOLIDHIST
280
     1
  9
$SHOWHIST
280
     1
  9
$DWFFRAME
280
     2
  9
$DGNFRAME
280
     2
  9
$REALWORLDSCALE
290
     1
  9
$INTERFERECOLOR
 62
   256
  9
$CSHADOW
280
     0
  9
$SHADOWPLANELOCATION
 40
0.0
  0
ENDSEC
  0
SECTION
  2
CLASSES
  0
CLASS
  1
ACDBDICTIONARYWDFLT
  2
AcDbDictionaryWithDefault
  3
ObjectDBX Classes
 90
        0
 91
        4
280
     0
281
     0
  0
CLASS
  1
VISUALSTYLE
  2
AcDbVisualStyle
  3
ObjectDBX Classes
 90
     4095
 91
        4
280
     0
281
     0
  0
CLASS
  1
MATERIAL
  2
AcDbMaterial
  3
ObjectDBX Classes
 90
     1153
 91
        4
280
     0
281
     0
  0
CLASS
  1
AEC_VARS_DWG_SETUP
  2
AecDbVarsDwgSetup
  3
AecBase60
 90
      129
 91
        4
280
     0
281
     0
  0
CLASS
  1
AEC_DISP_REP_2D_SECTION
  2
AecDbDispRep2dSection
  3
AecBase60
 90
      129
 91
        4
280
     0
281
     0
  0
CLASS
  1
AEC_DISP_PROPS_2D_SECTION
  2
AecDbDispProps2dSection
  3
AecBase60
 90
      129
 91
        4
280
     0
281
     0
  0
CLASS
  1
AEC_DISP_REP_CLIP_VOLUME_MODEL
  2
AecDbDispRepClipVolModel
  3
AecBase60
 90
      129
 91
        6
280
     0
281
     0
  0
CLASS
  1
AEC_DISP_PROPS_CLIP_VOLUME
  2
AecDbDispPropsClipVol
  3
AecBase60
 90
      129
 91
        4
280
     0
281
     0
  0
CLASS
  1
AEC_DISP_REP_CLIP_VOLUME_PLAN
  2
AecDbDispRepClipVolPlan
  3
AecBase60
 90
      129
 91
        4
280
     0
281
     0
  0
CLASS
  1
AEC_DISP_REP_CLIP_VOLUME_RESULT
  2
AecDbDispRepClipVolResult
  3
AecBase60
 90
      129
 91
        6
280
     0
281
     0
  0
CLASS
  1
AEC_DISP_REP_CLIP_VOLUME_RESULT_SUBDIV
  2
AecDbDispRepClipVolResSubDiv
  3
AecBase60
 90
      129
 91
        5
280
     0
281
     0
  0
CLASS
  1
AEC_DISP_PROPS_CLIP_VOLUME_RESULT
  2
AecDbDispPropsClipVolResSubDiv
  3
AecBase60
 90
      129
 91
        4
280
     0
281
     0
  0
CLASS
  1
AEC_DISP_REP_DISPLAYTHEME
  2
AecDbDispRepDisplayTheme
  3
AecBase60
 90
      129
 91
        4
280
     0
281
     0
  0
CLASS
  1
AEC_DISP_PROPS_DISPLAYTHEME
  2
AecDbDispPropsDisplayTheme
  3
AecBase60
 90
      129
 91
        4
280
     0
281
     0
  0
CLASS
  1
AEC_DISP_REP_ENT_REF
  2
AecDbDispRepEntRef
  3
AecBase60
 90
      129
 91
        4
280
     0
281
     0
  0
CLASS
  1
AEC_DISP_PROPS_ENT_REF
  2
AecDbDispPropsEntRef
  3
AecBase60
 90
      129
 91
        4
280
     0
281
     0
  0
CLASS
  1
AEC_DISP_REP_LAYOUT_CURVE
  2
AecDbDispRepLayoutCurve
  3
AecBase60
 90
      129
 91
        4
280
     0
281
     0
  0
CLASS
  1
AEC_DISP_PROPS_LAYOUT_CURVE
  2
AecDbDispPropsLayoutCurve
  3
AecBase60
 90
      129
 91
        4
280
     0
281
     0
  0
CLASS
  1
AEC_DISP_REP_LAYOUT_GRID2D
  2
AecDbDispRepLayoutGrid2d
  3
AecBase60
 90
      129
 91
        6
280
     0
281
     0
  0
CLASS
  1
AEC_DISP_PROPS_LAYOUT_GRID2D
  2
AecDbDispPropsLayoutGrid2d
  3
AecBase60
 90
      129
 91
        5
280
     0
281
     0
  0
CLASS
  1
AEC_DISP_REP_LAYOUT_GRID3D
  2
AecDbDispRepLayoutGrid3d
  3
AecBase60
 90
      129
 91
        4
280
     0
281
     0
  0
CLASS
  1
AEC_DISP_PROPS_LAYOUT_GRID3D
  2
AecDbDispPropsLayoutGrid3d
  3
AecBase60
 90
      129
 91
        4
280
     0
281
     0
  0
CLASS
  1
AEC_DISP_REP_MASKBLOCK_REF
  2
AecDbDispRepMaskBlockRef
  3
AecBase60
 90
      129
 91
        5
280
     0
281
     0
  0
CLASS
  1
AEC_DISP_PROPS_MASKBLOCK
  2
AecDbDispPropsMaskBlock
  3
AecBase60
 90
      129
 91
        4
280
     0
281
     0
  0
CLASS
  1
AEC_DISP_REP_MASKBLOCK_REF_RCP
  2
AecDbDispRepMaskBlockRefRcp
  3
AecArchBase60
 90
      129
 91
        4
280
     0
281
     0
  0
CLASS
  1
AEC_DISP_REP_MASS_ELEM_MODEL
  2
AecDbDispRepMassElemModel
  3
AecBase60
 90
      129
 91
        4
280
     0
281
     0
  0
CLASS
  1
AEC_DISP_PROPS_MASS_ELEM_MODEL
  2
AecDbDispPropsMassElem
  3
AecBase60
 90
      129
 91
        5
280
     0
281
     0
  0
CLASS
  1
AEC_DISP_REP_MASS_ELEM_SCHEM
  2
AecDbDispRepMassElemSchem
  3
AecBase60
 90
      129
 91
        5
280
     0
281
     0
  0
CLASS
  1
AEC_DISPREPAECDBDISPREPMASSELEMPLAN50
  2
AecDbDispRepMassElemPlan50
  3
AecArchDACHBase60
 90
      129
 91
        4
280
     0
281
     0
  0
CLASS
  1
AEC_DISPROPSMASSELEMPLANCOMMON
  2
AecDbDispPropsMassElemPlanCommon
  3
AecArchDACHBase60
 90
      129
 91
        4
280
     0
281
     0
  0
CLASS
  1
AEC_DISPREPAECDBDISPREPMASSELEMPLAN100
  2
AecDbDispRepMassElemPlan100
  3
AecArchDACHBase60
 90
      129
 91
        4
280
     0
281
     0
  0
CLASS
  1
AEC_DISP_REP_MASS_ELEM_RCP
  2
AecDbDispRepMassElemRcp
  3
AecArchBase60
 90
      129
 91
        4
280
     0
281
     0
  0
CLASS
  1
AEC_DISP_REP_MASS_GROUP_MODEL
  2
AecDbDispRepMassGroupModel
  3
AecBase60
 90
      129
 91
        4
280
     0
281
     0
  0
CLASS
  1
AEC_DISP_PROPS_MASS_GROUP
  2
AecDbDispPropsMassGroup
  3
AecBase60
 90
      129
 91
        5
280
     0
281
     0
  0
CLASS
  1
AEC_DISP_REP_MASS_GROUP_PLAN
  2
AecDbDispRepMassGroupPlan
  3
AecBase60
 90
      129
 91
        8
280
     0
281
     0
  0
CLASS
  1
AEC_DISPREPAECDBDISPREPMASSGROUPPLAN50
  2
AecDbDispRepMassGroupPlan50
  3
AecArchDACHBase60
 90
      129
 91
        4
280
     0
281
     0
  0
CLASS
  1
AEC_DISPROPSMASSGROUPPLANCOMMON
  2
AecDbDispPropsMassGroupPlanCommon
  3
AecArchDACHBase60
 90
      129
 91
        4
280
     0
281
     0
  0
CLASS
  1
AEC_DISPREPAECDBDISPREPMASSGROUPPLAN100
  2
AecDbDispRepMassGroupPlan100
  3
AecArchDACHBase60
 90
      129
 91
        4
280
     0
281
     0
  0
CLASS
  1
AEC_DISP_REP_MASS_GROUP_RCP
  2
AecDbDispRepMassGroupRcp
  3
AecArchBase60
 90
      129
 91
        4
280
     0
281
     0
  0
CLASS
  1
AEC_DISP_REP_MVBLOCK_REF
  2
AecDbDispRepMvBlockRef
  3
AecBase60
 90
      129
 91
        8
280
     0
281
     0
  0
CLASS
  1
AEC_DISP_REP_MVBLOCK_REF_MODEL
  2
AecDbDispRepMvBlockRefModel
  3
AecBase60
 90
      129
 91
        4
280
     0
281
     0
  0
CLASS
  1
AEC_AECDBDISPREPMVBLOCKREFPLAN100
  2
AecDbDispRepMvBlockRefPlan100
  3
AecBase60
 90
      129
 91
        4
280
     0
281
     0
  0
CLASS
  1
AEC_AECDBDISPREPMVBLOCKREFPLAN50
  2
AecDbDispRepMvBlockRefPlan50
  3
AecBase60
 90
      129
 91
        4
280
     0
281
     0
  0
CLASS
  1
AEC_DISP_REP_POLYGON_MODEL
  2
AecDbDispRepPolygonModel
  3
AecBase60
 90
      129
 91
        4
280
     0
281
     0
  0
CLASS
  1
AEC_DISP_PROPS_POLYGON_MODEL
  2
AecDbDispPropsPolygonModel
  3
AecBase60
 90
      129
 91
        4
280
     0
281
     0
  0
CLASS
  1
AEC_DISP_REP_POLYGON_TRUECOLOUR
  2
AecDbDispRepPolygonTrueColour
  3
AecBase60
 90
      129
 91
        4
280
     0
281
     0
  0
CLASS
  1
AEC_DISP_PROPS_POLYGON_TRUECOLOUR
  2
AecDbDispPropsPolygonTrueColour
  3
AecBase60
 90
      129
 91
        4
280
     0
281
     0
  0
CLASS
  1
AEC_DISP_REP_SLICE
  2
AecDbDispRepSlice
  3
AecBase60
 90
      129
 91
        4
280
     0
281
     0
  0
CLASS
  1
AEC_DISP_PROPS_SLICE
  2
AecDbDispPropsSlice
  3
AecBase60
 90
      129
 91
        4
280
     0
281
     0
  0
CLASS
  1
AEC_DISP_REP_ANCHOR
  2
AecDbDispRepAnchor
  3
AecBase60
 90
      129
 91
        4
280
     0
281
     0
  0
CLASS
  1
AEC_DISP_REP_ANCHOR_ENT_TO_NODE
  2
AecDbDispRepAnchorEntToNode
  3
AecBase60
 90
      129
 91
        5
280
     0
281
     0
  0
CLASS
  1
AEC_DISP_PROPS_ENT
  2
AecDbDispPropsEnt
  3
AecBase60
 90
      129
 91
        4
280
     0
281
     0
  0
CLASS
  1
AEC_DISP_REP_MATERIAL
  2
AecDbDispRepMaterial
  3
AecBase60
 90
      129
 91
        4
280
     0
281
     0
  0
CLASS
  1
AEC_DISP_PROPS_MATERIAL
  2
AecDbDispPropsMaterial
  3
AecBase60
 90
      129
 91
        4
280
     0
281
     0
  0
CLASS
  1
AEC_DISP_REP_EDITINPLACEPROFILE
  2
AecDbDispRepEditInPlaceProfile
  3
AecBase60
 90
      129
 91
        4
280
     0
281
     0
  0
CLASS
  1
AEC_DISP_PROPS_EDITINPLACEPROFILE_MODEL
  2
AecDbDispPropsEditInPlaceProfile
  3
AecBase60
 90
      129
 91
        4
280
     0
281
     0
  0
CLASS
  1
AEC_VARS_ARCHBASE
  2
AecDbVarsArchBase
  3
AecArchBase60
 90
      129
 91
        4
280
     0
281
     0
  0
CLASS
  1
AEC_DISP_REP_BDG_ELEVLINE_PLAN
  2
AecDbDispRepBdgElevLinePlan
  3
AecArchBase60
 90
      129
 91
        7
280
     0
281
     0
  0
CLASS
  1
AEC_DISP_REP_BDG_ELEVLINE_MODEL
  2
AecDbDispRepBdgElevLineModel
  3
AecArchBase60
 90
      129
 91
        4
280
     0
281
     0
  0
CLASS
  1
AEC_DISP_REP_BDG_ELEVLINE_RCP
  2
AecDbDispRepBdgElevLineRcp
  3
AecArchBase60
 90
      129
 91
        4
280
     0
281
     0
  0
CLASS
  1
AEC_AECDBDISPREPBDGELEVLINEPLAN100
  2
AecDbDispRepBdgElevLinePlan100
  3
AecBase60
 90
      129
 91
        4
280
     0
281
     0
  0
CLASS
  1
AEC_AECDBDISPREPBDGELEVLINEPLAN50
  2
AecDbDispRepBdgElevLinePlan50
  3
AecBase60
 90
      129
 91
        4
280
     0
281
     0
  0
CLASS
  1
AEC_DISP_REP_BDG_SECTIONLINE_MODEL
  2
AecDbDispRepBdgSectionLineModel
  3
AecArchBase60
 90
      129
 91
        4
280
     0
281
     0
  0
CLASS
  1
AEC_DISP_REP_BDG_SECTIONLINE_PLAN
  2
AecDbDispRepBdgSectionLinePlan
  3
AecArchBase60
 90
      129
 91
        7
280
     0
281
     0
  0
CLASS
  1
AEC_DISP_REP_BDG_SECTIONLINE_RCP
  2
AecDbDispRepBdgSectionLineRcp
  3
AecArchBase60
 90
      129
 91
        4
280
     0
281
     0
  0
CLASS
  1
AEC_AECDBDISPREPBDGSECTIONLINEPLAN100
  2
AecDbDispRepBdgSectionLinePlan100
  3
AecBase60
 90
      129
 91
        4
280
     0
281
     0
  0
CLASS
  1
AEC_AECDBDISPREPBDGSECTIONLINEPLAN50
  2
AecDbDispRepBdgSectionLinePlan50
  3
AecBase60
 90
      129
 91
        4
280
     0
281
     0
  0
CLASS
  1
AEC_DISP_REP_BDG_SECTION_SUBDIV
  2
AecDbDispRepBdgSectionSubDiv
  3
AecArchBase60
 90
      129
 91
        4
280
     0
281
     0
  0
CLASS
  1
AEC_DISP_REP_BDG_SECTION_MODEL
  2
AecDbDispRepBdgSectionModel
  3
AecArchBase60
 90
      129
 91
        4
280
     0
281
     0
  0
CLASS
  1
AEC_DISP_REP_CEILING_GRID
  2
AecDbDispRepCeilingGrid
  3
AecArchBase60
 90
      893
 91
        8
280
     0
281
     0
  0
CLASS
  1
AEC_DISP_REP_CEILING_GRID_MODEL
  2
AecDbDispRepCeilingGridModel
  3
AecArchBase60
 90
      129
 91
        4
280
     0
281
     0
  0
CLASS
  1
AEC_DISP_REP_CEILING_GRID_RCP
  2
AecDbDispRepCeilingGridRcp
  3
AecArchBase60
 90
      129
 91
        4
280
     0
281
     0
  0
CLASS
  1
AEC_AECDBDISPREPCEILINGGRIDPLAN100
  2
AecDbDispRepCeilingGridPlan100
  3
AecBase60
 90
      129
 91
        4
280
     0
281
     0
  0
CLASS
  1
AEC_AECDBDISPREPCEILINGGRIDPLAN50
  2
AecDbDispRepCeilingGridPlan50
  3
AecBase60
 90
      129
 91
        4
280
     0
281
     0
  0
CLASS
  1
AEC_DISP_REP_CURTAIN_WALL_LAYOUT_MODEL
  2
AecDbDispRepCurtainWallLayoutModel
  3
AecArchBase60
 90
      129
 91
        4
280
     0
281
     0
  0
CLASS
  1
AEC_DISP_PROPS_GRID_ASSEMBLY_MODEL
  2
AecDbDispPropsGridAssemblyModel
  3
AecArchBase60
 90
      129
 91
        4
280
     0
281
     0
  0
CLASS
  1
AEC_DISP_REP_CURTAIN_WALL_LAYOUT_PLAN
  2
AecDbDispRepCurtainWallLayoutPlan
  3
AecArchBase60
 90
      129
 91
        6
280
     0
281
     0
  0
CLASS
  1
AEC_DISP_PROPS_GRID_ASSEMBLY_PLAN
  2
AecDbDispPropsGridAssemblyPlan
  3
AecArchBase60
 90
      129
 91
        4
280
     0
281
     0
  0
CLASS
  1
AEC_AECDBDISPREPCURTAINWALLLAYOUTPLAN100
  2
AecDbDispRepCurtainWallLayoutPlan100
  3
AecBase60
 90
      129
 91
        4
280
     0
281
     0
  0
CLASS
  1
AEC_AECDBDISPREPCURTAINWALLLAYOUTPLAN50
  2
AecDbDispRepCurtainWallLayoutPlan50
  3
AecBase60
 90
      129
 91
        4
280
     0
281
     0
  0
CLASS
  1
AEC_DISP_REP_CURTAIN_WALL_UNIT_MODEL
  2
AecDbDispRepCurtainWallUnitModel
  3
AecArchBase60
 90
      129
 91
        4
280
     0
281
     0
  0
CLASS
  1
AEC_DISP_REP_CURTAIN_WALL_UNIT_PLAN
  2
AecDbDispRepCurtainWallUnitPlan
  3
AecArchBase60
 90
      129
 91
        6
280
     0
281
     0
  0
CLASS
  1
AEC_AECDBDISPREPCURTAINWALLUNITPLAN100
  2
AecDbDispRepCurtainWallUnitPlan100
  3
AecBase60
 90
      129
 91
        4
280
     0
281
     0
  0
CLASS
  1
AEC_AECDBDISPREPCURTAINWALLUNITPLAN50
  2
AecDbDispRepCurtainWallUnitPlan50
  3
AecBase60
 90
      129
 91
        4
280
     0
281
     0
  0
CLASS
  1
AEC_DISP_REP_DOOR_MODEL
  2
AecDbDispRepDoorModel
  3
AecArchBase60
 90
      129
 91
        5
280
     0
281
     0
  0
CLASS
  1
AEC_DISP_PROPS_DOOR
  2
AecDbDispPropsDoor
  3
AecArchBase60
 90
      129
 91
        5
280
     0
281
     0
  0
CLASS
  1
AEC_DISP_REP_DOOR_ELEV
  2
AecDbDispRepDoorElev
  3
AecArchBase60
 90
      129
 91
        4
280
     0
281
     0
  0
CLASS
  1
AEC_DISP_REP_DOOR_PLAN
  2
AecDbDispRepDoorPlan
  3
AecArchBase60
 90
      129
 91
        8
280
     0
281
     0
  0
CLASS
  1
AEC_DISP_REP_DOOR_NOMINAL
  2
AecDbDispRepDoorNominal
  3
AecArchBase60
 90
      129
 91
        4
280
     0
281
     0
  0
CLASS
  1
AEC_DISP_PROPS_DOOR_NOMINAL
  2
AecDbDispPropsDoorNominal
  3
AecArchBase60
 90
      129
 91
        4
280
     0
281
     0
  0
CLASS
  1
AEC_DISP_REP_DOOR_THRESHOLD_PLAN
  2
AecDbDispRepDoorThresholdPlan
  3
AecArchBase60
 90
      129
 91
        4
280
     0
281
     0
  0
CLASS
  1
AEC_DISP_PROPS_DOOR_THRESHOLD_PLAN
  2
AecDbDispPropsDoorThresholdPlan
  3
AecArchBase60
 90
      129
 91
        4
280
     0
281
     0
  0
CLASS
  1
AEC_DISP_REP_DOOR_PLAN_50
  2
AecDbDispRepDoorPlan50
  3
AecArchDACHBase60
 90
      129
 91
        4
280
     0
281
     0
  0
CLASS
  1
AEC_DISP_PROPS_DOOR_PLAN_50
  2
AecDbDispPropsDoorPlan50
  3
AecArchDACHBase60
 90
      129
 91
        4
280
     0
281
     0
  0
CLASS
  1
AEC_DISP_REP_DOOR_PLAN_HEKTO
  2
AecDbDispRepDoorPlanHekto
  3
AecArchDACHBase60
 90
      129
 91
        4
280
     0
281
     0
  0
CLASS
  1
AEC_DISP_PROPS_DOOR_PLAN_100
  2
AecDbDispPropsDoorPlan100
  3
AecArchDACHBase60
 90
      129
 91
        4
280
     0
281
     0
  0
CLASS
  1
AEC_DISP_REP_DOOR_RCP
  2
AecDbDispRepDoorRcp
  3
AecArchBase60
 90
      129
 91
        4
280
     0
281
     0
  0
CLASS
  1
AEC_DISP_REP_DOOR_THRESHOLD_SYMBOL_PLAN
  2
AecDbDispRepDoorThresholdSymbolPlan
  3
AecArchDACHBase60
 90
      129
 91
        4
280
     0
281
     0
  0
CLASS
  1
AEC_DISP_PROPS_DOOR_THRESHOLD_SYMBOL_PLAN
  2
AecDbDispPropsDoorThresholdSymbolPlan
  3
AecArchDACHBase60
 90
      129
 91
        4
280
     0
281
     0
  0
CLASS
  1
AEC_DISP_REP_OPENING
  2
AecDbDispRepOpening
  3
AecArchBase60
 90
      129
 91
        6
280
     0
281
     0
  0
CLASS
  1
AEC_DISP_PROPS_OPENING
  2
AecDbDispPropsOpening
  3
AecArchBase60
 90
      129
 91
        5
280
     0
281
     0
  0
CLASS
  1
AEC_DISP_REP_OPENING_MODEL
  2
AecDbDispRepOpeningModel
  3
AecArchBase60
 90
      129
 91
        4
280
     0
281
     0
  0
CLASS
  1
AEC_DISPREPAECDBDISPREPOPENINGPLAN100
  2
AecDbDispRepOpeningPlan100
  3
AecArchDACHBase60
 90
      129
 91
        4
280
     0
281
     0
  0
CLASS
  1
AEC_DISPROPSOPENINGPLANCOMMONHATCHED
  2
AecDbDispPropsOpeningPlanCommonHatched
  3
AecArchDACHBase60
 90
      129
 91
        4
280
     0
281
     0
  0
CLASS
  1
AEC_DISPREPAECDBDISPREPOPENINGPLAN50
  2
AecDbDispRepOpeningPlan50
  3
AecArchDACHBase60
 90
      129
 91
        4
280
     0
281
     0
  0
CLASS
  1
AEC_DISPREPAECDBDISPREPOPENINGPLANREFLECTED
  2
AecDbDispRepOpeningPlanReflected
  3
AecArchDACHBase60
 90
      129
 91
        4
280
     0
281
     0
  0
CLASS
  1
AEC_DISPROPSOPENINGPLANCOMMON
  2
AecDbDispPropsOpeningPlanCommon
  3
AecArchDACHBase60
 90
      129
 91
        5
280
     0
281
     0
  0
CLASS
  1
AEC_DISPREPAECDBDISPREPOPENINGSILLPLAN
  2
AecDbDispRepOpeningSillPlan
  3
AecArchDACHBase60
 90
      129
 91
        4
280
     0
281
     0
  0
CLASS
  1
AEC_DISPROPSOPENINGSILLPLAN
  2
AecDbDispPropsOpeningSillPlan
  3
AecArchDACHBase60
 90
      129
 91
        4
280
     0
281
     0
  0
CLASS
  1
AEC_DISP_REP_RAILING_MODEL
  2
AecDbDispRepRailingModel
  3
AecArchBase60
 90
      129
 91
        4
280
     0
281
     0
  0
CLASS
  1
AEC_DISP_PROPS_RAILING_MODEL
  2
AecDbDispPropsRailingModel
  3
AecArchBase60
 90
      129
 91
        4
280
     0
281
     0
  0
CLASS
  1
AEC_DISP_REP_RAILING_PLAN
  2
AecDbDispRepRailingPlan
  3
AecArchBase60
 90
      129
 91
        5
280
     0
281
     0
  0
CLASS
  1
AEC_DISP_PROPS_RAILING_PLAN
  2
AecDbDispPropsRailingPlan
  3
AecArchBase60
 90
      129
 91
        5
280
     0
281
     0
  0
CLASS
  1
AEC_DISP_REP_RAILING_PLAN_100
  2
AecDbDispRepRailingPlan100
  3
AecArchDACHBase60
 90
      129
 91
        4
280
     0
281
     0
  0
CLASS
  1
AEC_DISP_ROPS_RAILING_PLAN_100
  2
AecDbDispPropsRailingPlan100
  3
AecArchDACHBase60
 90
      129
 91
        4
280
     0
281
     0
  0
CLASS
  1
AEC_DISP_REP_RAILING_PLAN_50
  2
AecDbDispRepRailingPlan50
  3
AecArchDACHBase60
 90
      129
 91
        4
280
     0
281
     0
  0
CLASS
  1
AEC_DISP_ROPS_RAILING_PLAN_50
  2
AecDbDispPropsRailingPlan50
  3
AecArchDACHBase60
 90
      129
 91
        4
280
     0
281
     0
  0
CLASS
  1
AEC_DISP_REP_ROOF_MODEL
  2
AecDbDispRepRoofModel
  3
AecArchBase60
 90
      129
 91
        4
280
     0
281
     0
  0
CLASS
  1
AEC_DISP_PROPS_ROOF
  2
AecDbDispPropsRoof
  3
AecArchBase60
 90
      129
 91
        4
280
     0
281
     0
  0
CLASS
  1
AEC_DISP_REP_ROOF_PLAN
  2
AecDbDispRepRoofPlan
  3
AecArchBase60
 90
      129
 91
        8
280
     0
281
     0
  0
CLASS
  1
AEC_DISP_REP_ROOF_RCP
  2
AecDbDispRepRoofRcp
  3
AecArchBase60
 90
      129
 91
        4
280
     0
281
     0
  0
CLASS
  1
AEC_AECDBDISPREPROOFPLAN100
  2
AecDbDispRepRoofPlan100
  3
AecBase60
 90
      129
 91
        4
280
     0
281
     0
  0
CLASS
  1
AEC_AECDBDISPREPROOFPLAN50
  2
AecDbDispRepRoofPlan50
  3
AecBase60
 90
      129
 91
        4
280
     0
281
     0
  0
CLASS
  1
AEC_DISP_REP_ROOFSLAB_MODEL
  2
AecDbDispRepRoofSlabModel
  3
AecArchBase60
 90
      129
 91
        4
280
     0
281
     0
  0
CLASS
  1
AEC_DISP_PROPS_ROOFSLAB
  2
AecDbDispPropsRoofSlab
  3
AecArchBase60
 90
      129
 91
        4
280
     0
281
     0
  0
CLASS
  1
AEC_DISP_REP_ROOFSLAB_PLAN
  2
AecDbDispRepRoofSlabPlan
  3
AecArchBase60
 90
      129
 91
        6
280
     0
281
     0
  0
CLASS
  1
AEC_DISP_PROPS_ROOFSLAB_PLAN
  2
AecDbDispPropsRoofSlabPlan
  3
AecArchBase60
 90
      129
 91
        4
280
     0
281
     0
  0
CLASS
  1
AEC_AECDBDISPREPROOFSLABPLAN100
  2
AecDbDispRepRoofSlabPlan100
  3
AecBase60
 90
      129
 91
        4
280
     0
281
     0
  0
CLASS
  1
AEC_AECDBDISPREPROOFSLABPLAN50
  2
AecDbDispRepRoofSlabPlan50
  3
AecBase60
 90
      129
 91
        4
280
     0
281
     0
  0
CLASS
  1
AEC_DISP_REP_SLAB_MODEL
  2
AecDbDispRepSlabModel
  3
AecArchBase60
 90
      129
 91
        5
280
     0
281
     0
  0
CLASS
  1
AEC_DISP_PROPS_SLAB
  2
AecDbDispPropsSlab
  3
AecArchBase60
 90
      129
 91
        6
280
     0
281
     0
  0
CLASS
  1
AEC_DISP_REP_SLAB_PLAN
  2
AecDbDispRepSlabPlan
  3
AecArchBase60
 90
      129
 91
        7
280
     0
281
     0
  0
CLASS
  1
AEC_DISP_PROPS_SLAB_PLAN
  2
AecDbDispPropsSlabPlan
  3
AecArchBase60
 90
      129
 91
        5
280
     0
281
     0
  0
CLASS
  1
AEC_AECDBDISPREPSLABPLAN100
  2
AecDbDispRepSlabPlan100
  3
AecBase60
 90
      129
 91
        4
280
     0
281
     0
  0
CLASS
  1
AEC_AECDBDISPREPSLABPLAN50
  2
AecDbDispRepSlabPlan50
  3
AecBase60
 90
      129
 91
        4
280
     0
281
     0
  0
CLASS
  1
AEC_DISP_REP_SPACE_MODEL
  2
AecDbDispRepSpaceModel
  3
AecArchBase60
 90
      129
 91
        4
280
     0
281
     0
  0
CLASS
  1
AEC_DISP_PROPS_SPACE_MODEL
  2
AecDbDispPropsSpaceModel
  3
AecArchBase60
 90
      129
 91
        4
280
     0
281
     0
  0
CLASS
  1
AEC_DISP_REP_SPACE_PLAN
  2
AecDbDispRepSpacePlan
  3
AecArchBase60
 90
      129
 91
        7
280
     0
281
     0
  0
CLASS
  1
AEC_DISP_PROPS_SPACE_PLAN
  2
AecDbDispPropsSpacePlan
  3
AecArchBase60
 90
      129
 91
        4
280
     0
281
     0
  0
CLASS
  1
AEC_DISP_REP_SPACE_RCP
  2
AecDbDispRepSpaceRcp
  3
AecArchBase60
 90
      129
 91
        4
280
     0
281
     0
  0
CLASS
  1
AEC_DISP_REP_SPACE_VOLUME
  2
AecDbDispRepSpaceVolume
  3
AecArchBase60
 90
      129
 91
        4
280
     0
281
     0
  0
CLASS
  1
AEC_DISP_REP_SPACE_DECOMPOSED
  2
AecDbDispRepSpaceDecomposed
  3
AecArchBase60
 90
      129
 91
        4
280
     0
281
     0
  0
CLASS
  1
AEC_DISP_PROPS_SPACE_DECOMPOSED
  2
AecDbDispPropsSpaceDecomposed
  3
AecArchBase60
 90
      129
 91
        4
280
     0
281
     0
  0
CLASS
  1
AEC_AECDBDISPREPSPACEPLAN100
  2
AecDbDispRepSpacePlan100
  3
AecBase60
 90
      129
 91
        4
280
     0
281
     0
  0
CLASS
  1
AEC_AECDBDISPREPSPACEPLAN50
  2
AecDbDispRepSpacePlan50
  3
AecBase60
 90
      129
 91
        4
280
     0
281
     0
  0
CLASS
  1
AEC_DISP_REP_STAIR_MODEL
  2
AecDbDispRepStairModel
  3
AecArchBase60
 90
      129
 91
        4
280
     0
281
     0
  0
CLASS
  1
AEC_DISP_PROPS_STAIR_MODEL
  2
AecDbDispPropsStairModel
  3
AecArchBase60
 90
      129
 91
        4
280
     0
281
     0
  0
CLASS
  1
AEC_DISP_REP_STAIR_PLAN
  2
AecDbDispRepStairPlan
  3
AecArchBase60
 90
      129
 91
        7
280
     0
281
     0
  0
CLASS
  1
AEC_DISP_PROPS_STAIR_PLAN
  2
AecDbDispPropsStairPlan
  3
AecArchBase60
 90
      129
 91
        6
280
     0
281
     0
  0
CLASS
  1
AEC_DISP_REP_STAIR_RCP
  2
AecDbDispRepStairRcp
  3
AecArchBase60
 90
      129
 91
        4
280
     0
281
     0
  0
CLASS
  1
AEC_DISP_REP_STAIR_PLAN_100
  2
AecDbDispRepStairPlan100
  3
AecArchDACHBase60
 90
      129
 91
        4
280
     0
281
     0
  0
CLASS
  1
AEC_DISP_ROPS_STAIR_PLAN_100
  2
AecDbDispPropsStairPlan100
  3
AecArchDACHBase60
 90
      129
 91
        4
280
     0
281
     0
  0
CLASS
  1
AEC_DISP_REP_STAIR_PLAN_50
  2
AecDbDispRepStairPlan50
  3
AecArchDACHBase60
 90
      129
 91
        4
280
     0
281
     0
  0
CLASS
  1
AEC_DISP_ROPS_STAIR_PLAN_50
  2
AecDbDispPropsStairPlan50
  3
AecArchDACHBase60
 90
      129
 91
        4
280
     0
281
     0
  0
CLASS
  1
AEC_DISP_REP_STAIR_PLAN_OVERLAPPING
  2
AecDbDispRepStairPlanOverlapping
  3
AecArchBase60
 90
      129
 91
        4
280
     0
281
     0
  0
CLASS
  1
AEC_DISP_PROPS_STAIR_PLAN_OVERLAPPING
  2
AecDbDispPropsStairPlanOverlapping
  3
AecArchBase60
 90
      129
 91
        4
280
     0
281
     0
  0
CLASS
  1
AEC_DISP_REP_WALL_GRAPH
  2
AecDbDispRepWallGraph
  3
AecArchBase60
 90
      129
 91
        4
280
     0
281
     0
  0
CLASS
  1
AEC_DISP_PROPS_WALL_GRAPH
  2
AecDbDispPropsWallGraph
  3
AecArchBase60
 90
      129
 91
        4
280
     0
281
     0
  0
CLASS
  1
AEC_DISP_REP_WALL_MODEL
  2
AecDbDispRepWallModel
  3
AecArchBase60
 90
      129
 91
        4
280
     0
281
     0
  0
CLASS
  1
AEC_DISP_PROPS_WALL_MODEL
  2
AecDbDispPropsWallModel
  3
AecArchBase60
 90
      129
 91
        4
280
     0
281
     0
  0
CLASS
  1
AEC_DISP_REP_WALL_PLAN
  2
AecDbDispRepWallPlan
  3
AecArchBase60
 90
      129
 91
        7
280
     0
281
     0
  0
CLASS
  1
AEC_DISP_PROPS_WALL_PLAN
  2
AecDbDispPropsWallPlan
  3
AecArchBase60
 90
      129
 91
        4
280
     0
281
     0
  0
CLASS
  1
AEC_DISP_REP_WALL_RCP
  2
AecDbDispRepWallRcp
  3
AecArchBase60
 90
      129
 91
        4
280
     0
281
     0
  0
CLASS
  1
AEC_DISP_REP_WALL_SCHEM
  2
AecDbDispRepWallSchem
  3
AecArchBase60
 90
      129
 91
        4
280
     0
281
     0
  0
CLASS
  1
AEC_DISP_PROPS_WALL_SCHEM
  2
AecDbDispPropsWallSchem
  3
AecArchBase60
 90
      129
 91
        4
280
     0
281
     0
  0
CLASS
  1
AEC_AECDBDISPREPWALLPLAN100
  2
AecDbDispRepWallPlan100
  3
AecBase60
 90
      129
 91
        4
280
     0
281
     0
  0
CLASS
  1
AEC_AECDBDISPREPWALLPLAN50
  2
AecDbDispRepWallPlan50
  3
AecBase60
 90
      129
 91
        4
280
     0
281
     0
  0
CLASS
  1
AEC_DISP_REP_WINDOW_MODEL
  2
AecDbDispRepWindowModel
  3
AecArchBase60
 90
      129
 91
        5
280
     0
281
     0
  0
CLASS
  1
AEC_DISP_PROPS_WINDOW
  2
AecDbDispPropsWindow
  3
AecArchBase60
 90
      129
 91
        6
280
     0
281
     0
  0
CLASS
  1
AEC_DISP_REP_WINDOW_ELEV
  2
AecDbDispRepWindowElev
  3
AecArchBase60
 90
      129
 91
        4
280
     0
281
     0
  0
CLASS
  1
AEC_DISP_REP_WINDOW_PLAN
  2
AecDbDispRepWindowPlan
  3
AecArchBase60
 90
      129
 91
        8
280
     0
281
     0
  0
CLASS
  1
AEC_DISP_REP_WINDOW_NOMINAL
  2
AecDbDispRepWindowNominal
  3
AecArchBase60
 90
      129
 91
        4
280
     0
281
     0
  0
CLASS
  1
AEC_DISP_PROPS_WINDOW_NOMINAL
  2
AecDbDispPropsWindowNominal
  3
AecArchBase60
 90
      129
 91
        4
280
     0
281
     0
  0
CLASS
  1
AEC_DISP_REP_WINDOW_RCP
  2
AecDbDispRepWindowRcp
  3
AecArchBase60
 90
      129
 91
        4
280
     0
281
     0
  0
CLASS
  1
AEC_DISP_REP_WINDOW_SILL_PLAN
  2
AecDbDispRepWindowSillPlan
  3
AecArchBase60
 90
      129
 91
        4
280
     0
281
     0
  0
CLASS
  1
AEC_DISP_PROPS_WINDOW_SILL_PLAN
  2
AecDbDispPropsWindowSillPlan
  3
AecArchBase60
 90
      129
 91
        4
280
     0
281
     0
  0
CLASS
  1
AEC_DISP_REP_WINDOW_PLAN_100
  2
AecDbDispRepWindowPlan100
  3
AecArchDACHBase60
 90
      129
 91
        4
280
     0
281
     0
  0
CLASS
  1
AEC_DISP_PROPS_WINDOW_PLAN_100
  2
AecDbDispPropsWindowPlan100
  3
AecArchDACHBase60
 90
      129
 91
        4
280
     0
281
     0
  0
CLASS
  1
AEC_DISP_REP_WINDOW_PLAN_50
  2
AecDbDispRepWindowPlan50
  3
AecArchDACHBase60
 90
      129
 91
        4
280
     0
281
     0
  0
CLASS
  1
AEC_DISP_PROPS_WINDOW_PLAN_50
  2
AecDbDispPropsWindowPlan50
  3
AecArchDACHBase60
 90
      129
 91
        4
280
     0
281
     0
  0
CLASS
  1
AEC_DISP_REP_WINDOW_ASSEMBLY_MODEL
  2
AecDbDispRepWindowAssemblyModel
  3
AecArchBase60
 90
      129
 91
        4
280
     0
281
     0
  0
CLASS
  1
AEC_DISP_REP_WINDOW_ASSEMBLY_PLAN
  2
AecDbDispRepWindowAssemblyPlan
  3
AecArchBase60
 90
      129
 91
        6
280
     0
281
     0
  0
CLASS
  1
AEC_DISP_REP_WINDOWASSEMBLY_SILL_PLAN
  2
AecDbDispRepWindowAssemblySillPlan
  3
AecArchBase60
 90
      129
 91
        4
280
     0
281
     0
  0
CLASS
  1
AEC_DISP_PROPS_WINDOW_ASSEMBLY_SILL_PLAN
  2
AecDbDispPropsWindowAssemblySillPlan
  3
AecArchBase60
 90
      129
 91
        4
280
     0
281
     0
  0
CLASS
  1
AEC_AECDBDISPREPWINDOWASSEMBLYPLAN100
  2
AecDbDispRepWindowAssemblyPlan100
  3
AecBase60
 90
      129
 91
        4
280
     0
281
     0
  0
CLASS
  1
AEC_AECDBDISPREPWINDOWASSEMBLYPLAN50
  2
AecDbDispRepWindowAssemblyPlan50
  3
AecBase60
 90
      129
 91
        4
280
     0
281
     0
  0
CLASS
  1
AEC_DB_DISP_REP_DIM_GROUP_PLAN
  2
AecDbDispRepDimGroupPlan
  3
AecArchDACHBase60
 90
      129
 91
        4
280
     0
281
     0
  0
CLASS
  1
AEC_DISP_PROPS_DIM
  2
AecDbDispPropsDimGroup
  3
AecArchDACHBase60
 90
      129
 91
        4
280
     0
281
     0
  0
CLASS
  1
AEC_DB_DISP_REP_DIM_GROUP_PLAN100
  2
AecDbDispRepDimGroupPlan100
  3
AecArchDACHBase60
 90
      129
 91
        4
280
     0
281
     0
  0
CLASS
  1
AEC_DB_DISP_REP_DIM_GROUP_PLAN50
  2
AecDbDispRepDimGroupPlan50
  3
AecArchDACHBase60
 90
      129
 91
        4
280
     0
281
     0
  0
CLASS
  1
AEC_DISP_REP_SCHEDULE_TABLE
  2
AecDbDispRepScheduleTable
  3
AecSchedule50
 90
      129
 91
        4
280
     0
281
     0
  0
CLASS
  1
AEC_DISP_PROPS_SCHEDULE_TABLE
  2
AecDbDispPropsScheduleTable
  3
AecSchedule50
 90
      129
 91
        4
280
     0
281
     0
  0
CLASS
  1
AEC_DISP_REP_ANCHOR_TAG_TO_ENT
  2
AecDbDispRepAnchorTagToEnt
  3
AecScheduleData60
 90
      129
 91
        5
280
     0
281
     0
  0
CLASS
  1
AEC_DISP_REP_ANCHOR_EXT_TAG_TO_ENT
  2
AecDbDispRepAnchorExtendedTagToEnt
  3
AecScheduleData60
 90
      129
 91
        4
280
     0
281
     0
  0
CLASS
  1
AEC_DISP_REP_SET
  2
AecDbDispRepSet
  3
AecBase60
 90
      129
 91
        4
280
     0
281
     0
  0
CLASS
  1
AECS_DISP_REP_MEMBER_MODEL_DESIGN
  2
AecsDbDispRepMemberModelDesign
  3
AecStructureBase60
 90
      129
 91
        4
280
     0
281
     0
  0
CLASS
  1
AECS_DISP_PROPS_MEMBER
  2
AecsDbDispPropsMember
  3
AecStructureBase60
 90
      129
 91
        6
280
     0
281
     0
  0
CLASS
  1
AECS_DISP_REP_MEMBER_PLAN_DESIGN
  2
AecsDbDispRepMemberPlanDesign
  3
AecStructureBase60
 90
      129
 91
        4
280
     0
281
     0
  0
CLASS
  1
AECS_DISP_PROPS_MEMBER_PLAN
  2
AecsDbDispPropsMemberPlan
  3
AecStructureBase60
 90
      129
 91
        5
280
     0
281
     0
  0
CLASS
  1
AEC_DISP_REP_CONFIG
  2
AecDbDispRepConfig
  3
AecBase60
 90
      129
 91
        4
280
     0
281
     0
  0
CLASS
  1
TCOPTIONALDATA
  2
TcOptionalData
  3
ExTcadCustObjs|Description: TurboCAD extension data object
 90
     4095
 91
        4
280
     0
281
     0
  0
CLASS
  1
MLEADERSTYLE
  2
AcDbMLeaderStyle
  3
ACDB_MLEADERSTYLE_CLASS
 90
     4095
 91
        4
280
     0
281
     0
  0
CLASS
  1
AEC_WALL_STYLE
  2
AecDbWallStyle
  3
AecArchBase60
 90
      129
 91
        4
280
     0
281
     0
  0
CLASS
  1
AEC_CLEANUP_GROUP_DEF
  2
AecDbCleanupGroupDef
  3
AecArchBase60
 90
      129
 91
        4
280
     0
281
     0
  0
CLASS
  1
AEC_ENDCAP_STYLE
  2
AecDbEndcapStyle
  3
AecArchBase60
 90
      129
 91
        4
280
     0
281
     0
  0
CLASS
  1
AEC_FRAME_DEF
  2
AecDbOpeningEndcapStyle
  3
AecArchBase60
 90
      129
 91
        4
280
     0
281
     0
  0
CLASS
  1
AEC_MATERIAL_DEF
  2
AecDbMaterialDef
  3
AecBase60
 90
      129
 91
        4
280
     0
281
     0
  0
CLASS
  1
TABLESTYLE
  2
AcDbTableStyle
  3
ObjectDBX Classes
 90
     4095
 91
        4
280
     0
281
     0
  0
CLASS
  1
DIMASSOC
  2
AcDbDimAssoc
  3
"AcDbDimAssoc|Product Desc:     AcDim ARX App For Dimension|Company:          Autodesk, Inc.|WEB Address:      www.autodesk.com"
 90
        0
 91
        4
280
     0
281
     0
  0
CLASS
  1
SORTENTSTABLE
  2
AcDbSortentsTable
  3
ObjectDBX Classes
 90
        0
 91
        4
280
     0
281
     0
  0
CLASS
  1
SCALE
  2
AcDbScale
  3
ObjectDBX Classes
 90
     1153
 91
        4
280
     0
281
     0
  0
CLASS
  1
DICTIONARYVAR
  2
AcDbDictionaryVar
  3
ObjectDBX Classes
 90
        0
 91
        4
280
     0
281
     0
  0
CLASS
  1
CELLSTYLEMAP
  2
AcDbCellStyleMap
  3
ObjectDBX Classes
 90
     1152
 91
        4
280
     0
281
     0
  0
ENDSEC
  0
SECTION
  2
TABLES
  0
TABLE
  2
VPORT
  5
8
330
0
100
AcDbSymbolTable
 70
     1
  0
VPORT
  5
29
330
8
100
AcDbSymbolTableRecord
100
AcDbViewportTableRecord
  2
*Active
 70
     0
 10
0.0
 20
0.0
 11
1.0
 21
1.0
 12
0.0
 22
0.0
 13
0.0
 23
0.0
 14
10.0
 24
10.0
 15
10.0
 25
10.0
 16
0.0
 26
0.0
 36
1.0
 17
20.47361142430418
 27
8.843377312396598
 37
-1.0
 40
94.12609471327266
 41
2.540485829959514
 42
50.0
 43
0.0
 44
0.0
 50
0.0
 51
0.0
 71
     0
 72
   100
 73
     1
 74
     3
 75
     0
 76
     1
 77
     0
 78
     0
281
     0
 65
     1
110
0.0
120
0.0
130
0.0
111
1.0
121
0.0
131
0.0
112
0.0
122
1.0
132
0.0
 79
     0
146
0.0
 60
     3
 61
     5
292
     1
282
     1
141
0.0
142
0.0
 63
   250
  0
ENDTAB
  0
TABLE
  2
LTYPE
  5
5
330
0
100
AcDbSymbolTable
 70
    23
  0
LTYPE
  5
14
330
5
100
AcDbSymbolTableRecord
100
AcDbLinetypeTableRecord
  2
ByBlock
 70
     0
  3

 72
    65
 73
     0
 40
0.0
  0
LTYPE
  5
15
330
5
100
AcDbSymbolTableRecord
100
AcDbLinetypeTableRecord
  2
ByLayer
 70
     0
  3

 72
    65
 73
     0
 40
0.0
  0
LTYPE
  5
16
330
5
100
AcDbSymbolTableRecord
100
AcDbLinetypeTableRecord
  2
Continuous
 70
     0
  3
Solid line
 72
    65
 73
     0
 40
0.0
  0
LTYPE
  5
160
330
5
100
AcDbSymbolTableRecord
100
AcDbLinetypeTableRecord
  2
Durchgehend
 70
     0
  3
Durchgehend
 72
    65
 73
     0
 40
0.0
  0
LTYPE
  5
161
330
5
100
AcDbSymbolTableRecord
100
AcDbLinetypeTableRecord
  2
Rand
 70
     0
  3
Rand
 72
    65
 73
     6
 40
1.75
 49
0.5
 74
     0
 49
-0.25
 74
     0
 49
0.5
 74
     0
 49
-0.25
 74
     0
 49
0.0
 74
     0
 49
-0.25
 74
     0
  0
LTYPE
  5
162
330
5
100
AcDbSymbolTableRecord
100
AcDbLinetypeTableRecord
  2
Mitte
 70
     0
  3
Mitte
 72
    65
 73
     4
 40
2.0
 49
1.25
 74
     0
 49
-0.25
 74
     0
 49
0.25
 74
     0
 49
-0.25
 74
     0
  0
LTYPE
  5
163
330
5
100
AcDbSymbolTableRecord
100
AcDbLinetypeTableRecord
  2
Strichpunkt
 70
     0
  3
Strichpunkt
 72
    65
 73
     4
 40
1.0
 49
0.5
 74
     0
 49
-0.25
 74
     0
 49
0.0
 74
     0
 49
-0.25
 74
     0
  0
LTYPE
  5
164
330
5
100
AcDbSymbolTableRecord
100
AcDbLinetypeTableRecord
  2
Gestrichelt
 70
     0
  3
Gestrichelt
 72
    65
 73
     2
 40
0.75
 49
0.5
 74
     0
 49
-0.25
 74
     0
  0
LTYPE
  5
165
330
5
100
AcDbSymbolTableRecord
100
AcDbLinetypeTableRecord
  2
Geteilt
 70
     0
  3
Geteilt
 72
    65
 73
     6
 40
1.25
 49
0.5
 74
     0
 49
-0.25
 74
     0
 49
0.0
 74
     0
 49
-0.25
 74
     0
 49
0.0
 74
     0
 49
-0.25
 74
     0
  0
LTYPE
  5
166
330
5
100
AcDbSymbolTableRecord
100
AcDbLinetypeTableRecord
  2
Punkt
 70
     0
  3
Punkt
 72
    65
 73
     2
 40
0.25
 49
0.0
 74
     0
 49
-0.25
 74
     0
  0
LTYPE
  5
167
330
5
100
AcDbSymbolTableRecord
100
AcDbLinetypeTableRecord
  2
Verdeckt
 70
     0
  3
Verdeckt
 72
    65
 73
     2
 40
0.375
 49
0.25
 74
     0
 49
-0.125
 74
     0
  0
LTYPE
  5
168
330
5
100
AcDbSymbolTableRecord
100
AcDbLinetypeTableRecord
  2
$INVISIBLE
 70
     0
  3
$INVISIBLE
 72
    65
 73
     2
 40
200.0
 49
-100.0
 74
     0
 49
-100.0
 74
     0
  0
LTYPE
  5
169
330
5
100
AcDbSymbolTableRecord
100
AcDbLinetypeTableRecord
  2
Teilen
 70
     0
  3
Teilen
 72
    65
 73
     6
 40
1.25
 49
0.5
 74
     0
 49
-0.25
 74
     0
 49
0.0
 74
     0
 49
-0.25
 74
     0
 49
0.0
 74
     0
 49
-0.25
 74
     0
  0
LTYPE
  5
16A
330
5
100
AcDbSymbolTableRecord
100
AcDbLinetypeTableRecord
  2
Fortlaufend
 70
     0
  3
Fortlaufend
 72
    65
 73
     0
 40
0.0
  0
LTYPE
  5
16B
330
5
100
AcDbSymbolTableRecord
100
AcDbLinetypeTableRecord
  2
BORDER
 70
     0
  3
BORDER
 72
    65
 73
     6
 40
1.75
 49
0.5
 74
     0
 49
-0.25
 74
     0
 49
0.5
 74
     0
 49
-0.25
 74
     0
 49
0.0
 74
     0
 49
-0.25
 74
     0
  0
LTYPE
  5
16C
330
5
100
AcDbSymbolTableRecord
100
AcDbLinetypeTableRecord
  2
CENTER
 70
     0
  3
CENTER
 72
    65
 73
     4
 40
2.0
 49
1.25
 74
     0
 49
-0.25
 74
     0
 49
0.25
 74
     0
 49
-0.25
 74
     0
  0
LTYPE
  5
16D
330
5
100
AcDbSymbolTableRecord
100
AcDbLinetypeTableRecord
  2
DASHDOT
 70
     0
  3
DASHDOT
 72
    65
 73
     4
 40
1.0
 49
0.5
 74
     0
 49
-0.25
 74
     0
 49
0.0
 74
     0
 49
-0.25
 74
     0
  0
LTYPE
  5
16E
330
5
100
AcDbSymbolTableRecord
100
AcDbLinetypeTableRecord
  2
DASHED
 70
     0
  3
DASHED
 72
    65
 73
     2
 40
0.75
 49
0.5
 74
     0
 49
-0.25
 74
     0
  0
LTYPE
  5
16F
330
5
100
AcDbSymbolTableRecord
100
AcDbLinetypeTableRecord
  2
DIVIDE
 70
     0
  3
DIVIDE
 72
    65
 73
     6
 40
1.25
 49
0.5
 74
     0
 49
-0.25
 74
     0
 49
0.0
 74
     0
 49
-0.25
 74
     0
 49
0.0
 74
     0
 49
-0.25
 74
     0
  0
LTYPE
  5
170
330
5
100
AcDbSymbolTableRecord
100
AcDbLinetypeTableRecord
  2
DOT
 70
     0
  3
DOT
 72
    65
 73
     2
 40
0.25
 49
0.0
 74
     0
 49
-0.25
 74
     0
  0
LTYPE
  5
171
330
5
100
AcDbSymbolTableRecord
100
AcDbLinetypeTableRecord
  2
HIDDEN
 70
     0
  3
HIDDEN
 72
    65
 73
     2
 40
0.375
 49
0.25
 74
     0
 49
-0.125
 74
     0
  0
LTYPE
  5
172
330
5
100
AcDbSymbolTableRecord
100
AcDbLinetypeTableRecord
  2
PHANTOM
 70
     0
  3
PHANTOM
 72
    65
 73
     6
 40
2.5
 49
1.25
 74
     0
 49
-0.25
 74
     0
 49
0.25
 74
     0
 49
-0.25
 74
     0
 49
0.25
 74
     0
 49
-0.25
 74
     0
  0
LTYPE
  5
173
330
5
100
AcDbSymbolTableRecord
100
AcDbLinetypeTableRecord
  2
$AUXILIARY
 70
     0
  3
$AUXILIARY
 72
    65
 73
     2
 40
0.1000000014901161
 49
0.0500000007450581
 74
     0
 49
-0.0500000007450581
 74
     0
  0
LTYPE
  5
174
330
5
100
AcDbSymbolTableRecord
100
AcDbLinetypeTableRecord
  2
$CONSTRUCTION
 70
     0
  3
$CONSTRUCTION
 72
    65
 73
     4
 40
0.3
 49
0.2
 74
     0
 49
-0.05
 74
     0
 49
0.0
 74
     0
 49
-0.05
 74
     0
  0
LTYPE
  5
175
330
5
100
AcDbSymbolTableRecord
100
AcDbLinetypeTableRecord
  2
$SNAPEXT
 70
     0
  3
$SNAPEXT
 72
    65
 73
     2
 40
0.04
 49
0.02
 74
     0
 49
-0.02
 74
     0
  0
ENDTAB
  0
TABLE
  2
LAYER
  5
2
330
0
100
AcDbSymbolTable
 70
     6
  0
LAYER
  5
10
330
2
100
AcDbSymbolTableRecord
100
AcDbLayerTableRecord
  2
0
 70
     0
 62
    18
420
        0
  6
Durchgehend
370
     0
390
F
347
3E
  0
LAYER
  5
176
102
{ACAD_XDICTIONARY
360
177
102
}
330
2
100
AcDbSymbolTableRecord
100
AcDbLayerTableRecord
  2
Bemaßungen
 70
     0
 62
     5
420
      255
  6
Durchgehend
370
    20
390
F
347
3E
  0
LAYER
  5
179
330
2
100
AcDbSymbolTableRecord
100
AcDbLayerTableRecord
  2
3D
 70
     0
 62
    18
420
        0
  6
Durchgehend
370
     0
390
F
347
3E
  0
LAYER
  5
17A
102
{ACAD_XDICTIONARY
360
17B
102
}
330
2
100
AcDbSymbolTableRecord
100
AcDbLayerTableRecord
  2
Kontur
 70
     0
 62
   -18
420
        0
  6
Durchgehend
370
    50
390
F
347
3E
  0
LAYER
  5
17D
102
{ACAD_XDICTIONARY
360
17E
102
}
330
2
100
AcDbSymbolTableRecord
100
AcDbLayerTableRecord
  2
Hilfslinie
 70
     0
 62
     3
420
    65280
  6
Strichpunkt
370
    25
390
F
347
3E
  0
LAYER
  5
1BD
330
2
100
AcDbSymbolTableRecord
100
AcDbLayerTableRecord
  2
Defpoints
 70
     0
 62
     7
  6
Continuous
290
     0
370
    -3
390
F
347
3E
  0
ENDTAB
  0
TABLE
  2
STYLE
  5
3
330
0
100
AcDbSymbolTable
 70
    48
  0
STYLE
  5
11
330
3
100
AcDbSymbolTableRecord
100
AcDbTextStyleTableRecord
  2
Standard
 70
     0
 40
0.0
 41
1.0
 50
0.0
 71
     0
 42
3.0
  3
times.ttf
  4

1001
ACAD
1000
Times New Roman
1071
      290
  0
STYLE
  5
1FF
330
3
100
AcDbSymbolTableRecord
100
AcDbTextStyleTableRecord
  2
_TCW_TXTSTY_1
 70
     0
 40
4.076399326324463
 41
1.0
 50
0.0
 71
     0
 42
4.076399326324463
  3
arial.ttf
  4

1001
ACAD
1000
Arial
1071
       34
  0
STYLE
  5
246
330
3
100
AcDbSymbolTableRecord
100
AcDbTextStyleTableRecord
  2
_TCW_TXTSTY_2
 70
     0
 40
2.028472423553467
 41
1.0
 50
0.0
 71
     0
 42
2.028472423553467
  3

  4

1001
ACAD
1000
Arial
1071
       34
  0
STYLE
  5
24A
330
3
100
AcDbSymbolTableRecord
100
AcDbTextStyleTableRecord
  2
_TCW_TXTSTY_3
 70
     0
 40
2.028471708297729
 41
1.0
 50
0.0
 71
     0
 42
2.028471708297729
  3

  4

1001
ACAD
1000
Arial
1071
       34
  0
STYLE
  5
270
330
3
100
AcDbSymbolTableRecord
100
AcDbTextStyleTableRecord
  2
_TCW_TXTSTY_4
 70
     0
 40
4.056943416595459
 41
1.05
 50
0.0
 71
     0
 42
4.056943416595459
  3

  4

1001
ACAD
1000
Arial
1071
       34
  0
STYLE
  5
272
330
3
100
AcDbSymbolTableRecord
100
AcDbTextStyleTableRecord
  2
_TCW_TXTSTY_5
 70
     0
 40
4.056929111480713
 41
1.12
 50
0.0
 71
     0
 42
4.056929111480713
  3

  4

1001
ACAD
1000
Arial
1071
       34
  0
STYLE
  5
274
330
3
100
AcDbSymbolTableRecord
100
AcDbTextStyleTableRecord
  2
_TCW_TXTSTY_6
 70
     0
 40
4.056948184967041
 41
1.05
 50
0.0
 71
     0
 42
4.056948184967041
  3

  4

1001
ACAD
1000
Arial
1071
       34
  0
STYLE
  5
276
330
3
100
AcDbSymbolTableRecord
100
AcDbTextStyleTableRecord
  2
_TCW_TXTSTY_7
 70
     0
 40
4.056948184967041
 41
1.13
 50
0.0
 71
     0
 42
4.056948184967041
  3

  4

1001
ACAD
1000
Arial
1071
       34
  0
STYLE
  5
27D
330
3
100
AcDbSymbolTableRecord
100
AcDbTextStyleTableRecord
  2
_TCW_TXTSTY_8
 70
     0
 40
4.056944847106934
 41
1.05
 50
0.0
 71
     0
 42
4.056944847106934
  3

  4

1001
ACAD
1000
Arial
1071
       34
  0
STYLE
  5
283
330
3
100
AcDbSymbolTableRecord
100
AcDbTextStyleTableRecord
  2
_TCW_TXTSTY_9
 70
     0
 40
4.056944847106934
 41
1.08
 50
0.0
 71
     0
 42
4.056944847106934
  3

  4

1001
ACAD
1000
Arial
1071
       34
  0
STYLE
  5
285
330
3
100
AcDbSymbolTableRecord
100
AcDbTextStyleTableRecord
  2
_TCW_TXTSTY_A
 70
     0
 40
4.056929111480713
 41
1.05
 50
0.0
 71
     0
 42
4.056929111480713
  3

  4

1001
ACAD
1000
Arial
1071
       34
  0
STYLE
  5
28B
330
3
100
AcDbSymbolTableRecord
100
AcDbTextStyleTableRecord
  2
_TCW_TXTSTY_B
 70
     0
 40
4.056929111480713
 41
1.08
 50
0.0
 71
     0
 42
4.056929111480713
  3

  4

1001
ACAD
1000
Arial
1071
       34
  0
STYLE
  5
31E
330
3
100
AcDbSymbolTableRecord
100
AcDbTextStyleTableRecord
  2
_TCW_TXTSTY_C
 70
     0
 40
4.276340007781982
 41
1.0
 50
0.0
 71
     0
 42
4.276340007781982
  3

  4

1001
ACAD
1000
Arial
1071
       34
  0
STYLE
  5
320
330
3
100
AcDbSymbolTableRecord
100
AcDbTextStyleTableRecord
  2
_TCW_TXTSTY_D
 70
     0
 40
4.276312828063965
 41
1.07
 50
0.0
 71
     0
 42
4.276312828063965
  3

  4

1001
ACAD
1000
Arial
1071
       34
  0
STYLE
  5
322
330
3
100
AcDbSymbolTableRecord
100
AcDbTextStyleTableRecord
  2
_TCW_TXTSTY_E
 70
     0
 40
4.276351928710938
 41
1.06
 50
0.0
 71
     0
 42
4.276351928710938
  3

  4

1001
ACAD
1000
Arial
1071
       34
  0
STYLE
  5
324
330
3
100
AcDbSymbolTableRecord
100
AcDbTextStyleTableRecord
  2
_TCW_TXTSTY_F
 70
     0
 40
4.276332378387451
 41
1.06
 50
0.0
 71
     0
 42
4.276332378387451
  3

  4

1001
ACAD
1000
Arial
1071
       34
  0
STYLE
  5
326
330
3
100
AcDbSymbolTableRecord
100
AcDbTextStyleTableRecord
  2
_TCW_TXTSTY_10
 70
     0
 40
4.276312828063965
 41
1.0
 50
0.0
 71
     0
 42
4.276312828063965
  3

  4

1001
ACAD
1000
Arial
1071
       34
  0
STYLE
  5
328
330
3
100
AcDbSymbolTableRecord
100
AcDbTextStyleTableRecord
  2
_TCW_TXTSTY_11
 70
     0
 40
4.276351928710938
 41
1.07
 50
0.0
 71
     0
 42
4.276351928710938
  3

  4

1001
ACAD
1000
Arial
1071
       34
  0
STYLE
  5
32A
330
3
100
AcDbSymbolTableRecord
100
AcDbTextStyleTableRecord
  2
_TCW_TXTSTY_12
 70
     0
 40
4.276322841644287
 41
1.0
 50
0.0
 71
     0
 42
4.276322841644287
  3

  4

1001
ACAD
1000
Arial
1071
       34
  0
STYLE
  5
32F
330
3
100
AcDbSymbolTableRecord
100
AcDbTextStyleTableRecord
  2
_TCW_TXTSTY_13
 70
     0
 40
4.276332378387451
 41
1.0
 50
0.0
 71
     0
 42
4.276332378387451
  3

  4

1001
ACAD
1000
Arial
1071
       34
  0
STYLE
  5
331
330
3
100
AcDbSymbolTableRecord
100
AcDbTextStyleTableRecord
  2
_TCW_TXTSTY_14
 70
     0
 40
4.276332378387451
 41
1.07
 50
0.0
 71
     0
 42
4.276332378387451
  3

  4

1001
ACAD
1000
Arial
1071
       34
  0
STYLE
  5
334
330
3
100
AcDbSymbolTableRecord
100
AcDbTextStyleTableRecord
  2
_TCW_TXTSTY_15
 70
     0
 40
4.27634334564209
 41
1.0
 50
0.0
 71
     0
 42
4.27634334564209
  3

  4

1001
ACAD
1000
Arial
1071
       34
  0
STYLE
  5
336
330
3
100
AcDbSymbolTableRecord
100
AcDbTextStyleTableRecord
  2
_TCW_TXTSTY_16
 70
     0
 40
4.276345729827881
 41
1.0
 50
0.0
 71
     0
 42
4.276345729827881
  3

  4

1001
ACAD
1000
Arial
1071
       34
  0
STYLE
  5
338
330
3
100
AcDbSymbolTableRecord
100
AcDbTextStyleTableRecord
  2
_TCW_TXTSTY_17
 70
     0
 40
4.276331424713135
 41
1.0
 50
0.0
 71
     0
 42
4.276331424713135
  3

  4

1001
ACAD
1000
Arial
1071
       34
  0
STYLE
  5
33A
330
3
100
AcDbSymbolTableRecord
100
AcDbTextStyleTableRecord
  2
_TCW_TXTSTY_18
 70
     0
 40
4.276360511779785
 41
1.0
 50
0.0
 71
     0
 42
4.276360511779785
  3

  4

1001
ACAD
1000
Arial
1071
       34
  0
STYLE
  5
33F
330
3
100
AcDbSymbolTableRecord
100
AcDbTextStyleTableRecord
  2
_TCW_TXTSTY_19
 70
     0
 40
4.276320457458496
 41
1.02
 50
0.0
 71
     0
 42
4.276320457458496
  3

  4

1001
ACAD
1000
Arial
1071
       34
  0
STYLE
  5
341
330
3
100
AcDbSymbolTableRecord
100
AcDbTextStyleTableRecord
  2
_TCW_TXTSTY_1A
 70
     0
 40
4.276351928710938
 41
1.0
 50
0.0
 71
     0
 42
4.276351928710938
  3

  4

1001
ACAD
1000
Arial
1071
       34
  0
STYLE
  5
349
330
3
100
AcDbSymbolTableRecord
100
AcDbTextStyleTableRecord
  2
_TCW_TXTSTY_1B
 70
     0
 40
4.276312828063965
 41
1.03
 50
0.0
 71
     0
 42
4.276312828063965
  3

  4

1001
ACAD
1000
Arial
1071
       34
  0
STYLE
  5
3F1
330
3
100
AcDbSymbolTableRecord
100
AcDbTextStyleTableRecord
  2
_TCW_TXTSTY_1C
 70
     0
 40
4.057065486907959
 41
1.0
 50
0.0
 71
     0
 42
4.057065486907959
  3

  4

1001
ACAD
1000
Arial
1071
       34
  0
STYLE
  5
42F
330
3
100
AcDbSymbolTableRecord
100
AcDbTextStyleTableRecord
  2
_TCW_TXTSTY_1D
 70
     0
 40
4.057085037231445
 41
1.0
 50
0.0
 71
     0
 42
4.057085037231445
  3

  4

1001
ACAD
1000
Arial
1071
       34
  0
STYLE
  5
431
330
3
100
AcDbSymbolTableRecord
100
AcDbTextStyleTableRecord
  2
_TCW_TXTSTY_1E
 70
     0
 40
4.057045936584473
 41
1.0
 50
0.0
 71
     0
 42
4.057045936584473
  3

  4

1001
ACAD
1000
Arial
1071
       34
  0
STYLE
  5
438
330
3
100
AcDbSymbolTableRecord
100
AcDbTextStyleTableRecord
  2
_TCW_TXTSTY_1F
 70
     0
 40
4.057050704956055
 41
1.0
 50
0.0
 71
     0
 42
4.057050704956055
  3

  4

1001
ACAD
1000
Arial
1071
       34
  0
STYLE
  5
441
330
3
100
AcDbSymbolTableRecord
100
AcDbTextStyleTableRecord
  2
_TCW_TXTSTY_20
 70
     0
 40
4.057041168212891
 41
1.0
 50
0.0
 71
     0
 42
4.057041168212891
  3

  4

1001
ACAD
1000
Arial
1071
       34
  0
STYLE
  5
443
330
3
100
AcDbSymbolTableRecord
100
AcDbTextStyleTableRecord
  2
_TCW_TXTSTY_21
 70
     0
 40
4.057057857513428
 41
1.0
 50
0.0
 71
     0
 42
4.057057857513428
  3

  4

1001
ACAD
1000
Arial
1071
       34
  0
STYLE
  5
445
330
3
100
AcDbSymbolTableRecord
100
AcDbTextStyleTableRecord
  2
_TCW_TXTSTY_22
 70
     0
 40
4.057049751281738
 41
1.0
 50
0.0
 71
     0
 42
4.057049751281738
  3

  4

1001
ACAD
1000
Arial
1071
       34
  0
STYLE
  5
449
330
3
100
AcDbSymbolTableRecord
100
AcDbTextStyleTableRecord
  2
_TCW_TXTSTY_23
 70
     0
 40
4.057042121887207
 41
1.0
 50
0.0
 71
     0
 42
4.057042121887207
  3

  4

1001
ACAD
1000
Arial
1071
       34
  0
STYLE
  5
44E
330
3
100
AcDbSymbolTableRecord
100
AcDbTextStyleTableRecord
  2
_TCW_TXTSTY_24
 70
     0
 40
4.057080745697021
 41
1.0
 50
0.0
 71
     0
 42
4.057080745697021
  3

  4

1001
ACAD
1000
Arial
1071
       34
  0
STYLE
  5
45F
330
3
100
AcDbSymbolTableRecord
100
AcDbTextStyleTableRecord
  2
_TCW_TXTSTY_25
 70
     0
 40
2.028469324111938
 41
1.0
 50
0.0
 71
     0
 42
2.028469324111938
  3

  4

1001
ACAD
1000
Arial
1071
       34
  0
STYLE
  5
518
330
3
100
AcDbSymbolTableRecord
100
AcDbTextStyleTableRecord
  2
_TCW_TXTSTY_26
 70
     0
 40
4.056943416595459
 41
1.0
 50
0.0
 71
     0
 42
4.056943416595459
  3

  4

1001
ACAD
1000
Arial
1071
       34
  0
STYLE
  5
5A4
330
3
100
AcDbSymbolTableRecord
100
AcDbTextStyleTableRecord
  2
_TCW_TXTSTY_27
 70
     0
 40
4.056929111480713
 41
1.09
 50
0.0
 71
     0
 42
4.056929111480713
  3

  4

1001
ACAD
1000
Arial
1071
       34
  0
STYLE
  5
5A6
330
3
100
AcDbSymbolTableRecord
100
AcDbTextStyleTableRecord
  2
_TCW_TXTSTY_28
 70
     0
 40
4.056929111480713
 41
1.07
 50
0.0
 71
     0
 42
4.056929111480713
  3

  4

1001
ACAD
1000
Arial
1071
       34
  0
STYLE
  5
5A9
330
3
100
AcDbSymbolTableRecord
100
AcDbTextStyleTableRecord
  2
_TCW_TXTSTY_29
 70
     0
 40
4.056929111480713
 41
1.24
 50
0.0
 71
     0
 42
4.056929111480713
  3

  4

1001
ACAD
1000
Arial
1071
       34
  0
STYLE
  5
5AE
330
3
100
AcDbSymbolTableRecord
100
AcDbTextStyleTableRecord
  2
_TCW_TXTSTY_2A
 70
     0
 40
4.056929111480713
 41
1.06
 50
0.0
 71
     0
 42
4.056929111480713
  3

  4

1001
ACAD
1000
Arial
1071
       34
  0
STYLE
  5
5B1
330
3
100
AcDbSymbolTableRecord
100
AcDbTextStyleTableRecord
  2
_TCW_TXTSTY_2B
 70
     0
 40
4.056948184967041
 41
1.0
 50
0.0
 71
     0
 42
4.056948184967041
  3

  4

1001
ACAD
1000
Arial
1071
       34
  0
STYLE
  5
5B3
330
3
100
AcDbSymbolTableRecord
100
AcDbTextStyleTableRecord
  2
_TCW_TXTSTY_2C
 70
     0
 40
4.056948184967041
 41
1.07
 50
0.0
 71
     0
 42
4.056948184967041
  3

  4

1001
ACAD
1000
Arial
1071
       34
  0
STYLE
  5
5DC
330
3
100
AcDbSymbolTableRecord
100
AcDbTextStyleTableRecord
  2
_TCW_TXTSTY_2D
 70
     0
 40
4.056929111480713
 41
1.01
 50
0.0
 71
     0
 42
4.056929111480713
  3

  4

1001
ACAD
1000
Arial
1071
       34
  0
STYLE
  5
5E4
330
3
100
AcDbSymbolTableRecord
100
AcDbTextStyleTableRecord
  2
_TCW_TXTSTY_2E
 70
     0
 40
4.056929111480713
 41
1.0
 50
0.0
 71
     0
 42
4.056929111480713
  3

  4

1001
ACAD
1000
Arial
1071
       34
  0
STYLE
  5
5ED
330
3
100
AcDbSymbolTableRecord
100
AcDbTextStyleTableRecord
  2
_TCW_TXTSTY_2F
 70
     0
 40
4.056929111480713
 41
1.02
 50
0.0
 71
     0
 42
4.056929111480713
  3

  4

1001
ACAD
1000
Arial
1071
       34
  0
ENDTAB
  0
TABLE
  2
VIEW
  5
6
330
0
100
AcDbSymbolTable
 70
     1
  0
VIEW
  5
180
330
6
100
AcDbSymbolTableRecord
100
AcDbViewTableRecord
  2
Ansicht_0
 70
     0
 40
859.883056640625
 10
0.0
 20
0.0
 41
1216.690185546875
 11
0.0
 21
0.0
 31
1.0
 12
593.7999515533
 22
420.2000155449
 32
-1.0
 42
50.0
 43
0.0
 44
0.0
 50
0.0
 71
     0
281
     0
 72
     0
 73
     0
  0
ENDTAB
  0
TABLE
  2
UCS
  5
7
330
0
100
AcDbSymbolTable
 70
     1
  0
UCS
  5
181
330
7
100
AcDbSymbolTableRecord
100
AcDbUCSTableRecord
  2
Previous
 70
     0
 10
0.0
 20
0.0
 30
0.0
 11
1.0
 21
0.0
 31
0.0
 12
0.0
 22
1.0
 32
0.0
 79
     0
146
0.0
  0
ENDTAB
  0
TABLE
  2
APPID
  5
9
330
0
100
AcDbSymbolTable
 70
     6
  0
APPID
  5
12
330
9
100
AcDbSymbolTableRecord
100
AcDbRegAppTableRecord
  2
ACAD
 70
     0
  0
APPID
  5
3F
330
9
100
AcDbSymbolTableRecord
100
AcDbRegAppTableRecord
  2
TCAD
 70
     0
  0
APPID
  5
184
330
9
100
AcDbSymbolTableRecord
100
AcDbRegAppTableRecord
  2
ACAD_MLEADERVER
 70
     0
  0
ENDTAB
  0
TABLE
  2
DIMSTYLE
  5
A
330
0
100
AcDbSymbolTable
 70
     1
100
AcDbDimStyleTable
  0
DIMSTYLE
105
27
102
{ACAD_REACTORS
330
1B9
330
1CC
102
}
330
A
100
AcDbSymbolTableRecord
100
AcDbDimStyleTableRecord
  2
Standard
 70
     0
 41
3.0
 42
0.9999999999999999
 43
7.5
 44
2.0
 45
0.001
 74
     0
 77
     1
 78
     1
140
3.0
141
0.0
143
1.0
147
2.0
148
0.01
171
     3
172
     1
176
     7
177
     7
271
     3
178
     7
271
     3
272
     3
276
     2
278
     0
340
11
345
14
346
14
347
14
  0
ENDTAB
  0
TABLE
  2
BLOCK_RECORD
  5
1
330
0
100
AcDbSymbolTable
 70
     8
  0
BLOCK_RECORD
  5
1F
102
{ACAD_XDICTIONARY
360
1FC
102
}
330
1
100
AcDbSymbolTableRecord
100
AcDbBlockTableRecord
  2
*Model_Space
340
22
 70
     0
280
     1
281
     0
  0
BLOCK_RECORD
  5
1B
102
{ACAD_XDICTIONARY
360
31B
102
}
330
1
100
AcDbSymbolTableRecord
100
AcDbBlockTableRecord
  2
*Paper_Space
340
1E
 70
     0
280
     1
281
     0
  0
BLOCK_RECORD
  5
150
102
{ACAD_XDICTIONARY
360
26D
102
}
330
1
100
AcDbSymbolTableRecord
100
AcDbBlockTableRecord
  2
*Paper_Space2
340
151
 70
     0
280
     1
281
     0
  0
BLOCK_RECORD
  5
154
102
{ACAD_XDICTIONARY
360
3EE
102
}
330
1
100
AcDbSymbolTableRecord
100
AcDbBlockTableRecord
  2
*Paper_Space3
340
155
 70
     0
280
     1
281
     0
  0
BLOCK_RECORD
  5
158
102
{ACAD_XDICTIONARY
360
515
102
}
330
1
100
AcDbSymbolTableRecord
100
AcDbBlockTableRecord
  2
*Paper_Space4
340
159
 70
     0
280
     1
281
     0
  0
BLOCK_RECORD
  5
15C
102
{ACAD_XDICTIONARY
360
62A
102
}
330
1
100
AcDbSymbolTableRecord
100
AcDbBlockTableRecord
  2
*Paper_Space5
340
15D
 70
     0
280
     1
281
     0
  0
BLOCK_RECORD
  5
1BE
330
1
100
AcDbSymbolTableRecord
100
AcDbBlockTableRecord
  2
*D6
340
0
 70
     0
280
     1
281
     0
  0
BLOCK_RECORD
  5
1D0
330
1
100
AcDbSymbolTableRecord
100
AcDbBlockTableRecord
  2
*D7
340
0
 70
     0
280
     1
281
     0
  0
ENDTAB
  0
ENDSEC
  0
SECTION
  2
BLOCKS
  0
BLOCK
  5
20
330
1F
100
AcDbEntity
  8
0
100
AcDbBlockBegin
  2
*Model_Space
 70
     0
 10
0.0
 20
0.0
 30
0.0
  3
*Model_Space
  1

  0
ENDBLK
  5
21
330
1F
100
AcDbEntity
  8
0
100
AcDbBlockEnd
  0
BLOCK
  5
1C
330
1B
100
AcDbEntity
 67
     1
  8
0
100
AcDbBlockBegin
  2
*Paper_Space
 70
     0
 10
0.0
 20
0.0
 30
0.0
  3
*Paper_Space
  1

  0
ENDBLK
  5
1D
330
1B
100
AcDbEntity
 67
     1
  8
0
100
AcDbBlockEnd
  0
BLOCK
  5
152
330
150
100
AcDbEntity
  8
0
100
AcDbBlockBegin
  2
*Paper_Space2
 70
     0
 10
0.0
 20
0.0
 30
0.0
  3
*Paper_Space2
  1

  0
VIEWPORT
  5
1FE
330
150
100
AcDbEntity
  8
0
100
AcDbViewport
 10
148.5
 20
105.0
 30
0.0
 40
622.3360019751808
 41
244.9673187057684
 68
     1
 69
     1
 12
148.5
 22
105.0
 13
0.0
 23
0.0
 14
5.0
 24
5.0
 15
5.0
 25
5.0
 16
0.0
 26
0.0
 36
1.0
 17
0.0
 27
0.0
 37
0.0
 42
50.0
 43
0.0
 44
0.0
 45
244.9673187057684
 50
0.0
 51
0.0
 72
  1000
 90
    33312
  1

281
     0
 71
     1
 74
     0
110
0.0
120
0.0
130
0.0
111
1.0
121
0.0
131
0.0
112
0.0
122
1.0
132
0.0
 79
     0
146
0.0
170
     0
 61
     5
292
     1
282
     1
141
0.0
142
0.0
 63
   256
  0
TEXT
  5
200
102
{ACAD_REACTORS
330
269
102
}
330
150
100
AcDbEntity
  8
0
  6
Durchgehend
 62
     7
100
AcDbText
 10
181.5385650192896
 20
18.01601994066527
 30
0.0
 40
4.076399379306369
  1
A4
  7
_TCW_TXTSTY_1
 72
     2
 11
188.4969787597656
 21
16.80977630615234
 31
0.0
100
AcDbText
 73
     1
  0
LWPOLYLINE
  5
201
102
{ACAD_REACTORS
330
269
102
}
102
{ACAD_XDICTIONARY
360
202
102
}
330
150
100
AcDbEntity
  8
0
  6
Continuous
 62
     7
370
     0
100
AcDbPolyline
 90
        5
 70
     0
 43
0.0
 10
297.0
 20
105.0
 10
287.0
 20
105.0
 10
292.0
 20
102.1132507324219
 10
292.0
 20
107.8867492675781
 10
287.0
 20
105.0
  0
LWPOLYLINE
  5
204
102
{ACAD_REACTORS
330
269
102
}
102
{ACAD_XDICTIONARY
360
205
102
}
330
150
100
AcDbEntity
  8
0
  6
Continuous
 62
     7
370
     0
100
AcDbPolyline
 90
        5
 70
     0
 43
0.0
 10
0.0
 20
105.0
 10
10.0
 20
105.0
 10
5.0
 20
107.8867492675781
 10
5.0
 20
102.1132507324219
 10
10.0
 20
105.0
  0
LWPOLYLINE
  5
207
102
{ACAD_REACTORS
330
269
102
}
102
{ACAD_XDICTIONARY
360
208
102
}
330
150
100
AcDbEntity
  8
0
  6
Continuous
 62
     7
370
     0
100
AcDbPolyline
 90
        5
 70
     0
 43
0.0
 10
148.5
 20
0.0
 10
148.5
 20
10.0
 10
145.6132507324219
 20
5.0
 10
151.3867492675781
 20
5.0
 10
148.5
 20
10.0
  0
LWPOLYLINE
  5
20A
102
{ACAD_REACTORS
330
269
102
}
102
{ACAD_XDICTIONARY
360
20B
102
}
330
150
100
AcDbEntity
  8
0
  6
Continuous
 62
     7
370
     0
100
AcDbPolyline
 90
        5
 70
     0
 43
0.0
 10
148.5
 20
210.0
 10
148.5
 20
200.0
 10
151.3867492675781
 20
205.0
 10
145.6132507324219
 20
205.0
 10
148.5
 20
200.0
  0
LINE
  5
20D
102
{ACAD_REACTORS
330
269
102
}
102
{ACAD_XDICTIONARY
360
20E
102
}
330
150
100
AcDbEntity
  8
0
  6
Continuous
 62
     7
370
     0
100
AcDbLine
 10
287.0
 20
10.0
 30
0.0
 11
287.0
 21
16.0
 31
0.0
  0
LINE
  5
210
102
{ACAD_REACTORS
330
269
102
}
102
{ACAD_XDICTIONARY
360
211
102
}
330
150
100
AcDbEntity
  8
0
  6
Continuous
 62
     7
370
     0
100
AcDbLine
 10
287.0
 20
16.0
 30
0.0
 11
287.0
 21
26.0
 31
0.0
  0
LINE
  5
213
102
{ACAD_REACTORS
330
269
102
}
102
{ACAD_XDICTIONARY
360
214
102
}
330
150
100
AcDbEntity
  8
0
  6
Continuous
 62
     7
370
     0
100
AcDbLine
 10
287.0
 20
26.0
 30
0.0
 11
287.0
 21
46.0
 31
0.0
  0
LINE
  5
216
102
{ACAD_REACTORS
330
269
102
}
102
{ACAD_XDICTIONARY
360
217
102
}
330
150
100
AcDbEntity
  8
0
  6
Continuous
 62
     7
370
     0
100
AcDbLine
 10
287.0
 20
46.0
 30
0.0
 11
287.0
 21
64.0
 31
0.0
  0
LINE
  5
219
102
{ACAD_REACTORS
330
269
102
}
102
{ACAD_XDICTIONARY
360
21A
102
}
330
150
100
AcDbEntity
  8
0
  6
Continuous
 62
     7
370
     0
100
AcDbLine
 10
177.0
 20
10.0
 30
0.0
 11
177.0
 21
64.0
 31
0.0
  0
LINE
  5
21C
102
{ACAD_REACTORS
330
269
102
}
102
{ACAD_XDICTIONARY
360
21D
102
}
330
150
100
AcDbEntity
  8
0
370
     0
100
AcDbLine
 10
127.0
 20
10.0
 30
0.0
 11
127.0
 21
64.0
 31
0.0
  0
LINE
  5
21F
102
{ACAD_REACTORS
330
269
102
}
102
{ACAD_XDICTIONARY
360
220
102
}
330
150
100
AcDbEntity
  8
0
  6
Continuous
 62
     7
370
     0
100
AcDbLine
 10
127.0
 20
10.0
 30
0.0
 11
177.0
 21
10.0
 31
0.0
  0
LINE
  5
222
102
{ACAD_REACTORS
330
269
102
}
102
{ACAD_XDICTIONARY
360
223
102
}
330
150
100
AcDbEntity
  8
0
  6
Continuous
 62
     7
370
     0
100
AcDbLine
 10
177.0
 20
10.0
 30
0.0
 11
287.0
 21
10.0
 31
0.0
  0
LINE
  5
225
102
{ACAD_REACTORS
330
269
102
}
102
{ACAD_XDICTIONARY
360
226
102
}
330
150
100
AcDbEntity
  8
0
  6
Continuous
 62
     7
370
     0
100
AcDbLine
 10
127.0
 20
64.0
 30
0.0
 11
287.0
 21
64.0
 31
0.0
  0
LINE
  5
228
102
{ACAD_REACTORS
330
269
102
}
102
{ACAD_XDICTIONARY
360
229
102
}
330
150
100
AcDbEntity
  8
0
  6
Continuous
 62
     7
370
     0
100
AcDbLine
 10
177.0
 20
46.0
 30
0.0
 11
287.0
 21
46.0
 31
0.0
  0
LINE
  5
22B
102
{ACAD_REACTORS
330
269
102
}
102
{ACAD_XDICTIONARY
360
22C
102
}
330
150
100
AcDbEntity
  8
0
  6
Continuous
 62
     7
370
     0
100
AcDbLine
 10
177.0
 20
26.0
 30
0.0
 11
287.0
 21
26.0
 31
0.0
  0
LINE
  5
22E
102
{ACAD_REACTORS
330
269
102
}
102
{ACAD_XDICTIONARY
360
22F
102
}
330
150
100
AcDbEntity
  8
0
  6
Continuous
 62
     7
370
     0
100
AcDbLine
 10
177.0
 20
16.0
 30
0.0
 11
287.0
 21
16.0
 31
0.0
  0
LINE
  5
231
102
{ACAD_REACTORS
330
269
102
}
102
{ACAD_XDICTIONARY
360
232
102
}
330
150
100
AcDbEntity
  8
0
  6
Continuous
 62
     7
370
     0
100
AcDbLine
 10
242.0
 20
10.0
 30
0.0
 11
242.0
 21
16.0
 31
0.0
  0
LINE
  5
234
102
{ACAD_REACTORS
330
269
102
}
102
{ACAD_XDICTIONARY
360
235
102
}
330
150
100
AcDbEntity
  8
0
  6
Continuous
 62
     7
370
     0
100
AcDbLine
 10
207.0
 20
10.0
 30
0.0
 11
207.0
 21
16.0
 31
0.0
  0
LINE
  5
237
102
{ACAD_REACTORS
330
269
102
}
102
{ACAD_XDICTIONARY
360
238
102
}
330
150
100
AcDbEntity
  8
0
  6
DASHED
 62
     7
 48
0.125
370
     0
100
AcDbLine
 10
277.0
 20
16.0
 30
0.0
 11
277.0
 21
26.0
 31
0.0
  0
LINE
  5
23A
102
{ACAD_REACTORS
330
269
102
}
102
{ACAD_XDICTIONARY
360
23B
102
}
330
150
100
AcDbEntity
  8
0
  6
Continuous
 62
     7
370
     0
100
AcDbLine
 10
217.0
 20
16.0
 30
0.0
 11
217.0
 21
26.0
 31
0.0
  0
LINE
  5
23D
102
{ACAD_REACTORS
330
269
102
}
102
{ACAD_XDICTIONARY
360
23E
102
}
330
150
100
AcDbEntity
  8
0
  6
Continuous
 62
     7
370
     0
100
AcDbLine
 10
192.0
 20
16.0
 30
0.0
 11
192.0
 21
26.0
 31
0.0
  0
LINE
  5
240
102
{ACAD_REACTORS
330
269
102
}
102
{ACAD_XDICTIONARY
360
241
102
}
330
150
100
AcDbEntity
  8
0
  6
DASHED
 62
     7
 48
0.125
370
     0
100
AcDbLine
 10
127.0
 20
16.0
 30
0.0
 11
177.0
 21
16.0
 31
0.0
  0
LINE
  5
243
102
{ACAD_REACTORS
330
269
102
}
102
{ACAD_XDICTIONARY
360
244
102
}
330
150
100
AcDbEntity
  8
0
  6
DASHED
 62
     7
 48
0.125
370
     0
100
AcDbLine
 10
127.0
 20
22.0
 30
0.0
 11
177.0
 21
22.0
 31
0.0
  0
TEXT
  5
247
102
{ACAD_REACTORS
330
269
102
}
102
{ACAD_XDICTIONARY
360
248
102
}
330
150
100
AcDbEntity
  8
0
  6
Durchgehend
 62
     7
100
AcDbText
 10
178.7187747791242
 20
13.42524321653626
 30
0.0
 40
2.028472344080607
  1
 MAßSTAB
 41
0.999
  7
_TCW_TXTSTY_2
 72
     1
 11
185.7920771134206
 21
12.82499980926514
 31
0.0
100
AcDbText
 73
     1
  0
TEXT
  5
24B
102
{ACAD_REACTORS
330
269
102
}
102
{ACAD_XDICTIONARY
360
24C
102
}
330
150
100
AcDbEntity
  8
0
  6
Durchgehend
 62
     7
100
AcDbText
 10
178.2389438004383
 20
23.42524398991556
 30
0.0
 40
2.028471734788682
  1
 GRÖSSE
 41
0.999
  7
_TCW_TXTSTY_3
 72
     1
 11
184.6840465985812
 21
22.82500076293945
 31
0.0
100
AcDbText
 73
     1
  0
TEXT
  5
24E
102
{ACAD_REACTORS
330
269
102
}
102
{ACAD_XDICTIONARY
360
24F
102
}
330
150
100
AcDbEntity
  8
0
  6
Durchgehend
 62
     7
100
AcDbText
 10
195.5003091551681
 20
23.42524398991556
 30
0.0
 40
2.028471734788682
  1
 DATUM
 41
0.999
  7
_TCW_TXTSTY_3
 72
     1
 11
200.9220581054688
 21
22.82500076293945
 31
0.0
100
AcDbText
 73
     1
  0
TEXT
  5
251
102
{ACAD_REACTORS
330
269
102
}
102
{ACAD_XDICTIONARY
360
252
102
}
330
150
100
AcDbEntity
  8
0
  6
Durchgehend
 62
     7
100
AcDbText
 10
220.9554842501746
 20
23.42524398991556
 30
0.0
 40
2.028471734788682
  1
 NR
  7
_TCW_TXTSTY_3
 72
     1
 11
223.3937072753906
 21
22.82500076293945
 31
0.0
100
AcDbText
 73
     1
  0
TEXT
  5
254
102
{ACAD_REACTORS
330
269
102
}
102
{ACAD_XDICTIONARY
360
255
102
}
330
150
100
AcDbEntity
  8
0
  6
Durchgehend
 62
     7
100
AcDbText
 10
242.3329586526553
 20
13.42524321653626
 30
0.0
 40
2.028472344080607
  1
 BLATT
  7
_TCW_TXTSTY_2
 72
     1
 11
247.13232421875
 21
12.82499980926514
 31
0.0
100
AcDbText
 73
     1
  0
TEXT
  5
257
102
{ACAD_REACTORS
330
269
102
}
102
{ACAD_XDICTIONARY
360
258
102
}
330
150
100
AcDbEntity
  8
0
  6
Durchgehend
 62
     7
100
AcDbText
 10
276.9364209575386
 20
23.42524398991556
 30
0.0
 40
2.028471734788682
  1
 GEP
 41
0.999
  7
_TCW_TXTSTY_3
 72
     1
 11
280.3165283203125
 21
22.82500076293945
 31
0.0
100
AcDbText
 73
     1
  0
TEXT
  5
25A
102
{ACAD_REACTORS
330
269
102
}
102
{ACAD_XDICTIONARY
360
25B
102
}
330
150
100
AcDbEntity
  8
0
  6
Durchgehend
 62
     7
100
AcDbText
 10
177.0149920501179
 20
43.42524398991556
 30
0.0
 40
2.028471734788682
  1
 TITEL
  7
_TCW_TXTSTY_3
 72
     1
 11
181.2636260986328
 21
42.82500076293945
 31
0.0
100
AcDbText
 73
     1
  0
LINE
  5
25D
102
{ACAD_REACTORS
330
269
102
}
102
{ACAD_XDICTIONARY
360
25E
102
}
330
150
100
AcDbEntity
  8
0
  6
Continuous
 62
     7
370
     0
100
AcDbLine
 10
10.0
 20
200.0
 30
0.0
 11
10.0
 21
10.0
 31
0.0
  0
LINE
  5
260
102
{ACAD_REACTORS
330
269
102
}
102
{ACAD_XDICTIONARY
360
261
102
}
330
150
100
AcDbEntity
  8
0
  6
Continuous
 62
     7
370
     0
100
AcDbLine
 10
287.0
 20
200.0
 30
0.0
 11
10.0
 21
200.0
 31
0.0
  0
LINE
  5
263
102
{ACAD_REACTORS
330
269
102
}
102
{ACAD_XDICTIONARY
360
264
102
}
330
150
100
AcDbEntity
  8
0
  6
Continuous
 62
     7
370
     0
100
AcDbLine
 10
287.0
 20
10.0
 30
0.0
 11
287.0
 21
200.0
 31
0.0
  0
LINE
  5
266
102
{ACAD_REACTORS
330
269
102
}
102
{ACAD_XDICTIONARY
360
267
102
}
330
150
100
AcDbEntity
  8
0
  6
Continuous
 62
     7
370
     0
100
AcDbLine
 10
10.0
 20
10.0
 30
0.0
 11
287.0
 21
10.0
 31
0.0
  0
VIEWPORT
  5
26C
330
150
100
AcDbEntity
  8
0
  6
$INVISIBLE
 62
     7
 60
     1
100
AcDbViewport
 10
148.5
 20
105.0
 30
0.0
 40
277.0
 41
190.0
 68
     2
 69
     2
 12
0.0
 22
0.0
 13
0.0
 23
0.0
 14
0.5
 24
0.5
 15
0.0
 25
0.0
 16
0.0
 26
0.0
 36
1.0
 17
148.5000019073486
 27
105.0499956607819
 37
-1.0
 42
50.0
 43
0.0
 44
0.0
 45
214.1999969482422
 50
0.0
 51
0.0
 72
   100
331
176
331
179
331
17A
331
17D
 90
   557152
  1

281
     0
 71
     1
 74
     0
110
0.0
120
0.0
130
0.0
111
1.0
121
0.0
131
0.0
112
0.0
122
1.0
132
0.0
 79
     0
146
0.0
170
     0
 61
     5
292
     1
282
     1
141
0.0
142
0.0
 63
   256
  0
ENDBLK
  5
153
330
150
100
AcDbEntity
  8
0
100
AcDbBlockEnd
  0
BLOCK
  5
156
330
154
100
AcDbEntity
  8
0
100
AcDbBlockBegin
  2
*Paper_Space3
 70
     0
 10
0.0
 20
0.0
 30
0.0
  3
*Paper_Space3
  1

  0
VIEWPORT
  5
31D
330
154
100
AcDbEntity
  8
0
100
AcDbViewport
 10
297.0
 20
210.0
 30
0.0
 40
605.8800000000001
 41
484.0594468085108
 68
     1
 69
     1
 12
297.0
 22
210.0
 13
0.0
 23
0.0
 14
5.0
 24
5.0
 15
5.0
 25
5.0
 16
0.0
 26
0.0
 36
1.0
 17
0.0
 27
0.0
 37
0.0
 42
50.0
 43
0.0
 44
0.0
 45
484.0594468085108
 50
0.0
 51
0.0
 72
  1000
 90
    32800
  1

281
     0
 71
     1
 74
     0
110
0.0
120
0.0
130
0.0
111
1.0
121
0.0
131
0.0
112
0.0
122
1.0
132
0.0
 79
     0
146
0.0
170
     0
 61
     5
292
     1
282
     1
141
0.0
142
0.0
 63
   256
  0
TEXT
  5
31F
102
{ACAD_REACTORS
330
3EA
102
}
330
154
100
AcDbEntity
  8
0
  6
Durchgehend
 62
     7
100
AcDbText
 10
478.8633315020138
 20
17.90777598487006
 30
0.0
 40
4.27633974287245
  1
A2
  7
_TCW_TXTSTY_C
 72
     1
 11
482.5089111328125
 21
20.04594585630629
 31
0.0
100
AcDbText
 73
     2
  0
TEXT
  5
321
102
{ACAD_REACTORS
330
3EA
102
}
330
154
100
AcDbEntity
  8
0
  6
Durchgehend
 62
     7
100
AcDbText
 10
587.0484832109918
 20
378.7881503634982
 30
0.0
 40
4.276312934027778
  1
F
 41
1.07
  7
_TCW_TXTSTY_D
 72
     1
 11
589.0
 21
380.9263068305121
 31
0.0
100
AcDbText
 73
     2
  0
TEXT
  5
323
102
{ACAD_REACTORS
330
3EA
102
}
330
154
100
AcDbEntity
  8
0
  6
Durchgehend
 62
     7
100
AcDbText
 10
586.8739945332336
 20
310.4547882080078
 30
0.0
 40
4.276351928710938
  1
E
 41
1.068
  7
_TCW_TXTSTY_E
 72
     1
 11
589.0
 21
312.5929641723633
 31
0.0
100
AcDbText
 73
     2
  0
TEXT
  5
325
102
{ACAD_REACTORS
330
3EA
102
}
330
154
100
AcDbEntity
  8
0
  6
Durchgehend
 62
     7
100
AcDbText
 10
586.7024805325927
 20
242.121469285753
 30
0.0
 40
4.276332431369357
  1
D
 41
1.066
  7
_TCW_TXTSTY_F
 72
     1
 11
589.0
 21
244.2596355014377
 31
0.0
100
AcDbText
 73
     2
  0
TEXT
  5
327
102
{ACAD_REACTORS
330
3EA
102
}
330
154
100
AcDbEntity
  8
0
  6
Durchgehend
 62
     7
100
AcDbText
 10
586.8468935429687
 20
173.7881351047092
 30
0.0
 40
4.276312934027778
  1
C
 41
0.999
  7
_TCW_TXTSTY_10
 72
     1
 11
589.0
 21
175.9262915717231
 31
0.0
100
AcDbText
 73
     2
  0
TEXT
  5
329
102
{ACAD_REACTORS
330
3EA
102
}
330
154
100
AcDbEntity
  8
0
  6
Durchgehend
 62
     7
100
AcDbText
 10
586.8560787568283
 20
105.4547882080078
 30
0.0
 40
4.276351928710938
  1
B
 41
1.077
  7
_TCW_TXTSTY_11
 72
     1
 11
589.0
 21
107.5929641723633
 31
0.0
100
AcDbText
 73
     2
  0
TEXT
  5
32B
102
{ACAD_REACTORS
330
3EA
102
}
330
154
100
AcDbEntity
  8
0
  6
Durchgehend
 62
     7
100
AcDbText
 10
587.0136481138865
 20
37.12147013346355
 30
0.0
 40
4.276322682698567
  1
A
  7
_TCW_TXTSTY_12
 72
     1
 11
589.0
 21
39.25963147481283
 31
0.0
100
AcDbText
 73
     2
  0
TEXT
  5
32C
102
{ACAD_REACTORS
330
3EA
102
}
330
154
100
AcDbEntity
  8
0
  6
Durchgehend
 62
     7
100
AcDbText
 10
3.04846541557312
 20
378.7881317138672
 30
0.0
 40
4.276351928710938
  1
F
 41
1.07
  7
_TCW_TXTSTY_11
 72
     1
 11
5.0
 21
380.9263076782227
 31
0.0
100
AcDbText
 73
     2
  0
TEXT
  5
32D
102
{ACAD_REACTORS
330
3EA
102
}
330
154
100
AcDbEntity
  8
0
  6
Durchgehend
 62
     7
100
AcDbText
 10
2.873994533233643
 20
310.4547882080078
 30
0.0
 40
4.276351928710938
  1
E
 41
1.068
  7
_TCW_TXTSTY_E
 72
     1
 11
5.0
 21
312.5929641723633
 31
0.0
100
AcDbText
 73
     2
  0
TEXT
  5
32E
102
{ACAD_REACTORS
330
3EA
102
}
330
154
100
AcDbEntity
  8
0
  6
Durchgehend
 62
     7
100
AcDbText
 10
2.702480532592773
 20
242.121469285753
 30
0.0
 40
4.276332431369357
  1
D
 41
1.066
  7
_TCW_TXTSTY_F
 72
     1
 11
5.0
 21
244.2596355014377
 31
0.0
100
AcDbText
 73
     2
  0
TEXT
  5
330
102
{ACAD_REACTORS
330
3EA
102
}
330
154
100
AcDbEntity
  8
0
  6
Durchgehend
 62
     7
100
AcDbText
 10
2.846883726135254
 20
173.7881257798936
 30
0.0
 40
4.276332431369357
  1
C
 41
0.999
  7
_TCW_TXTSTY_13
 72
     1
 11
5.0
 21
175.9262919955783
 31
0.0
100
AcDbText
 73
     2
  0
TEXT
  5
332
102
{ACAD_REACTORS
330
3EA
102
}
330
154
100
AcDbEntity
  8
0
  6
Durchgehend
 62
     7
100
AcDbText
 10
2.856088531693777
 20
105.4547975328233
 30
0.0
 40
4.276332431369357
  1
B
 41
1.077
  7
_TCW_TXTSTY_14
 72
     1
 11
5.0
 21
107.592963748508
 31
0.0
100
AcDbText
 73
     2
  0
TEXT
  5
333
102
{ACAD_REACTORS
330
3EA
102
}
330
154
100
AcDbEntity
  8
0
  6
Durchgehend
 62
     7
100
AcDbText
 10
3.013643585628934
 20
37.12146547105577
 30
0.0
 40
4.276332431369357
  1
A
  7
_TCW_TXTSTY_13
 72
     1
 11
5.0
 21
39.25963168674045
 31
0.0
100
AcDbText
 73
     2
  0
TEXT
  5
335
102
{ACAD_REACTORS
330
3EA
102
}
330
154
100
AcDbEntity
  8
0
  6
Durchgehend
 62
     7
100
AcDbText
 10
39.84077876133389
 20
2.954792287614611
 30
0.0
 40
4.276343398623996
  1
8
  7
_TCW_TXTSTY_15
 72
     1
 11
41.5
 21
5.092963986926609
 31
0.0
100
AcDbText
 73
     2
  0
TEXT
  5
337
102
{ACAD_REACTORS
330
3EA
102
}
330
154
100
AcDbEntity
  8
0
  6
Durchgehend
 62
     7
100
AcDbText
 10
112.8407778157128
 20
2.954791122012668
 30
0.0
 40
4.276345835791694
  1
7
  7
_TCW_TXTSTY_16
 72
     1
 11
114.5
 21
5.092964039908515
 31
0.0
100
AcDbText
 73
     2
  0
TEXT
  5
339
102
{ACAD_REACTORS
330
3EA
102
}
330
154
100
AcDbEntity
  8
0
  6
Durchgehend
 62
     7
100
AcDbText
 10
185.8407834894392
 20
2.954798115624322
 30
0.0
 40
4.276331212785508
  1
6
  7
_TCW_TXTSTY_17
 72
     1
 11
187.5
 21
5.092963722017076
 31
0.0
100
AcDbText
 73
     2
  0
TEXT
  5
33B
102
{ACAD_REACTORS
330
3EA
102
}
330
154
100
AcDbEntity
  8
0
  6
Durchgehend
 62
     7
100
AcDbText
 10
258.8407721419864
 20
2.954784128401014
 30
0.0
 40
4.276360458797878
  1
5
  7
_TCW_TXTSTY_18
 72
     1
 11
260.5
 21
5.092964357799953
 31
0.0
100
AcDbText
 73
     2
  0
TEXT
  5
33C
102
{ACAD_REACTORS
330
3EA
102
}
330
154
100
AcDbEntity
  8
0
  6
Durchgehend
 62
     7
100
AcDbText
 10
331.8407721419864
 20
2.954784128401014
 30
0.0
 40
4.276360458797878
  1
4
  7
_TCW_TXTSTY_18
 72
     1
 11
333.5
 21
5.092964357799953
 31
0.0
100
AcDbText
 73
     2
  0
TEXT
  5
33D
102
{ACAD_REACTORS
330
3EA
102
}
330
154
100
AcDbEntity
  8
0
  6
Durchgehend
 62
     7
100
AcDbText
 10
404.8407721419864
 20
2.954784128401014
 30
0.0
 40
4.276360458797878
  1
3
  7
_TCW_TXTSTY_18
 72
     1
 11
406.5
 21
5.092964357799953
 31
0.0
100
AcDbText
 73
     2
  0
TEXT
  5
33E
102
{ACAD_REACTORS
330
3EA
102
}
330
154
100
AcDbEntity
  8
0
  6
Durchgehend
 62
     7
100
AcDbText
 10
477.8407721419864
 20
2.954784128401014
 30
0.0
 40
4.276360458797878
  1
2
  7
_TCW_TXTSTY_18
 72
     1
 11
479.5
 21
5.092964357799953
 31
0.0
100
AcDbText
 73
     2
  0
TEXT
  5
340
102
{ACAD_REACTORS
330
3EA
102
}
330
154
100
AcDbEntity
  8
0
  6
Durchgehend
 62
     7
100
AcDbText
 10
550.7926705893314
 20
2.954803360833063
 30
0.0
 40
4.27632024553087
  1
1
 41
1.029
  7
_TCW_TXTSTY_19
 72
     1
 11
552.5
 21
5.092963483598497
 31
0.0
100
AcDbText
 73
     2
  0
TEXT
  5
342
102
{ACAD_REACTORS
330
3EA
102
}
330
154
100
AcDbEntity
  8
0
  6
Durchgehend
 62
     7
100
AcDbText
 10
39.84077545166016
 20
412.9547882080078
 30
0.0
 40
4.276351928710938
  1
8
  7
_TCW_TXTSTY_1A
 72
     1
 11
41.5
 21
415.0929641723633
 31
0.0
100
AcDbText
 73
     2
  0
TEXT
  5
343
102
{ACAD_REACTORS
330
3EA
102
}
330
154
100
AcDbEntity
  8
0
  6
Durchgehend
 62
     7
100
AcDbText
 10
112.8407754516601
 20
412.9547882080078
 30
0.0
 40
4.276351928710938
  1
7
  7
_TCW_TXTSTY_1A
 72
     1
 11
114.5
 21
415.0929641723633
 31
0.0
100
AcDbText
 73
     2
  0
TEXT
  5
344
102
{ACAD_REACTORS
330
3EA
102
}
330
154
100
AcDbEntity
  8
0
  6
Durchgehend
 62
     7
100
AcDbText
 10
185.8407754516602
 20
412.9547882080078
 30
0.0
 40
4.276351928710938
  1
6
  7
_TCW_TXTSTY_1A
 72
     1
 11
187.5
 21
415.0929641723633
 31
0.0
100
AcDbText
 73
     2
  0
TEXT
  5
345
102
{ACAD_REACTORS
330
3EA
102
}
330
154
100
AcDbEntity
  8
0
  6
Durchgehend
 62
     7
100
AcDbText
 10
258.8407754516601
 20
412.9547882080078
 30
0.0
 40
4.276351928710938
  1
5
  7
_TCW_TXTSTY_1A
 72
     1
 11
260.5
 21
415.0929641723633
 31
0.0
100
AcDbText
 73
     2
  0
TEXT
  5
346
102
{ACAD_REACTORS
330
3EA
102
}
330
154
100
AcDbEntity
  8
0
  6
Durchgehend
 62
     7
100
AcDbText
 10
331.8407754516601
 20
412.9547882080078
 30
0.0
 40
4.276351928710938
  1
4
  7
_TCW_TXTSTY_1A
 72
     1
 11
333.5
 21
415.0929641723633
 31
0.0
100
AcDbText
 73
     2
  0
TEXT
  5
347
102
{ACAD_REACTORS
330
3EA
102
}
330
154
100
AcDbEntity
  8
0
  6
Durchgehend
 62
     7
100
AcDbText
 10
404.8407754516601
 20
412.9547882080078
 30
0.0
 40
4.276351928710938
  1
3
  7
_TCW_TXTSTY_1A
 72
     1
 11
406.5
 21
415.0929641723633
 31
0.0
100
AcDbText
 73
     2
  0
TEXT
  5
348
102
{ACAD_REACTORS
330
3EA
102
}
330
154
100
AcDbEntity
  8
0
  6
Durchgehend
 62
     7
100
AcDbText
 10
477.8407754516601
 20
412.9547882080078
 30
0.0
 40
4.276351928710938
  1
2
  7
_TCW_TXTSTY_1A
 72
     1
 11
479.5
 21
415.0929641723633
 31
0.0
100
AcDbText
 73
     2
  0
TEXT
  5
34A
102
{ACAD_REACTORS
330
3EA
102
}
330
154
100
AcDbEntity
  8
0
  6
Durchgehend
 62
     7
100
AcDbText
 10
550.7926735084635
 20
412.9548068576389
 30
0.0
 40
4.276312934027778
  1
1
 41
1.029
  7
_TCW_TXTSTY_1B
 72
     1
 11
552.5
 21
415.0929633246528
 31
0.0
100
AcDbText
 73
     2
  0
LINE
  5
34B
102
{ACAD_REACTORS
330
3EA
102
}
102
{ACAD_XDICTIONARY
360
34C
102
}
330
154
100
AcDbEntity
  8
0
  6
Continuous
 62
     7
370
     0
100
AcDbLine
 10
10.0
 20
76.66666412353516
 30
0.0
 11
-0.0000000000000338
 21
76.66666412353516
 31
0.0
  0
LINE
  5
34E
102
{ACAD_REACTORS
330
3EA
102
}
102
{ACAD_XDICTIONARY
360
34F
102
}
330
154
100
AcDbEntity
  8
0
  6
Continuous
 62
     7
370
     0
100
AcDbLine
 10
10.0
 20
143.3333282470703
 30
0.0
 11
-0.0000000000000249
 21
143.3333282470703
 31
0.0
  0
LINE
  5
351
102
{ACAD_REACTORS
330
3EA
102
}
102
{ACAD_XDICTIONARY
360
352
102
}
330
154
100
AcDbEntity
  8
0
  6
Continuous
 62
     7
370
     0
100
AcDbLine
 10
10.0
 20
276.6666564941406
 30
0.0
 11
-0.0000000000000089
 21
276.6666564941406
 31
0.0
  0
LINE
  5
354
102
{ACAD_REACTORS
330
3EA
102
}
102
{ACAD_XDICTIONARY
360
355
102
}
330
154
100
AcDbEntity
  8
0
  6
Continuous
 62
     7
370
     0
100
AcDbLine
 10
512.25
 20
-0.0000000000000253
 30
0.0
 11
512.25
 21
10.0
 31
0.0
  0
LINE
  5
357
102
{ACAD_REACTORS
330
3EA
102
}
102
{ACAD_XDICTIONARY
360
358
102
}
330
154
100
AcDbEntity
  8
0
  6
Continuous
 62
     7
370
     0
100
AcDbLine
 10
440.5
 20
-0.0000000000000213
 30
0.0
 11
440.5
 21
10.0
 31
0.0
  0
LINE
  5
35A
102
{ACAD_REACTORS
330
3EA
102
}
102
{ACAD_XDICTIONARY
360
35B
102
}
330
154
100
AcDbEntity
  8
0
  6
Continuous
 62
     7
370
     0
100
AcDbLine
 10
368.75
 20
-0.0000000000000169
 30
0.0
 11
368.75
 21
10.0
 31
0.0
  0
LINE
  5
35D
102
{ACAD_REACTORS
330
3EA
102
}
102
{ACAD_XDICTIONARY
360
35E
102
}
330
154
100
AcDbEntity
  8
0
  6
Continuous
 62
     7
370
     0
100
AcDbLine
 10
225.25
 20
-0.000000000000008
 30
0.0
 11
225.25
 21
10.0
 31
0.0
  0
LINE
  5
360
102
{ACAD_REACTORS
330
3EA
102
}
102
{ACAD_XDICTIONARY
360
361
102
}
330
154
100
AcDbEntity
  8
0
  6
Continuous
 62
     7
370
     0
100
AcDbLine
 10
153.5
 20
-0.0000000000000036
 30
0.0
 11
153.5
 21
10.0
 31
0.0
  0
LINE
  5
363
102
{ACAD_REACTORS
330
3EA
102
}
102
{ACAD_XDICTIONARY
360
364
102
}
330
154
100
AcDbEntity
  8
0
  6
Continuous
 62
     7
370
     0
100
AcDbLine
 10
594.0
 20
76.66666412353516
 30
0.0
 11
584.0
 21
76.66666412353516
 31
0.0
  0
LINE
  5
366
102
{ACAD_REACTORS
330
3EA
102
}
102
{ACAD_XDICTIONARY
360
367
102
}
330
154
100
AcDbEntity
  8
0
  6
Continuous
 62
     7
370
     0
100
AcDbLine
 10
594.0
 20
276.6666564941406
 30
0.0
 11
584.0
 21
276.6666564941406
 31
0.0
  0
LINE
  5
369
102
{ACAD_REACTORS
330
3EA
102
}
102
{ACAD_XDICTIONARY
360
36A
102
}
330
154
100
AcDbEntity
  8
0
  6
Continuous
 62
     7
370
     0
100
AcDbLine
 10
512.25
 20
410.0
 30
0.0
 11
512.25
 21
420.0
 31
0.0
  0
LINE
  5
36C
102
{ACAD_REACTORS
330
3EA
102
}
102
{ACAD_XDICTIONARY
360
36D
102
}
330
154
100
AcDbEntity
  8
0
  6
Continuous
 62
     7
370
     0
100
AcDbLine
 10
440.5
 20
410.0
 30
0.0
 11
440.5
 21
420.0
 31
0.0
  0
LINE
  5
36F
102
{ACAD_REACTORS
330
3EA
102
}
102
{ACAD_XDICTIONARY
360
370
102
}
330
154
100
AcDbEntity
  8
0
  6
Continuous
 62
     7
370
     0
100
AcDbLine
 10
368.75
 20
410.0
 30
0.0
 11
368.75
 21
420.0
 31
0.0
  0
LINE
  5
372
102
{ACAD_REACTORS
330
3EA
102
}
102
{ACAD_XDICTIONARY
360
373
102
}
330
154
100
AcDbEntity
  8
0
  6
Continuous
 62
     7
370
     0
100
AcDbLine
 10
225.25
 20
410.0
 30
0.0
 11
225.25
 21
420.0
 31
0.0
  0
LINE
  5
375
102
{ACAD_REACTORS
330
3EA
102
}
102
{ACAD_XDICTIONARY
360
376
102
}
330
154
100
AcDbEntity
  8
0
  6
Continuous
 62
     7
370
     0
100
AcDbLine
 10
153.5
 20
410.0
 30
0.0
 11
153.5
 21
420.0
 31
0.0
  0
LINE
  5
378
102
{ACAD_REACTORS
330
3EA
102
}
102
{ACAD_XDICTIONARY
360
379
102
}
330
154
100
AcDbEntity
  8
0
  6
Continuous
 62
     7
370
     0
100
AcDbLine
 10
594.0
 20
343.3333435058594
 30
0.0
 11
584.0
 21
343.3333435058594
 31
0.0
  0
LINE
  5
37B
102
{ACAD_REACTORS
330
3EA
102
}
102
{ACAD_XDICTIONARY
360
37C
102
}
330
154
100
AcDbEntity
  8
0
  6
Continuous
 62
     7
370
     0
100
AcDbLine
 10
81.75
 20
0.0
 30
0.0
 11
81.75
 21
10.0
 31
0.0
  0
LINE
  5
37E
102
{ACAD_REACTORS
330
3EA
102
}
102
{ACAD_XDICTIONARY
360
37F
102
}
330
154
100
AcDbEntity
  8
0
  6
Continuous
 62
     7
370
     0
100
AcDbLine
 10
10.0
 20
343.3333435058594
 30
0.0
 11
0.0
 21
343.3333435058594
 31
0.0
  0
LINE
  5
381
102
{ACAD_REACTORS
330
3EA
102
}
102
{ACAD_XDICTIONARY
360
382
102
}
330
154
100
AcDbEntity
  8
0
  6
Continuous
 62
     7
370
     0
100
AcDbLine
 10
81.75
 20
410.0
 30
0.0
 11
81.75
 21
420.0
 31
0.0
  0
LWPOLYLINE
  5
384
102
{ACAD_REACTORS
330
3EA
102
}
102
{ACAD_XDICTIONARY
360
385
102
}
330
154
100
AcDbEntity
  8
0
  6
Continuous
 62
     7
370
     0
100
AcDbPolyline
 90
        5
 70
     0
 43
0.0
 10
297.0
 20
420.0
 10
297.0
 20
410.0
 10
299.8867492675781
 20
415.0
 10
294.1132507324219
 20
415.0
 10
297.0
 20
410.0
  0
LWPOLYLINE
  5
387
102
{ACAD_REACTORS
330
3EA
102
}
102
{ACAD_XDICTIONARY
360
388
102
}
330
154
100
AcDbEntity
  8
0
  6
Continuous
 62
     7
370
     0
100
AcDbPolyline
 90
        5
 70
     0
 43
0.0
 10
0.0
 20
210.0
 10
10.0
 20
210.0
 10
5.0
 20
212.8867492675781
 10
5.0
 20
207.1132507324219
 10
10.0
 20
210.0
  0
LWPOLYLINE
  5
38A
102
{ACAD_REACTORS
330
3EA
102
}
102
{ACAD_XDICTIONARY
360
38B
102
}
330
154
100
AcDbEntity
  8
0
  6
Continuous
 62
     7
370
     0
100
AcDbPolyline
 90
        5
 70
     0
 43
0.0
 10
297.0
 20
0.0
 10
297.0
 20
10.0
 10
294.1132507324219
 20
5.0
 10
299.8867492675781
 20
5.0
 10
297.0
 20
10.0
  0
LWPOLYLINE
  5
38D
102
{ACAD_REACTORS
330
3EA
102
}
102
{ACAD_XDICTIONARY
360
38E
102
}
330
154
100
AcDbEntity
  8
0
  6
Continuous
 62
     7
370
     0
100
AcDbPolyline
 90
        5
 70
     0
 43
0.0
 10
594.0
 20
210.0
 10
584.0
 20
210.0
 10
589.0
 20
207.1132507324219
 10
589.0
 20
212.8867492675781
 10
584.0
 20
210.0
  0
TEXT
  5
390
102
{ACAD_REACTORS
330
3EA
102
}
102
{ACAD_XDICTIONARY
360
391
102
}
330
154
100
AcDbEntity
  8
0
  6
Durchgehend
 62
     7
100
AcDbText
 10
474.015007308907
 20
43.42524398991556
 30
0.0
 40
2.028471734788682
  1
 TITEL
  7
_TCW_TXTSTY_3
 72
     1
 11
478.2636413574219
 21
42.82500076293945
 31
0.0
100
AcDbText
 73
     1
  0
TEXT
  5
393
102
{ACAD_REACTORS
330
3EA
102
}
102
{ACAD_XDICTIONARY
360
394
102
}
330
154
100
AcDbEntity
  8
0
  6
Durchgehend
 62
     7
100
AcDbText
 10
573.9364209575386
 20
23.42524398991556
 30
0.0
 40
2.028471734788682
  1
 GEP
 41
0.999
  7
_TCW_TXTSTY_3
 72
     1
 11
577.3165283203125
 21
22.82500076293945
 31
0.0
100
AcDbText
 73
     1
  0
TEXT
  5
396
102
{ACAD_REACTORS
330
3EA
102
}
102
{ACAD_XDICTIONARY
360
397
102
}
330
154
100
AcDbEntity
  8
0
  6
Durchgehend
 62
     7
100
AcDbText
 10
539.3329586526553
 20
13.42524321653626
 30
0.0
 40
2.028472344080607
  1
 BLATT
  7
_TCW_TXTSTY_2
 72
     1
 11
544.13232421875
 21
12.82499980926514
 31
0.0
100
AcDbText
 73
     1
  0
TEXT
  5
399
102
{ACAD_REACTORS
330
3EA
102
}
102
{ACAD_XDICTIONARY
360
39A
102
}
330
154
100
AcDbEntity
  8
0
  6
Durchgehend
 62
     7
100
AcDbText
 10
518.3510829838104
 20
23.42524398991556
 30
0.0
 40
2.028471734788682
  1
NR
 41
0.999
  7
_TCW_TXTSTY_3
 72
     1
 11
520.3937377929688
 21
22.82500076293945
 31
0.0
100
AcDbText
 73
     1
  0
TEXT
  5
39C
102
{ACAD_REACTORS
330
3EA
102
}
102
{ACAD_XDICTIONARY
360
39D
102
}
330
154
100
AcDbEntity
  8
0
  6
Durchgehend
 62
     7
100
AcDbText
 10
492.8934391482005
 20
23.42524398991556
 30
0.0
 40
2.028471734788682
  1
DATUM
 41
0.999
  7
_TCW_TXTSTY_3
 72
     1
 11
497.9220581054688
 21
22.82500076293945
 31
0.0
100
AcDbText
 73
     1
  0
TEXT
  5
39F
102
{ACAD_REACTORS
330
3EA
102
}
102
{ACAD_XDICTIONARY
360
3A0
102
}
330
154
100
AcDbEntity
  8
0
  6
Durchgehend
 62
     7
100
AcDbText
 10
474.312657812193
 20
23.42524398991556
 30
0.0
 40
2.028471734788682
  1
 GRÖSSE
 41
0.999
  7
_TCW_TXTSTY_3
 72
     1
 11
480.7577606103359
 21
22.82500076293945
 31
0.0
100
AcDbText
 73
     1
  0
TEXT
  5
3A2
102
{ACAD_REACTORS
330
3EA
102
}
102
{ACAD_XDICTIONARY
360
3A3
102
}
330
154
100
AcDbEntity
  8
0
  6
Durchgehend
 62
     7
100
AcDbText
 10
475.3744307378378
 20
13.42524321653626
 30
0.0
 40
2.028472344080607
  1
 MAßSTAB
 41
0.999
  7
_TCW_TXTSTY_2
 72
     1
 11
482.4477330721342
 21
12.82499980926514
 31
0.0
100
AcDbText
 73
     1
  0
LINE
  5
3A5
102
{ACAD_REACTORS
330
3EA
102
}
102
{ACAD_XDICTIONARY
360
3A6
102
}
330
154
100
AcDbEntity
  8
0
  6
DASHED
 62
     7
 48
0.125
370
     0
100
AcDbLine
 10
424.0
 20
22.0
 30
0.0
 11
474.0
 21
22.0
 31
0.0
  0
LINE
  5
3A8
102
{ACAD_REACTORS
330
3EA
102
}
102
{ACAD_XDICTIONARY
360
3A9
102
}
330
154
100
AcDbEntity
  8
0
  6
DASHED
 62
     7
 48
0.125
370
     0
100
AcDbLine
 10
424.0
 20
16.0
 30
0.0
 11
474.0
 21
16.0
 31
0.0
  0
LINE
  5
3AB
102
{ACAD_REACTORS
330
3EA
102
}
102
{ACAD_XDICTIONARY
360
3AC
102
}
330
154
100
AcDbEntity
  8
0
  6
Continuous
 62
     7
370
     0
100
AcDbLine
 10
489.0
 20
16.0
 30
0.0
 11
489.0
 21
26.0
 31
0.0
  0
LINE
  5
3AE
102
{ACAD_REACTORS
330
3EA
102
}
102
{ACAD_XDICTIONARY
360
3AF
102
}
330
154
100
AcDbEntity
  8
0
  6
Continuous
 62
     7
370
     0
100
AcDbLine
 10
514.0
 20
16.0
 30
0.0
 11
514.0
 21
26.0
 31
0.0
  0
LINE
  5
3B1
102
{ACAD_REACTORS
330
3EA
102
}
102
{ACAD_XDICTIONARY
360
3B2
102
}
330
154
100
AcDbEntity
  8
0
  6
DASHED
 62
     7
 48
0.125
370
     0
100
AcDbLine
 10
574.0
 20
16.0
 30
0.0
 11
574.0
 21
26.0
 31
0.0
  0
LINE
  5
3B4
102
{ACAD_REACTORS
330
3EA
102
}
102
{ACAD_XDICTIONARY
360
3B5
102
}
330
154
100
AcDbEntity
  8
0
  6
Continuous
 62
     7
370
     0
100
AcDbLine
 10
504.0
 20
10.0
 30
0.0
 11
504.0
 21
16.0
 31
0.0
  0
LINE
  5
3B7
102
{ACAD_REACTORS
330
3EA
102
}
102
{ACAD_XDICTIONARY
360
3B8
102
}
330
154
100
AcDbEntity
  8
0
  6
Continuous
 62
     7
370
     0
100
AcDbLine
 10
539.0
 20
10.0
 30
0.0
 11
539.0
 21
16.0
 31
0.0
  0
LINE
  5
3BA
102
{ACAD_REACTORS
330
3EA
102
}
102
{ACAD_XDICTIONARY
360
3BB
102
}
330
154
100
AcDbEntity
  8
0
  6
Continuous
 62
     7
370
     0
100
AcDbLine
 10
474.0
 20
16.0
 30
0.0
 11
584.0
 21
16.0
 31
0.0
  0
LINE
  5
3BD
102
{ACAD_REACTORS
330
3EA
102
}
102
{ACAD_XDICTIONARY
360
3BE
102
}
330
154
100
AcDbEntity
  8
0
  6
Continuous
 62
     7
370
     0
100
AcDbLine
 10
474.0
 20
26.0
 30
0.0
 11
584.0
 21
26.0
 31
0.0
  0
LINE
  5
3C0
102
{ACAD_REACTORS
330
3EA
102
}
102
{ACAD_XDICTIONARY
360
3C1
102
}
330
154
100
AcDbEntity
  8
0
  6
Continuous
 62
     7
370
     0
100
AcDbLine
 10
474.0
 20
46.0
 30
0.0
 11
584.0
 21
46.0
 31
0.0
  0
LINE
  5
3C3
102
{ACAD_REACTORS
330
3EA
102
}
102
{ACAD_XDICTIONARY
360
3C4
102
}
330
154
100
AcDbEntity
  8
0
  6
Continuous
 62
     7
370
     0
100
AcDbLine
 10
424.0
 20
64.0
 30
0.0
 11
584.0
 21
64.0
 31
0.0
  0
LINE
  5
3C6
102
{ACAD_REACTORS
330
3EA
102
}
102
{ACAD_XDICTIONARY
360
3C7
102
}
330
154
100
AcDbEntity
  8
0
  6
Continuous
 62
     7
370
     0
100
AcDbLine
 10
474.0
 20
10.0
 30
0.0
 11
584.0
 21
10.0
 31
0.0
  0
LINE
  5
3C9
102
{ACAD_REACTORS
330
3EA
102
}
102
{ACAD_XDICTIONARY
360
3CA
102
}
330
154
100
AcDbEntity
  8
0
  6
Continuous
 62
     7
370
     0
100
AcDbLine
 10
424.0
 20
10.0
 30
0.0
 11
474.0
 21
10.0
 31
0.0
  0
LINE
  5
3CC
102
{ACAD_REACTORS
330
3EA
102
}
102
{ACAD_XDICTIONARY
360
3CD
102
}
330
154
100
AcDbEntity
  8
0
370
     0
100
AcDbLine
 10
424.0
 20
10.0
 30
0.0
 11
424.0
 21
64.0
 31
0.0
  0
LINE
  5
3CF
102
{ACAD_REACTORS
330
3EA
102
}
102
{ACAD_XDICTIONARY
360
3D0
102
}
330
154
100
AcDbEntity
  8
0
  6
Continuous
 62
     7
370
     0
100
AcDbLine
 10
474.0
 20
10.0
 30
0.0
 11
474.0
 21
64.0
 31
0.0
  0
LINE
  5
3D2
102
{ACAD_REACTORS
330
3EA
102
}
102
{ACAD_XDICTIONARY
360
3D3
102
}
330
154
100
AcDbEntity
  8
0
  6
Continuous
 62
     7
370
     0
100
AcDbLine
 10
584.0
 20
46.0
 30
0.0
 11
584.0
 21
64.0
 31
0.0
  0
LINE
  5
3D5
102
{ACAD_REACTORS
330
3EA
102
}
102
{ACAD_XDICTIONARY
360
3D6
102
}
330
154
100
AcDbEntity
  8
0
  6
Continuous
 62
     7
370
     0
100
AcDbLine
 10
584.0
 20
26.0
 30
0.0
 11
584.0
 21
46.0
 31
0.0
  0
LINE
  5
3D8
102
{ACAD_REACTORS
330
3EA
102
}
102
{ACAD_XDICTIONARY
360
3D9
102
}
330
154
100
AcDbEntity
  8
0
  6
Continuous
 62
     7
370
     0
100
AcDbLine
 10
584.0
 20
16.0
 30
0.0
 11
584.0
 21
26.0
 31
0.0
  0
LINE
  5
3DB
102
{ACAD_REACTORS
330
3EA
102
}
102
{ACAD_XDICTIONARY
360
3DC
102
}
330
154
100
AcDbEntity
  8
0
  6
Continuous
 62
     7
370
     0
100
AcDbLine
 10
584.0
 20
10.0
 30
0.0
 11
584.0
 21
16.0
 31
0.0
  0
LWPOLYLINE
  5
3DE
102
{ACAD_REACTORS
330
3EA
102
}
102
{ACAD_XDICTIONARY
360
3DF
102
}
330
154
100
AcDbEntity
  8
0
  6
Continuous
 62
     7
370
     0
100
AcDbPolyline
 90
        7
 70
     0
 43
0.0
 10
10.0
 20
410.0
 10
10.0
 20
343.3333435058594
 10
10.0
 20
276.6666564941406
 10
10.0
 20
210.0
 10
10.0
 20
143.3333282470703
 10
10.0
 20
76.66666412353516
 10
10.0
 20
10.0
  0
LWPOLYLINE
  5
3E1
102
{ACAD_REACTORS
330
3EA
102
}
102
{ACAD_XDICTIONARY
360
3E2
102
}
330
154
100
AcDbEntity
  8
0
  6
Continuous
 62
     7
370
     0
100
AcDbPolyline
 90
        9
 70
     0
 43
0.0
 10
584.0
 20
410.0
 10
512.25
 20
410.0
 10
440.5
 20
410.0
 10
368.75
 20
410.0
 10
297.0
 20
410.0
 10
225.25
 20
410.0
 10
153.5
 20
410.0
 10
81.75
 20
410.0
 10
10.0
 20
410.0
  0
LWPOLYLINE
  5
3E4
102
{ACAD_REACTORS
330
3EA
102
}
102
{ACAD_XDICTIONARY
360
3E5
102
}
330
154
100
AcDbEntity
  8
0
  6
Continuous
 62
     7
370
     0
100
AcDbPolyline
 90
        7
 70
     0
 43
0.0
 10
584.0
 20
10.0
 10
584.0
 20
76.66666412353516
 10
584.0
 20
143.3333282470703
 10
584.0
 20
210.0
 10
584.0
 20
276.6666564941406
 10
584.0
 20
343.3333435058594
 10
584.0
 20
410.0
  0
LWPOLYLINE
  5
3E7
102
{ACAD_REACTORS
330
3EA
102
}
102
{ACAD_XDICTIONARY
360
3E8
102
}
330
154
100
AcDbEntity
  8
0
  6
Continuous
 62
     7
370
     0
100
AcDbPolyline
 90
        9
 70
     0
 43
0.0
 10
10.0
 20
10.0
 10
81.75
 20
10.0
 10
153.5
 20
10.0
 10
225.25
 20
10.0
 10
297.0
 20
10.0
 10
368.75
 20
10.0
 10
440.5
 20
10.0
 10
512.25
 20
10.0
 10
584.0
 20
10.0
  0
VIEWPORT
  5
3ED
330
154
100
AcDbEntity
  8
0
  6
Continuous
 62
     7
100
AcDbViewport
 10
297.0
 20
210.0
 30
0.0
 40
574.0
 41
400.0
 68
     2
 69
     2
 12
0.0
 22
0.0
 13
0.0
 23
0.0
 14
0.5
 24
0.5
 15
0.0
 25
0.0
 16
0.0
 26
0.0
 36
1.0
 17
296.8999910355
 27
210.1000099182
 37
-1.0
 42
50.0
 43
0.0
 44
0.0
 45
436.5471801757812
 50
0.0
 51
0.0
 72
   100
331
176
331
179
331
17A
331
17D
 90
   557152
  1

281
     0
 71
     1
 74
     0
110
0.0
120
0.0
130
0.0
111
1.0
121
0.0
131
0.0
112
0.0
122
1.0
132
0.0
 79
     0
146
0.0
170
     0
 61
     5
292
     1
282
     1
141
0.0
142
0.0
 63
   256
  0
ENDBLK
  5
157
330
154
100
AcDbEntity
  8
0
100
AcDbBlockEnd
  0
BLOCK
  5
15A
330
158
100
AcDbEntity
  8
0
100
AcDbBlockBegin
  2
*Paper_Space4
 70
     0
 10
0.0
 20
0.0
 30
0.0
  3
*Paper_Space4
  1

  0
VIEWPORT
  5
3F0
330
158
100
AcDbEntity
  8
0
100
AcDbViewport
 10
420.5
 20
296.9999999999999
 30
0.0
 40
857.8199999999999
 41
685.3434255319149
 68
     1
 69
     1
 12
420.5
 22
296.9999999999999
 13
0.0
 23
0.0
 14
5.0
 24
5.0
 15
5.0
 25
5.0
 16
0.0
 26
0.0
 36
1.0
 17
0.0
 27
0.0
 37
0.0
 42
50.0
 43
0.0
 44
0.0
 45
685.3434255319149
 50
0.0
 51
0.0
 72
  1000
 90
    32800
  1

281
     0
 71
     1
 74
     0
110
0.0
120
0.0
130
0.0
111
1.0
121
0.0
131
0.0
112
0.0
122
1.0
132
0.0
 79
     0
146
0.0
170
     0
 61
     5
292
     1
282
     1
141
0.0
142
0.0
 63
   256
  0
TEXT
  5
3F2
102
{ACAD_REACTORS
330
511
102
}
330
158
100
AcDbEntity
  8
0
  6
Durchgehend
 62
     7
100
AcDbText
 10
688.8529362805684
 20
30.23676554361979
 30
0.0
 40
4.057065327962239
  1
A1
  7
_TCW_TXTSTY_1C
 72
     1
 11
692.3115844726562
 21
32.26529820760091
 31
0.0
100
AcDbText
 73
     2
  0
LINE
  5
3F3
102
{ACAD_REACTORS
330
511
102
}
102
{ACAD_XDICTIONARY
360
3F4
102
}
330
158
100
AcDbEntity
  8
0
  6
Continuous
 62
     7
370
     0
100
AcDbLine
 10
10.0
 20
297.0
 30
0.0
 11
10.0
 21
302.7734985351562
 31
0.0
  0
LINE
  5
3F6
102
{ACAD_REACTORS
330
511
102
}
102
{ACAD_XDICTIONARY
360
3F7
102
}
330
158
100
AcDbEntity
  8
0
  6
Continuous
 62
     7
370
     0
100
AcDbLine
 10
20.0
 20
297.0
 30
0.0
 11
10.0
 21
302.7734985351562
 31
0.0
  0
LINE
  5
3F9
102
{ACAD_REACTORS
330
511
102
}
102
{ACAD_XDICTIONARY
360
3FA
102
}
330
158
100
AcDbEntity
  8
0
  6
Continuous
 62
     7
370
     0
100
AcDbLine
 10
10.0
 20
297.0
 30
0.0
 11
10.0
 21
291.2265014648438
 31
0.0
  0
LINE
  5
3FC
102
{ACAD_REACTORS
330
511
102
}
102
{ACAD_XDICTIONARY
360
3FD
102
}
330
158
100
AcDbEntity
  8
0
  6
Continuous
 62
     7
370
     0
100
AcDbLine
 10
20.0
 20
297.0
 30
0.0
 11
10.0
 21
291.2265014648438
 31
0.0
  0
LINE
  5
3FF
102
{ACAD_REACTORS
330
511
102
}
102
{ACAD_XDICTIONARY
360
400
102
}
330
158
100
AcDbEntity
  8
0
  6
Continuous
 62
     7
370
     0
100
AcDbLine
 10
20.0
 20
297.0
 30
0.0
 11
0.0
 21
297.0
 31
0.0
  0
LINE
  5
402
102
{ACAD_REACTORS
330
511
102
}
102
{ACAD_XDICTIONARY
360
403
102
}
330
158
100
AcDbEntity
  8
0
  6
Continuous
 62
     7
370
     0
100
AcDbLine
 10
420.5
 20
584.0
 30
0.0
 11
426.2734985351562
 21
584.0
 31
0.0
  0
LINE
  5
405
102
{ACAD_REACTORS
330
511
102
}
102
{ACAD_XDICTIONARY
360
406
102
}
330
158
100
AcDbEntity
  8
0
  6
Continuous
 62
     7
370
     0
100
AcDbLine
 10
420.5
 20
574.0
 30
0.0
 11
426.2734985351562
 21
584.0
 31
0.0
  0
LINE
  5
408
102
{ACAD_REACTORS
330
511
102
}
102
{ACAD_XDICTIONARY
360
409
102
}
330
158
100
AcDbEntity
  8
0
  6
Continuous
 62
     7
370
     0
100
AcDbLine
 10
420.5
 20
584.0
 30
0.0
 11
414.7265014648438
 21
584.0
 31
0.0
  0
LINE
  5
40B
102
{ACAD_REACTORS
330
511
102
}
102
{ACAD_XDICTIONARY
360
40C
102
}
330
158
100
AcDbEntity
  8
0
  6
Continuous
 62
     7
370
     0
100
AcDbLine
 10
420.5
 20
574.0
 30
0.0
 11
414.7265014648438
 21
584.0
 31
0.0
  0
LINE
  5
40E
102
{ACAD_REACTORS
330
511
102
}
102
{ACAD_XDICTIONARY
360
40F
102
}
330
158
100
AcDbEntity
  8
0
  6
Continuous
 62
     7
370
     0
100
AcDbLine
 10
420.5
 20
574.0
 30
0.0
 11
420.5
 21
594.0
 31
0.0
  0
LINE
  5
411
102
{ACAD_REACTORS
330
511
102
}
102
{ACAD_XDICTIONARY
360
412
102
}
330
158
100
AcDbEntity
  8
0
  6
Continuous
 62
     7
370
     0
100
AcDbLine
 10
420.5
 20
10.0
 30
0.0
 11
414.7265014648438
 21
10.0
 31
0.0
  0
LINE
  5
414
102
{ACAD_REACTORS
330
511
102
}
102
{ACAD_XDICTIONARY
360
415
102
}
330
158
100
AcDbEntity
  8
0
  6
Continuous
 62
     7
370
     0
100
AcDbLine
 10
420.5
 20
20.0
 30
0.0
 11
414.7265014648438
 21
10.0
 31
0.0
  0
LINE
  5
417
102
{ACAD_REACTORS
330
511
102
}
102
{ACAD_XDICTIONARY
360
418
102
}
330
158
100
AcDbEntity
  8
0
  6
Continuous
 62
     7
370
     0
100
AcDbLine
 10
420.5
 20
10.0
 30
0.0
 11
426.2734985351562
 21
10.0
 31
0.0
  0
LINE
  5
41A
102
{ACAD_REACTORS
330
511
102
}
102
{ACAD_XDICTIONARY
360
41B
102
}
330
158
100
AcDbEntity
  8
0
  6
Continuous
 62
     7
370
     0
100
AcDbLine
 10
420.5
 20
20.0
 30
0.0
 11
426.2734985351562
 21
10.0
 31
0.0
  0
LINE
  5
41D
102
{ACAD_REACTORS
330
511
102
}
102
{ACAD_XDICTIONARY
360
41E
102
}
330
158
100
AcDbEntity
  8
0
  6
Continuous
 62
     7
370
     0
100
AcDbLine
 10
420.5
 20
20.0
 30
0.0
 11
420.5
 21
0.0
 31
0.0
  0
LINE
  5
420
102
{ACAD_REACTORS
330
511
102
}
102
{ACAD_XDICTIONARY
360
421
102
}
330
158
100
AcDbEntity
  8
0
  6
Continuous
 62
     7
370
     0
100
AcDbLine
 10
831.0
 20
297.0
 30
0.0
 11
831.0
 21
291.2265014648438
 31
0.0
  0
LINE
  5
423
102
{ACAD_REACTORS
330
511
102
}
102
{ACAD_XDICTIONARY
360
424
102
}
330
158
100
AcDbEntity
  8
0
  6
Continuous
 62
     7
370
     0
100
AcDbLine
 10
821.0
 20
297.0
 30
0.0
 11
831.0
 21
291.2265014648438
 31
0.0
  0
LINE
  5
426
102
{ACAD_REACTORS
330
511
102
}
102
{ACAD_XDICTIONARY
360
427
102
}
330
158
100
AcDbEntity
  8
0
  6
Continuous
 62
     7
370
     0
100
AcDbLine
 10
831.0
 20
297.0
 30
0.0
 11
831.0
 21
302.7734985351562
 31
0.0
  0
LINE
  5
429
102
{ACAD_REACTORS
330
511
102
}
102
{ACAD_XDICTIONARY
360
42A
102
}
330
158
100
AcDbEntity
  8
0
  6
Continuous
 62
     7
370
     0
100
AcDbLine
 10
821.0
 20
297.0
 30
0.0
 11
831.0
 21
302.7734985351562
 31
0.0
  0
LINE
  5
42C
102
{ACAD_REACTORS
330
511
102
}
102
{ACAD_XDICTIONARY
360
42D
102
}
330
158
100
AcDbEntity
  8
0
  6
Continuous
 62
     7
370
     0
100
AcDbLine
 10
821.0
 20
297.0
 30
0.0
 11
841.0
 21
297.0
 31
0.0
  0
TEXT
  5
430
102
{ACAD_REACTORS
330
511
102
}
330
158
100
AcDbEntity
  8
0
  6
Durchgehend
 62
     7
100
AcDbText
 10
7.955229248046875
 20
542.4346550835504
 30
0.0
 40
4.057084825303819
  1
H
  7
_TCW_TXTSTY_1D
 72
     1
 11
10.0
 21
544.4631974962023
 31
0.0
100
AcDbText
 73
     2
  0
TEXT
  5
432
102
{ACAD_REACTORS
330
511
102
}
330
158
100
AcDbEntity
  8
0
  6
Durchgehend
 62
     7
100
AcDbText
 10
7.797024113972982
 20
468.1846737331815
 30
0.0
 40
4.05704583062066
  1
G
  7
_TCW_TXTSTY_1E
 72
     1
 11
10.0
 21
470.2131966484918
 31
0.0
100
AcDbText
 73
     2
  0
TEXT
  5
433
102
{ACAD_REACTORS
330
511
102
}
330
158
100
AcDbEntity
  8
0
  6
Durchgehend
 62
     7
100
AcDbText
 10
8.269669953240289
 20
398.9346737331815
 30
0.0
 40
4.05704583062066
  1
F
  7
_TCW_TXTSTY_1E
 72
     1
 11
10.0
 21
400.9631966484918
 31
0.0
100
AcDbText
 73
     2
  0
TEXT
  5
434
102
{ACAD_REACTORS
330
511
102
}
330
158
100
AcDbEntity
  8
0
  6
Durchgehend
 62
     7
100
AcDbText
 10
8.111445165846083
 20
329.6846737331815
 30
0.0
 40
4.05704583062066
  1
E
  7
_TCW_TXTSTY_1E
 72
     1
 11
10.0
 21
331.7131966484918
 31
0.0
100
AcDbText
 73
     2
  0
TEXT
  5
435
102
{ACAD_REACTORS
330
511
102
}
330
158
100
AcDbEntity
  8
0
  6
Durchgehend
 62
     7
100
AcDbText
 10
7.955248901367188
 20
260.4346737331815
 30
0.0
 40
4.05704583062066
  1
D
  7
_TCW_TXTSTY_1E
 72
     1
 11
10.0
 21
262.4631966484918
 31
0.0
100
AcDbText
 73
     2
  0
TEXT
  5
436
102
{ACAD_REACTORS
330
511
102
}
330
158
100
AcDbEntity
  8
0
  6
Durchgehend
 62
     7
100
AcDbText
 10
7.955248901367188
 20
191.1846737331814
 30
0.0
 40
4.05704583062066
  1
C
  7
_TCW_TXTSTY_1E
 72
     1
 11
10.0
 21
193.2131966484918
 31
0.0
100
AcDbText
 73
     2
  0
TEXT
  5
437
102
{ACAD_REACTORS
330
511
102
}
330
158
100
AcDbEntity
  8
0
  6
Durchgehend
 62
     7
100
AcDbText
 10
8.111445165846083
 20
121.9346737331814
 30
0.0
 40
4.05704583062066
  1
B
  7
_TCW_TXTSTY_1E
 72
     1
 11
10.0
 21
123.9631966484918
 31
0.0
100
AcDbText
 73
     2
  0
TEXT
  5
439
102
{ACAD_REACTORS
330
511
102
}
330
158
100
AcDbEntity
  8
0
  6
Durchgehend
 62
     7
100
AcDbText
 10
8.115499947547912
 20
47.68467140197754
 30
0.0
 40
4.057050704956055
  1
A
  7
_TCW_TXTSTY_1F
 72
     1
 11
10.0
 21
49.71319675445557
 31
0.0
100
AcDbText
 73
     2
  0
TEXT
  5
43A
102
{ACAD_REACTORS
330
511
102
}
330
158
100
AcDbEntity
  8
0
  6
Durchgehend
 62
     7
100
AcDbText
 10
828.9552292480469
 20
542.4346550835504
 30
0.0
 40
4.057084825303819
  1
H
  7
_TCW_TXTSTY_1D
 72
     1
 11
831.0
 21
544.4631974962023
 31
0.0
100
AcDbText
 73
     2
  0
TEXT
  5
43B
102
{ACAD_REACTORS
330
511
102
}
330
158
100
AcDbEntity
  8
0
  6
Durchgehend
 62
     7
100
AcDbText
 10
828.797024113973
 20
468.1846737331815
 30
0.0
 40
4.05704583062066
  1
G
  7
_TCW_TXTSTY_1E
 72
     1
 11
831.0
 21
470.2131966484918
 31
0.0
100
AcDbText
 73
     2
  0
TEXT
  5
43C
102
{ACAD_REACTORS
330
511
102
}
330
158
100
AcDbEntity
  8
0
  6
Durchgehend
 62
     7
100
AcDbText
 10
829.2696699532403
 20
398.9346737331815
 30
0.0
 40
4.05704583062066
  1
F
  7
_TCW_TXTSTY_1E
 72
     1
 11
831.0
 21
400.9631966484918
 31
0.0
100
AcDbText
 73
     2
  0
TEXT
  5
43D
102
{ACAD_REACTORS
330
511
102
}
330
158
100
AcDbEntity
  8
0
  6
Durchgehend
 62
     7
100
AcDbText
 10
829.1114451658461
 20
329.6846737331815
 30
0.0
 40
4.05704583062066
  1
E
  7
_TCW_TXTSTY_1E
 72
     1
 11
831.0
 21
331.7131966484918
 31
0.0
100
AcDbText
 73
     2
  0
TEXT
  5
43E
102
{ACAD_REACTORS
330
511
102
}
330
158
100
AcDbEntity
  8
0
  6
Durchgehend
 62
     7
100
AcDbText
 10
828.9552489013672
 20
260.4346737331815
 30
0.0
 40
4.05704583062066
  1
D
  7
_TCW_TXTSTY_1E
 72
     1
 11
831.0
 21
262.4631966484918
 31
0.0
100
AcDbText
 73
     2
  0
TEXT
  5
43F
102
{ACAD_REACTORS
330
511
102
}
330
158
100
AcDbEntity
  8
0
  6
Durchgehend
 62
     7
100
AcDbText
 10
828.9552489013672
 20
191.1846737331814
 30
0.0
 40
4.05704583062066
  1
C
  7
_TCW_TXTSTY_1E
 72
     1
 11
831.0
 21
193.2131966484918
 31
0.0
100
AcDbText
 73
     2
  0
TEXT
  5
440
102
{ACAD_REACTORS
330
511
102
}
330
158
100
AcDbEntity
  8
0
  6
Durchgehend
 62
     7
100
AcDbText
 10
829.1114360898335
 20
121.9346644083659
 30
0.0
 40
4.057065327962239
  1
B
  7
_TCW_TXTSTY_1C
 72
     1
 11
831.0
 21
123.963197072347
 31
0.0
100
AcDbText
 73
     2
  0
TEXT
  5
442
102
{ACAD_REACTORS
330
511
102
}
330
158
100
AcDbEntity
  8
0
  6
Durchgehend
 62
     7
100
AcDbText
 10
829.1155044758056
 20
47.68467606438531
 30
0.0
 40
4.057040956285264
  1
A
  7
_TCW_TXTSTY_20
 72
     1
 11
831.0
 21
49.71319654252794
 31
0.0
100
AcDbText
 73
     2
  0
TEXT
  5
444
102
{ACAD_REACTORS
330
511
102
}
330
158
100
AcDbEntity
  8
0
  6
Durchgehend
 62
     7
100
AcDbText
 10
791.0508616078165
 20
8.059668050871956
 30
0.0
 40
4.057057711813185
  1
1
  7
_TCW_TXTSTY_21
 72
     1
 11
792.625
 21
10.08819690677855
 31
0.0
100
AcDbText
 73
     2
  0
TEXT
  5
446
102
{ACAD_REACTORS
330
511
102
}
330
158
100
AcDbEntity
  8
0
  6
Durchgehend
 62
     7
100
AcDbText
 10
45.22672959857517
 20
8.059671984778511
 30
0.0
 40
4.057049486372206
  1
12
  7
_TCW_TXTSTY_22
 72
     1
 11
48.375
 21
10.08819672796461
 31
0.0
100
AcDbText
 73
     2
  0
TEXT
  5
447
102
{ACAD_REACTORS
330
511
102
}
330
158
100
AcDbEntity
  8
0
  6
Durchgehend
 62
     7
100
AcDbText
 10
116.9767295985752
 20
8.059671984778511
 30
0.0
 40
4.057049486372206
  1
11
  7
_TCW_TXTSTY_22
 72
     1
 11
120.125
 21
10.08819672796461
 31
0.0
100
AcDbText
 73
     2
  0
TEXT
  5
448
102
{ACAD_REACTORS
330
511
102
}
330
158
100
AcDbEntity
  8
0
  6
Durchgehend
 62
     7
100
AcDbText
 10
183.7267295985752
 20
8.059671984778511
 30
0.0
 40
4.057049486372206
  1
10
  7
_TCW_TXTSTY_22
 72
     1
 11
186.875
 21
10.08819672796461
 31
0.0
100
AcDbText
 73
     2
  0
TEXT
  5
44A
102
{ACAD_REACTORS
330
511
102
}
330
158
100
AcDbEntity
  8
0
  6
Durchgehend
 62
     7
100
AcDbText
 10
252.0508677543534
 20
8.05967562728458
 30
0.0
 40
4.057041870223151
  1
9
  7
_TCW_TXTSTY_23
 72
     1
 11
253.625
 21
10.08819656239616
 31
0.0
100
AcDbText
 73
     2
  0
TEXT
  5
44B
102
{ACAD_REACTORS
330
511
102
}
330
158
100
AcDbEntity
  8
0
  6
Durchgehend
 62
     7
100
AcDbText
 10
318.8008677543534
 20
8.05967562728458
 30
0.0
 40
4.057041870223151
  1
8
  7
_TCW_TXTSTY_23
 72
     1
 11
320.375
 21
10.08819656239616
 31
0.0
100
AcDbText
 73
     2
  0
TEXT
  5
44C
102
{ACAD_REACTORS
330
511
102
}
330
158
100
AcDbEntity
  8
0
  6
Durchgehend
 62
     7
100
AcDbText
 10
385.5508677543534
 20
8.05967562728458
 30
0.0
 40
4.057041870223151
  1
7
  7
_TCW_TXTSTY_23
 72
     1
 11
387.125
 21
10.08819656239616
 31
0.0
100
AcDbText
 73
     2
  0
TEXT
  5
44D
102
{ACAD_REACTORS
330
511
102
}
330
158
100
AcDbEntity
  8
0
  6
Durchgehend
 62
     7
100
AcDbText
 10
452.3008677543534
 20
8.05967562728458
 30
0.0
 40
4.057041870223151
  1
6
  7
_TCW_TXTSTY_23
 72
     1
 11
453.875
 21
10.08819656239616
 31
0.0
100
AcDbText
 73
     2
  0
TEXT
  5
44F
102
{ACAD_REACTORS
330
511
102
}
330
158
100
AcDbEntity
  8
0
  6
Durchgehend
 62
     7
100
AcDbText
 10
519.0508526244164
 20
8.059656977653503
 30
0.0
 40
4.057080864906311
  1
5
  7
_TCW_TXTSTY_24
 72
     1
 11
520.625
 21
10.08819741010666
 31
0.0
100
AcDbText
 73
     2
  0
TEXT
  5
450
102
{ACAD_REACTORS
330
511
102
}
330
158
100
AcDbEntity
  8
0
  6
Durchgehend
 62
     7
100
AcDbText
 10
585.8008526244164
 20
8.059656977653503
 30
0.0
 40
4.057080864906311
  1
4
  7
_TCW_TXTSTY_24
 72
     1
 11
587.375
 21
10.08819741010666
 31
0.0
100
AcDbText
 73
     2
  0
TEXT
  5
451
102
{ACAD_REACTORS
330
511
102
}
330
158
100
AcDbEntity
  8
0
  6
Durchgehend
 62
     7
100
AcDbText
 10
652.5508526244164
 20
8.059656977653503
 30
0.0
 40
4.057080864906311
  1
3
  7
_TCW_TXTSTY_24
 72
     1
 11
654.125
 21
10.08819741010666
 31
0.0
100
AcDbText
 73
     2
  0
TEXT
  5
452
102
{ACAD_REACTORS
330
511
102
}
330
158
100
AcDbEntity
  8
0
  6
Durchgehend
 62
     7
100
AcDbText
 10
719.3008526244164
 20
8.059656977653503
 30
0.0
 40
4.057080864906311
  1
2
  7
_TCW_TXTSTY_24
 72
     1
 11
720.875
 21
10.08819741010666
 31
0.0
100
AcDbText
 73
     2
  0
TEXT
  5
453
102
{ACAD_REACTORS
330
511
102
}
330
158
100
AcDbEntity
  8
0
  6
Durchgehend
 62
     7
100
AcDbText
 10
791.0508510877821
 20
582.0596550835504
 30
0.0
 40
4.057084825303819
  1
1
  7
_TCW_TXTSTY_1D
 72
     1
 11
792.625
 21
584.0881974962023
 31
0.0
100
AcDbText
 73
     2
  0
TEXT
  5
454
102
{ACAD_REACTORS
330
511
102
}
330
158
100
AcDbEntity
  8
0
  6
Durchgehend
 62
     7
100
AcDbText
 10
45.22670217556423
 20
582.0596550835504
 30
0.0
 40
4.057084825303819
  1
12
  7
_TCW_TXTSTY_1D
 72
     1
 11
48.375
 21
584.0881974962023
 31
0.0
100
AcDbText
 73
     2
  0
TEXT
  5
455
102
{ACAD_REACTORS
330
511
102
}
330
158
100
AcDbEntity
  8
0
  6
Durchgehend
 62
     7
100
AcDbText
 10
116.9767021755642
 20
582.0596550835504
 30
0.0
 40
4.057084825303819
  1
11
  7
_TCW_TXTSTY_1D
 72
     1
 11
120.125
 21
584.0881974962023
 31
0.0
100
AcDbText
 73
     2
  0
TEXT
  5
456
102
{ACAD_REACTORS
330
511
102
}
330
158
100
AcDbEntity
  8
0
  6
Durchgehend
 62
     7
100
AcDbText
 10
183.7267021755642
 20
582.0596550835504
 30
0.0
 40
4.057084825303819
  1
10
  7
_TCW_TXTSTY_1D
 72
     1
 11
186.875
 21
584.0881974962023
 31
0.0
100
AcDbText
 73
     2
  0
TEXT
  5
457
102
{ACAD_REACTORS
330
511
102
}
330
158
100
AcDbEntity
  8
0
  6
Durchgehend
 62
     7
100
AcDbText
 10
252.0508510877821
 20
582.0596550835504
 30
0.0
 40
4.057084825303819
  1
9
  7
_TCW_TXTSTY_1D
 72
     1
 11
253.625
 21
584.0881974962023
 31
0.0
100
AcDbText
 73
     2
  0
TEXT
  5
458
102
{ACAD_REACTORS
330
511
102
}
330
158
100
AcDbEntity
  8
0
  6
Durchgehend
 62
     7
100
AcDbText
 10
318.8008510877821
 20
582.0596550835504
 30
0.0
 40
4.057084825303819
  1
8
  7
_TCW_TXTSTY_1D
 72
     1
 11
320.375
 21
584.0881974962023
 31
0.0
100
AcDbText
 73
     2
  0
TEXT
  5
459
102
{ACAD_REACTORS
330
511
102
}
330
158
100
AcDbEntity
  8
0
  6
Durchgehend
 62
     7
100
AcDbText
 10
385.5508510877821
 20
582.0596550835504
 30
0.0
 40
4.057084825303819
  1
7
  7
_TCW_TXTSTY_1D
 72
     1
 11
387.125
 21
584.0881974962023
 31
0.0
100
AcDbText
 73
     2
  0
TEXT
  5
45A
102
{ACAD_REACTORS
330
511
102
}
330
158
100
AcDbEntity
  8
0
  6
Durchgehend
 62
     7
100
AcDbText
 10
452.3008510877821
 20
582.0596550835504
 30
0.0
 40
4.057084825303819
  1
6
  7
_TCW_TXTSTY_1D
 72
     1
 11
453.875
 21
584.0881974962023
 31
0.0
100
AcDbText
 73
     2
  0
TEXT
  5
45B
102
{ACAD_REACTORS
330
511
102
}
330
158
100
AcDbEntity
  8
0
  6
Durchgehend
 62
     7
100
AcDbText
 10
519.0508510877821
 20
582.0596550835504
 30
0.0
 40
4.057084825303819
  1
5
  7
_TCW_TXTSTY_1D
 72
     1
 11
520.625
 21
584.0881974962023
 31
0.0
100
AcDbText
 73
     2
  0
TEXT
  5
45C
102
{ACAD_REACTORS
330
511
102
}
330
158
100
AcDbEntity
  8
0
  6
Durchgehend
 62
     7
100
AcDbText
 10
585.8008510877821
 20
582.0596550835504
 30
0.0
 40
4.057084825303819
  1
4
  7
_TCW_TXTSTY_1D
 72
     1
 11
587.375
 21
584.0881974962023
 31
0.0
100
AcDbText
 73
     2
  0
TEXT
  5
45D
102
{ACAD_REACTORS
330
511
102
}
330
158
100
AcDbEntity
  8
0
  6
Durchgehend
 62
     7
100
AcDbText
 10
652.5508510877821
 20
582.0596550835504
 30
0.0
 40
4.057084825303819
  1
3
  7
_TCW_TXTSTY_1D
 72
     1
 11
654.125
 21
584.0881974962023
 31
0.0
100
AcDbText
 73
     2
  0
TEXT
  5
45E
102
{ACAD_REACTORS
330
511
102
}
330
158
100
AcDbEntity
  8
0
  6
Durchgehend
 62
     7
100
AcDbText
 10
719.3008510877821
 20
582.0596550835504
 30
0.0
 40
4.057084825303819
  1
2
  7
_TCW_TXTSTY_1D
 72
     1
 11
720.875
 21
584.0881974962023
 31
0.0
100
AcDbText
 73
     2
  0
TEXT
  5
460
102
{ACAD_REACTORS
330
511
102
}
102
{ACAD_XDICTIONARY
360
461
102
}
330
158
100
AcDbEntity
  8
0
  6
Durchgehend
 62
     7
100
AcDbText
 10
686.0150124135547
 20
65.42524708343275
 30
0.0
 40
2.028469297620985
  1
 TITEL
  7
_TCW_TXTSTY_25
 72
     1
 11
690.2636413574219
 21
64.82500457763672
 31
0.0
100
AcDbText
 73
     1
  0
TEXT
  5
463
102
{ACAD_REACTORS
330
511
102
}
102
{ACAD_XDICTIONARY
360
464
102
}
330
158
100
AcDbEntity
  8
0
  6
Durchgehend
 62
     7
100
AcDbText
 10
737.3937225341797
 20
37.42524708343274
 30
0.0
 40
2.028469297620985
  1
 NR
  7
_TCW_TXTSTY_25
 11
737.3937225341797
 21
36.82500457763672
 31
0.0
100
AcDbText
 73
     1
  0
TEXT
  5
466
102
{ACAD_REACTORS
330
511
102
}
102
{ACAD_XDICTIONARY
360
467
102
}
330
158
100
AcDbEntity
  8
0
  6
Durchgehend
 62
     7
100
AcDbText
 10
685.8913507232962
 20
37.42524708343274
 30
0.0
 40
2.028469297620985
  1
 GRÖSSE
 41
0.999
  7
_TCW_TXTSTY_25
 72
     1
 11
692.3364457777786
 21
36.82500457763672
 31
0.0
100
AcDbText
 73
     1
  0
TEXT
  5
469
102
{ACAD_REACTORS
330
511
102
}
102
{ACAD_XDICTIONARY
360
46A
102
}
330
158
100
AcDbEntity
  8
0
  6
Durchgehend
 62
     7
100
AcDbText
 10
805.9364555362473
 20
37.42524708343274
 30
0.0
 40
2.028469297620985
  1
 GEP
 41
0.999
  7
_TCW_TXTSTY_25
 72
     1
 11
809.3165588378906
 21
36.82500457763672
 31
0.0
100
AcDbText
 73
     1
  0
TEXT
  5
46C
102
{ACAD_REACTORS
330
511
102
}
102
{ACAD_XDICTIONARY
360
46D
102
}
330
158
100
AcDbEntity
  8
0
  6
Durchgehend
 62
     7
100
AcDbText
 10
776.3329658605787
 20
23.42524708343275
 30
0.0
 40
2.028469297620985
  1
 BLATT
  7
_TCW_TXTSTY_25
 72
     1
 11
781.13232421875
 21
22.82500457763672
 31
0.0
100
AcDbText
 73
     1
  0
TEXT
  5
46F
102
{ACAD_REACTORS
330
511
102
}
102
{ACAD_XDICTIONARY
360
470
102
}
330
158
100
AcDbEntity
  8
0
  6
Durchgehend
 62
     7
100
AcDbText
 10
687.5252939525592
 20
23.49954202935585
 30
0.0
 40
2.028469297620985
  1
 MAßSTAB
 41
0.999
  7
_TCW_TXTSTY_25
 72
     1
 11
694.598585663822
 21
22.89929952355982
 31
0.0
100
AcDbText
 73
     1
  0
TEXT
  5
472
102
{ACAD_REACTORS
330
511
102
}
102
{ACAD_XDICTIONARY
360
473
102
}
330
158
100
AcDbEntity
  8
0
  6
Durchgehend
 62
     7
100
AcDbText
 10
702.5003309280786
 20
37.42524708343274
 30
0.0
 40
2.028469297620985
  1
 DATUM
 41
0.999
  7
_TCW_TXTSTY_25
 72
     1
 11
707.9220733642578
 21
36.82500457763672
 31
0.0
100
AcDbText
 73
     1
  0
LINE
  5
475
102
{ACAD_REACTORS
330
511
102
}
102
{ACAD_XDICTIONARY
360
476
102
}
330
158
100
AcDbEntity
  8
0
  6
Continuous
 62
     7
370
     0
100
AcDbLine
 10
621.0000152587891
 20
20.0
 30
0.0
 11
686.0000152587891
 21
20.0
 31
0.0
  0
LINE
  5
478
102
{ACAD_REACTORS
330
511
102
}
102
{ACAD_XDICTIONARY
360
479
102
}
330
158
100
AcDbEntity
  8
0
  6
Continuous
 62
     7
370
     0
100
AcDbLine
 10
821.0
 20
20.0
 30
0.0
 11
821.0
 21
26.0
 31
0.0
  0
LINE
  5
47B
102
{ACAD_REACTORS
330
511
102
}
102
{ACAD_XDICTIONARY
360
47C
102
}
330
158
100
AcDbEntity
  8
0
  6
Continuous
 62
     7
370
     0
100
AcDbLine
 10
821.0
 20
26.0
 30
0.0
 11
821.0
 21
40.0
 31
0.0
  0
LINE
  5
47E
102
{ACAD_REACTORS
330
511
102
}
102
{ACAD_XDICTIONARY
360
47F
102
}
330
158
100
AcDbEntity
  8
0
  6
Continuous
 62
     7
370
     0
100
AcDbLine
 10
821.0
 20
40.0
 30
0.0
 11
821.0
 21
68.0
 31
0.0
  0
LINE
  5
481
102
{ACAD_REACTORS
330
511
102
}
102
{ACAD_XDICTIONARY
360
482
102
}
330
158
100
AcDbEntity
  8
0
  6
Continuous
 62
     7
370
     0
100
AcDbLine
 10
821.0
 20
68.0
 30
0.0
 11
821.0
 21
86.00000762939453
 31
0.0
  0
LINE
  5
484
102
{ACAD_REACTORS
330
511
102
}
102
{ACAD_XDICTIONARY
360
485
102
}
330
158
100
AcDbEntity
  8
0
  6
Continuous
 62
     7
370
     0
100
AcDbLine
 10
621.0000152587891
 20
20.0
 30
0.0
 11
621.0000152587891
 21
86.00000762939453
 31
0.0
  0
LINE
  5
487
102
{ACAD_REACTORS
330
511
102
}
102
{ACAD_XDICTIONARY
360
488
102
}
330
158
100
AcDbEntity
  8
0
  6
Continuous
 62
     7
370
     0
100
AcDbLine
 10
621.0000152587891
 20
86.00000762939453
 30
0.0
 11
821.0
 21
86.00000762939453
 31
0.0
  0
LINE
  5
48A
102
{ACAD_REACTORS
330
511
102
}
102
{ACAD_XDICTIONARY
360
48B
102
}
330
158
100
AcDbEntity
  8
0
  6
Continuous
 62
     7
370
     0
100
AcDbLine
 10
686.0000152587891
 20
20.0
 30
0.0
 11
686.0000152587891
 21
86.00000762939453
 31
0.0
  0
LINE
  5
48D
102
{ACAD_REACTORS
330
511
102
}
102
{ACAD_XDICTIONARY
360
48E
102
}
330
158
100
AcDbEntity
  8
0
  6
Continuous
 62
     7
370
     0
100
AcDbLine
 10
686.0000152587891
 20
68.0
 30
0.0
 11
821.0
 21
68.0
 31
0.0
  0
LINE
  5
490
102
{ACAD_REACTORS
330
511
102
}
102
{ACAD_XDICTIONARY
360
491
102
}
330
158
100
AcDbEntity
  8
0
  6
Continuous
 62
     7
370
     0
100
AcDbLine
 10
686.0000152587891
 20
40.0
 30
0.0
 11
821.0
 21
40.0
 31
0.0
  0
LINE
  5
493
102
{ACAD_REACTORS
330
511
102
}
102
{ACAD_XDICTIONARY
360
494
102
}
330
158
100
AcDbEntity
  8
0
  6
Continuous
 62
     7
370
     0
100
AcDbLine
 10
686.0000152587891
 20
26.0
 30
0.0
 11
821.0
 21
26.0
 31
0.0
  0
LINE
  5
496
102
{ACAD_REACTORS
330
511
102
}
102
{ACAD_XDICTIONARY
360
497
102
}
330
158
100
AcDbEntity
  8
0
  6
Continuous
 62
     7
370
     0
100
AcDbLine
 10
686.0000152587891
 20
20.0
 30
0.0
 11
821.0
 21
20.0
 31
0.0
  0
LINE
  5
499
102
{ACAD_REACTORS
330
511
102
}
102
{ACAD_XDICTIONARY
360
49A
102
}
330
158
100
AcDbEntity
  8
0
  6
Continuous
 62
     7
370
     0
100
AcDbLine
 10
776.0000152587891
 20
20.0
 30
0.0
 11
776.0000152587891
 21
26.0
 31
0.0
  0
LINE
  5
49C
102
{ACAD_REACTORS
330
511
102
}
102
{ACAD_XDICTIONARY
360
49D
102
}
330
158
100
AcDbEntity
  8
0
  6
Continuous
 62
     7
370
     0
100
AcDbLine
 10
731.0000152587891
 20
20.0
 30
0.0
 11
731.0000152587891
 21
26.0
 31
0.0
  0
LINE
  5
49F
102
{ACAD_REACTORS
330
511
102
}
102
{ACAD_XDICTIONARY
360
4A0
102
}
330
158
100
AcDbEntity
  8
0
  6
DASHED
 62
     7
 48
0.125
370
     0
100
AcDbLine
 10
806.0
 20
26.0
 30
0.0
 11
806.0
 21
40.0
 31
0.0
  0
LINE
  5
4A2
102
{ACAD_REACTORS
330
511
102
}
102
{ACAD_XDICTIONARY
360
4A3
102
}
330
158
100
AcDbEntity
  8
0
  6
Continuous
 62
     7
370
     0
100
AcDbLine
 10
731.0000152587891
 20
26.0
 30
0.0
 11
731.0000152587891
 21
40.0
 31
0.0
  0
LINE
  5
4A5
102
{ACAD_REACTORS
330
511
102
}
102
{ACAD_XDICTIONARY
360
4A6
102
}
330
158
100
AcDbEntity
  8
0
  6
DASHED
 62
     7
 48
0.125
370
     0
100
AcDbLine
 10
621.0000152587891
 20
26.0
 30
0.0
 11
686.0000152587891
 21
26.0
 31
0.0
  0
LINE
  5
4A8
102
{ACAD_REACTORS
330
511
102
}
102
{ACAD_XDICTIONARY
360
4A9
102
}
330
158
100
AcDbEntity
  8
0
  6
DASHED
 62
     7
 48
0.125
370
     0
100
AcDbLine
 10
621.0000152587891
 20
32.0
 30
0.0
 11
686.0000152587891
 21
32.0
 31
0.0
  0
LINE
  5
4AB
102
{ACAD_REACTORS
330
511
102
}
102
{ACAD_XDICTIONARY
360
4AC
102
}
330
158
100
AcDbEntity
  8
0
  6
Continuous
 62
     7
370
     0
100
AcDbLine
 10
699.0000152587891
 20
26.0
 30
0.0
 11
699.0000152587891
 21
40.0
 31
0.0
  0
LINE
  5
4AE
102
{ACAD_REACTORS
330
511
102
}
102
{ACAD_XDICTIONARY
360
4AF
102
}
330
158
100
AcDbEntity
  8
0
  6
Continuous
 62
     7
370
     0
100
AcDbLine
 10
821.0
 20
89.25
 30
0.0
 11
841.0
 21
89.25
 31
0.0
  0
LINE
  5
4B1
102
{ACAD_REACTORS
330
511
102
}
102
{ACAD_XDICTIONARY
360
4B2
102
}
330
158
100
AcDbEntity
  8
0
  6
Continuous
 62
     7
370
     0
100
AcDbLine
 10
821.0
 20
158.5
 30
0.0
 11
841.0
 21
158.5
 31
0.0
  0
LINE
  5
4B4
102
{ACAD_REACTORS
330
511
102
}
102
{ACAD_XDICTIONARY
360
4B5
102
}
330
158
100
AcDbEntity
  8
0
  6
Continuous
 62
     7
370
     0
100
AcDbLine
 10
821.0
 20
227.75
 30
0.0
 11
841.0
 21
227.75
 31
0.0
  0
LINE
  5
4B7
102
{ACAD_REACTORS
330
511
102
}
102
{ACAD_XDICTIONARY
360
4B8
102
}
330
158
100
AcDbEntity
  8
0
  6
Continuous
 62
     7
370
     0
100
AcDbLine
 10
821.0
 20
366.25
 30
0.0
 11
841.0
 21
366.25
 31
0.0
  0
LINE
  5
4BA
102
{ACAD_REACTORS
330
511
102
}
102
{ACAD_XDICTIONARY
360
4BB
102
}
330
158
100
AcDbEntity
  8
0
  6
Continuous
 62
     7
370
     0
100
AcDbLine
 10
821.0
 20
435.5
 30
0.0
 11
841.0
 21
435.5
 31
0.0
  0
LINE
  5
4BD
102
{ACAD_REACTORS
330
511
102
}
102
{ACAD_XDICTIONARY
360
4BE
102
}
330
158
100
AcDbEntity
  8
0
  6
Continuous
 62
     7
370
     0
100
AcDbLine
 10
821.0
 20
504.75
 30
0.0
 11
841.0
 21
504.75
 31
0.0
  0
LINE
  5
4C0
102
{ACAD_REACTORS
330
511
102
}
102
{ACAD_XDICTIONARY
360
4C1
102
}
330
158
100
AcDbEntity
  8
0
  6
Continuous
 62
     7
370
     0
100
AcDbLine
 10
754.25
 20
20.0
 30
0.0
 11
754.25
 21
0.0
 31
0.0
  0
LINE
  5
4C3
102
{ACAD_REACTORS
330
511
102
}
102
{ACAD_XDICTIONARY
360
4C4
102
}
330
158
100
AcDbEntity
  8
0
  6
Continuous
 62
     7
370
     0
100
AcDbLine
 10
687.5
 20
20.0
 30
0.0
 11
687.5
 21
0.0
 31
0.0
  0
LINE
  5
4C6
102
{ACAD_REACTORS
330
511
102
}
102
{ACAD_XDICTIONARY
360
4C7
102
}
330
158
100
AcDbEntity
  8
0
  6
Continuous
 62
     7
370
     0
100
AcDbLine
 10
620.75
 20
20.0
 30
0.0
 11
620.75
 21
0.0
 31
0.0
  0
LINE
  5
4C9
102
{ACAD_REACTORS
330
511
102
}
102
{ACAD_XDICTIONARY
360
4CA
102
}
330
158
100
AcDbEntity
  8
0
  6
Continuous
 62
     7
370
     0
100
AcDbLine
 10
554.0
 20
20.0
 30
0.0
 11
554.0
 21
0.0
 31
0.0
  0
LINE
  5
4CC
102
{ACAD_REACTORS
330
511
102
}
102
{ACAD_XDICTIONARY
360
4CD
102
}
330
158
100
AcDbEntity
  8
0
  6
Continuous
 62
     7
370
     0
100
AcDbLine
 10
487.25
 20
20.0
 30
0.0
 11
487.25
 21
0.0
 31
0.0
  0
LINE
  5
4CF
102
{ACAD_REACTORS
330
511
102
}
102
{ACAD_XDICTIONARY
360
4D0
102
}
330
158
100
AcDbEntity
  8
0
  6
Continuous
 62
     7
370
     0
100
AcDbLine
 10
353.75
 20
20.0
 30
0.0
 11
353.75
 21
0.0
 31
0.0
  0
LINE
  5
4D2
102
{ACAD_REACTORS
330
511
102
}
102
{ACAD_XDICTIONARY
360
4D3
102
}
330
158
100
AcDbEntity
  8
0
  6
Continuous
 62
     7
370
     0
100
AcDbLine
 10
287.0
 20
20.0
 30
0.0
 11
287.0
 21
0.0
 31
0.0
  0
LINE
  5
4D5
102
{ACAD_REACTORS
330
511
102
}
102
{ACAD_XDICTIONARY
360
4D6
102
}
330
158
100
AcDbEntity
  8
0
  6
Continuous
 62
     7
370
     0
100
AcDbLine
 10
220.25
 20
20.0
 30
0.0
 11
220.25
 21
0.0
 31
0.0
  0
LINE
  5
4D8
102
{ACAD_REACTORS
330
511
102
}
102
{ACAD_XDICTIONARY
360
4D9
102
}
330
158
100
AcDbEntity
  8
0
  6
Continuous
 62
     7
370
     0
100
AcDbLine
 10
153.5
 20
20.0
 30
0.0
 11
153.5
 21
0.0
 31
0.0
  0
LINE
  5
4DB
102
{ACAD_REACTORS
330
511
102
}
102
{ACAD_XDICTIONARY
360
4DC
102
}
330
158
100
AcDbEntity
  8
0
  6
Continuous
 62
     7
370
     0
100
AcDbLine
 10
86.75
 20
20.0
 30
0.0
 11
86.75
 21
0.0
 31
0.0
  0
LINE
  5
4DE
102
{ACAD_REACTORS
330
511
102
}
102
{ACAD_XDICTIONARY
360
4DF
102
}
330
158
100
AcDbEntity
  8
0
  6
Continuous
 62
     7
370
     0
100
AcDbLine
 10
20.0
 20
89.25
 30
0.0
 11
-0.0000000000000462
 21
89.25
 31
0.0
  0
LINE
  5
4E1
102
{ACAD_REACTORS
330
511
102
}
102
{ACAD_XDICTIONARY
360
4E2
102
}
330
158
100
AcDbEntity
  8
0
  6
Continuous
 62
     7
370
     0
100
AcDbLine
 10
20.0
 20
158.5
 30
0.0
 11
-0.0000000000000405
 21
158.5
 31
0.0
  0
LINE
  5
4E4
102
{ACAD_REACTORS
330
511
102
}
102
{ACAD_XDICTIONARY
360
4E5
102
}
330
158
100
AcDbEntity
  8
0
  6
Continuous
 62
     7
370
     0
100
AcDbLine
 10
20.0
 20
227.75
 30
0.0
 11
-0.000000000000032
 21
227.75
 31
0.0
  0
LINE
  5
4E7
102
{ACAD_REACTORS
330
511
102
}
102
{ACAD_XDICTIONARY
360
4E8
102
}
330
158
100
AcDbEntity
  8
0
  6
Continuous
 62
     7
370
     0
100
AcDbLine
 10
20.0
 20
366.25
 30
0.0
 11
-0.0000000000000156
 21
366.25
 31
0.0
  0
LINE
  5
4EA
102
{ACAD_REACTORS
330
511
102
}
102
{ACAD_XDICTIONARY
360
4EB
102
}
330
158
100
AcDbEntity
  8
0
  6
Continuous
 62
     7
370
     0
100
AcDbLine
 10
20.0
 20
435.5
 30
0.0
 11
-0.0000000000000071
 21
435.5
 31
0.0
  0
LINE
  5
4ED
102
{ACAD_REACTORS
330
511
102
}
102
{ACAD_XDICTIONARY
360
4EE
102
}
330
158
100
AcDbEntity
  8
0
  6
Continuous
 62
     7
370
     0
100
AcDbLine
 10
20.0
 20
504.75
 30
0.0
 11
0.0
 21
504.75
 31
0.0
  0
LINE
  5
4F0
102
{ACAD_REACTORS
330
511
102
}
102
{ACAD_XDICTIONARY
360
4F1
102
}
330
158
100
AcDbEntity
  8
0
  6
Continuous
 62
     7
370
     0
100
AcDbLine
 10
754.25
 20
574.0
 30
0.0
 11
754.25
 21
594.0
 31
0.0
  0
LINE
  5
4F3
102
{ACAD_REACTORS
330
511
102
}
102
{ACAD_XDICTIONARY
360
4F4
102
}
330
158
100
AcDbEntity
  8
0
  6
Continuous
 62
     7
370
     0
100
AcDbLine
 10
687.5
 20
574.0
 30
0.0
 11
687.5
 21
594.0
 31
0.0
  0
LINE
  5
4F6
102
{ACAD_REACTORS
330
511
102
}
102
{ACAD_XDICTIONARY
360
4F7
102
}
330
158
100
AcDbEntity
  8
0
  6
Continuous
 62
     7
370
     0
100
AcDbLine
 10
620.75
 20
574.0
 30
0.0
 11
620.75
 21
594.0
 31
0.0
  0
LINE
  5
4F9
102
{ACAD_REACTORS
330
511
102
}
102
{ACAD_XDICTIONARY
360
4FA
102
}
330
158
100
AcDbEntity
  8
0
  6
Continuous
 62
     7
370
     0
100
AcDbLine
 10
554.0
 20
574.0
 30
0.0
 11
554.0
 21
594.0
 31
0.0
  0
LINE
  5
4FC
102
{ACAD_REACTORS
330
511
102
}
102
{ACAD_XDICTIONARY
360
4FD
102
}
330
158
100
AcDbEntity
  8
0
  6
Continuous
 62
     7
370
     0
100
AcDbLine
 10
487.25
 20
574.0
 30
0.0
 11
487.25
 21
594.0
 31
0.0
  0
LINE
  5
4FF
102
{ACAD_REACTORS
330
511
102
}
102
{ACAD_XDICTIONARY
360
500
102
}
330
158
100
AcDbEntity
  8
0
  6
Continuous
 62
     7
370
     0
100
AcDbLine
 10
353.75
 20
574.0
 30
0.0
 11
353.75
 21
594.0
 31
0.0
  0
LINE
  5
502
102
{ACAD_REACTORS
330
511
102
}
102
{ACAD_XDICTIONARY
360
503
102
}
330
158
100
AcDbEntity
  8
0
  6
Continuous
 62
     7
370
     0
100
AcDbLine
 10
287.0
 20
574.0
 30
0.0
 11
287.0
 21
594.0
 31
0.0
  0
LINE
  5
505
102
{ACAD_REACTORS
330
511
102
}
102
{ACAD_XDICTIONARY
360
506
102
}
330
158
100
AcDbEntity
  8
0
  6
Continuous
 62
     7
370
     0
100
AcDbLine
 10
220.25
 20
574.0
 30
0.0
 11
220.25
 21
594.0
 31
0.0
  0
LINE
  5
508
102
{ACAD_REACTORS
330
511
102
}
102
{ACAD_XDICTIONARY
360
509
102
}
330
158
100
AcDbEntity
  8
0
  6
Continuous
 62
     7
370
     0
100
AcDbLine
 10
153.5
 20
574.0
 30
0.0
 11
153.5
 21
594.0
 31
0.0
  0
LINE
  5
50B
102
{ACAD_REACTORS
330
511
102
}
102
{ACAD_XDICTIONARY
360
50C
102
}
330
158
100
AcDbEntity
  8
0
  6
Continuous
 62
     7
370
     0
100
AcDbLine
 10
86.75
 20
574.0
 30
0.0
 11
86.75
 21
594.0
 31
0.0
  0
LWPOLYLINE
  5
50E
102
{ACAD_REACTORS
330
511
102
}
102
{ACAD_XDICTIONARY
360
50F
102
}
330
158
100
AcDbEntity
  8
0
  6
Continuous
 62
     7
370
     0
100
AcDbPolyline
 90
       40
 70
     1
 43
0.0
 10
20.0
 20
20.0
 10
86.75
 20
20.0
 10
153.5
 20
20.0
 10
220.25
 20
20.0
 10
287.0
 20
20.0
 10
353.75
 20
20.0
 10
420.5
 20
20.0
 10
487.25
 20
20.0
 10
554.0
 20
20.0
 10
620.75
 20
20.0
 10
687.5
 20
20.0
 10
754.25
 20
20.0
 10
821.0
 20
20.0
 10
821.0
 20
89.25
 10
821.0
 20
158.5
 10
821.0
 20
227.75
 10
821.0
 20
297.0
 10
821.0
 20
366.25
 10
821.0
 20
435.5
 10
821.0
 20
504.75
 10
821.0
 20
574.0
 10
754.25
 20
574.0
 10
687.5
 20
574.0
 10
620.75
 20
574.0
 10
554.0
 20
574.0
 10
487.25
 20
574.0
 10
420.5
 20
574.0
 10
353.75
 20
574.0
 10
287.0
 20
574.0
 10
220.25
 20
574.0
 10
153.5
 20
574.0
 10
86.75
 20
574.0
 10
20.0
 20
574.0
 10
20.0
 20
504.75
 10
20.0
 20
435.5
 10
20.0
 20
366.25
 10
20.0
 20
297.0
 10
20.0
 20
227.75
 10
20.0
 20
158.5
 10
20.0
 20
89.25
  0
VIEWPORT
  5
514
330
158
100
AcDbEntity
  8
0
  6
$INVISIBLE
 62
     7
 60
     1
100
AcDbViewport
 10
420.5
 20
297.0
 30
0.0
 40
801.0
 41
554.0
 68
     2
 69
     2
 12
0.0
 22
0.0
 13
0.0
 23
0.0
 14
0.5
 24
0.5
 15
0.0
 25
0.0
 16
0.0
 26
0.0
 36
1.0
 17
420.2000102997
 27
296.899971962
 37
-1.0
 42
50.0
 43
0.0
 44
0.0
 45
608.4925537109375
 50
0.0
 51
0.0
 72
   100
331
176
331
179
331
17A
331
17D
 90
   557152
  1

281
     0
 71
     1
 74
     0
110
0.0
120
0.0
130
0.0
111
1.0
121
0.0
131
0.0
112
0.0
122
1.0
132
0.0
 79
     0
146
0.0
170
     0
 61
     5
292
     1
282
     1
141
0.0
142
0.0
 63
   256
  0
ENDBLK
  5
15B
330
158
100
AcDbEntity
  8
0
100
AcDbBlockEnd
  0
BLOCK
  5
15E
330
15C
100
AcDbEntity
  8
0
100
AcDbBlockBegin
  2
*Paper_Space5
 70
     0
 10
0.0
 20
0.0
 30
0.0
  3
*Paper_Space5
  1

  0
VIEWPORT
  5
517
330
15C
100
AcDbEntity
  8
0
100
AcDbViewport
 10
594.0
 20
420.0
 30
0.0
 40
1211.76
 41
968.1188936170215
 68
     1
 69
     1
 12
594.0
 22
420.0
 13
0.0
 23
0.0
 14
5.0
 24
5.0
 15
5.0
 25
5.0
 16
0.0
 26
0.0
 36
1.0
 17
0.0
 27
0.0
 37
0.0
 42
50.0
 43
0.0
 44
0.0
 45
968.1188936170215
 50
0.0
 51
0.0
 72
  1000
 90
    32800
  1

281
     0
 71
     1
 74
     0
110
0.0
120
0.0
130
0.0
111
1.0
121
0.0
131
0.0
112
0.0
122
1.0
132
0.0
 79
     0
146
0.0
170
     0
 61
     5
292
     1
282
     1
141
0.0
142
0.0
 63
   256
  0
TEXT
  5
519
102
{ACAD_REACTORS
330
626
102
}
330
15C
100
AcDbEntity
  8
0
  6
Durchgehend
 62
     7
100
AcDbText
 10
1036.041455692185
 20
29.559722688463
 30
0.0
 40
4.056943469577365
  1
A0
  7
_TCW_TXTSTY_26
 72
     1
 11
1039.5
 21
31.58819442325168
 31
0.0
100
AcDbText
 73
     2
  0
TEXT
  5
51A
102
{ACAD_REACTORS
330
626
102
}
102
{ACAD_XDICTIONARY
360
51B
102
}
330
15C
100
AcDbEntity
  8
0
  6
Durchgehend
 62
     7
100
AcDbText
 10
1033.908535457293
 20
64.92524708343275
 30
0.0
 40
2.028469297620985
  1
TITEL
  7
_TCW_TXTSTY_25
 72
     1
 11
1037.763641357422
 21
64.32500457763672
 31
0.0
100
AcDbText
 73
     1
  0
TEXT
  5
51D
102
{ACAD_REACTORS
330
626
102
}
102
{ACAD_XDICTIONARY
360
51E
102
}
330
15C
100
AcDbEntity
  8
0
  6
Durchgehend
 62
     7
100
AcDbText
 10
1082.85107017923
 20
36.92524708343274
 30
0.0
 40
2.028469297620985
  1
NR
 41
0.999
  7
_TCW_TXTSTY_25
 72
     1
 11
1084.89372253418
 21
36.32500457763672
 31
0.0
100
AcDbText
 73
     1
  0
TEXT
  5
520
102
{ACAD_REACTORS
330
626
102
}
102
{ACAD_XDICTIONARY
360
521
102
}
330
15C
100
AcDbEntity
  8
0
  6
Durchgehend
 62
     7
100
AcDbText
 10
1034.072983735634
 20
36.92524708343274
 30
0.0
 40
2.028469297620985
  1
 GRÖSSE
 41
0.999
  7
_TCW_TXTSTY_25
 11
1034.072983735634
 21
36.32500457763672
 31
0.0
100
AcDbText
 73
     1
  0
TEXT
  5
523
102
{ACAD_REACTORS
330
626
102
}
102
{ACAD_XDICTIONARY
360
524
102
}
330
15C
100
AcDbEntity
  8
0
  6
Durchgehend
 62
     7
100
AcDbText
 10
1153.829585056942
 20
36.92524708343274
 30
0.0
 40
2.028469297620985
  1
GEP
 41
0.999
  7
_TCW_TXTSTY_25
 72
     1
 11
1156.816558837891
 21
36.32500457763672
 31
0.0
100
AcDbText
 73
     1
  0
TEXT
  5
526
102
{ACAD_REACTORS
330
626
102
}
102
{ACAD_XDICTIONARY
360
527
102
}
330
15C
100
AcDbEntity
  8
0
  6
Durchgehend
 62
     7
100
AcDbText
 10
1124.230894739632
 20
22.92524708343275
 30
0.0
 40
2.028469297620985
  1
BLATT
 41
0.999
  7
_TCW_TXTSTY_25
 72
     1
 11
1128.63232421875
 21
22.32500457763672
 31
0.0
100
AcDbText
 73
     1
  0
TEXT
  5
529
102
{ACAD_REACTORS
330
626
102
}
102
{ACAD_XDICTIONARY
360
52A
102
}
330
15C
100
AcDbEntity
  8
0
  6
Durchgehend
 62
     7
100
AcDbText
 10
1034.232252927524
 20
22.92524708343275
 30
0.0
 40
2.028469297620985
  1
 MAßSTAB
 41
0.999
  7
_TCW_TXTSTY_25
 72
     1
 11
1041.305544638787
 21
22.32500457763672
 31
0.0
100
AcDbText
 73
     1
  0
TEXT
  5
52C
102
{ACAD_REACTORS
330
626
102
}
102
{ACAD_XDICTIONARY
360
52D
102
}
330
15C
100
AcDbEntity
  8
0
  6
Durchgehend
 62
     7
100
AcDbText
 10
1050.393460448773
 20
36.92524708343274
 30
0.0
 40
2.028469297620985
  1
DATUM
 41
0.999
  7
_TCW_TXTSTY_25
 72
     1
 11
1055.422073364258
 21
36.32500457763672
 31
0.0
100
AcDbText
 73
     1
  0
LINE
  5
52F
102
{ACAD_REACTORS
330
626
102
}
102
{ACAD_XDICTIONARY
360
530
102
}
330
15C
100
AcDbEntity
  8
0
  6
Continuous
 62
     7
370
     0
100
AcDbLine
 10
968.5000152587891
 20
19.5
 30
0.0
 11
1033.500015258789
 21
19.5
 31
0.0
  0
LINE
  5
532
102
{ACAD_REACTORS
330
626
102
}
102
{ACAD_XDICTIONARY
360
533
102
}
330
15C
100
AcDbEntity
  8
0
  6
Continuous
 62
     7
370
     0
100
AcDbLine
 10
1168.5
 20
19.5
 30
0.0
 11
1168.5
 21
25.5
 31
0.0
  0
LINE
  5
535
102
{ACAD_REACTORS
330
626
102
}
102
{ACAD_XDICTIONARY
360
536
102
}
330
15C
100
AcDbEntity
  8
0
  6
Continuous
 62
     7
370
     0
100
AcDbLine
 10
1168.5
 20
25.5
 30
0.0
 11
1168.5
 21
39.5
 31
0.0
  0
LINE
  5
538
102
{ACAD_REACTORS
330
626
102
}
102
{ACAD_XDICTIONARY
360
539
102
}
330
15C
100
AcDbEntity
  8
0
  6
Continuous
 62
     7
370
     0
100
AcDbLine
 10
1168.5
 20
39.5
 30
0.0
 11
1168.5
 21
67.5
 31
0.0
  0
LINE
  5
53B
102
{ACAD_REACTORS
330
626
102
}
102
{ACAD_XDICTIONARY
360
53C
102
}
330
15C
100
AcDbEntity
  8
0
  6
Continuous
 62
     7
370
     0
100
AcDbLine
 10
1168.5
 20
67.5
 30
0.0
 11
1168.5
 21
85.50000762939453
 31
0.0
  0
LINE
  5
53E
102
{ACAD_REACTORS
330
626
102
}
102
{ACAD_XDICTIONARY
360
53F
102
}
330
15C
100
AcDbEntity
  8
0
  6
Continuous
 62
     7
370
     0
100
AcDbLine
 10
968.5000152587891
 20
19.5
 30
0.0
 11
968.5000152587891
 21
85.50000762939453
 31
0.0
  0
LINE
  5
541
102
{ACAD_REACTORS
330
626
102
}
102
{ACAD_XDICTIONARY
360
542
102
}
330
15C
100
AcDbEntity
  8
0
  6
Continuous
 62
     7
370
     0
100
AcDbLine
 10
968.5000152587891
 20
85.50000762939453
 30
0.0
 11
1168.5
 21
85.50000762939453
 31
0.0
  0
LINE
  5
544
102
{ACAD_REACTORS
330
626
102
}
102
{ACAD_XDICTIONARY
360
545
102
}
330
15C
100
AcDbEntity
  8
0
  6
Continuous
 62
     7
370
     0
100
AcDbLine
 10
1033.500015258789
 20
19.5
 30
0.0
 11
1033.500015258789
 21
85.50000762939453
 31
0.0
  0
LINE
  5
547
102
{ACAD_REACTORS
330
626
102
}
102
{ACAD_XDICTIONARY
360
548
102
}
330
15C
100
AcDbEntity
  8
0
  6
Continuous
 62
     7
370
     0
100
AcDbLine
 10
1033.500015258789
 20
67.5
 30
0.0
 11
1168.5
 21
67.5
 31
0.0
  0
LINE
  5
54A
102
{ACAD_REACTORS
330
626
102
}
102
{ACAD_XDICTIONARY
360
54B
102
}
330
15C
100
AcDbEntity
  8
0
  6
Continuous
 62
     7
370
     0
100
AcDbLine
 10
1033.500015258789
 20
39.5
 30
0.0
 11
1168.5
 21
39.5
 31
0.0
  0
LINE
  5
54D
102
{ACAD_REACTORS
330
626
102
}
102
{ACAD_XDICTIONARY
360
54E
102
}
330
15C
100
AcDbEntity
  8
0
  6
Continuous
 62
     7
370
     0
100
AcDbLine
 10
1033.500015258789
 20
25.5
 30
0.0
 11
1168.5
 21
25.5
 31
0.0
  0
LINE
  5
550
102
{ACAD_REACTORS
330
626
102
}
102
{ACAD_XDICTIONARY
360
551
102
}
330
15C
100
AcDbEntity
  8
0
  6
Continuous
 62
     7
370
     0
100
AcDbLine
 10
1033.500015258789
 20
19.5
 30
0.0
 11
1168.5
 21
19.5
 31
0.0
  0
LINE
  5
553
102
{ACAD_REACTORS
330
626
102
}
102
{ACAD_XDICTIONARY
360
554
102
}
330
15C
100
AcDbEntity
  8
0
  6
Continuous
 62
     7
370
     0
100
AcDbLine
 10
1123.500015258789
 20
19.5
 30
0.0
 11
1123.500015258789
 21
25.5
 31
0.0
  0
LINE
  5
556
102
{ACAD_REACTORS
330
626
102
}
102
{ACAD_XDICTIONARY
360
557
102
}
330
15C
100
AcDbEntity
  8
0
  6
Continuous
 62
     7
370
     0
100
AcDbLine
 10
1078.500015258789
 20
19.5
 30
0.0
 11
1078.500015258789
 21
25.5
 31
0.0
  0
LINE
  5
559
102
{ACAD_REACTORS
330
626
102
}
102
{ACAD_XDICTIONARY
360
55A
102
}
330
15C
100
AcDbEntity
  8
0
  6
DASHED
 62
     7
 48
0.125
370
     0
100
AcDbLine
 10
1153.5
 20
25.5
 30
0.0
 11
1153.5
 21
39.5
 31
0.0
  0
LINE
  5
55C
102
{ACAD_REACTORS
330
626
102
}
102
{ACAD_XDICTIONARY
360
55D
102
}
330
15C
100
AcDbEntity
  8
0
  6
Continuous
 62
     7
370
     0
100
AcDbLine
 10
1078.500015258789
 20
25.5
 30
0.0
 11
1078.500015258789
 21
39.5
 31
0.0
  0
LINE
  5
55F
102
{ACAD_REACTORS
330
626
102
}
102
{ACAD_XDICTIONARY
360
560
102
}
330
15C
100
AcDbEntity
  8
0
  6
DASHED
 62
     7
 48
0.125
370
     0
100
AcDbLine
 10
968.5000152587891
 20
25.5
 30
0.0
 11
1033.500015258789
 21
25.5
 31
0.0
  0
LINE
  5
562
102
{ACAD_REACTORS
330
626
102
}
102
{ACAD_XDICTIONARY
360
563
102
}
330
15C
100
AcDbEntity
  8
0
  6
DASHED
 62
     7
 48
0.125
370
     0
100
AcDbLine
 10
968.5000152587891
 20
31.5
 30
0.0
 11
1033.500015258789
 21
31.5
 31
0.0
  0
LINE
  5
565
102
{ACAD_REACTORS
330
626
102
}
102
{ACAD_XDICTIONARY
360
566
102
}
330
15C
100
AcDbEntity
  8
0
  6
Continuous
 62
     7
370
     0
100
AcDbLine
 10
1046.500015258789
 20
25.5
 30
0.0
 11
1046.500015258789
 21
39.5
 31
0.0
  0
LINE
  5
568
102
{ACAD_REACTORS
330
626
102
}
102
{ACAD_XDICTIONARY
360
569
102
}
330
15C
100
AcDbEntity
  8
0
  6
Continuous
 62
     7
370
     0
100
AcDbLine
 10
594.0
 20
830.5
 30
0.0
 11
599.7734985351562
 21
830.5
 31
0.0
  0
LINE
  5
56B
102
{ACAD_REACTORS
330
626
102
}
102
{ACAD_XDICTIONARY
360
56C
102
}
330
15C
100
AcDbEntity
  8
0
  6
Continuous
 62
     7
370
     0
100
AcDbLine
 10
594.0
 20
820.5
 30
0.0
 11
599.7734985351562
 21
830.5
 31
0.0
  0
LINE
  5
56E
102
{ACAD_REACTORS
330
626
102
}
102
{ACAD_XDICTIONARY
360
56F
102
}
330
15C
100
AcDbEntity
  8
0
  6
Continuous
 62
     7
370
     0
100
AcDbLine
 10
594.0
 20
830.5
 30
0.0
 11
588.2265014648438
 21
830.5
 31
0.0
  0
LINE
  5
571
102
{ACAD_REACTORS
330
626
102
}
102
{ACAD_XDICTIONARY
360
572
102
}
330
15C
100
AcDbEntity
  8
0
  6
Continuous
 62
     7
370
     0
100
AcDbLine
 10
594.0
 20
820.5
 30
0.0
 11
588.2265014648438
 21
830.5
 31
0.0
  0
LINE
  5
574
102
{ACAD_REACTORS
330
626
102
}
102
{ACAD_XDICTIONARY
360
575
102
}
330
15C
100
AcDbEntity
  8
0
  6
Continuous
 62
     7
370
     0
100
AcDbLine
 10
594.0
 20
820.5
 30
0.0
 11
594.0
 21
840.5
 31
0.0
  0
LINE
  5
577
102
{ACAD_REACTORS
330
626
102
}
102
{ACAD_XDICTIONARY
360
578
102
}
330
15C
100
AcDbEntity
  8
0
  6
Continuous
 62
     7
370
     0
100
AcDbLine
 10
594.0
 20
9.5
 30
0.0
 11
588.2265014648438
 21
9.5
 31
0.0
  0
LINE
  5
57A
102
{ACAD_REACTORS
330
626
102
}
102
{ACAD_XDICTIONARY
360
57B
102
}
330
15C
100
AcDbEntity
  8
0
  6
Continuous
 62
     7
370
     0
100
AcDbLine
 10
594.0
 20
19.5
 30
0.0
 11
588.2265014648438
 21
9.5
 31
0.0
  0
LINE
  5
57D
102
{ACAD_REACTORS
330
626
102
}
102
{ACAD_XDICTIONARY
360
57E
102
}
330
15C
100
AcDbEntity
  8
0
  6
Continuous
 62
     7
370
     0
100
AcDbLine
 10
594.0
 20
9.5
 30
0.0
 11
599.7734985351562
 21
9.5
 31
0.0
  0
LINE
  5
580
102
{ACAD_REACTORS
330
626
102
}
102
{ACAD_XDICTIONARY
360
581
102
}
330
15C
100
AcDbEntity
  8
0
  6
Continuous
 62
     7
370
     0
100
AcDbLine
 10
594.0
 20
19.5
 30
0.0
 11
599.7734985351562
 21
9.5
 31
0.0
  0
LINE
  5
583
102
{ACAD_REACTORS
330
626
102
}
102
{ACAD_XDICTIONARY
360
584
102
}
330
15C
100
AcDbEntity
  8
0
  6
Continuous
 62
     7
370
     0
100
AcDbLine
 10
594.0
 20
19.5
 30
0.0
 11
594.0
 21
-0.5
 31
0.0
  0
LINE
  5
586
102
{ACAD_REACTORS
330
626
102
}
102
{ACAD_XDICTIONARY
360
587
102
}
330
15C
100
AcDbEntity
  8
0
  6
Continuous
 62
     7
370
     0
100
AcDbLine
 10
1178.5
 20
420.0
 30
0.0
 11
1178.5
 21
414.2265014648438
 31
0.0
  0
LINE
  5
589
102
{ACAD_REACTORS
330
626
102
}
102
{ACAD_XDICTIONARY
360
58A
102
}
330
15C
100
AcDbEntity
  8
0
  6
Continuous
 62
     7
370
     0
100
AcDbLine
 10
1168.5
 20
420.0
 30
0.0
 11
1178.5
 21
414.2265014648438
 31
0.0
  0
LINE
  5
58C
102
{ACAD_REACTORS
330
626
102
}
102
{ACAD_XDICTIONARY
360
58D
102
}
330
15C
100
AcDbEntity
  8
0
  6
Continuous
 62
     7
370
     0
100
AcDbLine
 10
1178.5
 20
420.0
 30
0.0
 11
1178.5
 21
425.7734985351562
 31
0.0
  0
LINE
  5
58F
102
{ACAD_REACTORS
330
626
102
}
102
{ACAD_XDICTIONARY
360
590
102
}
330
15C
100
AcDbEntity
  8
0
  6
Continuous
 62
     7
370
     0
100
AcDbLine
 10
1168.5
 20
420.0
 30
0.0
 11
1178.5
 21
425.7734985351562
 31
0.0
  0
LINE
  5
592
102
{ACAD_REACTORS
330
626
102
}
102
{ACAD_XDICTIONARY
360
593
102
}
330
15C
100
AcDbEntity
  8
0
  6
Continuous
 62
     7
370
     0
100
AcDbLine
 10
1168.5
 20
420.0
 30
0.0
 11
1188.5
 21
420.0
 31
0.0
  0
LINE
  5
595
102
{ACAD_REACTORS
330
626
102
}
102
{ACAD_XDICTIONARY
360
596
102
}
330
15C
100
AcDbEntity
  8
0
  6
Continuous
 62
     7
370
     0
100
AcDbLine
 10
19.5
 20
420.0
 30
0.0
 11
-0.5
 21
420.0
 31
0.0
  0
LINE
  5
598
102
{ACAD_REACTORS
330
626
102
}
102
{ACAD_XDICTIONARY
360
599
102
}
330
15C
100
AcDbEntity
  8
0
  6
Continuous
 62
     7
370
     0
100
AcDbLine
 10
19.5
 20
420.0
 30
0.0
 11
9.5
 21
414.2265014648438
 31
0.0
  0
LINE
  5
59B
102
{ACAD_REACTORS
330
626
102
}
102
{ACAD_XDICTIONARY
360
59C
102
}
330
15C
100
AcDbEntity
  8
0
  6
Continuous
 62
     7
370
     0
100
AcDbLine
 10
9.5
 20
420.0
 30
0.0
 11
9.5
 21
414.2265014648438
 31
0.0
  0
LINE
  5
59E
102
{ACAD_REACTORS
330
626
102
}
102
{ACAD_XDICTIONARY
360
59F
102
}
330
15C
100
AcDbEntity
  8
0
  6
Continuous
 62
     7
370
     0
100
AcDbLine
 10
19.5
 20
420.0
 30
0.0
 11
9.5
 21
425.7734985351562
 31
0.0
  0
LINE
  5
5A1
102
{ACAD_REACTORS
330
626
102
}
102
{ACAD_XDICTIONARY
360
5A2
102
}
330
15C
100
AcDbEntity
  8
0
  6
Continuous
 62
     7
370
     0
100
AcDbLine
 10
9.5
 20
420.0
 30
0.0
 11
9.5
 21
425.7734985351562
 31
0.0
  0
TEXT
  5
5A5
102
{ACAD_REACTORS
330
626
102
}
330
15C
100
AcDbEntity
  8
0
  6
Durchgehend
 62
     7
100
AcDbText
 10
1176.779521387031
 20
790.1847296820746
 30
0.0
 40
4.05692884657118
  1
L
 41
1.093
  7
_TCW_TXTSTY_27
 72
     1
 11
1178.5
 21
792.2131941053602
 31
0.0
100
AcDbText
 73
     2
  0
TEXT
  5
5A7
102
{ACAD_REACTORS
330
626
102
}
330
15C
100
AcDbEntity
  8
0
  6
Durchgehend
 62
     7
100
AcDbText
 10
1176.466085092809
 20
718.4347296820746
 30
0.0
 40
4.05692884657118
  1
K
 41
1.077
  7
_TCW_TXTSTY_28
 72
     1
 11
1178.5
 21
720.4631941053602
 31
0.0
100
AcDbText
 73
     2
  0
TEXT
  5
5A8
102
{ACAD_REACTORS
330
626
102
}
330
15C
100
AcDbEntity
  8
0
  6
Durchgehend
 62
     7
100
AcDbText
 10
1176.951040224806
 20
651.6847296820746
 30
0.0
 40
4.05692884657118
  1
J
 41
1.094
  7
_TCW_TXTSTY_27
 72
     1
 11
1178.5
 21
653.7131941053602
 31
0.0
100
AcDbText
 73
     2
  0
TEXT
  5
5AA
102
{ACAD_REACTORS
330
626
102
}
330
15C
100
AcDbEntity
  8
0
  6
Durchgehend
 62
     7
100
AcDbText
 10
1177.523278152473
 20
584.9347296820746
 30
0.0
 40
4.05692884657118
  1
I
 41
1.241
  7
_TCW_TXTSTY_29
 72
     1
 11
1178.5
 21
586.9631941053602
 31
0.0
100
AcDbText
 73
     2
  0
TEXT
  5
5AB
102
{ACAD_REACTORS
330
626
102
}
330
15C
100
AcDbEntity
  8
0
  6
Durchgehend
 62
     7
100
AcDbText
 10
1176.203810728271
 20
518.1847296820746
 30
0.0
 40
4.05692884657118
  1
H
 41
1.123
  7
_TCW_TXTSTY_5
 72
     1
 11
1178.5
 21
520.2131941053602
 31
0.0
100
AcDbText
 73
     2
  0
TEXT
  5
5AC
102
{ACAD_REACTORS
330
626
102
}
330
15C
100
AcDbEntity
  8
0
  6
Durchgehend
 62
     7
100
AcDbText
 10
1176.120854647217
 20
451.4347296820746
 30
0.0
 40
4.05692884657118
  1
G
 41
1.08
  7
_TCW_TXTSTY_B
 72
     1
 11
1178.5
 21
453.4631941053602
 31
0.0
100
AcDbText
 73
     2
  0
TEXT
  5
5AD
102
{ACAD_REACTORS
330
626
102
}
330
15C
100
AcDbEntity
  8
0
  6
Durchgehend
 62
     7
100
AcDbText
 10
1176.648600236223
 20
384.6847296820746
 30
0.0
 40
4.05692884657118
  1
F
 41
1.07
  7
_TCW_TXTSTY_28
 72
     1
 11
1178.5
 21
386.7131941053602
 31
0.0
100
AcDbText
 73
     2
  0
TEXT
  5
5AF
102
{ACAD_REACTORS
330
626
102
}
330
15C
100
AcDbEntity
  8
0
  6
Durchgehend
 62
     7
100
AcDbText
 10
1176.483081596212
 20
317.9347296820746
 30
0.0
 40
4.05692884657118
  1
E
 41
1.068
  7
_TCW_TXTSTY_2A
 72
     1
 11
1178.5
 21
319.9631941053602
 31
0.0
100
AcDbText
 73
     2
  0
TEXT
  5
5B0
102
{ACAD_REACTORS
330
626
102
}
330
15C
100
AcDbEntity
  8
0
  6
Durchgehend
 62
     7
100
AcDbText
 10
1176.320358180176
 20
251.1847296820746
 30
0.0
 40
4.05692884657118
  1
D
 41
1.066
  7
_TCW_TXTSTY_2A
 72
     1
 11
1178.5
 21
253.2131941053602
 31
0.0
100
AcDbText
 73
     2
  0
TEXT
  5
5B2
102
{ACAD_REACTORS
330
626
102
}
330
15C
100
AcDbEntity
  8
0
  6
Durchgehend
 62
     7
100
AcDbText
 10
1176.457342736633
 20
184.4347203572591
 30
0.0
 40
4.05694834391276
  1
C
 41
0.999
  7
_TCW_TXTSTY_2B
 72
     1
 11
1178.5
 21
186.4631945292155
 31
0.0
100
AcDbText
 73
     2
  0
TEXT
  5
5B4
102
{ACAD_REACTORS
330
626
102
}
330
15C
100
AcDbEntity
  8
0
  6
Durchgehend
 62
     7
100
AcDbText
 10
1176.466075317943
 20
117.6847203572591
 30
0.0
 40
4.05694834391276
  1
B
 41
1.077
  7
_TCW_TXTSTY_2C
 72
     1
 11
1178.5
 21
119.7131945292155
 31
0.0
100
AcDbText
 73
     2
  0
TEXT
  5
5B5
102
{ACAD_REACTORS
330
626
102
}
330
15C
100
AcDbEntity
  8
0
  6
Durchgehend
 62
     7
100
AcDbText
 10
1176.615549758381
 20
50.934722688463
 30
0.0
 40
4.056943469577365
  1
A
  7
_TCW_TXTSTY_26
 72
     1
 11
1178.5
 21
52.96319442325168
 31
0.0
100
AcDbText
 73
     2
  0
LINE
  5
5B6
102
{ACAD_REACTORS
330
626
102
}
330
15C
100
AcDbEntity
  8
0
  6
Continuous
 62
     7
370
     0
100
AcDbLine
 10
1188.5
 20
86.25
 30
0.0
 11
1168.5
 21
86.25
 31
0.0
  0
LINE
  5
5B7
102
{ACAD_REACTORS
330
626
102
}
330
15C
100
AcDbEntity
  8
0
  6
Continuous
 62
     7
370
     0
100
AcDbLine
 10
1188.5
 20
153.0
 30
0.0
 11
1168.5
 21
153.0
 31
0.0
  0
LINE
  5
5B8
102
{ACAD_REACTORS
330
626
102
}
330
15C
100
AcDbEntity
  8
0
  6
Continuous
 62
     7
370
     0
100
AcDbLine
 10
1188.5
 20
219.75
 30
0.0
 11
1168.5
 21
219.75
 31
0.0
  0
LINE
  5
5B9
102
{ACAD_REACTORS
330
626
102
}
330
15C
100
AcDbEntity
  8
0
  6
Continuous
 62
     7
370
     0
100
AcDbLine
 10
1188.5
 20
286.5
 30
0.0
 11
1168.5
 21
286.5
 31
0.0
  0
LINE
  5
5BA
102
{ACAD_REACTORS
330
626
102
}
330
15C
100
AcDbEntity
  8
0
  6
Continuous
 62
     7
370
     0
100
AcDbLine
 10
1188.5
 20
353.25
 30
0.0
 11
1168.5
 21
353.25
 31
0.0
  0
LINE
  5
5BB
102
{ACAD_REACTORS
330
626
102
}
330
15C
100
AcDbEntity
  8
0
  6
Continuous
 62
     7
370
     0
100
AcDbLine
 10
1188.5
 20
486.75
 30
0.0
 11
1168.5
 21
486.75
 31
0.0
  0
LINE
  5
5BC
102
{ACAD_REACTORS
330
626
102
}
330
15C
100
AcDbEntity
  8
0
  6
Continuous
 62
     7
370
     0
100
AcDbLine
 10
1188.5
 20
553.5
 30
0.0
 11
1168.5
 21
553.5
 31
0.0
  0
LINE
  5
5BD
102
{ACAD_REACTORS
330
626
102
}
330
15C
100
AcDbEntity
  8
0
  6
Continuous
 62
     7
370
     0
100
AcDbLine
 10
1188.5
 20
620.25
 30
0.0
 11
1168.5
 21
620.25
 31
0.0
  0
LINE
  5
5BE
102
{ACAD_REACTORS
330
626
102
}
330
15C
100
AcDbEntity
  8
0
  6
Continuous
 62
     7
370
     0
100
AcDbLine
 10
1188.5
 20
687.0
 30
0.0
 11
1168.5
 21
687.0
 31
0.0
  0
LINE
  5
5BF
102
{ACAD_REACTORS
330
626
102
}
102
{ACAD_XDICTIONARY
360
5C0
102
}
330
15C
100
AcDbEntity
  8
0
  6
Continuous
 62
     7
370
     0
100
AcDbLine
 10
1188.5
 20
753.75
 30
0.0
 11
1168.5
 21
753.75
 31
0.0
  0
LINE
  5
5C2
102
{ACAD_REACTORS
330
626
102
}
330
15C
100
AcDbEntity
  8
0
  6
Continuous
 62
     7
370
     0
100
AcDbLine
 10
1168.5
 20
86.25
 30
0.0
 11
1188.5
 21
86.25
 31
0.0
  0
LINE
  5
5C3
102
{ACAD_REACTORS
330
626
102
}
330
15C
100
AcDbEntity
  8
0
  6
Continuous
 62
     7
370
     0
100
AcDbLine
 10
1168.5
 20
153.0
 30
0.0
 11
1188.5
 21
153.0
 31
0.0
  0
LINE
  5
5C4
102
{ACAD_REACTORS
330
626
102
}
330
15C
100
AcDbEntity
  8
0
  6
Continuous
 62
     7
370
     0
100
AcDbLine
 10
1168.5
 20
219.75
 30
0.0
 11
1188.5
 21
219.75
 31
0.0
  0
LINE
  5
5C5
102
{ACAD_REACTORS
330
626
102
}
330
15C
100
AcDbEntity
  8
0
  6
Continuous
 62
     7
370
     0
100
AcDbLine
 10
1168.5
 20
286.5
 30
0.0
 11
1188.5
 21
286.5
 31
0.0
  0
LINE
  5
5C6
102
{ACAD_REACTORS
330
626
102
}
330
15C
100
AcDbEntity
  8
0
  6
Continuous
 62
     7
370
     0
100
AcDbLine
 10
1168.5
 20
353.25
 30
0.0
 11
1188.5
 21
353.25
 31
0.0
  0
LINE
  5
5C7
102
{ACAD_REACTORS
330
626
102
}
330
15C
100
AcDbEntity
  8
0
  6
Continuous
 62
     7
370
     0
100
AcDbLine
 10
1168.5
 20
486.75
 30
0.0
 11
1188.5
 21
486.75
 31
0.0
  0
LINE
  5
5C8
102
{ACAD_REACTORS
330
626
102
}
330
15C
100
AcDbEntity
  8
0
  6
Continuous
 62
     7
370
     0
100
AcDbLine
 10
1168.5
 20
553.5
 30
0.0
 11
1188.5
 21
553.5
 31
0.0
  0
LINE
  5
5C9
102
{ACAD_REACTORS
330
626
102
}
330
15C
100
AcDbEntity
  8
0
  6
Continuous
 62
     7
370
     0
100
AcDbLine
 10
1168.5
 20
620.25
 30
0.0
 11
1188.5
 21
620.25
 31
0.0
  0
LINE
  5
5CA
102
{ACAD_REACTORS
330
626
102
}
330
15C
100
AcDbEntity
  8
0
  6
Continuous
 62
     7
370
     0
100
AcDbLine
 10
1168.5
 20
687.0
 30
0.0
 11
1188.5
 21
687.0
 31
0.0
  0
LINE
  5
5CB
102
{ACAD_REACTORS
330
626
102
}
102
{ACAD_XDICTIONARY
360
5CC
102
}
330
15C
100
AcDbEntity
  8
0
  6
Continuous
 62
     7
370
     0
100
AcDbLine
 10
1168.5
 20
753.75
 30
0.0
 11
1188.5
 21
753.75
 31
0.0
  0
LINE
  5
5CE
102
{ACAD_REACTORS
330
626
102
}
330
15C
100
AcDbEntity
  8
0
  6
Continuous
 62
     7
370
     0
100
AcDbLine
 10
1096.6875
 20
19.5
 30
0.0
 11
1096.6875
 21
-0.5
 31
0.0
  0
LINE
  5
5CF
102
{ACAD_REACTORS
330
626
102
}
330
15C
100
AcDbEntity
  8
0
  6
Continuous
 62
     7
370
     0
100
AcDbLine
 10
1024.875
 20
19.5
 30
0.0
 11
1024.875
 21
-0.5
 31
0.0
  0
LINE
  5
5D0
102
{ACAD_REACTORS
330
626
102
}
330
15C
100
AcDbEntity
  8
0
  6
Continuous
 62
     7
370
     0
100
AcDbLine
 10
953.0625
 20
19.5
 30
0.0
 11
953.0625
 21
-0.5
 31
0.0
  0
LINE
  5
5D1
102
{ACAD_REACTORS
330
626
102
}
330
15C
100
AcDbEntity
  8
0
  6
Continuous
 62
     7
370
     0
100
AcDbLine
 10
881.25
 20
19.5
 30
0.0
 11
881.25
 21
-0.5
 31
0.0
  0
LINE
  5
5D2
102
{ACAD_REACTORS
330
626
102
}
330
15C
100
AcDbEntity
  8
0
  6
Continuous
 62
     7
370
     0
100
AcDbLine
 10
809.4375
 20
19.5
 30
0.0
 11
809.4375
 21
-0.5
 31
0.0
  0
LINE
  5
5D3
102
{ACAD_REACTORS
330
626
102
}
330
15C
100
AcDbEntity
  8
0
  6
Continuous
 62
     7
370
     0
100
AcDbLine
 10
737.625
 20
19.5
 30
0.0
 11
737.625
 21
-0.5
 31
0.0
  0
LINE
  5
5D4
102
{ACAD_REACTORS
330
626
102
}
330
15C
100
AcDbEntity
  8
0
  6
Continuous
 62
     7
370
     0
100
AcDbLine
 10
665.8125
 20
19.5
 30
0.0
 11
665.8125
 21
-0.5
 31
0.0
  0
LINE
  5
5D5
102
{ACAD_REACTORS
330
626
102
}
330
15C
100
AcDbEntity
  8
0
  6
Continuous
 62
     7
370
     0
100
AcDbLine
 10
522.1875
 20
19.5
 30
0.0
 11
522.1875
 21
-0.5
 31
0.0
  0
LINE
  5
5D6
102
{ACAD_REACTORS
330
626
102
}
330
15C
100
AcDbEntity
  8
0
  6
Continuous
 62
     7
370
     0
100
AcDbLine
 10
450.375
 20
19.5
 30
0.0
 11
450.375
 21
-0.5
 31
0.0
  0
LINE
  5
5D7
102
{ACAD_REACTORS
330
626
102
}
330
15C
100
AcDbEntity
  8
0
  6
Continuous
 62
     7
370
     0
100
AcDbLine
 10
378.5625
 20
19.5
 30
0.0
 11
378.5625
 21
-0.5
 31
0.0
  0
LINE
  5
5D8
102
{ACAD_REACTORS
330
626
102
}
330
15C
100
AcDbEntity
  8
0
  6
Continuous
 62
     7
370
     0
100
AcDbLine
 10
306.75
 20
19.5
 30
0.0
 11
306.75
 21
-0.5
 31
0.0
  0
LINE
  5
5D9
102
{ACAD_REACTORS
330
626
102
}
330
15C
100
AcDbEntity
  8
0
  6
Continuous
 62
     7
370
     0
100
AcDbLine
 10
234.9375
 20
19.5
 30
0.0
 11
234.9375
 21
-0.5
 31
0.0
  0
LINE
  5
5DA
102
{ACAD_REACTORS
330
626
102
}
330
15C
100
AcDbEntity
  8
0
  6
Continuous
 62
     7
370
     0
100
AcDbLine
 10
163.125
 20
19.5
 30
0.0
 11
163.125
 21
-0.5
 31
0.0
  0
LINE
  5
5DB
102
{ACAD_REACTORS
330
626
102
}
330
15C
100
AcDbEntity
  8
0
  6
Continuous
 62
     7
370
     0
100
AcDbLine
 10
91.3125
 20
19.5
 30
0.0
 11
91.3125
 21
-0.5
 31
0.0
  0
TEXT
  5
5DD
102
{ACAD_REACTORS
330
626
102
}
330
15C
100
AcDbEntity
  8
0
  6
Durchgehend
 62
     7
100
AcDbText
 10
47.21085056328668
 20
7.559729682074653
 30
0.0
 40
4.05692884657118
  1
16
 41
1.015
  7
_TCW_TXTSTY_2D
 72
     1
 11
50.40625
 21
9.588194105360243
 31
0.0
100
AcDbText
 73
     2
  0
TEXT
  5
5DE
102
{ACAD_REACTORS
330
626
102
}
330
15C
100
AcDbEntity
  8
0
  6
Durchgehend
 62
     7
100
AcDbText
 10
124.0233505632867
 20
7.559729682074653
 30
0.0
 40
4.05692884657118
  1
15
 41
1.015
  7
_TCW_TXTSTY_2D
 72
     1
 11
127.21875
 21
9.588194105360243
 31
0.0
100
AcDbText
 73
     2
  0
TEXT
  5
5DF
102
{ACAD_REACTORS
330
626
102
}
330
15C
100
AcDbEntity
  8
0
  6
Durchgehend
 62
     7
100
AcDbText
 10
195.8358505632867
 20
7.559729682074653
 30
0.0
 40
4.05692884657118
  1
14
 41
1.015
  7
_TCW_TXTSTY_2D
 72
     1
 11
199.03125
 21
9.588194105360243
 31
0.0
100
AcDbText
 73
     2
  0
TEXT
  5
5E0
102
{ACAD_REACTORS
330
626
102
}
330
15C
100
AcDbEntity
  8
0
  6
Durchgehend
 62
     7
100
AcDbText
 10
267.6483505632867
 20
7.559729682074653
 30
0.0
 40
4.05692884657118
  1
13
 41
1.015
  7
_TCW_TXTSTY_2D
 72
     1
 11
270.84375
 21
9.588194105360243
 31
0.0
100
AcDbText
 73
     2
  0
TEXT
  5
5E1
102
{ACAD_REACTORS
330
626
102
}
330
15C
100
AcDbEntity
  8
0
  6
Durchgehend
 62
     7
100
AcDbText
 10
339.4608505632867
 20
7.559729682074653
 30
0.0
 40
4.05692884657118
  1
12
 41
1.015
  7
_TCW_TXTSTY_2D
 72
     1
 11
342.65625
 21
9.588194105360243
 31
0.0
100
AcDbText
 73
     2
  0
TEXT
  5
5E2
102
{ACAD_REACTORS
330
626
102
}
330
15C
100
AcDbEntity
  8
0
  6
Durchgehend
 62
     7
100
AcDbText
 10
411.2733505632867
 20
7.559729682074653
 30
0.0
 40
4.05692884657118
  1
11
 41
1.015
  7
_TCW_TXTSTY_2D
 72
     1
 11
414.46875
 21
9.588194105360243
 31
0.0
100
AcDbText
 73
     2
  0
TEXT
  5
5E3
102
{ACAD_REACTORS
330
626
102
}
330
15C
100
AcDbEntity
  8
0
  6
Durchgehend
 62
     7
100
AcDbText
 10
483.0858505632867
 20
7.559729682074653
 30
0.0
 40
4.05692884657118
  1
10
 41
1.015
  7
_TCW_TXTSTY_2D
 72
     1
 11
486.28125
 21
9.588194105360243
 31
0.0
100
AcDbText
 73
     2
  0
TEXT
  5
5E5
102
{ACAD_REACTORS
330
626
102
}
330
15C
100
AcDbEntity
  8
0
  6
Durchgehend
 62
     7
100
AcDbText
 10
556.5196616075303
 20
7.559729682074653
 30
0.0
 40
4.05692884657118
  1
9
  7
_TCW_TXTSTY_2E
 72
     1
 11
558.09375
 21
9.588194105360243
 31
0.0
100
AcDbText
 73
     2
  0
TEXT
  5
5E6
102
{ACAD_REACTORS
330
626
102
}
330
15C
100
AcDbEntity
  8
0
  6
Durchgehend
 62
     7
100
AcDbText
 10
628.3321616075303
 20
7.559729682074653
 30
0.0
 40
4.05692884657118
  1
8
  7
_TCW_TXTSTY_2E
 72
     1
 11
629.90625
 21
9.588194105360243
 31
0.0
100
AcDbText
 73
     2
  0
TEXT
  5
5E7
102
{ACAD_REACTORS
330
626
102
}
330
15C
100
AcDbEntity
  8
0
  6
Durchgehend
 62
     7
100
AcDbText
 10
700.1446616075303
 20
7.559729682074653
 30
0.0
 40
4.05692884657118
  1
7
  7
_TCW_TXTSTY_2E
 72
     1
 11
701.71875
 21
9.588194105360243
 31
0.0
100
AcDbText
 73
     2
  0
TEXT
  5
5E8
102
{ACAD_REACTORS
330
626
102
}
330
15C
100
AcDbEntity
  8
0
  6
Durchgehend
 62
     7
100
AcDbText
 10
771.9571616075303
 20
7.559729682074653
 30
0.0
 40
4.05692884657118
  1
6
  7
_TCW_TXTSTY_2E
 72
     1
 11
773.53125
 21
9.588194105360243
 31
0.0
100
AcDbText
 73
     2
  0
TEXT
  5
5E9
102
{ACAD_REACTORS
330
626
102
}
330
15C
100
AcDbEntity
  8
0
  6
Durchgehend
 62
     7
100
AcDbText
 10
843.7696616075303
 20
7.559729682074653
 30
0.0
 40
4.05692884657118
  1
5
  7
_TCW_TXTSTY_2E
 72
     1
 11
845.34375
 21
9.588194105360243
 31
0.0
100
AcDbText
 73
     2
  0
TEXT
  5
5EA
102
{ACAD_REACTORS
330
626
102
}
330
15C
100
AcDbEntity
  8
0
  6
Durchgehend
 62
     7
100
AcDbText
 10
915.5821616075303
 20
7.559729682074653
 30
0.0
 40
4.05692884657118
  1
4
  7
_TCW_TXTSTY_2E
 72
     1
 11
917.15625
 21
9.588194105360243
 31
0.0
100
AcDbText
 73
     2
  0
TEXT
  5
5EB
102
{ACAD_REACTORS
330
626
102
}
330
15C
100
AcDbEntity
  8
0
  6
Durchgehend
 62
     7
100
AcDbText
 10
987.3946616075303
 20
7.559729682074653
 30
0.0
 40
4.05692884657118
  1
3
  7
_TCW_TXTSTY_2E
 72
     1
 11
988.96875
 21
9.588194105360243
 31
0.0
100
AcDbText
 73
     2
  0
TEXT
  5
5EC
102
{ACAD_REACTORS
330
626
102
}
330
15C
100
AcDbEntity
  8
0
  6
Durchgehend
 62
     7
100
AcDbText
 10
1059.20716160753
 20
7.559729682074653
 30
0.0
 40
4.05692884657118
  1
2
  7
_TCW_TXTSTY_2E
 72
     1
 11
1060.78125
 21
9.588194105360243
 31
0.0
100
AcDbText
 73
     2
  0
TEXT
  5
5EE
102
{ACAD_REACTORS
330
626
102
}
330
15C
100
AcDbEntity
  8
0
  6
Durchgehend
 62
     7
100
AcDbText
 10
1130.974013044149
 20
7.559729682074653
 30
0.0
 40
4.05692884657118
  1
1
 41
1.029
  7
_TCW_TXTSTY_2F
 72
     1
 11
1132.59375
 21
9.588194105360243
 31
0.0
100
AcDbText
 73
     2
  0
TEXT
  5
5EF
102
{ACAD_REACTORS
330
626
102
}
330
15C
100
AcDbEntity
  8
0
  6
Durchgehend
 62
     7
100
AcDbText
 10
7.779521387030707
 20
790.1847296820746
 30
0.0
 40
4.05692884657118
  1
L
 41
1.093
  7
_TCW_TXTSTY_27
 72
     1
 11
9.5
 21
792.2131941053602
 31
0.0
100
AcDbText
 73
     2
  0
TEXT
  5
5F0
102
{ACAD_REACTORS
330
626
102
}
330
15C
100
AcDbEntity
  8
0
  6
Durchgehend
 62
     7
100
AcDbText
 10
7.466085092809042
 20
718.4347296820746
 30
0.0
 40
4.05692884657118
  1
K
 41
1.077
  7
_TCW_TXTSTY_28
 72
     1
 11
9.5
 21
720.4631941053602
 31
0.0
100
AcDbText
 73
     2
  0
TEXT
  5
5F1
102
{ACAD_REACTORS
330
626
102
}
330
15C
100
AcDbEntity
  8
0
  6
Durchgehend
 62
     7
100
AcDbText
 10
7.951040224806044
 20
651.6847296820746
 30
0.0
 40
4.05692884657118
  1
J
 41
1.094
  7
_TCW_TXTSTY_27
 72
     1
 11
9.5
 21
653.7131941053602
 31
0.0
100
AcDbText
 73
     2
  0
TEXT
  5
5F2
102
{ACAD_REACTORS
330
626
102
}
330
15C
100
AcDbEntity
  8
0
  6
Durchgehend
 62
     7
100
AcDbText
 10
8.523278152472601
 20
584.9347296820746
 30
0.0
 40
4.05692884657118
  1
I
 41
1.241
  7
_TCW_TXTSTY_29
 72
     1
 11
9.5
 21
586.9631941053602
 31
0.0
100
AcDbText
 73
     2
  0
TEXT
  5
5F3
102
{ACAD_REACTORS
330
626
102
}
330
15C
100
AcDbEntity
  8
0
  6
Durchgehend
 62
     7
100
AcDbText
 10
7.203810728271485
 20
518.1847296820746
 30
0.0
 40
4.05692884657118
  1
H
 41
1.123
  7
_TCW_TXTSTY_5
 72
     1
 11
9.5
 21
520.2131941053602
 31
0.0
100
AcDbText
 73
     2
  0
TEXT
  5
5F4
102
{ACAD_REACTORS
330
626
102
}
330
15C
100
AcDbEntity
  8
0
  6
Durchgehend
 62
     7
100
AcDbText
 10
7.120854647216797
 20
451.4347296820746
 30
0.0
 40
4.05692884657118
  1
G
 41
1.08
  7
_TCW_TXTSTY_B
 72
     1
 11
9.5
 21
453.4631941053602
 31
0.0
100
AcDbText
 73
     2
  0
TEXT
  5
5F5
102
{ACAD_REACTORS
330
626
102
}
330
15C
100
AcDbEntity
  8
0
  6
Durchgehend
 62
     7
100
AcDbText
 10
7.648600236223008
 20
384.6847296820746
 30
0.0
 40
4.05692884657118
  1
F
 41
1.07
  7
_TCW_TXTSTY_28
 72
     1
 11
9.5
 21
386.7131941053602
 31
0.0
100
AcDbText
 73
     2
  0
TEXT
  5
5F6
102
{ACAD_REACTORS
330
626
102
}
330
15C
100
AcDbEntity
  8
0
  6
Durchgehend
 62
     7
100
AcDbText
 10
7.483081596211751
 20
317.9347296820746
 30
0.0
 40
4.05692884657118
  1
E
 41
1.068
  7
_TCW_TXTSTY_2A
 72
     1
 11
9.5
 21
319.9631941053602
 31
0.0
100
AcDbText
 73
     2
  0
TEXT
  5
5F7
102
{ACAD_REACTORS
330
626
102
}
330
15C
100
AcDbEntity
  8
0
  6
Durchgehend
 62
     7
100
AcDbText
 10
7.320358180175781
 20
251.1847296820746
 30
0.0
 40
4.05692884657118
  1
D
 41
1.066
  7
_TCW_TXTSTY_2A
 72
     1
 11
9.5
 21
253.2131941053602
 31
0.0
100
AcDbText
 73
     2
  0
TEXT
  5
5F8
102
{ACAD_REACTORS
330
626
102
}
330
15C
100
AcDbEntity
  8
0
  6
Durchgehend
 62
     7
100
AcDbText
 10
7.457342736633301
 20
184.4347203572591
 30
0.0
 40
4.05694834391276
  1
C
 41
0.999
  7
_TCW_TXTSTY_2B
 72
     1
 11
9.5
 21
186.4631945292155
 31
0.0
100
AcDbText
 73
     2
  0
TEXT
  5
5F9
102
{ACAD_REACTORS
330
626
102
}
330
15C
100
AcDbEntity
  8
0
  6
Durchgehend
 62
     7
100
AcDbText
 10
7.466075317943574
 20
117.6847203572591
 30
0.0
 40
4.05694834391276
  1
B
 41
1.077
  7
_TCW_TXTSTY_2C
 72
     1
 11
9.5
 21
119.7131945292155
 31
0.0
100
AcDbText
 73
     2
  0
TEXT
  5
5FA
102
{ACAD_REACTORS
330
626
102
}
330
15C
100
AcDbEntity
  8
0
  6
Durchgehend
 62
     7
100
AcDbText
 10
7.615549758381314
 20
50.934722688463
 30
0.0
 40
4.056943469577365
  1
A
  7
_TCW_TXTSTY_26
 72
     1
 11
9.5
 21
52.96319442325168
 31
0.0
100
AcDbText
 73
     2
  0
TEXT
  5
5FB
102
{ACAD_REACTORS
330
626
102
}
330
15C
100
AcDbEntity
  8
0
  6
Durchgehend
 62
     7
100
AcDbText
 10
47.21085056328668
 20
828.5597296820746
 30
0.0
 40
4.05692884657118
  1
16
 41
1.015
  7
_TCW_TXTSTY_2D
 72
     1
 11
50.40625
 21
830.5881941053602
 31
0.0
100
AcDbText
 73
     2
  0
TEXT
  5
5FC
102
{ACAD_REACTORS
330
626
102
}
330
15C
100
AcDbEntity
  8
0
  6
Durchgehend
 62
     7
100
AcDbText
 10
124.0233505632867
 20
828.5597296820746
 30
0.0
 40
4.05692884657118
  1
15
 41
1.015
  7
_TCW_TXTSTY_2D
 72
     1
 11
127.21875
 21
830.5881941053602
 31
0.0
100
AcDbText
 73
     2
  0
TEXT
  5
5FD
102
{ACAD_REACTORS
330
626
102
}
330
15C
100
AcDbEntity
  8
0
  6
Durchgehend
 62
     7
100
AcDbText
 10
195.8358505632867
 20
828.5597296820746
 30
0.0
 40
4.05692884657118
  1
14
 41
1.015
  7
_TCW_TXTSTY_2D
 72
     1
 11
199.03125
 21
830.5881941053602
 31
0.0
100
AcDbText
 73
     2
  0
TEXT
  5
5FE
102
{ACAD_REACTORS
330
626
102
}
330
15C
100
AcDbEntity
  8
0
  6
Durchgehend
 62
     7
100
AcDbText
 10
267.6483505632867
 20
828.5597296820746
 30
0.0
 40
4.05692884657118
  1
13
 41
1.015
  7
_TCW_TXTSTY_2D
 72
     1
 11
270.84375
 21
830.5881941053602
 31
0.0
100
AcDbText
 73
     2
  0
TEXT
  5
5FF
102
{ACAD_REACTORS
330
626
102
}
330
15C
100
AcDbEntity
  8
0
  6
Durchgehend
 62
     7
100
AcDbText
 10
339.4608505632867
 20
828.5597296820746
 30
0.0
 40
4.05692884657118
  1
12
 41
1.015
  7
_TCW_TXTSTY_2D
 72
     1
 11
342.65625
 21
830.5881941053602
 31
0.0
100
AcDbText
 73
     2
  0
TEXT
  5
600
102
{ACAD_REACTORS
330
626
102
}
330
15C
100
AcDbEntity
  8
0
  6
Durchgehend
 62
     7
100
AcDbText
 10
411.2733505632867
 20
828.5597296820746
 30
0.0
 40
4.05692884657118
  1
11
 41
1.015
  7
_TCW_TXTSTY_2D
 72
     1
 11
414.46875
 21
830.5881941053602
 31
0.0
100
AcDbText
 73
     2
  0
TEXT
  5
601
102
{ACAD_REACTORS
330
626
102
}
330
15C
100
AcDbEntity
  8
0
  6
Durchgehend
 62
     7
100
AcDbText
 10
483.0858505632867
 20
828.5597296820746
 30
0.0
 40
4.05692884657118
  1
10
 41
1.015
  7
_TCW_TXTSTY_2D
 72
     1
 11
486.28125
 21
830.5881941053602
 31
0.0
100
AcDbText
 73
     2
  0
TEXT
  5
602
102
{ACAD_REACTORS
330
626
102
}
330
15C
100
AcDbEntity
  8
0
  6
Durchgehend
 62
     7
100
AcDbText
 10
556.5196616075303
 20
828.5597296820746
 30
0.0
 40
4.05692884657118
  1
9
  7
_TCW_TXTSTY_2E
 72
     1
 11
558.09375
 21
830.5881941053602
 31
0.0
100
AcDbText
 73
     2
  0
TEXT
  5
603
102
{ACAD_REACTORS
330
626
102
}
330
15C
100
AcDbEntity
  8
0
  6
Durchgehend
 62
     7
100
AcDbText
 10
628.3321616075303
 20
828.5597296820746
 30
0.0
 40
4.05692884657118
  1
8
  7
_TCW_TXTSTY_2E
 72
     1
 11
629.90625
 21
830.5881941053602
 31
0.0
100
AcDbText
 73
     2
  0
TEXT
  5
604
102
{ACAD_REACTORS
330
626
102
}
330
15C
100
AcDbEntity
  8
0
  6
Durchgehend
 62
     7
100
AcDbText
 10
700.1446616075303
 20
828.5597296820746
 30
0.0
 40
4.05692884657118
  1
7
  7
_TCW_TXTSTY_2E
 72
     1
 11
701.71875
 21
830.5881941053602
 31
0.0
100
AcDbText
 73
     2
  0
TEXT
  5
605
102
{ACAD_REACTORS
330
626
102
}
330
15C
100
AcDbEntity
  8
0
  6
Durchgehend
 62
     7
100
AcDbText
 10
771.9571616075303
 20
828.5597296820746
 30
0.0
 40
4.05692884657118
  1
6
  7
_TCW_TXTSTY_2E
 72
     1
 11
773.53125
 21
830.5881941053602
 31
0.0
100
AcDbText
 73
     2
  0
TEXT
  5
606
102
{ACAD_REACTORS
330
626
102
}
330
15C
100
AcDbEntity
  8
0
  6
Durchgehend
 62
     7
100
AcDbText
 10
843.7696616075303
 20
828.5597296820746
 30
0.0
 40
4.05692884657118
  1
5
  7
_TCW_TXTSTY_2E
 72
     1
 11
845.34375
 21
830.5881941053602
 31
0.0
100
AcDbText
 73
     2
  0
TEXT
  5
607
102
{ACAD_REACTORS
330
626
102
}
330
15C
100
AcDbEntity
  8
0
  6
Durchgehend
 62
     7
100
AcDbText
 10
915.5821616075303
 20
828.5597296820746
 30
0.0
 40
4.05692884657118
  1
4
  7
_TCW_TXTSTY_2E
 72
     1
 11
917.15625
 21
830.5881941053602
 31
0.0
100
AcDbText
 73
     2
  0
TEXT
  5
608
102
{ACAD_REACTORS
330
626
102
}
330
15C
100
AcDbEntity
  8
0
  6
Durchgehend
 62
     7
100
AcDbText
 10
987.3946616075303
 20
828.5597296820746
 30
0.0
 40
4.05692884657118
  1
3
  7
_TCW_TXTSTY_2E
 72
     1
 11
988.96875
 21
830.5881941053602
 31
0.0
100
AcDbText
 73
     2
  0
TEXT
  5
609
102
{ACAD_REACTORS
330
626
102
}
330
15C
100
AcDbEntity
  8
0
  6
Durchgehend
 62
     7
100
AcDbText
 10
1059.20716160753
 20
828.5597296820746
 30
0.0
 40
4.05692884657118
  1
2
  7
_TCW_TXTSTY_2E
 72
     1
 11
1060.78125
 21
830.5881941053602
 31
0.0
100
AcDbText
 73
     2
  0
TEXT
  5
60A
102
{ACAD_REACTORS
330
626
102
}
330
15C
100
AcDbEntity
  8
0
  6
Durchgehend
 62
     7
100
AcDbText
 10
1130.974013044149
 20
828.5597296820746
 30
0.0
 40
4.05692884657118
  1
1
 41
1.029
  7
_TCW_TXTSTY_2F
 72
     1
 11
1132.59375
 21
830.5881941053602
 31
0.0
100
AcDbText
 73
     2
  0
LINE
  5
60B
102
{ACAD_REACTORS
330
626
102
}
330
15C
100
AcDbEntity
  8
0
  6
Continuous
 62
     7
370
     0
100
AcDbLine
 10
19.5
 20
86.25
 30
0.0
 11
-0.5000000000000722
 21
86.25
 31
0.0
  0
LINE
  5
60C
102
{ACAD_REACTORS
330
626
102
}
330
15C
100
AcDbEntity
  8
0
  6
Continuous
 62
     7
370
     0
100
AcDbLine
 10
19.5
 20
153.0
 30
0.0
 11
-0.500000000000064
 21
153.0
 31
0.0
  0
LINE
  5
60D
102
{ACAD_REACTORS
330
626
102
}
330
15C
100
AcDbEntity
  8
0
  6
Continuous
 62
     7
370
     0
100
AcDbLine
 10
19.5
 20
219.75
 30
0.0
 11
-0.5000000000000568
 21
219.75
 31
0.0
  0
LINE
  5
60E
102
{ACAD_REACTORS
330
626
102
}
330
15C
100
AcDbEntity
  8
0
  6
Continuous
 62
     7
370
     0
100
AcDbLine
 10
19.5
 20
286.5
 30
0.0
 11
-0.5000000000000508
 21
286.5
 31
0.0
  0
LINE
  5
60F
102
{ACAD_REACTORS
330
626
102
}
330
15C
100
AcDbEntity
  8
0
  6
Continuous
 62
     7
370
     0
100
AcDbLine
 10
19.5
 20
353.25
 30
0.0
 11
-0.5000000000000426
 21
353.25
 31
0.0
  0
LINE
  5
610
102
{ACAD_REACTORS
330
626
102
}
330
15C
100
AcDbEntity
  8
0
  6
Continuous
 62
     7
370
     0
100
AcDbLine
 10
19.5
 20
486.75
 30
0.0
 11
-0.5000000000000284
 21
486.75
 31
0.0
  0
LINE
  5
611
102
{ACAD_REACTORS
330
626
102
}
330
15C
100
AcDbEntity
  8
0
  6
Continuous
 62
     7
370
     0
100
AcDbLine
 10
19.5
 20
553.5
 30
0.0
 11
-0.5000000000000213
 21
553.5
 31
0.0
  0
LINE
  5
612
102
{ACAD_REACTORS
330
626
102
}
330
15C
100
AcDbEntity
  8
0
  6
Continuous
 62
     7
370
     0
100
AcDbLine
 10
19.5
 20
620.25
 30
0.0
 11
-0.5000000000000153
 21
620.25
 31
0.0
  0
LINE
  5
613
102
{ACAD_REACTORS
330
626
102
}
330
15C
100
AcDbEntity
  8
0
  6
Continuous
 62
     7
370
     0
100
AcDbLine
 10
19.5
 20
687.0
 30
0.0
 11
-0.5000000000000071
 21
687.0
 31
0.0
  0
LINE
  5
614
102
{ACAD_REACTORS
330
626
102
}
102
{ACAD_XDICTIONARY
360
615
102
}
330
15C
100
AcDbEntity
  8
0
  6
Continuous
 62
     7
370
     0
100
AcDbLine
 10
19.5
 20
753.75
 30
0.0
 11
-0.5
 21
753.75
 31
0.0
  0
LINE
  5
617
102
{ACAD_REACTORS
330
626
102
}
330
15C
100
AcDbEntity
  8
0
  6
Continuous
 62
     7
370
     0
100
AcDbLine
 10
1096.6875
 20
820.5
 30
0.0
 11
1096.6875
 21
840.5
 31
0.0
  0
LINE
  5
618
102
{ACAD_REACTORS
330
626
102
}
330
15C
100
AcDbEntity
  8
0
  6
Continuous
 62
     7
370
     0
100
AcDbLine
 10
1024.875
 20
820.5
 30
0.0
 11
1024.875
 21
840.5
 31
0.0
  0
LINE
  5
619
102
{ACAD_REACTORS
330
626
102
}
330
15C
100
AcDbEntity
  8
0
  6
Continuous
 62
     7
370
     0
100
AcDbLine
 10
953.0625
 20
820.5
 30
0.0
 11
953.0625
 21
840.5
 31
0.0
  0
LINE
  5
61A
102
{ACAD_REACTORS
330
626
102
}
330
15C
100
AcDbEntity
  8
0
  6
Continuous
 62
     7
370
     0
100
AcDbLine
 10
881.25
 20
820.5
 30
0.0
 11
881.25
 21
840.5
 31
0.0
  0
LINE
  5
61B
102
{ACAD_REACTORS
330
626
102
}
330
15C
100
AcDbEntity
  8
0
  6
Continuous
 62
     7
370
     0
100
AcDbLine
 10
809.4375
 20
820.5
 30
0.0
 11
809.4375
 21
840.5
 31
0.0
  0
LINE
  5
61C
102
{ACAD_REACTORS
330
626
102
}
330
15C
100
AcDbEntity
  8
0
  6
Continuous
 62
     7
370
     0
100
AcDbLine
 10
737.625
 20
820.5
 30
0.0
 11
737.625
 21
840.5
 31
0.0
  0
LINE
  5
61D
102
{ACAD_REACTORS
330
626
102
}
330
15C
100
AcDbEntity
  8
0
  6
Continuous
 62
     7
370
     0
100
AcDbLine
 10
665.8125
 20
820.5
 30
0.0
 11
665.8125
 21
840.5
 31
0.0
  0
LINE
  5
61E
102
{ACAD_REACTORS
330
626
102
}
330
15C
100
AcDbEntity
  8
0
  6
Continuous
 62
     7
370
     0
100
AcDbLine
 10
522.1875
 20
820.5
 30
0.0
 11
522.1875
 21
840.5
 31
0.0
  0
LINE
  5
61F
102
{ACAD_REACTORS
330
626
102
}
330
15C
100
AcDbEntity
  8
0
  6
Continuous
 62
     7
370
     0
100
AcDbLine
 10
450.375
 20
820.5
 30
0.0
 11
450.375
 21
840.5
 31
0.0
  0
LINE
  5
620
102
{ACAD_REACTORS
330
626
102
}
330
15C
100
AcDbEntity
  8
0
  6
Continuous
 62
     7
370
     0
100
AcDbLine
 10
378.5625
 20
820.5
 30
0.0
 11
378.5625
 21
840.5
 31
0.0
  0
LINE
  5
621
102
{ACAD_REACTORS
330
626
102
}
330
15C
100
AcDbEntity
  8
0
  6
Continuous
 62
     7
370
     0
100
AcDbLine
 10
306.75
 20
820.5
 30
0.0
 11
306.75
 21
840.5
 31
0.0
  0
LINE
  5
622
102
{ACAD_REACTORS
330
626
102
}
330
15C
100
AcDbEntity
  8
0
  6
Continuous
 62
     7
370
     0
100
AcDbLine
 10
234.9375
 20
820.5
 30
0.0
 11
234.9375
 21
840.5
 31
0.0
  0
LINE
  5
623
102
{ACAD_REACTORS
330
626
102
}
330
15C
100
AcDbEntity
  8
0
  6
Continuous
 62
     7
370
     0
100
AcDbLine
 10
163.125
 20
820.5
 30
0.0
 11
163.125
 21
840.5
 31
0.0
  0
LINE
  5
624
102
{ACAD_REACTORS
330
626
102
}
330
15C
100
AcDbEntity
  8
0
  6
Continuous
 62
     7
370
     0
100
AcDbLine
 10
91.3125
 20
820.5
 30
0.0
 11
91.3125
 21
840.5
 31
0.0
  0
LWPOLYLINE
  5
625
102
{ACAD_REACTORS
330
626
102
}
330
15C
100
AcDbEntity
  8
0
  6
Continuous
 62
     7
370
     0
100
AcDbPolyline
 90
       30
 70
     1
 43
0.0
 10
19.5
 20
353.25
 10
19.5
 20
286.5
 10
19.5
 20
219.75
 10
19.5
 20
153.0
 10
19.5
 20
86.25
 10
19.5
 20
19.5
 10
1168.5
 20
19.5
 10
1168.5
 20
820.5
 10
1096.6875
 20
820.5
 10
1024.875
 20
820.5
 10
953.0625
 20
820.5
 10
881.25
 20
820.5
 10
809.4375
 20
820.5
 10
737.625
 20
820.5
 10
665.8125
 20
820.5
 10
594.0
 20
820.5
 10
522.1875
 20
820.5
 10
450.375
 20
820.5
 10
378.5625
 20
820.5
 10
306.75
 20
820.5
 10
234.9375
 20
820.5
 10
163.125
 20
820.5
 10
91.3125
 20
820.5
 10
19.5
 20
820.5
 10
19.5
 20
753.75
 10
19.5
 20
687.0
 10
19.5
 20
620.25
 10
19.5
 20
553.5
 10
19.5
 20
486.75
 10
19.5
 20
420.0
  0
VIEWPORT
  5
629
330
15C
100
AcDbEntity
  8
0
  6
$INVISIBLE
 62
     7
 60
     1
100
AcDbViewport
 10
594.0
 20
420.0
 30
0.0
 40
1149.0
 41
801.0
 68
     2
 69
     2
 12
0.0
 22
0.0
 13
0.0
 23
0.0
 14
0.5
 24
0.5
 15
0.0
 25
0.0
 16
0.0
 26
0.0
 36
1.0
 17
593.7999515533
 27
420.2000155449
 37
-1.0
 42
50.0
 43
0.0
 44
0.0
 45
859.883056640625
 50
0.0
 51
0.0
 72
   100
331
176
331
179
331
17A
331
17D
 90
   557152
  1

281
     0
 71
     1
 74
     0
110
0.0
120
0.0
130
0.0
111
1.0
121
0.0
131
0.0
112
0.0
122
1.0
132
0.0
 79
     0
146
0.0
170
     0
 61
     5
292
     1
282
     1
141
0.0
142
0.0
 63
   256
  0
ENDBLK
  5
15F
330
15C
100
AcDbEntity
  8
0
100
AcDbBlockEnd
  0
BLOCK
  5
1CA
330
1BE
100
AcDbEntity
  8
0
100
AcDbBlockBegin
  2
*D6
 70
     1
 10
0.0
 20
0.0
 30
0.0
  3
*D6
  1

  0
LINE
  5
1BF
330
1BE
100
AcDbEntity
  8
Bemaßungen
  6
ByBlock
 62
     7
370
    -2
100
AcDbLine
 10
-24.2350056630313
 20
12.505
 30
0.0
 11
-51.76387750317188
 21
12.505
 31
0.0
  0
LINE
  5
1C0
330
1BE
100
AcDbEntity
  8
Bemaßungen
  6
ByBlock
 62
     7
370
    -2
100
AcDbLine
 10
-24.2350056630313
 20
0.0000000000000001
 30
0.0
 11
-51.76387750317188
 21
0.0000000000000017
 31
0.0
  0
LINE
  5
1C1
330
1BE
100
AcDbEntity
  8
Bemaßungen
  6
ByBlock
 62
     7
370
    -2
100
AcDbLine
 10
-49.76387750317188
 20
-2.999999999999998
 30
0.0
 11
-71.41853215782653
 21
-2.999999999999998
 31
0.0
  0
LINE
  5
1C2
330
1BE
100
AcDbEntity
  8
Bemaßungen
  6
ByBlock
 62
     7
370
    -2
100
AcDbLine
 10
-49.76387750317188
 20
9.505000000000003
 30
0.0
 11
-49.76387750317188
 21
3.000000000000002
 31
0.0
  0
LINE
  5
1C3
330
1BE
100
AcDbEntity
  8
Bemaßungen
  6
ByBlock
 62
     7
370
    -2
100
AcDbLine
 10
-49.76387750317188
 20
0.0000000000000016
 30
0.0
 11
-49.76387750317188
 21
-2.999999999999998
 31
0.0
  0
SOLID
  5
1C4
330
1BE
100
AcDbEntity
  8
Bemaßungen
 62
     7
100
AcDbTrace
 10
-49.26387750317188
 20
9.505000000000003
 30
0.0
 11
-50.26387750317188
 21
9.505000000000003
 31
0.0
 12
-49.76387750317188
 22
12.505
 32
0.0
 13
-49.76387750317188
 23
12.505
 33
0.0
  0
SOLID
  5
1C5
330
1BE
100
AcDbEntity
  8
Bemaßungen
 62
     7
100
AcDbTrace
 10
-50.26387750317188
 20
3.000000000000002
 30
0.0
 11
-49.26387750317188
 21
3.000000000000002
 31
0.0
 12
-49.76387750317188
 22
0.0000000000000016
 32
0.0
 13
-49.76387750317188
 23
0.0000000000000016
 33
0.0
  0
MTEXT
  5
1C6
330
1BE
100
AcDbEntity
  8
Bemaßungen
 62
     7
100
AcDbMText
 10
-61.59120483049921
 20
0.5300300300300318
 30
0.0
 40
3.0
 41
0.0
 46
0.0
 71
     5
 72
     1
  1
\A1;12.600 mm
 73
     1
 44
1.0
  0
POINT
  5
1C7
330
1BE
100
AcDbEntity
  8
Defpoints
 62
     0
100
AcDbPoint
 10
-23.2350056630313
 20
12.505
 30
0.0
  0
POINT
  5
1C8
330
1BE
100
AcDbEntity
  8
Defpoints
 62
     0
100
AcDbPoint
 10
-23.2350056630313
 20
0.0
 30
0.0
  0
POINT
  5
1C9
330
1BE
100
AcDbEntity
  8
Defpoints
 62
     0
100
AcDbPoint
 10
-49.76387750317188
 20
0.0000000000000016
 30
0.0
  0
ENDBLK
  5
1CB
330
1BE
100
AcDbEntity
  8
0
100
AcDbBlockEnd
  0
BLOCK
  5
1DC
330
1D0
100
AcDbEntity
  8
0
100
AcDbBlockBegin
  2
*D7
 70
     1
 10
0.0
 20
0.0
 30
0.0
  3
*D7
  1

  0
LINE
  5
1D1
330
1D0
100
AcDbEntity
  8
Bemaßungen
  6
ByBlock
 62
     7
370
    -2
100
AcDbLine
 10
-24.2350056630313
 20
-12.505
 30
0.0
 11
-51.76387750317188
 21
-12.505
 31
0.0
  0
LINE
  5
1D2
330
1D0
100
AcDbEntity
  8
Bemaßungen
  6
ByBlock
 62
     7
370
    -2
100
AcDbLine
 10
-24.2350056630313
 20
0.0
 30
0.0
 11
-51.76387750317188
 21
0.0
 31
0.0
  0
LINE
  5
1D3
330
1D0
100
AcDbEntity
  8
Bemaßungen
  6
ByBlock
 62
     7
370
    -2
100
AcDbLine
 10
-49.76387750317188
 20
3.0
 30
0.0
 11
-28.10922284851723
 21
3.0
 31
0.0
  0
LINE
  5
1D4
330
1D0
100
AcDbEntity
  8
Bemaßungen
  6
ByBlock
 62
     7
370
    -2
100
AcDbLine
 10
-49.76387750317188
 20
-9.505
 30
0.0
 11
-49.76387750317188
 21
-3.0
 31
0.0
  0
LINE
  5
1D5
330
1D0
100
AcDbEntity
  8
Bemaßungen
  6
ByBlock
 62
     7
370
    -2
100
AcDbLine
 10
-49.76387750317188
 20
0.0
 30
0.0
 11
-49.76387750317188
 21
3.0
 31
0.0
  0
SOLID
  5
1D6
330
1D0
100
AcDbEntity
  8
Bemaßungen
 62
     7
100
AcDbTrace
 10
-50.26387750317188
 20
-9.505
 30
0.0
 11
-49.26387750317188
 21
-9.505
 31
0.0
 12
-49.76387750317188
 22
-12.505
 32
0.0
 13
-49.76387750317188
 23
-12.505
 33
0.0
  0
SOLID
  5
1D7
330
1D0
100
AcDbEntity
  8
Bemaßungen
 62
     7
100
AcDbTrace
 10
-49.26387750317188
 20
-3.0
 30
0.0
 11
-50.26387750317188
 21
-3.0
 31
0.0
 12
-49.76387750317188
 22
0.0
 32
0.0
 13
-49.76387750317188
 23
0.0
 33
0.0
  0
MTEXT
  5
1D8
330
1D0
100
AcDbEntity
  8
Bemaßungen
 62
     7
100
AcDbMText
 10
-37.93655017584456
 20
6.53003003003003
 30
0.0
 40
3.0
 41
0.0
 46
0.0
 71
     5
 72
     1
  1
\A1;12.600 mm
 73
     1
 44
1.0
  0
POINT
  5
1D9
330
1D0
100
AcDbEntity
  8
Defpoints
 62
     0
100
AcDbPoint
 10
-23.2350056630313
 20
-12.505
 30
0.0
  0
POINT
  5
1DA
330
1D0
100
AcDbEntity
  8
Defpoints
 62
     0
100
AcDbPoint
 10
-23.2350056630313
 20
0.0
 30
0.0
  0
POINT
  5
1DB
330
1D0
100
AcDbEntity
  8
Defpoints
 62
     0
100
AcDbPoint
 10
-49.76387750317188
 20
0.0
 30
0.0
  0
ENDBLK
  5
1DD
330
1D0
100
AcDbEntity
  8
0
100
AcDbBlockEnd
  0
ENDSEC
  0
SECTION
  2
ENTITIES
  0
LINE
  5
192
102
{ACAD_XDICTIONARY
360
193
102
}
330
1F
100
AcDbEntity
  8
Hilfslinie
100
AcDbLine
 10
3.5
 20
-12.505
 30
0.0
 11
0.0814296317654604
 21
12.51612551575965
 31
0.0
  0
LINE
  5
195
102
{ACAD_XDICTIONARY
360
196
102
}
330
1F
100
AcDbEntity
  8
Hilfslinie
100
AcDbLine
 10
3.500000000000001
 20
-12.50500000000001
 30
0.0
 11
6.91857036823454
 21
12.51612551575965
 31
0.0
  0
LINE
  5
198
102
{ACAD_XDICTIONARY
360
199
102
}
330
1F
100
AcDbEntity
  8
Hilfslinie
100
AcDbLine
 10
10.50000000000001
 20
-12.505
 30
0.0
 11
6.47739379673957
 21
16.93717139641087
 31
0.0
  0
LINE
  5
19B
102
{ACAD_XDICTIONARY
360
19C
102
}
330
1F
100
AcDbEntity
  8
Hilfslinie
100
AcDbLine
 10
10.50000000000001
 20
-12.505
 30
0.0
 11
14.71764377748041
 21
18.36468614649259
 31
0.0
  0
ARC
  5
19E
102
{ACAD_XDICTIONARY
360
19F
102
}
330
1F
100
AcDbEntity
  8
Kontur
100
AcDbCircle
 10
3.500000000000001
 20
-0.6000000000000001
 30
0.0
 40
1.65
100
AcDbArc
 50
180.0
 51
352.0365967983233
  0
ARC
  5
1A1
102
{ACAD_XDICTIONARY
360
1A2
102
}
330
1F
100
AcDbEntity
  8
Kontur
100
AcDbCircle
 10
7.000000000000004
 20
0.6000000000000001
 30
0.0
 40
1.65
100
AcDbArc
 50
9.012261327936624
 51
172.0365967983233
  0
LINE
  5
1A4
102
{ACAD_XDICTIONARY
360
1A5
102
}
330
1F
100
AcDbEntity
  8
Kontur
100
AcDbLine
 10
5.134088607648168
 20
-0.8285922622366665
 30
0.0
 11
5.365911411806644
 21
0.8285924013090419
 31
0.0
  0
ARC
  5
1A7
102
{ACAD_XDICTIONARY
360
1A8
102
}
330
1F
100
AcDbEntity
  8
Kontur
100
AcDbCircle
 10
17.50000000000001
 20
-0.5999999999999988
 30
0.0
 40
1.649999999999999
100
AcDbArc
 50
187.9634032016767
 51
0.0
  0
ARC
  5
1AA
102
{ACAD_XDICTIONARY
360
1AB
102
}
330
1F
100
AcDbEntity
  8
Kontur
100
AcDbCircle
 10
14.00000000000001
 20
0.600000000000001
 30
0.0
 40
1.65
100
AcDbArc
 50
7.96340320167671
 51
170.9877386720634
  0
LINE
  5
1AD
102
{ACAD_XDICTIONARY
360
1AE
102
}
330
1F
100
AcDbEntity
  8
Kontur
100
AcDbLine
 10
15.86591139235185
 20
-0.8285922622366654
 30
0.0
 11
15.63408858819337
 21
0.828592401309043
 31
0.0
  0
ARC
  5
1B0
102
{ACAD_XDICTIONARY
360
1B1
102
}
330
1F
100
AcDbEntity
  8
Kontur
100
AcDbCircle
 10
10.50000000000001
 20
-0.5999999999999996
 30
0.0
 40
1.649999999999999
100
AcDbArc
 50
200.1691038667744
 51
339.8308961332255
  0
LINE
  5
1B3
102
{ACAD_XDICTIONARY
360
1B4
102
}
330
1F
100
AcDbEntity
  8
Kontur
100
AcDbLine
 10
8.951179510334619
 20
-1.168906926300483
 30
0.0
 11
8.629630487515865
 21
0.8584656150415748
 31
0.0
  0
LINE
  5
1B6
102
{ACAD_XDICTIONARY
360
1B7
102
}
330
1F
100
AcDbEntity
  8
Kontur
100
AcDbLine
 10
12.04882048966539
 20
-1.168906926300489
 30
0.0
 11
12.37036951248415
 21
0.8584656150415761
 31
0.0
  0
DIMENSION
  5
1B9
102
{ACAD_REACTORS
330
1BC
102
}
102
{ACAD_XDICTIONARY
360
1BA
102
}
330
1F
100
AcDbEntity
  8
Bemaßungen
100
AcDbDimension
  2
*D6
 10
-49.76387750317188
 20
0.0000000000000016
 30
0.0
 11
-61.59120483049921
 21
0.5300300300300318
 31
0.0
 70
    32
  1
<>
 71
     5
 42
12.505
 73
     0
 74
     0
 75
     0
  3
Standard
100
AcDbAlignedDimension
 13
-23.2350056630313
 23
12.505
 33
0.0
 14
-23.2350056630313
 24
0.0
 34
0.0
 50
90.0
100
AcDbRotatedDimension
1001
ACAD
1000
DSTYLE
1002
{
1070
     4
1000
 mm
1070
     3
1000
 mm
1070
    45
1040
0.2
1070
   272
1070
     4
1070
    74
1070
     1
1070
    78
1070
     0
1002
}
  0
DIMENSION
  5
1CC
102
{ACAD_REACTORS
330
1CF
102
}
102
{ACAD_XDICTIONARY
360
1CD
102
}
330
1F
100
AcDbEntity
  8
Bemaßungen
100
AcDbDimension
  2
*D7
 10
-49.76387750317188
 20
0.0
 30
0.0
 11
-37.93655017584456
 21
6.53003003003003
 31
0.0
 70
    33
  1
<>
 71
     5
 42
12.505
 73
     0
 74
     0
 75
     0
  3
Standard
100
AcDbAlignedDimension
 13
-23.2350056630313
 23
-12.505
 33
0.0
 14
-23.2350056630313
 24
0.0
 34
0.0
1001
ACAD
1000
DSTYLE
1002
{
1070
     4
1000
 mm
1070
     3
1000
 mm
1070
    45
1040
0.2
1070
   272
1070
     4
1070
    74
1070
     1
1070
    78
1070
     0
1002
}
  0
LINE
  5
1DE
102
{ACAD_XDICTIONARY
360
1DF
102
}
330
1F
100
AcDbEntity
  8
Hilfslinie
100
AcDbLine
 10
-23.2350056630313
 20
12.505
 30
0.0
 11
100.6698835611041
 21
12.505
 31
0.0
  0
LINE
  5
1E1
102
{ACAD_XDICTIONARY
360
1E2
102
}
330
1F
100
AcDbEntity
  8
Hilfslinie
100
AcDbLine
 10
-23.2350056630313
 20
0.0
 30
0.0
 11
100.6698835611041
 21
0.0
 31
0.0
  0
LINE
  5
1E4
102
{ACAD_XDICTIONARY
360
1E5
102
}
330
1F
100
AcDbEntity
  8
Hilfslinie
100
AcDbLine
 10
-23.2350056630313
 20
-2.25
 30
0.0
 11
100.6698835611041
 21
-2.25
 31
0.0
  0
LINE
  5
1E7
102
{ACAD_XDICTIONARY
360
1E8
102
}
330
1F
100
AcDbEntity
  8
Hilfslinie
100
AcDbLine
 10
-23.2350056630313
 20
2.25
 30
0.0
 11
100.6698835611041
 21
2.25
 31
0.0
  0
LINE
  5
1EA
102
{ACAD_XDICTIONARY
360
1EB
102
}
330
1F
100
AcDbEntity
  8
Hilfslinie
100
AcDbLine
 10
-23.2350056630313
 20
-12.505
 30
0.0
 11
100.6698835611041
 21
-12.50500000000001
 31
0.0
  0
LINE
  5
1ED
102
{ACAD_XDICTIONARY
360
1EE
102
}
330
1F
100
AcDbEntity
  8
Hilfslinie
100
AcDbLine
 10
14.0
 20
20.08515785149278
 30
0.0
 11
14.0
 21
-19.9279593383127
 31
0.0
  0
LINE
  5
1F0
102
{ACAD_XDICTIONARY
360
1F1
102
}
330
1F
100
AcDbEntity
  8
Hilfslinie
100
AcDbLine
 10
10.5
 20
20.08515785149278
 30
0.0
 11
10.5
 21
-19.9279593383127
 31
0.0
  0
LINE
  5
1F3
102
{ACAD_XDICTIONARY
360
1F4
102
}
330
1F
100
AcDbEntity
  8
Hilfslinie
100
AcDbLine
 10
6.999999999999998
 20
20.08515785149278
 30
0.0
 11
7.000000000000002
 21
-19.9279593383127
 31
0.0
  0
LINE
  5
1F6
102
{ACAD_XDICTIONARY
360
1F7
102
}
330
1F
100
AcDbEntity
  8
Hilfslinie
100
AcDbLine
 10
3.5
 20
20.08515785149278
 30
0.0
 11
3.500000000000003
 21
-19.9279593383127
 31
0.0
  0
LINE
  5
1F9
102
{ACAD_XDICTIONARY
360
1FA
102
}
330
1F
100
AcDbEntity
  8
Hilfslinie
100
AcDbLine
 10
-0.0000000000000009
 20
20.08515785149278
 30
0.0
 11
0.0000000000000018
 21
-19.9279593383127
 31
0.0
  0
VIEWPORT
  5
26F
330
1B
100
AcDbEntity
 67
     1
  8
0
100
AcDbViewport
 10
210.0
 20
148.5
 30
0.0
 40
870.7950020320759
 41
342.7671163377255
 68
     1
 69
     1
 12
210.0
 22
148.5
 13
0.0
 23
0.0
 14
5.0
 24
5.0
 15
5.0
 25
5.0
 16
0.0
 26
0.0
 36
1.0
 17
0.0
 27
0.0
 37
0.0
 42
50.0
 43
0.0
 44
0.0
 45
342.7671163377255
 50
0.0
 51
0.0
 72
  1000
 90
    32800
  1

281
     0
 71
     1
 74
     0
110
0.0
120
0.0
130
0.0
111
1.0
121
0.0
131
0.0
112
0.0
122
1.0
132
0.0
 79
     0
146
0.0
170
     0
 61
     5
292
     1
282
     1
141
0.0
142
0.0
 63
   256
  0
TEXT
  5
271
102
{ACAD_REACTORS
330
317
102
}
330
1B
100
AcDbEntity
 67
     1
  8
0
  6
Durchgehend
 62
     7
100
AcDbText
 10
304.6817002071523
 20
17.92788675096297
 30
0.0
 40
4.056943469577365
  1
A3
 41
1.053
  7
_TCW_TXTSTY_4
 72
     1
 11
308.3235473632812
 21
19.95635848575165
 31
0.0
100
AcDbText
 73
     2
  0
TEXT
  5
273
102
{ACAD_REACTORS
330
317
102
}
330
1B
100
AcDbEntity
 67
     1
  8
0
  6
Durchgehend
 62
     7
100
AcDbText
 10
412.7058554204102
 20
254.1847296820746
 30
0.0
 40
4.05692884657118
  1
D
 41
1.122
  7
_TCW_TXTSTY_5
 72
     1
 11
415.0
 21
256.2131941053602
 31
0.0
100
AcDbText
 73
     2
  0
TEXT
  5
275
102
{ACAD_REACTORS
330
317
102
}
330
1B
100
AcDbEntity
 67
     1
  8
0
  6
Durchgehend
 62
     7
100
AcDbText
 10
412.8489735324707
 20
182.4347203572591
 30
0.0
 40
4.05694834391276
  1
C
 41
1.052
  7
_TCW_TXTSTY_6
 72
     1
 11
415.0
 21
184.4631945292155
 31
0.0
100
AcDbText
 73
     2
  0
TEXT
  5
277
102
{ACAD_REACTORS
330
317
102
}
330
1B
100
AcDbEntity
 67
     1
  8
0
  6
Durchgehend
 62
     7
100
AcDbText
 10
412.8584302790604
 20
110.6847203572591
 30
0.0
 40
4.05694834391276
  1
B
 41
1.134
  7
_TCW_TXTSTY_7
 72
     1
 11
415.0
 21
112.7131945292155
 31
0.0
100
AcDbText
 73
     2
  0
TEXT
  5
278
102
{ACAD_REACTORS
330
317
102
}
330
1B
100
AcDbEntity
 67
     1
  8
0
  6
Durchgehend
 62
     7
100
AcDbText
 10
413.0175583458171
 20
38.93472268846297
 30
0.0
 40
4.056943469577365
  1
A
 41
1.052
  7
_TCW_TXTSTY_4
 72
     1
 11
415.0
 21
40.96319442325165
 31
0.0
100
AcDbText
 73
     2
  0
TEXT
  5
279
102
{ACAD_REACTORS
330
317
102
}
330
1B
100
AcDbEntity
 67
     1
  8
0
  6
Durchgehend
 62
     7
100
AcDbText
 10
2.705855420410156
 20
254.1847296820746
 30
0.0
 40
4.05692884657118
  1
D
 41
1.122
  7
_TCW_TXTSTY_5
 72
     1
 11
5.0
 21
256.2131941053602
 31
0.0
100
AcDbText
 73
     2
  0
TEXT
  5
27A
102
{ACAD_REACTORS
330
317
102
}
330
1B
100
AcDbEntity
 67
     1
  8
0
  6
Durchgehend
 62
     7
100
AcDbText
 10
2.848973532470704
 20
182.4347203572591
 30
0.0
 40
4.05694834391276
  1
C
 41
1.052
  7
_TCW_TXTSTY_6
 72
     1
 11
5.0
 21
184.4631945292155
 31
0.0
100
AcDbText
 73
     2
  0
TEXT
  5
27B
102
{ACAD_REACTORS
330
317
102
}
330
1B
100
AcDbEntity
 67
     1
  8
0
  6
Durchgehend
 62
     7
100
AcDbText
 10
2.858430279060364
 20
110.6847203572591
 30
0.0
 40
4.05694834391276
  1
B
 41
1.134
  7
_TCW_TXTSTY_7
 72
     1
 11
5.0
 21
112.7131945292155
 31
0.0
100
AcDbText
 73
     2
  0
TEXT
  5
27C
102
{ACAD_REACTORS
330
317
102
}
330
1B
100
AcDbEntity
 67
     1
  8
0
  6
Durchgehend
 62
     7
100
AcDbText
 10
3.017558345817142
 20
38.93472268846297
 30
0.0
 40
4.056943469577365
  1
A
 41
1.052
  7
_TCW_TXTSTY_4
 72
     1
 11
5.0
 21
40.96319442325165
 31
0.0
100
AcDbText
 73
     2
  0
TEXT
  5
27E
102
{ACAD_REACTORS
330
317
102
}
330
1B
100
AcDbEntity
 67
     1
  8
0
  6
Durchgehend
 62
     7
100
AcDbText
 10
37.50914638865852
 20
3.059722105661999
 30
0.0
 40
4.056944688161214
  1
6
 41
1.053
  7
_TCW_TXTSTY_8
 72
     1
 11
39.16666793823242
 21
5.088194449742606
 31
0.0
100
AcDbText
 73
     2
  0
TEXT
  5
27F
102
{ACAD_REACTORS
330
317
102
}
330
1B
100
AcDbEntity
 67
     1
  8
0
  6
Durchgehend
 62
     7
100
AcDbText
 10
105.8424784504261
 20
3.059722105661999
 30
0.0
 40
4.056944688161214
  1
5
 41
1.053
  7
_TCW_TXTSTY_8
 72
     1
 11
107.5
 21
5.088194449742606
 31
0.0
100
AcDbText
 73
     2
  0
TEXT
  5
280
102
{ACAD_REACTORS
330
317
102
}
330
1B
100
AcDbEntity
 67
     1
  8
0
  6
Durchgehend
 62
     7
100
AcDbText
 10
174.1758066974964
 20
3.059722105661999
 30
0.0
 40
4.056944688161214
  1
4
 41
1.053
  7
_TCW_TXTSTY_8
 72
     1
 11
175.8333282470703
 21
5.088194449742606
 31
0.0
100
AcDbText
 73
     2
  0
TEXT
  5
281
102
{ACAD_REACTORS
330
317
102
}
330
1B
100
AcDbEntity
 67
     1
  8
0
  6
Durchgehend
 62
     7
100
AcDbText
 10
242.5091502033558
 20
3.059722105661999
 30
0.0
 40
4.056944688161214
  1
3
 41
1.053
  7
_TCW_TXTSTY_8
 72
     1
 11
244.1666717529297
 21
5.088194449742606
 31
0.0
100
AcDbText
 73
     2
  0
TEXT
  5
282
102
{ACAD_REACTORS
330
317
102
}
330
1B
100
AcDbEntity
 67
     1
  8
0
  6
Durchgehend
 62
     7
100
AcDbText
 10
310.8424784504261
 20
3.059722105661999
 30
0.0
 40
4.056944688161214
  1
2
 41
1.053
  7
_TCW_TXTSTY_8
 72
     1
 11
312.5
 21
5.088194449742606
 31
0.0
100
AcDbText
 73
     2
  0
TEXT
  5
284
102
{ACAD_REACTORS
330
317
102
}
330
1B
100
AcDbEntity
 67
     1
  8
0
  6
Durchgehend
 62
     7
100
AcDbText
 10
379.1285991201153
 20
3.059722105661999
 30
0.0
 40
4.056944688161214
  1
1
 41
1.083
  7
_TCW_TXTSTY_9
 72
     1
 11
380.8333435058594
 21
5.088194449742606
 31
0.0
100
AcDbText
 73
     2
  0
TEXT
  5
286
102
{ACAD_REACTORS
330
317
102
}
330
1B
100
AcDbEntity
 67
     1
  8
0
  6
Durchgehend
 62
     7
100
AcDbText
 10
37.50915286096191
 20
290.0597296820746
 30
0.0
 40
4.05692884657118
  1
6
 41
1.053
  7
_TCW_TXTSTY_A
 72
     1
 11
39.16666793823242
 21
292.0881941053602
 31
0.0
100
AcDbText
 73
     2
  0
TEXT
  5
287
102
{ACAD_REACTORS
330
317
102
}
330
1B
100
AcDbEntity
 67
     1
  8
0
  6
Durchgehend
 62
     7
100
AcDbText
 10
105.8424849227295
 20
290.0597296820746
 30
0.0
 40
4.05692884657118
  1
5
 41
1.053
  7
_TCW_TXTSTY_A
 72
     1
 11
107.5
 21
292.0881941053602
 31
0.0
100
AcDbText
 73
     2
  0
TEXT
  5
288
102
{ACAD_REACTORS
330
317
102
}
330
1B
100
AcDbEntity
 67
     1
  8
0
  6
Durchgehend
 62
     7
100
AcDbText
 10
174.1758131697998
 20
290.0597296820746
 30
0.0
 40
4.05692884657118
  1
4
 41
1.053
  7
_TCW_TXTSTY_A
 72
     1
 11
175.8333282470703
 21
292.0881941053602
 31
0.0
100
AcDbText
 73
     2
  0
TEXT
  5
289
102
{ACAD_REACTORS
330
317
102
}
330
1B
100
AcDbEntity
 67
     1
  8
0
  6
Durchgehend
 62
     7
100
AcDbText
 10
242.5091566756592
 20
290.0597296820746
 30
0.0
 40
4.05692884657118
  1
3
 41
1.053
  7
_TCW_TXTSTY_A
 72
     1
 11
244.1666717529297
 21
292.0881941053602
 31
0.0
100
AcDbText
 73
     2
  0
TEXT
  5
28A
102
{ACAD_REACTORS
330
317
102
}
330
1B
100
AcDbEntity
 67
     1
  8
0
  6
Durchgehend
 62
     7
100
AcDbText
 10
310.8424849227295
 20
290.0597296820746
 30
0.0
 40
4.05692884657118
  1
2
 41
1.053
  7
_TCW_TXTSTY_A
 72
     1
 11
312.5
 21
292.0881941053602
 31
0.0
100
AcDbText
 73
     2
  0
TEXT
  5
28C
102
{ACAD_REACTORS
330
317
102
}
330
1B
100
AcDbEntity
 67
     1
  8
0
  6
Durchgehend
 62
     7
100
AcDbText
 10
379.1286057768148
 20
290.0597296820746
 30
0.0
 40
4.05692884657118
  1
1
 41
1.083
  7
_TCW_TXTSTY_B
 72
     1
 11
380.8333435058594
 21
292.0881941053602
 31
0.0
100
AcDbText
 73
     2
  0
LINE
  5
28D
102
{ACAD_REACTORS
330
317
102
}
102
{ACAD_XDICTIONARY
360
28E
102
}
330
1B
100
AcDbEntity
 67
     1
  8
0
  6
Continuous
 62
     7
370
     0
100
AcDbLine
 10
420.0
 20
79.24999999999997
 30
0.0
 11
410.0
 21
79.24999999999997
 31
0.0
  0
LINE
  5
290
102
{ACAD_REACTORS
330
317
102
}
102
{ACAD_XDICTIONARY
360
291
102
}
330
1B
100
AcDbEntity
 67
     1
  8
0
  6
Continuous
 62
     7
370
     0
100
AcDbLine
 10
420.0
 20
217.75
 30
0.0
 11
410.0
 21
217.75
 31
0.0
  0
LINE
  5
293
102
{ACAD_REACTORS
330
317
102
}
102
{ACAD_XDICTIONARY
360
294
102
}
330
1B
100
AcDbEntity
 67
     1
  8
0
  6
Continuous
 62
     7
370
     0
100
AcDbLine
 10
346.6666564941406
 20
-0.0000000000000444
 30
0.0
 11
346.6666564941406
 21
9.999999999999972
 31
0.0
  0
LINE
  5
296
102
{ACAD_REACTORS
330
317
102
}
102
{ACAD_XDICTIONARY
360
297
102
}
330
1B
100
AcDbEntity
 67
     1
  8
0
  6
Continuous
 62
     7
370
     0
100
AcDbLine
 10
278.3333435058594
 20
-0.0000000000000409
 30
0.0
 11
278.3333435058594
 21
9.999999999999972
 31
0.0
  0
LINE
  5
299
102
{ACAD_REACTORS
330
317
102
}
102
{ACAD_XDICTIONARY
360
29A
102
}
330
1B
100
AcDbEntity
 67
     1
  8
0
  6
Continuous
 62
     7
370
     0
100
AcDbLine
 10
141.6666717529297
 20
-0.000000000000032
 30
0.0
 11
141.6666717529297
 21
9.999999999999972
 31
0.0
  0
LINE
  5
29C
102
{ACAD_REACTORS
330
317
102
}
102
{ACAD_XDICTIONARY
360
29D
102
}
330
1B
100
AcDbEntity
 67
     1
  8
0
  6
Continuous
 62
     7
370
     0
100
AcDbLine
 10
76.66666412353516
 20
-0.0000000000000284
 30
0.0
 11
76.66666412353516
 21
9.999999999999972
 31
0.0
  0
LINE
  5
29F
102
{ACAD_REACTORS
330
317
102
}
102
{ACAD_XDICTIONARY
360
2A0
102
}
330
1B
100
AcDbEntity
 67
     1
  8
0
  6
Continuous
 62
     7
370
     0
100
AcDbLine
 10
346.6666564941406
 20
287.0
 30
0.0
 11
346.6666564941406
 21
297.0
 31
0.0
  0
LINE
  5
2A2
102
{ACAD_REACTORS
330
317
102
}
102
{ACAD_XDICTIONARY
360
2A3
102
}
330
1B
100
AcDbEntity
 67
     1
  8
0
  6
Continuous
 62
     7
370
     0
100
AcDbLine
 10
278.3333435058594
 20
287.0
 30
0.0
 11
278.3333435058594
 21
297.0
 31
0.0
  0
LINE
  5
2A5
102
{ACAD_REACTORS
330
317
102
}
102
{ACAD_XDICTIONARY
360
2A6
102
}
330
1B
100
AcDbEntity
 67
     1
  8
0
  6
Continuous
 62
     7
370
     0
100
AcDbLine
 10
141.6666717529297
 20
287.0
 30
0.0
 11
141.6666717529297
 21
297.0
 31
0.0
  0
LINE
  5
2A8
102
{ACAD_REACTORS
330
317
102
}
102
{ACAD_XDICTIONARY
360
2A9
102
}
330
1B
100
AcDbEntity
 67
     1
  8
0
  6
Continuous
 62
     7
370
     0
100
AcDbLine
 10
10.0
 20
76.74999999999997
 30
0.0
 11
-0.0000000000000178
 21
76.74999999999997
 31
0.0
  0
LINE
  5
2AB
102
{ACAD_REACTORS
330
317
102
}
102
{ACAD_XDICTIONARY
360
2AC
102
}
330
1B
100
AcDbEntity
 67
     1
  8
0
  6
Continuous
 62
     7
370
     0
100
AcDbLine
 10
10.0
 20
217.75
 30
0.0
 11
0.0
 21
217.75
 31
0.0
  0
LINE
  5
2AE
102
{ACAD_REACTORS
330
317
102
}
102
{ACAD_XDICTIONARY
360
2AF
102
}
330
1B
100
AcDbEntity
 67
     1
  8
0
  6
Continuous
 62
     7
370
     0
100
AcDbLine
 10
76.66666412353516
 20
287.0
 30
0.0
 11
76.66666412353516
 21
297.0
 31
0.0
  0
LWPOLYLINE
  5
2B1
102
{ACAD_REACTORS
330
317
102
}
102
{ACAD_XDICTIONARY
360
2B2
102
}
330
1B
100
AcDbEntity
 67
     1
  8
0
  6
Continuous
 62
     7
370
     0
100
AcDbPolyline
 90
        5
 70
     0
 43
0.0
 10
420.0
 20
148.5
 10
410.0
 20
148.5
 10
415.0
 20
145.6132507324218
 10
415.0
 20
151.3867492675781
 10
410.0
 20
148.5
  0
LWPOLYLINE
  5
2B4
102
{ACAD_REACTORS
330
317
102
}
102
{ACAD_XDICTIONARY
360
2B5
102
}
330
1B
100
AcDbEntity
 67
     1
  8
0
  6
Continuous
 62
     7
370
     0
100
AcDbPolyline
 90
        5
 70
     0
 43
0.0
 10
0.0000000000000284
 20
148.5
 10
10.0
 20
148.5
 10
5.0
 20
151.3867492675781
 10
5.0
 20
145.6132507324218
 10
10.0
 20
148.5
  0
LWPOLYLINE
  5
2B7
102
{ACAD_REACTORS
330
317
102
}
102
{ACAD_XDICTIONARY
360
2B8
102
}
330
1B
100
AcDbEntity
 67
     1
  8
0
  6
Continuous
 62
     7
370
     0
100
AcDbPolyline
 90
        5
 70
     0
 43
0.0
 10
210.0
 20
-0.0000000000000284
 10
210.0
 20
9.999999999999972
 10
207.1132507324219
 20
4.999999999999972
 10
212.8867492675781
 20
4.999999999999972
 10
210.0
 20
9.999999999999972
  0
LWPOLYLINE
  5
2BA
102
{ACAD_REACTORS
330
317
102
}
102
{ACAD_XDICTIONARY
360
2BB
102
}
330
1B
100
AcDbEntity
 67
     1
  8
0
  6
Continuous
 62
     7
370
     0
100
AcDbPolyline
 90
        5
 70
     0
 43
0.0
 10
210.0
 20
297.0
 10
210.0
 20
287.0
 10
212.8867492675781
 20
292.0
 10
207.1132507324219
 20
292.0
 10
210.0
 20
287.0
  0
LINE
  5
2BD
102
{ACAD_REACTORS
330
317
102
}
102
{ACAD_XDICTIONARY
360
2BE
102
}
330
1B
100
AcDbEntity
 67
     1
  8
0
  6
Continuous
 62
     7
370
     0
100
AcDbLine
 10
410.0
 20
9.999999999999972
 30
0.0
 11
410.0
 21
15.99999999999997
 31
0.0
  0
LINE
  5
2C0
102
{ACAD_REACTORS
330
317
102
}
102
{ACAD_XDICTIONARY
360
2C1
102
}
330
1B
100
AcDbEntity
 67
     1
  8
0
  6
Continuous
 62
     7
370
     0
100
AcDbLine
 10
410.0
 20
15.99999999999997
 30
0.0
 11
410.0
 21
25.99999999999997
 31
0.0
  0
LINE
  5
2C3
102
{ACAD_REACTORS
330
317
102
}
102
{ACAD_XDICTIONARY
360
2C4
102
}
330
1B
100
AcDbEntity
 67
     1
  8
0
  6
Continuous
 62
     7
370
     0
100
AcDbLine
 10
410.0
 20
25.99999999999997
 30
0.0
 11
410.0
 21
45.99999999999997
 31
0.0
  0
LINE
  5
2C6
102
{ACAD_REACTORS
330
317
102
}
102
{ACAD_XDICTIONARY
360
2C7
102
}
330
1B
100
AcDbEntity
 67
     1
  8
0
  6
Continuous
 62
     7
370
     0
100
AcDbLine
 10
410.0
 20
45.99999999999997
 30
0.0
 11
410.0
 21
63.99999999999997
 31
0.0
  0
LINE
  5
2C9
102
{ACAD_REACTORS
330
317
102
}
102
{ACAD_XDICTIONARY
360
2CA
102
}
330
1B
100
AcDbEntity
 67
     1
  8
0
  6
Continuous
 62
     7
370
     0
100
AcDbLine
 10
300.0
 20
9.999999999999972
 30
0.0
 11
300.0
 21
63.99999999999997
 31
0.0
  0
LINE
  5
2CC
102
{ACAD_REACTORS
330
317
102
}
102
{ACAD_XDICTIONARY
360
2CD
102
}
330
1B
100
AcDbEntity
 67
     1
  8
0
370
     0
100
AcDbLine
 10
250.0
 20
9.999999999999972
 30
0.0
 11
250.0
 21
63.99999999999997
 31
0.0
  0
LINE
  5
2CF
102
{ACAD_REACTORS
330
317
102
}
102
{ACAD_XDICTIONARY
360
2D0
102
}
330
1B
100
AcDbEntity
 67
     1
  8
0
  6
Continuous
 62
     7
370
     0
100
AcDbLine
 10
250.0
 20
9.999999999999972
 30
0.0
 11
300.0
 21
9.999999999999972
 31
0.0
  0
LINE
  5
2D2
102
{ACAD_REACTORS
330
317
102
}
102
{ACAD_XDICTIONARY
360
2D3
102
}
330
1B
100
AcDbEntity
 67
     1
  8
0
  6
Continuous
 62
     7
370
     0
100
AcDbLine
 10
300.0
 20
9.999999999999972
 30
0.0
 11
410.0
 21
9.999999999999972
 31
0.0
  0
LINE
  5
2D5
102
{ACAD_REACTORS
330
317
102
}
102
{ACAD_XDICTIONARY
360
2D6
102
}
330
1B
100
AcDbEntity
 67
     1
  8
0
  6
Continuous
 62
     7
370
     0
100
AcDbLine
 10
250.0
 20
63.99999999999997
 30
0.0
 11
410.0
 21
63.99999999999997
 31
0.0
  0
LINE
  5
2D8
102
{ACAD_REACTORS
330
317
102
}
102
{ACAD_XDICTIONARY
360
2D9
102
}
330
1B
100
AcDbEntity
 67
     1
  8
0
  6
Continuous
 62
     7
370
     0
100
AcDbLine
 10
300.0
 20
45.99999999999997
 30
0.0
 11
410.0
 21
45.99999999999997
 31
0.0
  0
LINE
  5
2DB
102
{ACAD_REACTORS
330
317
102
}
102
{ACAD_XDICTIONARY
360
2DC
102
}
330
1B
100
AcDbEntity
 67
     1
  8
0
  6
Continuous
 62
     7
370
     0
100
AcDbLine
 10
300.0
 20
25.99999999999997
 30
0.0
 11
410.0
 21
25.99999999999997
 31
0.0
  0
LINE
  5
2DE
102
{ACAD_REACTORS
330
317
102
}
102
{ACAD_XDICTIONARY
360
2DF
102
}
330
1B
100
AcDbEntity
 67
     1
  8
0
  6
Continuous
 62
     7
370
     0
100
AcDbLine
 10
300.0
 20
15.99999999999997
 30
0.0
 11
410.0
 21
15.99999999999997
 31
0.0
  0
LINE
  5
2E1
102
{ACAD_REACTORS
330
317
102
}
102
{ACAD_XDICTIONARY
360
2E2
102
}
330
1B
100
AcDbEntity
 67
     1
  8
0
  6
Continuous
 62
     7
370
     0
100
AcDbLine
 10
365.0
 20
9.999999999999972
 30
0.0
 11
365.0
 21
15.99999999999997
 31
0.0
  0
LINE
  5
2E4
102
{ACAD_REACTORS
330
317
102
}
102
{ACAD_XDICTIONARY
360
2E5
102
}
330
1B
100
AcDbEntity
 67
     1
  8
0
  6
Continuous
 62
     7
370
     0
100
AcDbLine
 10
330.0
 20
9.999999999999972
 30
0.0
 11
330.0
 21
15.99999999999997
 31
0.0
  0
LINE
  5
2E7
102
{ACAD_REACTORS
330
317
102
}
102
{ACAD_XDICTIONARY
360
2E8
102
}
330
1B
100
AcDbEntity
 67
     1
  8
0
  6
DASHED
 62
     7
 48
0.125
370
     0
100
AcDbLine
 10
400.0
 20
15.99999999999997
 30
0.0
 11
400.0
 21
25.99999999999997
 31
0.0
  0
LINE
  5
2EA
102
{ACAD_REACTORS
330
317
102
}
102
{ACAD_XDICTIONARY
360
2EB
102
}
330
1B
100
AcDbEntity
 67
     1
  8
0
  6
Continuous
 62
     7
370
     0
100
AcDbLine
 10
340.0
 20
15.99999999999997
 30
0.0
 11
340.0
 21
25.99999999999997
 31
0.0
  0
LINE
  5
2ED
102
{ACAD_REACTORS
330
317
102
}
102
{ACAD_XDICTIONARY
360
2EE
102
}
330
1B
100
AcDbEntity
 67
     1
  8
0
  6
Continuous
 62
     7
370
     0
100
AcDbLine
 10
315.0
 20
15.99999999999997
 30
0.0
 11
315.0
 21
25.99999999999997
 31
0.0
  0
LINE
  5
2F0
102
{ACAD_REACTORS
330
317
102
}
102
{ACAD_XDICTIONARY
360
2F1
102
}
330
1B
100
AcDbEntity
 67
     1
  8
0
  6
DASHED
 62
     7
 48
0.125
370
     0
100
AcDbLine
 10
250.0
 20
15.99999999999997
 30
0.0
 11
300.0
 21
15.99999999999997
 31
0.0
  0
LINE
  5
2F3
102
{ACAD_REACTORS
330
317
102
}
102
{ACAD_XDICTIONARY
360
2F4
102
}
330
1B
100
AcDbEntity
 67
     1
  8
0
  6
DASHED
 62
     7
 48
0.125
370
     0
100
AcDbLine
 10
250.0
 20
21.99999999999997
 30
0.0
 11
300.0
 21
21.99999999999997
 31
0.0
  0
TEXT
  5
2F6
102
{ACAD_REACTORS
330
317
102
}
102
{ACAD_XDICTIONARY
360
2F7
102
}
330
1B
100
AcDbEntity
 67
     1
  8
0
  6
Durchgehend
 62
     7
100
AcDbText
 10
301.5522235070498
 20
13.42524321653623
 30
0.0
 40
2.028472344080607
  1
 MAßSTAB
 41
0.999
  7
_TCW_TXTSTY_2
 72
     1
 11
308.6255258413461
 21
12.82499980926511
 31
0.0
100
AcDbText
 73
     1
  0
TEXT
  5
2F9
102
{ACAD_REACTORS
330
317
102
}
102
{ACAD_XDICTIONARY
360
2FA
102
}
330
1B
100
AcDbEntity
 67
     1
  8
0
  6
Durchgehend
 62
     7
100
AcDbText
 10
300.6789581994532
 20
23.42524398991553
 30
0.0
 40
2.028471734788682
  1
 GRÖSSE
 41
0.999
  7
_TCW_TXTSTY_3
 72
     1
 11
307.1240609975961
 21
22.82500076293942
 31
0.0
100
AcDbText
 73
     1
  0
TEXT
  5
2FC
102
{ACAD_REACTORS
330
317
102
}
102
{ACAD_XDICTIONARY
360
2FD
102
}
330
1B
100
AcDbEntity
 67
     1
  8
0
  6
Durchgehend
 62
     7
100
AcDbText
 10
318.5003091551681
 20
23.42524398991553
 30
0.0
 40
2.028471734788682
  1
 DATUM
 41
0.999
  7
_TCW_TXTSTY_3
 72
     1
 11
323.9220581054688
 21
22.82500076293942
 31
0.0
100
AcDbText
 73
     1
  0
TEXT
  5
2FF
102
{ACAD_REACTORS
330
317
102
}
102
{ACAD_XDICTIONARY
360
300
102
}
330
1B
100
AcDbEntity
 67
     1
  8
0
  6
Durchgehend
 62
     7
100
AcDbText
 10
343.9554842501746
 20
23.42524398991553
 30
0.0
 40
2.028471734788682
  1
 NR
  7
_TCW_TXTSTY_3
 72
     1
 11
346.3937072753906
 21
22.82500076293942
 31
0.0
100
AcDbText
 73
     1
  0
TEXT
  5
302
102
{ACAD_REACTORS
330
317
102
}
102
{ACAD_XDICTIONARY
360
303
102
}
330
1B
100
AcDbEntity
 67
     1
  8
0
  6
Durchgehend
 62
     7
100
AcDbText
 10
365.3329586526553
 20
13.42524321653623
 30
0.0
 40
2.028472344080607
  1
 BLATT
  7
_TCW_TXTSTY_2
 72
     1
 11
370.13232421875
 21
12.82499980926511
 31
0.0
100
AcDbText
 73
     1
  0
TEXT
  5
305
102
{ACAD_REACTORS
330
317
102
}
102
{ACAD_XDICTIONARY
360
306
102
}
330
1B
100
AcDbEntity
 67
     1
  8
0
  6
Durchgehend
 62
     7
100
AcDbText
 10
399.9364209575386
 20
23.42524398991553
 30
0.0
 40
2.028471734788682
  1
 GEP
 41
0.999
  7
_TCW_TXTSTY_3
 72
     1
 11
403.3165283203125
 21
22.82500076293942
 31
0.0
100
AcDbText
 73
     1
  0
TEXT
  5
308
102
{ACAD_REACTORS
330
317
102
}
102
{ACAD_XDICTIONARY
360
309
102
}
330
1B
100
AcDbEntity
 67
     1
  8
0
  6
Durchgehend
 62
     7
100
AcDbText
 10
300.015007308907
 20
43.42524398991553
 30
0.0
 40
2.028471734788682
  1
 TITEL
  7
_TCW_TXTSTY_3
 72
     1
 11
304.2636413574219
 21
42.82500076293942
 31
0.0
100
AcDbText
 73
     1
  0
LWPOLYLINE
  5
30B
102
{ACAD_REACTORS
330
317
102
}
102
{ACAD_XDICTIONARY
360
30C
102
}
330
1B
100
AcDbEntity
 67
     1
  8
0
  6
Continuous
 62
     7
370
     0
100
AcDbPolyline
 90
        5
 70
     0
 43
0.0
 10
10.0
 20
287.0
 10
10.0
 20
217.75
 10
10.0
 20
148.5
 10
10.0
 20
79.24999999999997
 10
10.0
 20
9.999999999999972
  0
LWPOLYLINE
  5
30E
102
{ACAD_REACTORS
330
317
102
}
102
{ACAD_XDICTIONARY
360
30F
102
}
330
1B
100
AcDbEntity
 67
     1
  8
0
  6
Continuous
 62
     7
370
     0
100
AcDbPolyline
 90
        7
 70
     0
 43
0.0
 10
410.0
 20
287.0
 10
343.3333435058594
 20
287.0
 10
276.6666564941406
 20
287.0
 10
210.0
 20
287.0
 10
143.3333282470703
 20
287.0
 10
76.66666412353516
 20
287.0
 10
10.0
 20
287.0
  0
LWPOLYLINE
  5
311
102
{ACAD_REACTORS
330
317
102
}
102
{ACAD_XDICTIONARY
360
312
102
}
330
1B
100
AcDbEntity
 67
     1
  8
0
  6
Continuous
 62
     7
370
     0
100
AcDbPolyline
 90
        5
 70
     0
 43
0.0
 10
410.0
 20
9.999999999999972
 10
410.0
 20
79.24999999999997
 10
410.0
 20
148.5
 10
410.0
 20
217.75
 10
410.0
 20
287.0
  0
LWPOLYLINE
  5
314
102
{ACAD_REACTORS
330
317
102
}
102
{ACAD_XDICTIONARY
360
315
102
}
330
1B
100
AcDbEntity
 67
     1
  8
0
  6
Continuous
 62
     7
370
     0
100
AcDbPolyline
 90
        7
 70
     0
 43
0.0
 10
10.0
 20
9.999999999999972
 10
76.66666412353516
 20
9.999999999999972
 10
143.3333282470703
 20
9.999999999999972
 10
210.0
 20
9.999999999999972
 10
276.6666564941406
 20
9.999999999999972
 10
343.3333435058594
 20
9.999999999999972
 10
410.0
 20
9.999999999999972
  0
VIEWPORT
  5
31A
330
1B
100
AcDbEntity
 67
     1
  8
0
  6
$INVISIBLE
 62
     7
 60
     1
100
AcDbViewport
 10
210.0
 20
148.5
 30
0.0
 40
400.0
 41
277.0
 68
     2
 69
     2
 12
0.0
 22
0.0
 13
0.0
 23
0.0
 14
0.5
 24
0.5
 15
0.0
 25
0.0
 16
0.0
 26
0.0
 36
1.0
 17
210.0000107288
 27
148.5000107288
 37
-1.0
 42
50.0
 43
0.0
 44
0.0
 45
327.7538146972656
 50
0.0
 51
0.0
 72
   100
331
176
331
179
331
17A
331
17D
 90
   557152
  1

281
     0
 71
     1
 74
     0
110
0.0
120
0.0
130
0.0
111
1.0
121
0.0
131
0.0
112
0.0
122
1.0
132
0.0
 79
     0
146
0.0
170
     0
 61
     5
292
     1
282
     1
141
0.0
142
0.0
 63
   256
  0
ENDSEC
  0
SECTION
  2
OBJECTS
  0
DICTIONARY
  5
C
330
0
100
AcDbDictionary
281
     1
  3
ACAD_GROUP
350
D
  3
ACAD_LAYOUT
350
1A
  3
ACAD_MATERIAL
350
3B
  3
ACAD_MLEADERSTYLE
350
182
  3
ACAD_MLINESTYLE
350
17
  3
ACAD_PLOTSETTINGS
350
19
  3
ACAD_PLOTSTYLENAME
350
E
  3
ACAD_SCALELIST
350
62C
  3
ACAD_TABLESTYLE
350
190
  3
ACAD_VISUALSTYLE
350
2A
  3
ACDB_RECOMPOSE_DATA
350
672
  3
AcDbVariableDictionary
350
64E
  0
DICTIONARY
  5
177
330
176
100
AcDbDictionary
280
     1
281
     1
  3
TC_EXTENDED_DATA
360
178
  0
DICTIONARY
  5
17B
330
17A
100
AcDbDictionary
280
     1
281
     1
  3
TC_EXTENDED_DATA
360
17C
  0
DICTIONARY
  5
17E
330
17D
100
AcDbDictionary
280
     1
281
     1
  3
TC_EXTENDED_DATA
360
17F
  0
DICTIONARY
  5
1FC
330
1F
100
AcDbDictionary
280
     1
281
     1
  3
ACAD_SORTENTS
360
1FD
  0
DICTIONARY
  5
31B
330
1B
100
AcDbDictionary
280
     1
281
     1
  3
ACAD_SORTENTS
360
31C
  0
DICTIONARY
  5
26D
330
150
100
AcDbDictionary
280
     1
281
     1
  3
ACAD_SORTENTS
360
26E
  0
DICTIONARY
  5
3EE
330
154
100
AcDbDictionary
280
     1
281
     1
  3
ACAD_SORTENTS
360
3EF
  0
DICTIONARY
  5
515
330
158
100
AcDbDictionary
280
     1
281
     1
  3
ACAD_SORTENTS
360
516
  0
DICTIONARY
  5
62A
330
15C
100
AcDbDictionary
280
     1
281
     1
  3
ACAD_SORTENTS
360
62B
  0
DICTIONARY
  5
202
330
201
100
AcDbDictionary
280
     1
281
     1
  3
TC_EXTENDED_DATA
360
203
  0
DICTIONARY
  5
205
330
204
100
AcDbDictionary
280
     1
281
     1
  3
TC_EXTENDED_DATA
360
206
  0
DICTIONARY
  5
208
330
207
100
AcDbDictionary
280
     1
281
     1
  3
TC_EXTENDED_DATA
360
209
  0
DICTIONARY
  5
20B
330
20A
100
AcDbDictionary
280
     1
281
     1
  3
TC_EXTENDED_DATA
360
20C
  0
DICTIONARY
  5
20E
330
20D
100
AcDbDictionary
280
     1
281
     1
  3
TC_EXTENDED_DATA
360
20F
  0
DICTIONARY
  5
211
330
210
100
AcDbDictionary
280
     1
281
     1
  3
TC_EXTENDED_DATA
360
212
  0
DICTIONARY
  5
214
330
213
100
AcDbDictionary
280
     1
281
     1
  3
TC_EXTENDED_DATA
360
215
  0
DICTIONARY
  5
217
330
216
100
AcDbDictionary
280
     1
281
     1
  3
TC_EXTENDED_DATA
360
218
  0
DICTIONARY
  5
21A
330
219
100
AcDbDictionary
280
     1
281
     1
  3
TC_EXTENDED_DATA
360
21B
  0
DICTIONARY
  5
21D
330
21C
100
AcDbDictionary
280
     1
281
     1
  3
TC_EXTENDED_DATA
360
21E
  0
DICTIONARY
  5
220
330
21F
100
AcDbDictionary
280
     1
281
     1
  3
TC_EXTENDED_DATA
360
221
  0
DICTIONARY
  5
223
330
222
100
AcDbDictionary
280
     1
281
     1
  3
TC_EXTENDED_DATA
360
224
  0
DICTIONARY
  5
226
330
225
100
AcDbDictionary
280
     1
281
     1
  3
TC_EXTENDED_DATA
360
227
  0
DICTIONARY
  5
229
330
228
100
AcDbDictionary
280
     1
281
     1
  3
TC_EXTENDED_DATA
360
22A
  0
DICTIONARY
  5
22C
330
22B
100
AcDbDictionary
280
     1
281
     1
  3
TC_EXTENDED_DATA
360
22D
  0
DICTIONARY
  5
22F
330
22E
100
AcDbDictionary
280
     1
281
     1
  3
TC_EXTENDED_DATA
360
230
  0
DICTIONARY
  5
232
330
231
100
AcDbDictionary
280
     1
281
     1
  3
TC_EXTENDED_DATA
360
233
  0
DICTIONARY
  5
235
330
234
100
AcDbDictionary
280
     1
281
     1
  3
TC_EXTENDED_DATA
360
236
  0
DICTIONARY
  5
238
330
237
100
AcDbDictionary
280
     1
281
     1
  3
TC_EXTENDED_DATA
360
239
  0
DICTIONARY
  5
23B
330
23A
100
AcDbDictionary
280
     1
281
     1
  3
TC_EXTENDED_DATA
360
23C
  0
DICTIONARY
  5
23E
330
23D
100
AcDbDictionary
280
     1
281
     1
  3
TC_EXTENDED_DATA
360
23F
  0
DICTIONARY
  5
241
330
240
100
AcDbDictionary
280
     1
281
     1
  3
TC_EXTENDED_DATA
360
242
  0
DICTIONARY
  5
244
330
243
100
AcDbDictionary
280
     1
281
     1
  3
TC_EXTENDED_DATA
360
245
  0
DICTIONARY
  5
248
330
247
100
AcDbDictionary
280
     1
281
     1
  3
TC_EXTENDED_DATA
360
249
  0
DICTIONARY
  5
24C
330
24B
100
AcDbDictionary
280
     1
281
     1
  3
TC_EXTENDED_DATA
360
24D
  0
DICTIONARY
  5
24F
330
24E
100
AcDbDictionary
280
     1
281
     1
  3
TC_EXTENDED_DATA
360
250
  0
DICTIONARY
  5
252
330
251
100
AcDbDictionary
280
     1
281
     1
  3
TC_EXTENDED_DATA
360
253
  0
DICTIONARY
  5
255
330
254
100
AcDbDictionary
280
     1
281
     1
  3
TC_EXTENDED_DATA
360
256
  0
DICTIONARY
  5
258
330
257
100
AcDbDictionary
280
     1
281
     1
  3
TC_EXTENDED_DATA
360
259
  0
DICTIONARY
  5
25B
330
25A
100
AcDbDictionary
280
     1
281
     1
  3
TC_EXTENDED_DATA
360
25C
  0
DICTIONARY
  5
25E
330
25D
100
AcDbDictionary
280
     1
281
     1
  3
TC_EXTENDED_DATA
360
25F
  0
DICTIONARY
  5
261
330
260
100
AcDbDictionary
280
     1
281
     1
  3
TC_EXTENDED_DATA
360
262
  0
DICTIONARY
  5
264
330
263
100
AcDbDictionary
280
     1
281
     1
  3
TC_EXTENDED_DATA
360
265
  0
DICTIONARY
  5
267
330
266
100
AcDbDictionary
280
     1
281
     1
  3
TC_EXTENDED_DATA
360
268
  0
DICTIONARY
  5
34C
330
34B
100
AcDbDictionary
280
     1
281
     1
  3
TC_EXTENDED_DATA
360
34D
  0
DICTIONARY
  5
34F
330
34E
100
AcDbDictionary
280
     1
281
     1
  3
TC_EXTENDED_DATA
360
350
  0
DICTIONARY
  5
352
330
351
100
AcDbDictionary
280
     1
281
     1
  3
TC_EXTENDED_DATA
360
353
  0
DICTIONARY
  5
355
330
354
100
AcDbDictionary
280
     1
281
     1
  3
TC_EXTENDED_DATA
360
356
  0
DICTIONARY
  5
358
330
357
100
AcDbDictionary
280
     1
281
     1
  3
TC_EXTENDED_DATA
360
359
  0
DICTIONARY
  5
35B
330
35A
100
AcDbDictionary
280
     1
281
     1
  3
TC_EXTENDED_DATA
360
35C
  0
DICTIONARY
  5
35E
330
35D
100
AcDbDictionary
280
     1
281
     1
  3
TC_EXTENDED_DATA
360
35F
  0
DICTIONARY
  5
361
330
360
100
AcDbDictionary
280
     1
281
     1
  3
TC_EXTENDED_DATA
360
362
  0
DICTIONARY
  5
364
330
363
100
AcDbDictionary
280
     1
281
     1
  3
TC_EXTENDED_DATA
360
365
  0
DICTIONARY
  5
367
330
366
100
AcDbDictionary
280
     1
281
     1
  3
TC_EXTENDED_DATA
360
368
  0
DICTIONARY
  5
36A
330
369
100
AcDbDictionary
280
     1
281
     1
  3
TC_EXTENDED_DATA
360
36B
  0
DICTIONARY
  5
36D
330
36C
100
AcDbDictionary
280
     1
281
     1
  3
TC_EXTENDED_DATA
360
36E
  0
DICTIONARY
  5
370
330
36F
100
AcDbDictionary
280
     1
281
     1
  3
TC_EXTENDED_DATA
360
371
  0
DICTIONARY
  5
373
330
372
100
AcDbDictionary
280
     1
281
     1
  3
TC_EXTENDED_DATA
360
374
  0
DICTIONARY
  5
376
330
375
100
AcDbDictionary
280
     1
281
     1
  3
TC_EXTENDED_DATA
360
377
  0
DICTIONARY
  5
379
330
378
100
AcDbDictionary
280
     1
281
     1
  3
TC_EXTENDED_DATA
360
37A
  0
DICTIONARY
  5
37C
330
37B
100
AcDbDictionary
280
     1
281
     1
  3
TC_EXTENDED_DATA
360
37D
  0
DICTIONARY
  5
37F
330
37E
100
AcDbDictionary
280
     1
281
     1
  3
TC_EXTENDED_DATA
360
380
  0
DICTIONARY
  5
382
330
381
100
AcDbDictionary
280
     1
281
     1
  3
TC_EXTENDED_DATA
360
383
  0
DICTIONARY
  5
385
330
384
100
AcDbDictionary
280
     1
281
     1
  3
TC_EXTENDED_DATA
360
386
  0
DICTIONARY
  5
388
330
387
100
AcDbDictionary
280
     1
281
     1
  3
TC_EXTENDED_DATA
360
389
  0
DICTIONARY
  5
38B
330
38A
100
AcDbDictionary
280
     1
281
     1
  3
TC_EXTENDED_DATA
360
38C
  0
DICTIONARY
  5
38E
330
38D
100
AcDbDictionary
280
     1
281
     1
  3
TC_EXTENDED_DATA
360
38F
  0
DICTIONARY
  5
391
330
390
100
AcDbDictionary
280
     1
281
     1
  3
TC_EXTENDED_DATA
360
392
  0
DICTIONARY
  5
394
330
393
100
AcDbDictionary
280
     1
281
     1
  3
TC_EXTENDED_DATA
360
395
  0
DICTIONARY
  5
397
330
396
100
AcDbDictionary
280
     1
281
     1
  3
TC_EXTENDED_DATA
360
398
  0
DICTIONARY
  5
39A
330
399
100
AcDbDictionary
280
     1
281
     1
  3
TC_EXTENDED_DATA
360
39B
  0
DICTIONARY
  5
39D
330
39C
100
AcDbDictionary
280
     1
281
     1
  3
TC_EXTENDED_DATA
360
39E
  0
DICTIONARY
  5
3A0
330
39F
100
AcDbDictionary
280
     1
281
     1
  3
TC_EXTENDED_DATA
360
3A1
  0
DICTIONARY
  5
3A3
330
3A2
100
AcDbDictionary
280
     1
281
     1
  3
TC_EXTENDED_DATA
360
3A4
  0
DICTIONARY
  5
3A6
330
3A5
100
AcDbDictionary
280
     1
281
     1
  3
TC_EXTENDED_DATA
360
3A7
  0
DICTIONARY
  5
3A9
330
3A8
100
AcDbDictionary
280
     1
281
     1
  3
TC_EXTENDED_DATA
360
3AA
  0
DICTIONARY
  5
3AC
330
3AB
100
AcDbDictionary
280
     1
281
     1
  3
TC_EXTENDED_DATA
360
3AD
  0
DICTIONARY
  5
3AF
330
3AE
100
AcDbDictionary
280
     1
281
     1
  3
TC_EXTENDED_DATA
360
3B0
  0
DICTIONARY
  5
3B2
330
3B1
100
AcDbDictionary
280
     1
281
     1
  3
TC_EXTENDED_DATA
360
3B3
  0
DICTIONARY
  5
3B5
330
3B4
100
AcDbDictionary
280
     1
281
     1
  3
TC_EXTENDED_DATA
360
3B6
  0
DICTIONARY
  5
3B8
330
3B7
100
AcDbDictionary
280
     1
281
     1
  3
TC_EXTENDED_DATA
360
3B9
  0
DICTIONARY
  5
3BB
330
3BA
100
AcDbDictionary
280
     1
281
     1
  3
TC_EXTENDED_DATA
360
3BC
  0
DICTIONARY
  5
3BE
330
3BD
100
AcDbDictionary
280
     1
281
     1
  3
TC_EXTENDED_DATA
360
3BF
  0
DICTIONARY
  5
3C1
330
3C0
100
AcDbDictionary
280
     1
281
     1
  3
TC_EXTENDED_DATA
360
3C2
  0
DICTIONARY
  5
3C4
330
3C3
100
AcDbDictionary
280
     1
281
     1
  3
TC_EXTENDED_DATA
360
3C5
  0
DICTIONARY
  5
3C7
330
3C6
100
AcDbDictionary
280
     1
281
     1
  3
TC_EXTENDED_DATA
360
3C8
  0
DICTIONARY
  5
3CA
330
3C9
100
AcDbDictionary
280
     1
281
     1
  3
TC_EXTENDED_DATA
360
3CB
  0
DICTIONARY
  5
3CD
330
3CC
100
AcDbDictionary
280
     1
281
     1
  3
TC_EXTENDED_DATA
360
3CE
  0
DICTIONARY
  5
3D0
330
3CF
100
AcDbDictionary
280
     1
281
     1
  3
TC_EXTENDED_DATA
360
3D1
  0
DICTIONARY
  5
3D3
330
3D2
100
AcDbDictionary
280
     1
281
     1
  3
TC_EXTENDED_DATA
360
3D4
  0
DICTIONARY
  5
3D6
330
3D5
100
AcDbDictionary
280
     1
281
     1
  3
TC_EXTENDED_DATA
360
3D7
  0
DICTIONARY
  5
3D9
330
3D8
100
AcDbDictionary
280
     1
281
     1
  3
TC_EXTENDED_DATA
360
3DA
  0
DICTIONARY
  5
3DC
330
3DB
100
AcDbDictionary
280
     1
281
     1
  3
TC_EXTENDED_DATA
360
3DD
  0
DICTIONARY
  5
3DF
330
3DE
100
AcDbDictionary
280
     1
281
     1
  3
TC_EXTENDED_DATA
360
3E0
  0
DICTIONARY
  5
3E2
330
3E1
100
AcDbDictionary
280
     1
281
     1
  3
TC_EXTENDED_DATA
360
3E3
  0
DICTIONARY
  5
3E5
330
3E4
100
AcDbDictionary
280
     1
281
     1
  3
TC_EXTENDED_DATA
360
3E6
  0
DICTIONARY
  5
3E8
330
3E7
100
AcDbDictionary
280
     1
281
     1
  3
TC_EXTENDED_DATA
360
3E9
  0
DICTIONARY
  5
3F4
330
3F3
100
AcDbDictionary
280
     1
281
     1
  3
TC_EXTENDED_DATA
360
3F5
  0
DICTIONARY
  5
3F7
330
3F6
100
AcDbDictionary
280
     1
281
     1
  3
TC_EXTENDED_DATA
360
3F8
  0
DICTIONARY
  5
3FA
330
3F9
100
AcDbDictionary
280
     1
281
     1
  3
TC_EXTENDED_DATA
360
3FB
  0
DICTIONARY
  5
3FD
330
3FC
100
AcDbDictionary
280
     1
281
     1
  3
TC_EXTENDED_DATA
360
3FE
  0
DICTIONARY
  5
400
330
3FF
100
AcDbDictionary
280
     1
281
     1
  3
TC_EXTENDED_DATA
360
401
  0
DICTIONARY
  5
403
330
402
100
AcDbDictionary
280
     1
281
     1
  3
TC_EXTENDED_DATA
360
404
  0
DICTIONARY
  5
406
330
405
100
AcDbDictionary
280
     1
281
     1
  3
TC_EXTENDED_DATA
360
407
  0
DICTIONARY
  5
409
330
408
100
AcDbDictionary
280
     1
281
     1
  3
TC_EXTENDED_DATA
360
40A
  0
DICTIONARY
  5
40C
330
40B
100
AcDbDictionary
280
     1
281
     1
  3
TC_EXTENDED_DATA
360
40D
  0
DICTIONARY
  5
40F
330
40E
100
AcDbDictionary
280
     1
281
     1
  3
TC_EXTENDED_DATA
360
410
  0
DICTIONARY
  5
412
330
411
100
AcDbDictionary
280
     1
281
     1
  3
TC_EXTENDED_DATA
360
413
  0
DICTIONARY
  5
415
330
414
100
AcDbDictionary
280
     1
281
     1
  3
TC_EXTENDED_DATA
360
416
  0
DICTIONARY
  5
418
330
417
100
AcDbDictionary
280
     1
281
     1
  3
TC_EXTENDED_DATA
360
419
  0
DICTIONARY
  5
41B
330
41A
100
AcDbDictionary
280
     1
281
     1
  3
TC_EXTENDED_DATA
360
41C
  0
DICTIONARY
  5
41E
330
41D
100
AcDbDictionary
280
     1
281
     1
  3
TC_EXTENDED_DATA
360
41F
  0
DICTIONARY
  5
421
330
420
100
AcDbDictionary
280
     1
281
     1
  3
TC_EXTENDED_DATA
360
422
  0
DICTIONARY
  5
424
330
423
100
AcDbDictionary
280
     1
281
     1
  3
TC_EXTENDED_DATA
360
425
  0
DICTIONARY
  5
427
330
426
100
AcDbDictionary
280
     1
281
     1
  3
TC_EXTENDED_DATA
360
428
  0
DICTIONARY
  5
42A
330
429
100
AcDbDictionary
280
     1
281
     1
  3
TC_EXTENDED_DATA
360
42B
  0
DICTIONARY
  5
42D
330
42C
100
AcDbDictionary
280
     1
281
     1
  3
TC_EXTENDED_DATA
360
42E
  0
DICTIONARY
  5
461
330
460
100
AcDbDictionary
280
     1
281
     1
  3
TC_EXTENDED_DATA
360
462
  0
DICTIONARY
  5
464
330
463
100
AcDbDictionary
280
     1
281
     1
  3
TC_EXTENDED_DATA
360
465
  0
DICTIONARY
  5
467
330
466
100
AcDbDictionary
280
     1
281
     1
  3
TC_EXTENDED_DATA
360
468
  0
DICTIONARY
  5
46A
330
469
100
AcDbDictionary
280
     1
281
     1
  3
TC_EXTENDED_DATA
360
46B
  0
DICTIONARY
  5
46D
330
46C
100
AcDbDictionary
280
     1
281
     1
  3
TC_EXTENDED_DATA
360
46E
  0
DICTIONARY
  5
470
330
46F
100
AcDbDictionary
280
     1
281
     1
  3
TC_EXTENDED_DATA
360
471
  0
DICTIONARY
  5
473
330
472
100
AcDbDictionary
280
     1
281
     1
  3
TC_EXTENDED_DATA
360
474
  0
DICTIONARY
  5
476
330
475
100
AcDbDictionary
280
     1
281
     1
  3
TC_EXTENDED_DATA
360
477
  0
DICTIONARY
  5
479
330
478
100
AcDbDictionary
280
     1
281
     1
  3
TC_EXTENDED_DATA
360
47A
  0
DICTIONARY
  5
47C
330
47B
100
AcDbDictionary
280
     1
281
     1
  3
TC_EXTENDED_DATA
360
47D
  0
DICTIONARY
  5
47F
330
47E
100
AcDbDictionary
280
     1
281
     1
  3
TC_EXTENDED_DATA
360
480
  0
DICTIONARY
  5
482
330
481
100
AcDbDictionary
280
     1
281
     1
  3
TC_EXTENDED_DATA
360
483
  0
DICTIONARY
  5
485
330
484
100
AcDbDictionary
280
     1
281
     1
  3
TC_EXTENDED_DATA
360
486
  0
DICTIONARY
  5
488
330
487
100
AcDbDictionary
280
     1
281
     1
  3
TC_EXTENDED_DATA
360
489
  0
DICTIONARY
  5
48B
330
48A
100
AcDbDictionary
280
     1
281
     1
  3
TC_EXTENDED_DATA
360
48C
  0
DICTIONARY
  5
48E
330
48D
100
AcDbDictionary
280
     1
281
     1
  3
TC_EXTENDED_DATA
360
48F
  0
DICTIONARY
  5
491
330
490
100
AcDbDictionary
280
     1
281
     1
  3
TC_EXTENDED_DATA
360
492
  0
DICTIONARY
  5
494
330
493
100
AcDbDictionary
280
     1
281
     1
  3
TC_EXTENDED_DATA
360
495
  0
DICTIONARY
  5
497
330
496
100
AcDbDictionary
280
     1
281
     1
  3
TC_EXTENDED_DATA
360
498
  0
DICTIONARY
  5
49A
330
499
100
AcDbDictionary
280
     1
281
     1
  3
TC_EXTENDED_DATA
360
49B
  0
DICTIONARY
  5
49D
330
49C
100
AcDbDictionary
280
     1
281
     1
  3
TC_EXTENDED_DATA
360
49E
  0
DICTIONARY
  5
4A0
330
49F
100
AcDbDictionary
280
     1
281
     1
  3
TC_EXTENDED_DATA
360
4A1
  0
DICTIONARY
  5
4A3
330
4A2
100
AcDbDictionary
280
     1
281
     1
  3
TC_EXTENDED_DATA
360
4A4
  0
DICTIONARY
  5
4A6
330
4A5
100
AcDbDictionary
280
     1
281
     1
  3
TC_EXTENDED_DATA
360
4A7
  0
DICTIONARY
  5
4A9
330
4A8
100
AcDbDictionary
280
     1
281
     1
  3
TC_EXTENDED_DATA
360
4AA
  0
DICTIONARY
  5
4AC
330
4AB
100
AcDbDictionary
280
     1
281
     1
  3
TC_EXTENDED_DATA
360
4AD
  0
DICTIONARY
  5
4AF
330
4AE
100
AcDbDictionary
280
     1
281
     1
  3
TC_EXTENDED_DATA
360
4B0
  0
DICTIONARY
  5
4B2
330
4B1
100
AcDbDictionary
280
     1
281
     1
  3
TC_EXTENDED_DATA
360
4B3
  0
DICTIONARY
  5
4B5
330
4B4
100
AcDbDictionary
280
     1
281
     1
  3
TC_EXTENDED_DATA
360
4B6
  0
DICTIONARY
  5
4B8
330
4B7
100
AcDbDictionary
280
     1
281
     1
  3
TC_EXTENDED_DATA
360
4B9
  0
DICTIONARY
  5
4BB
330
4BA
100
AcDbDictionary
280
     1
281
     1
  3
TC_EXTENDED_DATA
360
4BC
  0
DICTIONARY
  5
4BE
330
4BD
100
AcDbDictionary
280
     1
281
     1
  3
TC_EXTENDED_DATA
360
4BF
  0
DICTIONARY
  5
4C1
330
4C0
100
AcDbDictionary
280
     1
281
     1
  3
TC_EXTENDED_DATA
360
4C2
  0
DICTIONARY
  5
4C4
330
4C3
100
AcDbDictionary
280
     1
281
     1
  3
TC_EXTENDED_DATA
360
4C5
  0
DICTIONARY
  5
4C7
330
4C6
100
AcDbDictionary
280
     1
281
     1
  3
TC_EXTENDED_DATA
360
4C8
  0
DICTIONARY
  5
4CA
330
4C9
100
AcDbDictionary
280
     1
281
     1
  3
TC_EXTENDED_DATA
360
4CB
  0
DICTIONARY
  5
4CD
330
4CC
100
AcDbDictionary
280
     1
281
     1
  3
TC_EXTENDED_DATA
360
4CE
  0
DICTIONARY
  5
4D0
330
4CF
100
AcDbDictionary
280
     1
281
     1
  3
TC_EXTENDED_DATA
360
4D1
  0
DICTIONARY
  5
4D3
330
4D2
100
AcDbDictionary
280
     1
281
     1
  3
TC_EXTENDED_DATA
360
4D4
  0
DICTIONARY
  5
4D6
330
4D5
100
AcDbDictionary
280
     1
281
     1
  3
TC_EXTENDED_DATA
360
4D7
  0
DICTIONARY
  5
4D9
330
4D8
100
AcDbDictionary
280
     1
281
     1
  3
TC_EXTENDED_DATA
360
4DA
  0
DICTIONARY
  5
4DC
330
4DB
100
AcDbDictionary
280
     1
281
     1
  3
TC_EXTENDED_DATA
360
4DD
  0
DICTIONARY
  5
4DF
330
4DE
100
AcDbDictionary
280
     1
281
     1
  3
TC_EXTENDED_DATA
360
4E0
  0
DICTIONARY
  5
4E2
330
4E1
100
AcDbDictionary
280
     1
281
     1
  3
TC_EXTENDED_DATA
360
4E3
  0
DICTIONARY
  5
4E5
330
4E4
100
AcDbDictionary
280
     1
281
     1
  3
TC_EXTENDED_DATA
360
4E6
  0
DICTIONARY
  5
4E8
330
4E7
100
AcDbDictionary
280
     1
281
     1
  3
TC_EXTENDED_DATA
360
4E9
  0
DICTIONARY
  5
4EB
330
4EA
100
AcDbDictionary
280
     1
281
     1
  3
TC_EXTENDED_DATA
360
4EC
  0
DICTIONARY
  5
4EE
330
4ED
100
AcDbDictionary
280
     1
281
     1
  3
TC_EXTENDED_DATA
360
4EF
  0
DICTIONARY
  5
4F1
330
4F0
100
AcDbDictionary
280
     1
281
     1
  3
TC_EXTENDED_DATA
360
4F2
  0
DICTIONARY
  5
4F4
330
4F3
100
AcDbDictionary
280
     1
281
     1
  3
TC_EXTENDED_DATA
360
4F5
  0
DICTIONARY
  5
4F7
330
4F6
100
AcDbDictionary
280
     1
281
     1
  3
TC_EXTENDED_DATA
360
4F8
  0
DICTIONARY
  5
4FA
330
4F9
100
AcDbDictionary
280
     1
281
     1
  3
TC_EXTENDED_DATA
360
4FB
  0
DICTIONARY
  5
4FD
330
4FC
100
AcDbDictionary
280
     1
281
     1
  3
TC_EXTENDED_DATA
360
4FE
  0
DICTIONARY
  5
500
330
4FF
100
AcDbDictionary
280
     1
281
     1
  3
TC_EXTENDED_DATA
360
501
  0
DICTIONARY
  5
503
330
502
100
AcDbDictionary
280
     1
281
     1
  3
TC_EXTENDED_DATA
360
504
  0
DICTIONARY
  5
506
330
505
100
AcDbDictionary
280
     1
281
     1
  3
TC_EXTENDED_DATA
360
507
  0
DICTIONARY
  5
509
330
508
100
AcDbDictionary
280
     1
281
     1
  3
TC_EXTENDED_DATA
360
50A
  0
DICTIONARY
  5
50C
330
50B
100
AcDbDictionary
280
     1
281
     1
  3
TC_EXTENDED_DATA
360
50D
  0
DICTIONARY
  5
50F
330
50E
100
AcDbDictionary
280
     1
281
     1
  3
TC_EXTENDED_DATA
360
510
  0
DICTIONARY
  5
51B
330
51A
100
AcDbDictionary
280
     1
281
     1
  3
TC_EXTENDED_DATA
360
51C
  0
DICTIONARY
  5
51E
330
51D
100
AcDbDictionary
280
     1
281
     1
  3
TC_EXTENDED_DATA
360
51F
  0
DICTIONARY
  5
521
330
520
100
AcDbDictionary
280
     1
281
     1
  3
TC_EXTENDED_DATA
360
522
  0
DICTIONARY
  5
524
330
523
100
AcDbDictionary
280
     1
281
     1
  3
TC_EXTENDED_DATA
360
525
  0
DICTIONARY
  5
527
330
526
100
AcDbDictionary
280
     1
281
     1
  3
TC_EXTENDED_DATA
360
528
  0
DICTIONARY
  5
52A
330
529
100
AcDbDictionary
280
     1
281
     1
  3
TC_EXTENDED_DATA
360
52B
  0
DICTIONARY
  5
52D
330
52C
100
AcDbDictionary
280
     1
281
     1
  3
TC_EXTENDED_DATA
360
52E
  0
DICTIONARY
  5
530
330
52F
100
AcDbDictionary
280
     1
281
     1
  3
TC_EXTENDED_DATA
360
531
  0
DICTIONARY
  5
533
330
532
100
AcDbDictionary
280
     1
281
     1
  3
TC_EXTENDED_DATA
360
534
  0
DICTIONARY
  5
536
330
535
100
AcDbDictionary
280
     1
281
     1
  3
TC_EXTENDED_DATA
360
537
  0
DICTIONARY
  5
539
330
538
100
AcDbDictionary
280
     1
281
     1
  3
TC_EXTENDED_DATA
360
53A
  0
DICTIONARY
  5
53C
330
53B
100
AcDbDictionary
280
     1
281
     1
  3
TC_EXTENDED_DATA
360
53D
  0
DICTIONARY
  5
53F
330
53E
100
AcDbDictionary
280
     1
281
     1
  3
TC_EXTENDED_DATA
360
540
  0
DICTIONARY
  5
542
330
541
100
AcDbDictionary
280
     1
281
     1
  3
TC_EXTENDED_DATA
360
543
  0
DICTIONARY
  5
545
330
544
100
AcDbDictionary
280
     1
281
     1
  3
TC_EXTENDED_DATA
360
546
  0
DICTIONARY
  5
548
330
547
100
AcDbDictionary
280
     1
281
     1
  3
TC_EXTENDED_DATA
360
549
  0
DICTIONARY
  5
54B
330
54A
100
AcDbDictionary
280
     1
281
     1
  3
TC_EXTENDED_DATA
360
54C
  0
DICTIONARY
  5
54E
330
54D
100
AcDbDictionary
280
     1
281
     1
  3
TC_EXTENDED_DATA
360
54F
  0
DICTIONARY
  5
551
330
550
100
AcDbDictionary
280
     1
281
     1
  3
TC_EXTENDED_DATA
360
552
  0
DICTIONARY
  5
554
330
553
100
AcDbDictionary
280
     1
281
     1
  3
TC_EXTENDED_DATA
360
555
  0
DICTIONARY
  5
557
330
556
100
AcDbDictionary
280
     1
281
     1
  3
TC_EXTENDED_DATA
360
558
  0
DICTIONARY
  5
55A
330
559
100
AcDbDictionary
280
     1
281
     1
  3
TC_EXTENDED_DATA
360
55B
  0
DICTIONARY
  5
55D
330
55C
100
AcDbDictionary
280
     1
281
     1
  3
TC_EXTENDED_DATA
360
55E
  0
DICTIONARY
  5
560
330
55F
100
AcDbDictionary
280
     1
281
     1
  3
TC_EXTENDED_DATA
360
561
  0
DICTIONARY
  5
563
330
562
100
AcDbDictionary
280
     1
281
     1
  3
TC_EXTENDED_DATA
360
564
  0
DICTIONARY
  5
566
330
565
100
AcDbDictionary
280
     1
281
     1
  3
TC_EXTENDED_DATA
360
567
  0
DICTIONARY
  5
569
330
568
100
AcDbDictionary
280
     1
281
     1
  3
TC_EXTENDED_DATA
360
56A
  0
DICTIONARY
  5
56C
330
56B
100
AcDbDictionary
280
     1
281
     1
  3
TC_EXTENDED_DATA
360
56D
  0
DICTIONARY
  5
56F
330
56E
100
AcDbDictionary
280
     1
281
     1
  3
TC_EXTENDED_DATA
360
570
  0
DICTIONARY
  5
572
330
571
100
AcDbDictionary
280
     1
281
     1
  3
TC_EXTENDED_DATA
360
573
  0
DICTIONARY
  5
575
330
574
100
AcDbDictionary
280
     1
281
     1
  3
TC_EXTENDED_DATA
360
576
  0
DICTIONARY
  5
578
330
577
100
AcDbDictionary
280
     1
281
     1
  3
TC_EXTENDED_DATA
360
579
  0
DICTIONARY
  5
57B
330
57A
100
AcDbDictionary
280
     1
281
     1
  3
TC_EXTENDED_DATA
360
57C
  0
DICTIONARY
  5
57E
330
57D
100
AcDbDictionary
280
     1
281
     1
  3
TC_EXTENDED_DATA
360
57F
  0
DICTIONARY
  5
581
330
580
100
AcDbDictionary
280
     1
281
     1
  3
TC_EXTENDED_DATA
360
582
  0
DICTIONARY
  5
584
330
583
100
AcDbDictionary
280
     1
281
     1
  3
TC_EXTENDED_DATA
360
585
  0
DICTIONARY
  5
587
330
586
100
AcDbDictionary
280
     1
281
     1
  3
TC_EXTENDED_DATA
360
588
  0
DICTIONARY
  5
58A
330
589
100
AcDbDictionary
280
     1
281
     1
  3
TC_EXTENDED_DATA
360
58B
  0
DICTIONARY
  5
58D
330
58C
100
AcDbDictionary
280
     1
281
     1
  3
TC_EXTENDED_DATA
360
58E
  0
DICTIONARY
  5
590
330
58F
100
AcDbDictionary
280
     1
281
     1
  3
TC_EXTENDED_DATA
360
591
  0
DICTIONARY
  5
593
330
592
100
AcDbDictionary
280
     1
281
     1
  3
TC_EXTENDED_DATA
360
594
  0
DICTIONARY
  5
596
330
595
100
AcDbDictionary
280
     1
281
     1
  3
TC_EXTENDED_DATA
360
597
  0
DICTIONARY
  5
599
330
598
100
AcDbDictionary
280
     1
281
     1
  3
TC_EXTENDED_DATA
360
59A
  0
DICTIONARY
  5
59C
330
59B
100
AcDbDictionary
280
     1
281
     1
  3
TC_EXTENDED_DATA
360
59D
  0
DICTIONARY
  5
59F
330
59E
100
AcDbDictionary
280
     1
281
     1
  3
TC_EXTENDED_DATA
360
5A0
  0
DICTIONARY
  5
5A2
330
5A1
100
AcDbDictionary
280
     1
281
     1
  3
TC_EXTENDED_DATA
360
5A3
  0
DICTIONARY
  5
5C0
330
5BF
100
AcDbDictionary
280
     1
281
     1
  3
TC_EXTENDED_DATA
360
5C1
  0
DICTIONARY
  5
5CC
330
5CB
100
AcDbDictionary
280
     1
281
     1
  3
TC_EXTENDED_DATA
360
5CD
  0
DICTIONARY
  5
615
330
614
100
AcDbDictionary
280
     1
281
     1
  3
TC_EXTENDED_DATA
360
616
  0
DICTIONARY
  5
193
330
192
100
AcDbDictionary
280
     1
281
     1
  3
TC_EXTENDED_DATA
360
194
  0
DICTIONARY
  5
196
330
195
100
AcDbDictionary
280
     1
281
     1
  3
TC_EXTENDED_DATA
360
197
  0
DICTIONARY
  5
199
330
198
100
AcDbDictionary
280
     1
281
     1
  3
TC_EXTENDED_DATA
360
19A
  0
DICTIONARY
  5
19C
330
19B
100
AcDbDictionary
280
     1
281
     1
  3
TC_EXTENDED_DATA
360
19D
  0
DICTIONARY
  5
19F
330
19E
100
AcDbDictionary
280
     1
281
     1
  3
TC_EXTENDED_DATA
360
1A0
  0
DICTIONARY
  5
1A2
330
1A1
100
AcDbDictionary
280
     1
281
     1
  3
TC_EXTENDED_DATA
360
1A3
  0
DICTIONARY
  5
1A5
330
1A4
100
AcDbDictionary
280
     1
281
     1
  3
TC_EXTENDED_DATA
360
1A6
  0
DICTIONARY
  5
1A8
330
1A7
100
AcDbDictionary
280
     1
281
     1
  3
TC_EXTENDED_DATA
360
1A9
  0
DICTIONARY
  5
1AB
330
1AA
100
AcDbDictionary
280
     1
281
     1
  3
TC_EXTENDED_DATA
360
1AC
  0
DICTIONARY
  5
1AE
330
1AD
100
AcDbDictionary
280
     1
281
     1
  3
TC_EXTENDED_DATA
360
1AF
  0
DICTIONARY
  5
1B1
330
1B0
100
AcDbDictionary
280
     1
281
     1
  3
TC_EXTENDED_DATA
360
1B2
  0
DICTIONARY
  5
1B4
330
1B3
100
AcDbDictionary
280
     1
281
     1
  3
TC_EXTENDED_DATA
360
1B5
  0
DICTIONARY
  5
1B7
330
1B6
100
AcDbDictionary
280
     1
281
     1
  3
TC_EXTENDED_DATA
360
1B8
  0
DICTIONARY
  5
1BA
330
1B9
100
AcDbDictionary
280
     1
281
     1
  3
ACAD_DIMASSOC
360
1BC
  3
TC_EXTENDED_DATA
360
1BB
  0
DICTIONARY
  5
1CD
330
1CC
100
AcDbDictionary
280
     1
281
     1
  3
ACAD_DIMASSOC
360
1CF
  3
TC_EXTENDED_DATA
360
1CE
  0
DICTIONARY
  5
1DF
330
1DE
100
AcDbDictionary
280
     1
281
     1
  3
TC_EXTENDED_DATA
360
1E0
  0
DICTIONARY
  5
1E2
330
1E1
100
AcDbDictionary
280
     1
281
     1
  3
TC_EXTENDED_DATA
360
1E3
  0
DICTIONARY
  5
1E5
330
1E4
100
AcDbDictionary
280
     1
281
     1
  3
TC_EXTENDED_DATA
360
1E6
  0
DICTIONARY
  5
1E8
330
1E7
100
AcDbDictionary
280
     1
281
     1
  3
TC_EXTENDED_DATA
360
1E9
  0
DICTIONARY
  5
1EB
330
1EA
100
AcDbDictionary
280
     1
281
     1
  3
TC_EXTENDED_DATA
360
1EC
  0
DICTIONARY
  5
1EE
330
1ED
100
AcDbDictionary
280
     1
281
     1
  3
TC_EXTENDED_DATA
360
1EF
  0
DICTIONARY
  5
1F1
330
1F0
100
AcDbDictionary
280
     1
281
     1
  3
TC_EXTENDED_DATA
360
1F2
  0
DICTIONARY
  5
1F4
330
1F3
100
AcDbDictionary
280
     1
281
     1
  3
TC_EXTENDED_DATA
360
1F5
  0
DICTIONARY
  5
1F7
330
1F6
100
AcDbDictionary
280
     1
281
     1
  3
TC_EXTENDED_DATA
360
1F8
  0
DICTIONARY
  5
1FA
330
1F9
100
AcDbDictionary
280
     1
281
     1
  3
TC_EXTENDED_DATA
360
1FB
  0
DICTIONARY
  5
28E
330
28D
100
AcDbDictionary
280
     1
281
     1
  3
TC_EXTENDED_DATA
360
28F
  0
DICTIONARY
  5
291
330
290
100
AcDbDictionary
280
     1
281
     1
  3
TC_EXTENDED_DATA
360
292
  0
DICTIONARY
  5
294
330
293
100
AcDbDictionary
280
     1
281
     1
  3
TC_EXTENDED_DATA
360
295
  0
DICTIONARY
  5
297
330
296
100
AcDbDictionary
280
     1
281
     1
  3
TC_EXTENDED_DATA
360
298
  0
DICTIONARY
  5
29A
330
299
100
AcDbDictionary
280
     1
281
     1
  3
TC_EXTENDED_DATA
360
29B
  0
DICTIONARY
  5
29D
330
29C
100
AcDbDictionary
280
     1
281
     1
  3
TC_EXTENDED_DATA
360
29E
  0
DICTIONARY
  5
2A0
330
29F
100
AcDbDictionary
280
     1
281
     1
  3
TC_EXTENDED_DATA
360
2A1
  0
DICTIONARY
  5
2A3
330
2A2
100
AcDbDictionary
280
     1
281
     1
  3
TC_EXTENDED_DATA
360
2A4
  0
DICTIONARY
  5
2A6
330
2A5
100
AcDbDictionary
280
     1
281
     1
  3
TC_EXTENDED_DATA
360
2A7
  0
DICTIONARY
  5
2A9
330
2A8
100
AcDbDictionary
280
     1
281
     1
  3
TC_EXTENDED_DATA
360
2AA
  0
DICTIONARY
  5
2AC
330
2AB
100
AcDbDictionary
280
     1
281
     1
  3
TC_EXTENDED_DATA
360
2AD
  0
DICTIONARY
  5
2AF
330
2AE
100
AcDbDictionary
280
     1
281
     1
  3
TC_EXTENDED_DATA
360
2B0
  0
DICTIONARY
  5
2B2
330
2B1
100
AcDbDictionary
280
     1
281
     1
  3
TC_EXTENDED_DATA
360
2B3
  0
DICTIONARY
  5
2B5
330
2B4
100
AcDbDictionary
280
     1
281
     1
  3
TC_EXTENDED_DATA
360
2B6
  0
DICTIONARY
  5
2B8
330
2B7
100
AcDbDictionary
280
     1
281
     1
  3
TC_EXTENDED_DATA
360
2B9
  0
DICTIONARY
  5
2BB
330
2BA
100
AcDbDictionary
280
     1
281
     1
  3
TC_EXTENDED_DATA
360
2BC
  0
DICTIONARY
  5
2BE
330
2BD
100
AcDbDictionary
280
     1
281
     1
  3
TC_EXTENDED_DATA
360
2BF
  0
DICTIONARY
  5
2C1
330
2C0
100
AcDbDictionary
280
     1
281
     1
  3
TC_EXTENDED_DATA
360
2C2
  0
DICTIONARY
  5
2C4
330
2C3
100
AcDbDictionary
280
     1
281
     1
  3
TC_EXTENDED_DATA
360
2C5
  0
DICTIONARY
  5
2C7
330
2C6
100
AcDbDictionary
280
     1
281
     1
  3
TC_EXTENDED_DATA
360
2C8
  0
DICTIONARY
  5
2CA
330
2C9
100
AcDbDictionary
280
     1
281
     1
  3
TC_EXTENDED_DATA
360
2CB
  0
DICTIONARY
  5
2CD
330
2CC
100
AcDbDictionary
280
     1
281
     1
  3
TC_EXTENDED_DATA
360
2CE
  0
DICTIONARY
  5
2D0
330
2CF
100
AcDbDictionary
280
     1
281
     1
  3
TC_EXTENDED_DATA
360
2D1
  0
DICTIONARY
  5
2D3
330
2D2
100
AcDbDictionary
280
     1
281
     1
  3
TC_EXTENDED_DATA
360
2D4
  0
DICTIONARY
  5
2D6
330
2D5
100
AcDbDictionary
280
     1
281
     1
  3
TC_EXTENDED_DATA
360
2D7
  0
DICTIONARY
  5
2D9
330
2D8
100
AcDbDictionary
280
     1
281
     1
  3
TC_EXTENDED_DATA
360
2DA
  0
DICTIONARY
  5
2DC
330
2DB
100
AcDbDictionary
280
     1
281
     1
  3
TC_EXTENDED_DATA
360
2DD
  0
DICTIONARY
  5
2DF
330
2DE
100
AcDbDictionary
280
     1
281
     1
  3
TC_EXTENDED_DATA
360
2E0
  0
DICTIONARY
  5
2E2
330
2E1
100
AcDbDictionary
280
     1
281
     1
  3
TC_EXTENDED_DATA
360
2E3
  0
DICTIONARY
  5
2E5
330
2E4
100
AcDbDictionary
280
     1
281
     1
  3
TC_EXTENDED_DATA
360
2E6
  0
DICTIONARY
  5
2E8
330
2E7
100
AcDbDictionary
280
     1
281
     1
  3
TC_EXTENDED_DATA
360
2E9
  0
DICTIONARY
  5
2EB
330
2EA
100
AcDbDictionary
280
     1
281
     1
  3
TC_EXTENDED_DATA
360
2EC
  0
DICTIONARY
  5
2EE
330
2ED
100
AcDbDictionary
280
     1
281
     1
  3
TC_EXTENDED_DATA
360
2EF
  0
DICTIONARY
  5
2F1
330
2F0
100
AcDbDictionary
280
     1
281
     1
  3
TC_EXTENDED_DATA
360
2F2
  0
DICTIONARY
  5
2F4
330
2F3
100
AcDbDictionary
280
     1
281
     1
  3
TC_EXTENDED_DATA
360
2F5
  0
DICTIONARY
  5
2F7
330
2F6
100
AcDbDictionary
280
     1
281
     1
  3
TC_EXTENDED_DATA
360
2F8
  0
DICTIONARY
  5
2FA
330
2F9
100
AcDbDictionary
280
     1
281
     1
  3
TC_EXTENDED_DATA
360
2FB
  0
DICTIONARY
  5
2FD
330
2FC
100
AcDbDictionary
280
     1
281
     1
  3
TC_EXTENDED_DATA
360
2FE
  0
DICTIONARY
  5
300
330
2FF
100
AcDbDictionary
280
     1
281
     1
  3
TC_EXTENDED_DATA
360
301
  0
DICTIONARY
  5
303
330
302
100
AcDbDictionary
280
     1
281
     1
  3
TC_EXTENDED_DATA
360
304
  0
DICTIONARY
  5
306
330
305
100
AcDbDictionary
280
     1
281
     1
  3
TC_EXTENDED_DATA
360
307
  0
DICTIONARY
  5
309
330
308
100
AcDbDictionary
280
     1
281
     1
  3
TC_EXTENDED_DATA
360
30A
  0
DICTIONARY
  5
30C
330
30B
100
AcDbDictionary
280
     1
281
     1
  3
TC_EXTENDED_DATA
360
30D
  0
DICTIONARY
  5
30F
330
30E
100
AcDbDictionary
280
     1
281
     1
  3
TC_EXTENDED_DATA
360
310
  0
DICTIONARY
  5
312
330
311
100
AcDbDictionary
280
     1
281
     1
  3
TC_EXTENDED_DATA
360
313
  0
DICTIONARY
  5
315
330
314
100
AcDbDictionary
280
     1
281
     1
  3
TC_EXTENDED_DATA
360
316
  0
DICTIONARY
  5
D
102
{ACAD_REACTORS
330
C
102
}
330
C
100
AcDbDictionary
281
     1
  3
Group_1
350
269
  3
Group_1_1
350
317
  3
Group_1_2
350
3EA
  3
Group_1_3
350
511
  3
Group_1_4
350
626
  0
DICTIONARY
  5
1A
102
{ACAD_REACTORS
330
C
102
}
330
C
100
AcDbDictionary
281
     1
  3
A0
350
15D
  3
A1
350
159
  3
A2
350
155
  3
A3
350
1E
  3
A4
350
151
  3
Model
350
22
  0
DICTIONARY
  5
3B
102
{ACAD_REACTORS
330
C
102
}
330
C
100
AcDbDictionary
281
     1
  3
ByBlock
350
3D
  3
ByLayer
350
3C
  3
Global
350
3E
  0
DICTIONARY
  5
182
102
{ACAD_REACTORS
330
C
102
}
330
C
100
AcDbDictionary
281
     1
  3
Standard
350
183
  0
DICTIONARY
  5
17
102
{ACAD_REACTORS
330
C
102
}
330
C
100
AcDbDictionary
281
     1
  3
Standard
350
18
  0
DICTIONARY
  5
19
102
{ACAD_REACTORS
330
C
102
}
330
C
100
AcDbDictionary
281
     1
  0
ACDBDICTIONARYWDFLT
  5
E
102
{ACAD_REACTORS
330
C
102
}
330
C
100
AcDbDictionary
281
     1
  3
Normal
350
F
100
AcDbDictionaryWithDefault
340
F
  0
DICTIONARY
  5
62C
102
{ACAD_REACTORS
330
C
102
}
330
C
100
AcDbDictionary
281
     1
  3
A0
350
62D
  3
A1
350
62E
  3
A2
350
62F
  3
A3
350
630
  3
A4
350
631
  3
A5
350
632
  3
A6
350
633
  3
A7
350
634
  3
A8
350
635
  3
A9
350
636
  3
B0
350
637
  3
B1
350
638
  3
B2
350
639
  3
B3
350
63A
  3
B4
350
63B
  3
B5
350
63C
  3
B6
350
63D
  3
B7
350
63E
  3
B8
350
63F
  3
B9
350
640
  3
C0
350
641
  3
C1
350
642
  3
C2
350
643
  3
C3
350
644
  3
C4
350
645
  3
C5
350
646
  3
C6
350
647
  3
C7
350
648
  3
C8
350
649
  3
C9
350
64A
  3
D0
350
64B
  3
D1
350
64C
  3
D2
350
64D
  0
DICTIONARY
  5
190
102
{ACAD_REACTORS
330
C
102
}
330
C
100
AcDbDictionary
281
     1
  3
Standard
350
191
  0
DICTIONARY
  5
2A
102
{ACAD_REACTORS
330
C
102
}
330
C
100
AcDbDictionary
281
     1
  3
2dWireframe
350
2F
  3
3D Hidden
350
31
  3
3dWireframe
350
30
  3
Basic
350
32
  3
Brighten
350
36
  3
ColorChange
350
3A
  3
Conceptual
350
34
  3
Dim
350
35
  3
Facepattern
350
39
  3
Flat
350
2B
  3
FlatWithEdges
350
2C
  3
Gouraud
350
2D
  3
GouraudWithEdges
350
2E
  3
Linepattern
350
38
  3
Realistic
350
33
  3
Thicken
350
37
  0
XRECORD
  5
672
102
{ACAD_REACTORS
330
C
102
}
330
C
100
AcDbXrecord
280
     1
 90
        1
330
191
  0
DICTIONARY
  5
64E
102
{ACAD_REACTORS
330
C
102
}
330
C
100
AcDbDictionary
281
     1
  3
CANNOSCALE
350
64F
  0
TCOPTIONALDATA
  5
178
102
{ACAD_REACTORS
330
177
102
}
330
177
100
TcOptionalData
 70
     2
 70
    64
 90
        3
  0
TCOPTIONALDATA
  5
17C
102
{ACAD_REACTORS
330
17B
102
}
330
17B
100
TcOptionalData
 70
     2
 70
    64
 90
        1
  0
TCOPTIONALDATA
  5
17F
102
{ACAD_REACTORS
330
17E
102
}
330
17E
100
TcOptionalData
 70
     2
 70
    64
 90
        2
  0
SORTENTSTABLE
  5
1FD
102
{ACAD_REACTORS
330
1FC
102
}
330
1FC
100
AcDbSortentsTable
330
1F
331
192
  5
1B6
331
195
  5
1AD
331
198
  5
1B0
331
19B
  5
1B3
331
1AA
  5
19B
331
1AD
  5
198
331
1B0
  5
195
331
1B3
  5
1AA
331
1B6
  5
192
331
1B9
  5
1F6
331
1CC
  5
1F9
331
1F3
  5
1CC
331
1F6
  5
1B9
331
1F9
  5
1F3
  0
SORTENTSTABLE
  5
31C
102
{ACAD_REACTORS
330
31B
102
}
330
31B
100
AcDbSortentsTable
330
1B
  0
SORTENTSTABLE
  5
26E
102
{ACAD_REACTORS
330
26D
102
}
330
26D
100
AcDbSortentsTable
330
150
  0
SORTENTSTABLE
  5
3EF
102
{ACAD_REACTORS
330
3EE
102
}
330
3EE
100
AcDbSortentsTable
330
154
  0
SORTENTSTABLE
  5
516
102
{ACAD_REACTORS
330
515
102
}
330
515
100
AcDbSortentsTable
330
158
  0
SORTENTSTABLE
  5
62B
102
{ACAD_REACTORS
330
62A
102
}
330
62A
100
AcDbSortentsTable
330
15C
  0
TCOPTIONALDATA
  5
203
102
{ACAD_REACTORS
330
202
102
}
330
202
100
TcOptionalData
 70
     2
 70
     3
  1
Line/Polyline
 10
287.0
 20
105.0
 30
0.0
  0
TCOPTIONALDATA
  5
206
102
{ACAD_REACTORS
330
205
102
}
330
205
100
TcOptionalData
 70
     2
 70
     3
  1
Line/Polyline
 10
10.0
 20
105.0
 30
0.0
  0
TCOPTIONALDATA
  5
209
102
{ACAD_REACTORS
330
208
102
}
330
208
100
TcOptionalData
 70
     2
 70
     3
  1
Line/Polyline
 10
148.5
 20
10.0
 30
0.0
  0
TCOPTIONALDATA
  5
20C
102
{ACAD_REACTORS
330
20B
102
}
330
20B
100
TcOptionalData
 70
     2
 70
     3
  1
Line/Polyline
 10
148.5
 20
200.0
 30
0.0
  0
TCOPTIONALDATA
  5
20F
102
{ACAD_REACTORS
330
20E
102
}
330
20E
100
TcOptionalData
 70
     2
 70
     1
  1
Line/Polyline
  0
TCOPTIONALDATA
  5
212
102
{ACAD_REACTORS
330
211
102
}
330
211
100
TcOptionalData
 70
     2
 70
     1
  1
Line/Polyline
  0
TCOPTIONALDATA
  5
215
102
{ACAD_REACTORS
330
214
102
}
330
214
100
TcOptionalData
 70
     2
 70
     1
  1
Line/Polyline
  0
TCOPTIONALDATA
  5
218
102
{ACAD_REACTORS
330
217
102
}
330
217
100
TcOptionalData
 70
     2
 70
     1
  1
Line/Polyline
  0
TCOPTIONALDATA
  5
21B
102
{ACAD_REACTORS
330
21A
102
}
330
21A
100
TcOptionalData
 70
     2
 70
     1
  1
Line/Polyline
  0
TCOPTIONALDATA
  5
21E
102
{ACAD_REACTORS
330
21D
102
}
330
21D
100
TcOptionalData
 70
     2
 70
     1
  1
Line/Polyline
  0
TCOPTIONALDATA
  5
221
102
{ACAD_REACTORS
330
220
102
}
330
220
100
TcOptionalData
 70
     2
 70
     1
  1
Line/Polyline
  0
TCOPTIONALDATA
  5
224
102
{ACAD_REACTORS
330
223
102
}
330
223
100
TcOptionalData
 70
     2
 70
     1
  1
Line/Polyline
  0
TCOPTIONALDATA
  5
227
102
{ACAD_REACTORS
330
226
102
}
330
226
100
TcOptionalData
 70
     2
 70
     1
  1
Line/Polyline
  0
TCOPTIONALDATA
  5
22A
102
{ACAD_REACTORS
330
229
102
}
330
229
100
TcOptionalData
 70
     2
 70
     1
  1
Line/Polyline
  0
TCOPTIONALDATA
  5
22D
102
{ACAD_REACTORS
330
22C
102
}
330
22C
100
TcOptionalData
 70
     2
 70
     1
  1
Line/Polyline
  0
TCOPTIONALDATA
  5
230
102
{ACAD_REACTORS
330
22F
102
}
330
22F
100
TcOptionalData
 70
     2
 70
     1
  1
Line/Polyline
  0
TCOPTIONALDATA
  5
233
102
{ACAD_REACTORS
330
232
102
}
330
232
100
TcOptionalData
 70
     2
 70
     1
  1
Line/Polyline
  0
TCOPTIONALDATA
  5
236
102
{ACAD_REACTORS
330
235
102
}
330
235
100
TcOptionalData
 70
     2
 70
     1
  1
Line/Polyline
  0
TCOPTIONALDATA
  5
239
102
{ACAD_REACTORS
330
238
102
}
330
238
100
TcOptionalData
 70
     2
 70
     1
  1
Line/Polyline
  0
TCOPTIONALDATA
  5
23C
102
{ACAD_REACTORS
330
23B
102
}
330
23B
100
TcOptionalData
 70
     2
 70
     1
  1
Line/Polyline
  0
TCOPTIONALDATA
  5
23F
102
{ACAD_REACTORS
330
23E
102
}
330
23E
100
TcOptionalData
 70
     2
 70
     1
  1
Line/Polyline
  0
TCOPTIONALDATA
  5
242
102
{ACAD_REACTORS
330
241
102
}
330
241
100
TcOptionalData
 70
     2
 70
     1
  1
Line/Polyline
  0
TCOPTIONALDATA
  5
245
102
{ACAD_REACTORS
330
244
102
}
330
244
100
TcOptionalData
 70
     2
 70
     1
  1
Line/Polyline
  0
TCOPTIONALDATA
  5
249
102
{ACAD_REACTORS
330
248
102
}
330
248
100
TcOptionalData
 70
     2
 70
    18
 10
180.7374811661549
 20
16.0
 30
0.0
  1
Arial
 70
     0
  0
TCOPTIONALDATA
  5
24D
102
{ACAD_REACTORS
330
24C
102
}
330
24C
100
TcOptionalData
 70
     2
 70
    18
 10
181.1309002362765
 20
26.0
 30
0.0
  1
Arial
 70
     0
  0
TCOPTIONALDATA
  5
250
102
{ACAD_REACTORS
330
24F
102
}
330
24F
100
TcOptionalData
 70
     2
 70
    18
 10
192.0
 20
26.0
 30
0.0
  1
Arial
 70
     0
  0
TCOPTIONALDATA
  5
253
102
{ACAD_REACTORS
330
252
102
}
330
252
100
TcOptionalData
 70
     2
 70
    18
 10
217.0
 20
26.0
 30
0.0
  1
Arial
 70
     0
  0
TCOPTIONALDATA
  5
256
102
{ACAD_REACTORS
330
255
102
}
330
255
100
TcOptionalData
 70
     2
 70
    18
 10
242.0
 20
16.0
 30
0.0
  1
Arial
 70
     0
  0
TCOPTIONALDATA
  5
259
102
{ACAD_REACTORS
330
258
102
}
330
258
100
TcOptionalData
 70
     2
 70
    18
 10
277.0
 20
26.0
 30
0.0
  1
Arial
 70
     0
  0
TCOPTIONALDATA
  5
25C
102
{ACAD_REACTORS
330
25B
102
}
330
25B
100
TcOptionalData
 70
     2
 70
    18
 10
177.0
 20
46.0
 30
0.0
  1
Arial
 70
     0
  0
TCOPTIONALDATA
  5
25F
102
{ACAD_REACTORS
330
25E
102
}
330
25E
100
TcOptionalData
 70
     2
 70
     1
  1
Line/Polyline
  0
TCOPTIONALDATA
  5
262
102
{ACAD_REACTORS
330
261
102
}
330
261
100
TcOptionalData
 70
     2
 70
     1
  1
Line/Polyline
  0
TCOPTIONALDATA
  5
265
102
{ACAD_REACTORS
330
264
102
}
330
264
100
TcOptionalData
 70
     2
 70
     1
  1
Line/Polyline
  0
TCOPTIONALDATA
  5
268
102
{ACAD_REACTORS
330
267
102
}
330
267
100
TcOptionalData
 70
     2
 70
     1
  1
Line/Polyline
  0
TCOPTIONALDATA
  5
34D
102
{ACAD_REACTORS
330
34C
102
}
330
34C
100
TcOptionalData
 70
     2
 70
     1
  1
Line/Polyline
  0
TCOPTIONALDATA
  5
350
102
{ACAD_REACTORS
330
34F
102
}
330
34F
100
TcOptionalData
 70
     2
 70
     1
  1
Line/Polyline
  0
TCOPTIONALDATA
  5
353
102
{ACAD_REACTORS
330
352
102
}
330
352
100
TcOptionalData
 70
     2
 70
     1
  1
Line/Polyline
  0
TCOPTIONALDATA
  5
356
102
{ACAD_REACTORS
330
355
102
}
330
355
100
TcOptionalData
 70
     2
 70
     1
  1
Line/Polyline
  0
TCOPTIONALDATA
  5
359
102
{ACAD_REACTORS
330
358
102
}
330
358
100
TcOptionalData
 70
     2
 70
     1
  1
Line/Polyline
  0
TCOPTIONALDATA
  5
35C
102
{ACAD_REACTORS
330
35B
102
}
330
35B
100
TcOptionalData
 70
     2
 70
     1
  1
Line/Polyline
  0
TCOPTIONALDATA
  5
35F
102
{ACAD_REACTORS
330
35E
102
}
330
35E
100
TcOptionalData
 70
     2
 70
     1
  1
Line/Polyline
  0
TCOPTIONALDATA
  5
362
102
{ACAD_REACTORS
330
361
102
}
330
361
100
TcOptionalData
 70
     2
 70
     1
  1
Line/Polyline
  0
TCOPTIONALDATA
  5
365
102
{ACAD_REACTORS
330
364
102
}
330
364
100
TcOptionalData
 70
     2
 70
     1
  1
Line/Polyline
  0
TCOPTIONALDATA
  5
368
102
{ACAD_REACTORS
330
367
102
}
330
367
100
TcOptionalData
 70
     2
 70
     1
  1
Line/Polyline
  0
TCOPTIONALDATA
  5
36B
102
{ACAD_REACTORS
330
36A
102
}
330
36A
100
TcOptionalData
 70
     2
 70
     1
  1
Line/Polyline
  0
TCOPTIONALDATA
  5
36E
102
{ACAD_REACTORS
330
36D
102
}
330
36D
100
TcOptionalData
 70
     2
 70
     1
  1
Line/Polyline
  0
TCOPTIONALDATA
  5
371
102
{ACAD_REACTORS
330
370
102
}
330
370
100
TcOptionalData
 70
     2
 70
     1
  1
Line/Polyline
  0
TCOPTIONALDATA
  5
374
102
{ACAD_REACTORS
330
373
102
}
330
373
100
TcOptionalData
 70
     2
 70
     1
  1
Line/Polyline
  0
TCOPTIONALDATA
  5
377
102
{ACAD_REACTORS
330
376
102
}
330
376
100
TcOptionalData
 70
     2
 70
     1
  1
Line/Polyline
  0
TCOPTIONALDATA
  5
37A
102
{ACAD_REACTORS
330
379
102
}
330
379
100
TcOptionalData
 70
     2
 70
     3
  1
Line/Polyline
 10
584.0
 20
343.3333435058594
 30
0.0
  0
TCOPTIONALDATA
  5
37D
102
{ACAD_REACTORS
330
37C
102
}
330
37C
100
TcOptionalData
 70
     2
 70
     3
  1
Line/Polyline
 10
81.75
 20
10.0
 30
0.0
  0
TCOPTIONALDATA
  5
380
102
{ACAD_REACTORS
330
37F
102
}
330
37F
100
TcOptionalData
 70
     2
 70
     1
  1
Line/Polyline
  0
TCOPTIONALDATA
  5
383
102
{ACAD_REACTORS
330
382
102
}
330
382
100
TcOptionalData
 70
     2
 70
     1
  1
Line/Polyline
  0
TCOPTIONALDATA
  5
386
102
{ACAD_REACTORS
330
385
102
}
330
385
100
TcOptionalData
 70
     2
 70
     3
  1
Line/Polyline
 10
297.0
 20
410.0
 30
0.0
  0
TCOPTIONALDATA
  5
389
102
{ACAD_REACTORS
330
388
102
}
330
388
100
TcOptionalData
 70
     2
 70
     3
  1
Line/Polyline
 10
10.0
 20
210.0
 30
0.0
  0
TCOPTIONALDATA
  5
38C
102
{ACAD_REACTORS
330
38B
102
}
330
38B
100
TcOptionalData
 70
     2
 70
     3
  1
Line/Polyline
 10
297.0
 20
10.0
 30
0.0
  0
TCOPTIONALDATA
  5
38F
102
{ACAD_REACTORS
330
38E
102
}
330
38E
100
TcOptionalData
 70
     2
 70
     3
  1
Line/Polyline
 10
584.0
 20
210.0
 30
0.0
  0
TCOPTIONALDATA
  5
392
102
{ACAD_REACTORS
330
391
102
}
330
391
100
TcOptionalData
 70
     2
 70
    18
 10
474.0
 20
46.0
 30
0.0
  1
Arial
 70
     0
  0
TCOPTIONALDATA
  5
395
102
{ACAD_REACTORS
330
394
102
}
330
394
100
TcOptionalData
 70
     2
 70
    18
 10
574.0
 20
26.0
 30
0.0
  1
Arial
 70
     0
  0
TCOPTIONALDATA
  5
398
102
{ACAD_REACTORS
330
397
102
}
330
397
100
TcOptionalData
 70
     2
 70
    18
 10
539.0
 20
16.0
 30
0.0
  1
Arial
 70
     0
  0
TCOPTIONALDATA
  5
39B
102
{ACAD_REACTORS
330
39A
102
}
330
39A
100
TcOptionalData
 70
     2
 70
    18
 10
514.0
 20
26.0
 30
0.0
  1
Arial
 70
     0
  0
TCOPTIONALDATA
  5
39E
102
{ACAD_REACTORS
330
39D
102
}
330
39D
100
TcOptionalData
 70
     2
 70
    18
 10
489.0
 20
26.0
 30
0.0
  1
Arial
 70
     0
  0
TCOPTIONALDATA
  5
3A1
102
{ACAD_REACTORS
330
3A0
102
}
330
3A0
100
TcOptionalData
 70
     2
 70
    18
 10
477.2046295068203
 20
26.0
 30
0.0
  1
Arial
 70
     0
  0
TCOPTIONALDATA
  5
3A4
102
{ACAD_REACTORS
330
3A3
102
}
330
3A3
100
TcOptionalData
 70
     2
 70
    18
 10
477.3931371248685
 20
16.0
 30
0.0
  1
Arial
 70
     0
  0
TCOPTIONALDATA
  5
3A7
102
{ACAD_REACTORS
330
3A6
102
}
330
3A6
100
TcOptionalData
 70
     2
 70
     1
  1
Line/Polyline
  0
TCOPTIONALDATA
  5
3AA
102
{ACAD_REACTORS
330
3A9
102
}
330
3A9
100
TcOptionalData
 70
     2
 70
     1
  1
Line/Polyline
  0
TCOPTIONALDATA
  5
3AD
102
{ACAD_REACTORS
330
3AC
102
}
330
3AC
100
TcOptionalData
 70
     2
 70
     1
  1
Line/Polyline
  0
TCOPTIONALDATA
  5
3B0
102
{ACAD_REACTORS
330
3AF
102
}
330
3AF
100
TcOptionalData
 70
     2
 70
     1
  1
Line/Polyline
  0
TCOPTIONALDATA
  5
3B3
102
{ACAD_REACTORS
330
3B2
102
}
330
3B2
100
TcOptionalData
 70
     2
 70
     1
  1
Line/Polyline
  0
TCOPTIONALDATA
  5
3B6
102
{ACAD_REACTORS
330
3B5
102
}
330
3B5
100
TcOptionalData
 70
     2
 70
     1
  1
Line/Polyline
  0
TCOPTIONALDATA
  5
3B9
102
{ACAD_REACTORS
330
3B8
102
}
330
3B8
100
TcOptionalData
 70
     2
 70
     1
  1
Line/Polyline
  0
TCOPTIONALDATA
  5
3BC
102
{ACAD_REACTORS
330
3BB
102
}
330
3BB
100
TcOptionalData
 70
     2
 70
     1
  1
Line/Polyline
  0
TCOPTIONALDATA
  5
3BF
102
{ACAD_REACTORS
330
3BE
102
}
330
3BE
100
TcOptionalData
 70
     2
 70
     1
  1
Line/Polyline
  0
TCOPTIONALDATA
  5
3C2
102
{ACAD_REACTORS
330
3C1
102
}
330
3C1
100
TcOptionalData
 70
     2
 70
     1
  1
Line/Polyline
  0
TCOPTIONALDATA
  5
3C5
102
{ACAD_REACTORS
330
3C4
102
}
330
3C4
100
TcOptionalData
 70
     2
 70
     1
  1
Line/Polyline
  0
TCOPTIONALDATA
  5
3C8
102
{ACAD_REACTORS
330
3C7
102
}
330
3C7
100
TcOptionalData
 70
     2
 70
     1
  1
Line/Polyline
  0
TCOPTIONALDATA
  5
3CB
102
{ACAD_REACTORS
330
3CA
102
}
330
3CA
100
TcOptionalData
 70
     2
 70
     1
  1
Line/Polyline
  0
TCOPTIONALDATA
  5
3CE
102
{ACAD_REACTORS
330
3CD
102
}
330
3CD
100
TcOptionalData
 70
     2
 70
     1
  1
Line/Polyline
  0
TCOPTIONALDATA
  5
3D1
102
{ACAD_REACTORS
330
3D0
102
}
330
3D0
100
TcOptionalData
 70
     2
 70
     1
  1
Line/Polyline
  0
TCOPTIONALDATA
  5
3D4
102
{ACAD_REACTORS
330
3D3
102
}
330
3D3
100
TcOptionalData
 70
     2
 70
     1
  1
Line/Polyline
  0
TCOPTIONALDATA
  5
3D7
102
{ACAD_REACTORS
330
3D6
102
}
330
3D6
100
TcOptionalData
 70
     2
 70
     1
  1
Line/Polyline
  0
TCOPTIONALDATA
  5
3DA
102
{ACAD_REACTORS
330
3D9
102
}
330
3D9
100
TcOptionalData
 70
     2
 70
     1
  1
Line/Polyline
  0
TCOPTIONALDATA
  5
3DD
102
{ACAD_REACTORS
330
3DC
102
}
330
3DC
100
TcOptionalData
 70
     2
 70
     1
  1
Line/Polyline
  0
TCOPTIONALDATA
  5
3E0
102
{ACAD_REACTORS
330
3DF
102
}
330
3DF
100
TcOptionalData
 70
     2
 70
     1
  1
Line/Polyline
  0
TCOPTIONALDATA
  5
3E3
102
{ACAD_REACTORS
330
3E2
102
}
330
3E2
100
TcOptionalData
 70
     2
 70
     1
  1
Line/Polyline
  0
TCOPTIONALDATA
  5
3E6
102
{ACAD_REACTORS
330
3E5
102
}
330
3E5
100
TcOptionalData
 70
     2
 70
     1
  1
Line/Polyline
  0
TCOPTIONALDATA
  5
3E9
102
{ACAD_REACTORS
330
3E8
102
}
330
3E8
100
TcOptionalData
 70
     2
 70
     1
  1
Line/Polyline
  0
TCOPTIONALDATA
  5
3F5
102
{ACAD_REACTORS
330
3F4
102
}
330
3F4
100
TcOptionalData
 70
     2
 70
     1
  1
Line/Polyline
  0
TCOPTIONALDATA
  5
3F8
102
{ACAD_REACTORS
330
3F7
102
}
330
3F7
100
TcOptionalData
 70
     2
 70
     1
  1
Line/Polyline
  0
TCOPTIONALDATA
  5
3FB
102
{ACAD_REACTORS
330
3FA
102
}
330
3FA
100
TcOptionalData
 70
     2
 70
     1
  1
Line/Polyline
  0
TCOPTIONALDATA
  5
3FE
102
{ACAD_REACTORS
330
3FD
102
}
330
3FD
100
TcOptionalData
 70
     2
 70
     1
  1
Line/Polyline
  0
TCOPTIONALDATA
  5
401
102
{ACAD_REACTORS
330
400
102
}
330
400
100
TcOptionalData
 70
     2
 70
     1
  1
Line/Polyline
  0
TCOPTIONALDATA
  5
404
102
{ACAD_REACTORS
330
403
102
}
330
403
100
TcOptionalData
 70
     2
 70
     1
  1
Line/Polyline
  0
TCOPTIONALDATA
  5
407
102
{ACAD_REACTORS
330
406
102
}
330
406
100
TcOptionalData
 70
     2
 70
     1
  1
Line/Polyline
  0
TCOPTIONALDATA
  5
40A
102
{ACAD_REACTORS
330
409
102
}
330
409
100
TcOptionalData
 70
     2
 70
     1
  1
Line/Polyline
  0
TCOPTIONALDATA
  5
40D
102
{ACAD_REACTORS
330
40C
102
}
330
40C
100
TcOptionalData
 70
     2
 70
     1
  1
Line/Polyline
  0
TCOPTIONALDATA
  5
410
102
{ACAD_REACTORS
330
40F
102
}
330
40F
100
TcOptionalData
 70
     2
 70
     1
  1
Line/Polyline
  0
TCOPTIONALDATA
  5
413
102
{ACAD_REACTORS
330
412
102
}
330
412
100
TcOptionalData
 70
     2
 70
     1
  1
Line/Polyline
  0
TCOPTIONALDATA
  5
416
102
{ACAD_REACTORS
330
415
102
}
330
415
100
TcOptionalData
 70
     2
 70
     1
  1
Line/Polyline
  0
TCOPTIONALDATA
  5
419
102
{ACAD_REACTORS
330
418
102
}
330
418
100
TcOptionalData
 70
     2
 70
     1
  1
Line/Polyline
  0
TCOPTIONALDATA
  5
41C
102
{ACAD_REACTORS
330
41B
102
}
330
41B
100
TcOptionalData
 70
     2
 70
     1
  1
Line/Polyline
  0
TCOPTIONALDATA
  5
41F
102
{ACAD_REACTORS
330
41E
102
}
330
41E
100
TcOptionalData
 70
     2
 70
     1
  1
Line/Polyline
  0
TCOPTIONALDATA
  5
422
102
{ACAD_REACTORS
330
421
102
}
330
421
100
TcOptionalData
 70
     2
 70
     1
  1
Line/Polyline
  0
TCOPTIONALDATA
  5
425
102
{ACAD_REACTORS
330
424
102
}
330
424
100
TcOptionalData
 70
     2
 70
     1
  1
Line/Polyline
  0
TCOPTIONALDATA
  5
428
102
{ACAD_REACTORS
330
427
102
}
330
427
100
TcOptionalData
 70
     2
 70
     1
  1
Line/Polyline
  0
TCOPTIONALDATA
  5
42B
102
{ACAD_REACTORS
330
42A
102
}
330
42A
100
TcOptionalData
 70
     2
 70
     1
  1
Line/Polyline
  0
TCOPTIONALDATA
  5
42E
102
{ACAD_REACTORS
330
42D
102
}
330
42D
100
TcOptionalData
 70
     2
 70
     1
  1
Line/Polyline
  0
TCOPTIONALDATA
  5
462
102
{ACAD_REACTORS
330
461
102
}
330
461
100
TcOptionalData
 70
     2
 70
    18
 10
686.0000152587891
 20
68.0
 30
0.0
  1
Arial
 70
     0
  0
TCOPTIONALDATA
  5
465
102
{ACAD_REACTORS
330
464
102
}
330
464
100
TcOptionalData
 70
     2
 70
    18
 10
731.0000152587891
 20
40.0
 30
0.0
  1
Arial
 70
     0
  0
TCOPTIONALDATA
  5
468
102
{ACAD_REACTORS
330
467
102
}
330
467
100
TcOptionalData
 70
     2
 70
    18
 10
688.783299415474
 20
40.0
 30
0.0
  1
Arial
 70
     0
  0
TCOPTIONALDATA
  5
46B
102
{ACAD_REACTORS
330
46A
102
}
330
46A
100
TcOptionalData
 70
     2
 70
    18
 10
806.0
 20
40.0
 30
0.0
  1
Arial
 70
     0
  0
TCOPTIONALDATA
  5
46E
102
{ACAD_REACTORS
330
46D
102
}
330
46D
100
TcOptionalData
 70
     2
 70
    18
 10
776.0000152587891
 20
26.0
 30
0.0
  1
Arial
 70
     0
  0
TCOPTIONALDATA
  5
471
102
{ACAD_REACTORS
330
470
102
}
330
470
100
TcOptionalData
 70
     2
 70
    18
 10
689.5439897165563
 20
26.0742949459231
 30
0.0
  1
Arial
 70
     0
  0
TCOPTIONALDATA
  5
474
102
{ACAD_REACTORS
330
473
102
}
330
473
100
TcOptionalData
 70
     2
 70
    18
 10
699.0000152587891
 20
40.0
 30
0.0
  1
Arial
 70
     0
  0
TCOPTIONALDATA
  5
477
102
{ACAD_REACTORS
330
476
102
}
330
476
100
TcOptionalData
 70
     2
 70
     1
  1
Line/Polyline
  0
TCOPTIONALDATA
  5
47A
102
{ACAD_REACTORS
330
479
102
}
330
479
100
TcOptionalData
 70
     2
 70
     1
  1
Line/Polyline
  0
TCOPTIONALDATA
  5
47D
102
{ACAD_REACTORS
330
47C
102
}
330
47C
100
TcOptionalData
 70
     2
 70
     1
  1
Line/Polyline
  0
TCOPTIONALDATA
  5
480
102
{ACAD_REACTORS
330
47F
102
}
330
47F
100
TcOptionalData
 70
     2
 70
     1
  1
Line/Polyline
  0
TCOPTIONALDATA
  5
483
102
{ACAD_REACTORS
330
482
102
}
330
482
100
TcOptionalData
 70
     2
 70
     1
  1
Line/Polyline
  0
TCOPTIONALDATA
  5
486
102
{ACAD_REACTORS
330
485
102
}
330
485
100
TcOptionalData
 70
     2
 70
     1
  1
Line/Polyline
  0
TCOPTIONALDATA
  5
489
102
{ACAD_REACTORS
330
488
102
}
330
488
100
TcOptionalData
 70
     2
 70
     1
  1
Line/Polyline
  0
TCOPTIONALDATA
  5
48C
102
{ACAD_REACTORS
330
48B
102
}
330
48B
100
TcOptionalData
 70
     2
 70
     1
  1
Line/Polyline
  0
TCOPTIONALDATA
  5
48F
102
{ACAD_REACTORS
330
48E
102
}
330
48E
100
TcOptionalData
 70
     2
 70
     1
  1
Line/Polyline
  0
TCOPTIONALDATA
  5
492
102
{ACAD_REACTORS
330
491
102
}
330
491
100
TcOptionalData
 70
     2
 70
     1
  1
Line/Polyline
  0
TCOPTIONALDATA
  5
495
102
{ACAD_REACTORS
330
494
102
}
330
494
100
TcOptionalData
 70
     2
 70
     1
  1
Line/Polyline
  0
TCOPTIONALDATA
  5
498
102
{ACAD_REACTORS
330
497
102
}
330
497
100
TcOptionalData
 70
     2
 70
     1
  1
Line/Polyline
  0
TCOPTIONALDATA
  5
49B
102
{ACAD_REACTORS
330
49A
102
}
330
49A
100
TcOptionalData
 70
     2
 70
     1
  1
Line/Polyline
  0
TCOPTIONALDATA
  5
49E
102
{ACAD_REACTORS
330
49D
102
}
330
49D
100
TcOptionalData
 70
     2
 70
     1
  1
Line/Polyline
  0
TCOPTIONALDATA
  5
4A1
102
{ACAD_REACTORS
330
4A0
102
}
330
4A0
100
TcOptionalData
 70
     2
 70
     1
  1
Line/Polyline
  0
TCOPTIONALDATA
  5
4A4
102
{ACAD_REACTORS
330
4A3
102
}
330
4A3
100
TcOptionalData
 70
     2
 70
     1
  1
Line/Polyline
  0
TCOPTIONALDATA
  5
4A7
102
{ACAD_REACTORS
330
4A6
102
}
330
4A6
100
TcOptionalData
 70
     2
 70
     1
  1
Line/Polyline
  0
TCOPTIONALDATA
  5
4AA
102
{ACAD_REACTORS
330
4A9
102
}
330
4A9
100
TcOptionalData
 70
     2
 70
     1
  1
Line/Polyline
  0
TCOPTIONALDATA
  5
4AD
102
{ACAD_REACTORS
330
4AC
102
}
330
4AC
100
TcOptionalData
 70
     2
 70
     1
  1
Line/Polyline
  0
TCOPTIONALDATA
  5
4B0
102
{ACAD_REACTORS
330
4AF
102
}
330
4AF
100
TcOptionalData
 70
     2
 70
     1
  1
Line/Polyline
  0
TCOPTIONALDATA
  5
4B3
102
{ACAD_REACTORS
330
4B2
102
}
330
4B2
100
TcOptionalData
 70
     2
 70
     1
  1
Line/Polyline
  0
TCOPTIONALDATA
  5
4B6
102
{ACAD_REACTORS
330
4B5
102
}
330
4B5
100
TcOptionalData
 70
     2
 70
     1
  1
Line/Polyline
  0
TCOPTIONALDATA
  5
4B9
102
{ACAD_REACTORS
330
4B8
102
}
330
4B8
100
TcOptionalData
 70
     2
 70
     1
  1
Line/Polyline
  0
TCOPTIONALDATA
  5
4BC
102
{ACAD_REACTORS
330
4BB
102
}
330
4BB
100
TcOptionalData
 70
     2
 70
     1
  1
Line/Polyline
  0
TCOPTIONALDATA
  5
4BF
102
{ACAD_REACTORS
330
4BE
102
}
330
4BE
100
TcOptionalData
 70
     2
 70
     3
  1
Line/Polyline
 10
821.0
 20
504.75
 30
0.0
  0
TCOPTIONALDATA
  5
4C2
102
{ACAD_REACTORS
330
4C1
102
}
330
4C1
100
TcOptionalData
 70
     2
 70
     1
  1
Line/Polyline
  0
TCOPTIONALDATA
  5
4C5
102
{ACAD_REACTORS
330
4C4
102
}
330
4C4
100
TcOptionalData
 70
     2
 70
     1
  1
Line/Polyline
  0
TCOPTIONALDATA
  5
4C8
102
{ACAD_REACTORS
330
4C7
102
}
330
4C7
100
TcOptionalData
 70
     2
 70
     1
  1
Line/Polyline
  0
TCOPTIONALDATA
  5
4CB
102
{ACAD_REACTORS
330
4CA
102
}
330
4CA
100
TcOptionalData
 70
     2
 70
     1
  1
Line/Polyline
  0
TCOPTIONALDATA
  5
4CE
102
{ACAD_REACTORS
330
4CD
102
}
330
4CD
100
TcOptionalData
 70
     2
 70
     1
  1
Line/Polyline
  0
TCOPTIONALDATA
  5
4D1
102
{ACAD_REACTORS
330
4D0
102
}
330
4D0
100
TcOptionalData
 70
     2
 70
     1
  1
Line/Polyline
  0
TCOPTIONALDATA
  5
4D4
102
{ACAD_REACTORS
330
4D3
102
}
330
4D3
100
TcOptionalData
 70
     2
 70
     1
  1
Line/Polyline
  0
TCOPTIONALDATA
  5
4D7
102
{ACAD_REACTORS
330
4D6
102
}
330
4D6
100
TcOptionalData
 70
     2
 70
     1
  1
Line/Polyline
  0
TCOPTIONALDATA
  5
4DA
102
{ACAD_REACTORS
330
4D9
102
}
330
4D9
100
TcOptionalData
 70
     2
 70
     1
  1
Line/Polyline
  0
TCOPTIONALDATA
  5
4DD
102
{ACAD_REACTORS
330
4DC
102
}
330
4DC
100
TcOptionalData
 70
     2
 70
     1
  1
Line/Polyline
  0
TCOPTIONALDATA
  5
4E0
102
{ACAD_REACTORS
330
4DF
102
}
330
4DF
100
TcOptionalData
 70
     2
 70
     1
  1
Line/Polyline
  0
TCOPTIONALDATA
  5
4E3
102
{ACAD_REACTORS
330
4E2
102
}
330
4E2
100
TcOptionalData
 70
     2
 70
     1
  1
Line/Polyline
  0
TCOPTIONALDATA
  5
4E6
102
{ACAD_REACTORS
330
4E5
102
}
330
4E5
100
TcOptionalData
 70
     2
 70
     1
  1
Line/Polyline
  0
TCOPTIONALDATA
  5
4E9
102
{ACAD_REACTORS
330
4E8
102
}
330
4E8
100
TcOptionalData
 70
     2
 70
     1
  1
Line/Polyline
  0
TCOPTIONALDATA
  5
4EC
102
{ACAD_REACTORS
330
4EB
102
}
330
4EB
100
TcOptionalData
 70
     2
 70
     1
  1
Line/Polyline
  0
TCOPTIONALDATA
  5
4EF
102
{ACAD_REACTORS
330
4EE
102
}
330
4EE
100
TcOptionalData
 70
     2
 70
     3
  1
Line/Polyline
 10
20.0
 20
504.75
 30
0.0
  0
TCOPTIONALDATA
  5
4F2
102
{ACAD_REACTORS
330
4F1
102
}
330
4F1
100
TcOptionalData
 70
     2
 70
     1
  1
Line/Polyline
  0
TCOPTIONALDATA
  5
4F5
102
{ACAD_REACTORS
330
4F4
102
}
330
4F4
100
TcOptionalData
 70
     2
 70
     1
  1
Line/Polyline
  0
TCOPTIONALDATA
  5
4F8
102
{ACAD_REACTORS
330
4F7
102
}
330
4F7
100
TcOptionalData
 70
     2
 70
     1
  1
Line/Polyline
  0
TCOPTIONALDATA
  5
4FB
102
{ACAD_REACTORS
330
4FA
102
}
330
4FA
100
TcOptionalData
 70
     2
 70
     1
  1
Line/Polyline
  0
TCOPTIONALDATA
  5
4FE
102
{ACAD_REACTORS
330
4FD
102
}
330
4FD
100
TcOptionalData
 70
     2
 70
     1
  1
Line/Polyline
  0
TCOPTIONALDATA
  5
501
102
{ACAD_REACTORS
330
500
102
}
330
500
100
TcOptionalData
 70
     2
 70
     1
  1
Line/Polyline
  0
TCOPTIONALDATA
  5
504
102
{ACAD_REACTORS
330
503
102
}
330
503
100
TcOptionalData
 70
     2
 70
     1
  1
Line/Polyline
  0
TCOPTIONALDATA
  5
507
102
{ACAD_REACTORS
330
506
102
}
330
506
100
TcOptionalData
 70
     2
 70
     1
  1
Line/Polyline
  0
TCOPTIONALDATA
  5
50A
102
{ACAD_REACTORS
330
509
102
}
330
509
100
TcOptionalData
 70
     2
 70
     1
  1
Line/Polyline
  0
TCOPTIONALDATA
  5
50D
102
{ACAD_REACTORS
330
50C
102
}
330
50C
100
TcOptionalData
 70
     2
 70
     1
  1
Line/Polyline
  0
TCOPTIONALDATA
  5
510
102
{ACAD_REACTORS
330
50F
102
}
330
50F
100
TcOptionalData
 70
     2
 70
     1
  1
Line/Polyline
  0
TCOPTIONALDATA
  5
51C
102
{ACAD_REACTORS
330
51B
102
}
330
51B
100
TcOptionalData
 70
     2
 70
    18
 10
1033.500015258789
 20
67.5
 30
0.0
  1
Arial
 70
     0
  0
TCOPTIONALDATA
  5
51F
102
{ACAD_REACTORS
330
51E
102
}
330
51E
100
TcOptionalData
 70
     2
 70
    18
 10
1078.500015258789
 20
39.5
 30
0.0
  1
Arial
 70
     0
  0
TCOPTIONALDATA
  5
522
102
{ACAD_REACTORS
330
521
102
}
330
521
100
TcOptionalData
 70
     2
 70
    18
 10
1030.519837373329
 20
39.5
 30
0.0
  1
Arial
 70
     0
  0
TCOPTIONALDATA
  5
525
102
{ACAD_REACTORS
330
524
102
}
330
524
100
TcOptionalData
 70
     2
 70
    18
 10
1153.5
 20
39.5
 30
0.0
  1
Arial
 70
     0
  0
TCOPTIONALDATA
  5
528
102
{ACAD_REACTORS
330
527
102
}
330
527
100
TcOptionalData
 70
     2
 70
    18
 10
1123.500015258789
 20
25.5
 30
0.0
  1
Arial
 70
     0
  0
TCOPTIONALDATA
  5
52B
102
{ACAD_REACTORS
330
52A
102
}
330
52A
100
TcOptionalData
 70
     2
 70
    18
 10
1036.250948691521
 20
25.5
 30
0.0
  1
Arial
 70
     0
  0
TCOPTIONALDATA
  5
52E
102
{ACAD_REACTORS
330
52D
102
}
330
52D
100
TcOptionalData
 70
     2
 70
    18
 10
1046.500015258789
 20
39.5
 30
0.0
  1
Arial
 70
     0
  0
TCOPTIONALDATA
  5
531
102
{ACAD_REACTORS
330
530
102
}
330
530
100
TcOptionalData
 70
     2
 70
     1
  1
Line/Polyline
  0
TCOPTIONALDATA
  5
534
102
{ACAD_REACTORS
330
533
102
}
330
533
100
TcOptionalData
 70
     2
 70
     1
  1
Line/Polyline
  0
TCOPTIONALDATA
  5
537
102
{ACAD_REACTORS
330
536
102
}
330
536
100
TcOptionalData
 70
     2
 70
     1
  1
Line/Polyline
  0
TCOPTIONALDATA
  5
53A
102
{ACAD_REACTORS
330
539
102
}
330
539
100
TcOptionalData
 70
     2
 70
     1
  1
Line/Polyline
  0
TCOPTIONALDATA
  5
53D
102
{ACAD_REACTORS
330
53C
102
}
330
53C
100
TcOptionalData
 70
     2
 70
     1
  1
Line/Polyline
  0
TCOPTIONALDATA
  5
540
102
{ACAD_REACTORS
330
53F
102
}
330
53F
100
TcOptionalData
 70
     2
 70
     1
  1
Line/Polyline
  0
TCOPTIONALDATA
  5
543
102
{ACAD_REACTORS
330
542
102
}
330
542
100
TcOptionalData
 70
     2
 70
     1
  1
Line/Polyline
  0
TCOPTIONALDATA
  5
546
102
{ACAD_REACTORS
330
545
102
}
330
545
100
TcOptionalData
 70
     2
 70
     1
  1
Line/Polyline
  0
TCOPTIONALDATA
  5
549
102
{ACAD_REACTORS
330
548
102
}
330
548
100
TcOptionalData
 70
     2
 70
     1
  1
Line/Polyline
  0
TCOPTIONALDATA
  5
54C
102
{ACAD_REACTORS
330
54B
102
}
330
54B
100
TcOptionalData
 70
     2
 70
     1
  1
Line/Polyline
  0
TCOPTIONALDATA
  5
54F
102
{ACAD_REACTORS
330
54E
102
}
330
54E
100
TcOptionalData
 70
     2
 70
     1
  1
Line/Polyline
  0
TCOPTIONALDATA
  5
552
102
{ACAD_REACTORS
330
551
102
}
330
551
100
TcOptionalData
 70
     2
 70
     1
  1
Line/Polyline
  0
TCOPTIONALDATA
  5
555
102
{ACAD_REACTORS
330
554
102
}
330
554
100
TcOptionalData
 70
     2
 70
     1
  1
Line/Polyline
  0
TCOPTIONALDATA
  5
558
102
{ACAD_REACTORS
330
557
102
}
330
557
100
TcOptionalData
 70
     2
 70
     1
  1
Line/Polyline
  0
TCOPTIONALDATA
  5
55B
102
{ACAD_REACTORS
330
55A
102
}
330
55A
100
TcOptionalData
 70
     2
 70
     1
  1
Line/Polyline
  0
TCOPTIONALDATA
  5
55E
102
{ACAD_REACTORS
330
55D
102
}
330
55D
100
TcOptionalData
 70
     2
 70
     1
  1
Line/Polyline
  0
TCOPTIONALDATA
  5
561
102
{ACAD_REACTORS
330
560
102
}
330
560
100
TcOptionalData
 70
     2
 70
     1
  1
Line/Polyline
  0
TCOPTIONALDATA
  5
564
102
{ACAD_REACTORS
330
563
102
}
330
563
100
TcOptionalData
 70
     2
 70
     1
  1
Line/Polyline
  0
TCOPTIONALDATA
  5
567
102
{ACAD_REACTORS
330
566
102
}
330
566
100
TcOptionalData
 70
     2
 70
     1
  1
Line/Polyline
  0
TCOPTIONALDATA
  5
56A
102
{ACAD_REACTORS
330
569
102
}
330
569
100
TcOptionalData
 70
     2
 70
     1
  1
Line/Polyline
  0
TCOPTIONALDATA
  5
56D
102
{ACAD_REACTORS
330
56C
102
}
330
56C
100
TcOptionalData
 70
     2
 70
     1
  1
Line/Polyline
  0
TCOPTIONALDATA
  5
570
102
{ACAD_REACTORS
330
56F
102
}
330
56F
100
TcOptionalData
 70
     2
 70
     1
  1
Line/Polyline
  0
TCOPTIONALDATA
  5
573
102
{ACAD_REACTORS
330
572
102
}
330
572
100
TcOptionalData
 70
     2
 70
     1
  1
Line/Polyline
  0
TCOPTIONALDATA
  5
576
102
{ACAD_REACTORS
330
575
102
}
330
575
100
TcOptionalData
 70
     2
 70
     1
  1
Line/Polyline
  0
TCOPTIONALDATA
  5
579
102
{ACAD_REACTORS
330
578
102
}
330
578
100
TcOptionalData
 70
     2
 70
     1
  1
Line/Polyline
  0
TCOPTIONALDATA
  5
57C
102
{ACAD_REACTORS
330
57B
102
}
330
57B
100
TcOptionalData
 70
     2
 70
     1
  1
Line/Polyline
  0
TCOPTIONALDATA
  5
57F
102
{ACAD_REACTORS
330
57E
102
}
330
57E
100
TcOptionalData
 70
     2
 70
     1
  1
Line/Polyline
  0
TCOPTIONALDATA
  5
582
102
{ACAD_REACTORS
330
581
102
}
330
581
100
TcOptionalData
 70
     2
 70
     1
  1
Line/Polyline
  0
TCOPTIONALDATA
  5
585
102
{ACAD_REACTORS
330
584
102
}
330
584
100
TcOptionalData
 70
     2
 70
     1
  1
Line/Polyline
  0
TCOPTIONALDATA
  5
588
102
{ACAD_REACTORS
330
587
102
}
330
587
100
TcOptionalData
 70
     2
 70
     1
  1
Line/Polyline
  0
TCOPTIONALDATA
  5
58B
102
{ACAD_REACTORS
330
58A
102
}
330
58A
100
TcOptionalData
 70
     2
 70
     1
  1
Line/Polyline
  0
TCOPTIONALDATA
  5
58E
102
{ACAD_REACTORS
330
58D
102
}
330
58D
100
TcOptionalData
 70
     2
 70
     1
  1
Line/Polyline
  0
TCOPTIONALDATA
  5
591
102
{ACAD_REACTORS
330
590
102
}
330
590
100
TcOptionalData
 70
     2
 70
     1
  1
Line/Polyline
  0
TCOPTIONALDATA
  5
594
102
{ACAD_REACTORS
330
593
102
}
330
593
100
TcOptionalData
 70
     2
 70
     1
  1
Line/Polyline
  0
TCOPTIONALDATA
  5
597
102
{ACAD_REACTORS
330
596
102
}
330
596
100
TcOptionalData
 70
     2
 70
     1
  1
Line/Polyline
  0
TCOPTIONALDATA
  5
59A
102
{ACAD_REACTORS
330
599
102
}
330
599
100
TcOptionalData
 70
     2
 70
     1
  1
Line/Polyline
  0
TCOPTIONALDATA
  5
59D
102
{ACAD_REACTORS
330
59C
102
}
330
59C
100
TcOptionalData
 70
     2
 70
     1
  1
Line/Polyline
  0
TCOPTIONALDATA
  5
5A0
102
{ACAD_REACTORS
330
59F
102
}
330
59F
100
TcOptionalData
 70
     2
 70
     1
  1
Line/Polyline
  0
TCOPTIONALDATA
  5
5A3
102
{ACAD_REACTORS
330
5A2
102
}
330
5A2
100
TcOptionalData
 70
     2
 70
     1
  1
Line/Polyline
  0
TCOPTIONALDATA
  5
5C1
102
{ACAD_REACTORS
330
5C0
102
}
330
5C0
100
TcOptionalData
 70
     2
 70
     2
 10
1188.5
 20
753.75
 30
0.0
  0
TCOPTIONALDATA
  5
5CD
102
{ACAD_REACTORS
330
5CC
102
}
330
5CC
100
TcOptionalData
 70
     2
 70
     2
 10
1168.5
 20
753.75
 30
0.0
  0
TCOPTIONALDATA
  5
616
102
{ACAD_REACTORS
330
615
102
}
330
615
100
TcOptionalData
 70
     2
 70
     2
 10
19.5
 20
753.75
 30
0.0
  0
TCOPTIONALDATA
  5
194
102
{ACAD_REACTORS
330
193
102
}
330
193
100
TcOptionalData
 70
     2
 70
   160
 90
        1
  1
#$AUX@_ToolInfo Properties
 70
     8
 90
        9
310
434D445F4C494E4540
 40
-3.0
  0
TCOPTIONALDATA
  5
197
102
{ACAD_REACTORS
330
196
102
}
330
196
100
TcOptionalData
 70
     2
 70
   160
 90
        1
  1
#$AUX@_ToolInfo Properties
 70
     8
 90
        9
310
434D445F4C494E4540
 40
-3.0
  0
TCOPTIONALDATA
  5
19A
102
{ACAD_REACTORS
330
199
102
}
330
199
100
TcOptionalData
 70
     2
 70
   160
 90
        1
  1
#$AUX@_ToolInfo Properties
 70
     8
 90
        9
310
434D445F4C494E4540
 40
-3.0
  0
TCOPTIONALDATA
  5
19D
102
{ACAD_REACTORS
330
19C
102
}
330
19C
100
TcOptionalData
 70
     2
 70
   160
 90
        1
  1
#$AUX@_ToolInfo Properties
 70
     8
 90
        9
310
434D445F4C494E4540
 40
-3.0
  0
TCOPTIONALDATA
  5
1A0
102
{ACAD_REACTORS
330
19F
102
}
330
19F
100
TcOptionalData
 70
     2
 70
   160
 90
        1
  1
#$AUX@_ToolInfo Properties
 70
     8
 90
       16
310
434D445F43454E544552505441524340
 40
-3.0
  0
TCOPTIONALDATA
  5
1A3
102
{ACAD_REACTORS
330
1A2
102
}
330
1A2
100
TcOptionalData
 70
     2
 70
   160
 90
        1
  1
#$AUX@_ToolInfo Properties
 70
     8
 90
       16
310
434D445F43454E544552505441524340
 40
-3.0
  0
TCOPTIONALDATA
  5
1A6
102
{ACAD_REACTORS
330
1A5
102
}
330
1A5
100
TcOptionalData
 70
     2
 70
   160
 90
        1
  1
#$AUX@_ToolInfo Properties
 70
     8
 90
       19
310
434D445F54414E47454E5446524F4D41524340
 40
-3.0
  0
TCOPTIONALDATA
  5
1A9
102
{ACAD_REACTORS
330
1A8
102
}
330
1A8
100
TcOptionalData
 70
     2
 70
   160
 90
        1
  1
#$AUX@_ToolInfo Properties
 70
     8
 90
       16
310
434D445F43454E544552505441524340
 40
-3.0
  0
TCOPTIONALDATA
  5
1AC
102
{ACAD_REACTORS
330
1AB
102
}
330
1AB
100
TcOptionalData
 70
     2
 70
   160
 90
        1
  1
#$AUX@_ToolInfo Properties
 70
     8
 90
       16
310
434D445F43454E544552505441524340
 40
-3.0
  0
TCOPTIONALDATA
  5
1AF
102
{ACAD_REACTORS
330
1AE
102
}
330
1AE
100
TcOptionalData
 70
     2
 70
   160
 90
        1
  1
#$AUX@_ToolInfo Properties
 70
     8
 90
       19
310
434D445F54414E47454E5446524F4D41524340
 40
-3.0
  0
TCOPTIONALDATA
  5
1B2
102
{ACAD_REACTORS
330
1B1
102
}
330
1B1
100
TcOptionalData
 70
     2
 70
   160
 90
        1
  1
#$AUX@_ToolInfo Properties
 70
     8
 90
       16
310
434D445F43454E544552505441524340
 40
-3.0
  0
TCOPTIONALDATA
  5
1B5
102
{ACAD_REACTORS
330
1B4
102
}
330
1B4
100
TcOptionalData
 70
     2
 70
   160
 90
        1
  1
#$AUX@_ToolInfo Properties
 70
     8
 90
       16
310
434D445F54414E47454E544C494E4540
 40
-3.0
  0
TCOPTIONALDATA
  5
1B8
102
{ACAD_REACTORS
330
1B7
102
}
330
1B7
100
TcOptionalData
 70
     2
 70
   160
 90
        1
  1
#$AUX@_ToolInfo Properties
 70
     8
 90
       16
310
434D445F54414E47454E544C494E4540
 40
-3.0
  0
DIMASSOC
  5
1BC
102
{ACAD_REACTORS
330
1BA
102
}
330
1BA
100
AcDbDimAssoc
330
1B9
 90
        0
 70
     0
 71
     1
  0
TCOPTIONALDATA
  5
1BB
102
{ACAD_REACTORS
330
1BA
102
}
330
1BA
100
TcOptionalData
 70
     2
 70
   160
 90
        1
  1
#$AUX@_ToolInfo Properties
 70
     8
 90
       18
310
434D445F4F5254484F474F4E414C44494D40
 40
-3.0
  0
DIMASSOC
  5
1CF
102
{ACAD_REACTORS
330
1CD
102
}
330
1CD
100
AcDbDimAssoc
330
1CC
 90
        0
 70
     0
 71
     1
  0
TCOPTIONALDATA
  5
1CE
102
{ACAD_REACTORS
330
1CD
102
}
330
1CD
100
TcOptionalData
 70
     2
 70
   160
 90
        1
  1
#$AUX@_ToolInfo Properties
 70
     8
 90
       18
310
434D445F4F5254484F474F4E414C44494D40
 40
-3.0
  0
TCOPTIONALDATA
  5
1E0
102
{ACAD_REACTORS
330
1DF
102
}
330
1DF
100
TcOptionalData
 70
     2
 70
   160
 90
        1
  1
#$AUX@_ToolInfo Properties
 70
     8
 90
        9
310
434D445F4C494E4540
 40
-3.0
  0
TCOPTIONALDATA
  5
1E3
102
{ACAD_REACTORS
330
1E2
102
}
330
1E2
100
TcOptionalData
 70
     2
 70
   160
 90
        1
  1
#$AUX@_ToolInfo Properties
 70
     8
 90
        9
310
434D445F4C494E4540
 40
-3.0
  0
TCOPTIONALDATA
  5
1E6
102
{ACAD_REACTORS
330
1E5
102
}
330
1E5
100
TcOptionalData
 70
     2
 70
   160
 90
        1
  1
#$AUX@_ToolInfo Properties
 70
     8
 90
        9
310
434D445F4C494E4540
 40
-3.0
  0
TCOPTIONALDATA
  5
1E9
102
{ACAD_REACTORS
330
1E8
102
}
330
1E8
100
TcOptionalData
 70
     2
 70
   160
 90
        1
  1
#$AUX@_ToolInfo Properties
 70
     8
 90
        9
310
434D445F4C494E4540
 40
-3.0
  0
TCOPTIONALDATA
  5
1EC
102
{ACAD_REACTORS
330
1EB
102
}
330
1EB
100
TcOptionalData
 70
     2
 70
   160
 90
        1
  1
#$AUX@_ToolInfo Properties
 70
     8
 90
        9
310
434D445F4C494E4540
 40
-3.0
  0
TCOPTIONALDATA
  5
1EF
102
{ACAD_REACTORS
330
1EE
102
}
330
1EE
100
TcOptionalData
 70
     2
 70
   160
 90
        1
  1
#$AUX@_ToolInfo Properties
 70
     8
 90
        9
310
434D445F4C494E4540
 40
-3.0
  0
TCOPTIONALDATA
  5
1F2
102
{ACAD_REACTORS
330
1F1
102
}
330
1F1
100
TcOptionalData
 70
     2
 70
   160
 90
        1
  1
#$AUX@_ToolInfo Properties
 70
     8
 90
        9
310
434D445F4C494E4540
 40
-3.0
  0
TCOPTIONALDATA
  5
1F5
102
{ACAD_REACTORS
330
1F4
102
}
330
1F4
100
TcOptionalData
 70
     2
 70
   160
 90
        1
  1
#$AUX@_ToolInfo Properties
 70
     8
 90
        9
310
434D445F4C494E4540
 40
-3.0
  0
TCOPTIONALDATA
  5
1F8
102
{ACAD_REACTORS
330
1F7
102
}
330
1F7
100
TcOptionalData
 70
     2
 70
   160
 90
        1
  1
#$AUX@_ToolInfo Properties
 70
     8
 90
        9
310
434D445F4C494E4540
 40
-3.0
  0
TCOPTIONALDATA
  5
1FB
102
{ACAD_REACTORS
330
1FA
102
}
330
1FA
100
TcOptionalData
 70
     2
 70
   160
 90
        1
  1
#$AUX@_ToolInfo Properties
 70
     8
 90
        9
310
434D445F4C494E4540
 40
-3.0
  0
TCOPTIONALDATA
  5
28F
102
{ACAD_REACTORS
330
28E
102
}
330
28E
100
TcOptionalData
 70
     2
 70
     3
  1
Line/Polyline
 10
410.0
 20
79.24999999999997
 30
0.0
  0
TCOPTIONALDATA
  5
292
102
{ACAD_REACTORS
330
291
102
}
330
291
100
TcOptionalData
 70
     2
 70
     3
  1
Line/Polyline
 10
410.0
 20
217.75
 30
0.0
  0
TCOPTIONALDATA
  5
295
102
{ACAD_REACTORS
330
294
102
}
330
294
100
TcOptionalData
 70
     2
 70
     1
  1
Line/Polyline
  0
TCOPTIONALDATA
  5
298
102
{ACAD_REACTORS
330
297
102
}
330
297
100
TcOptionalData
 70
     2
 70
     1
  1
Line/Polyline
  0
TCOPTIONALDATA
  5
29B
102
{ACAD_REACTORS
330
29A
102
}
330
29A
100
TcOptionalData
 70
     2
 70
     1
  1
Line/Polyline
  0
TCOPTIONALDATA
  5
29E
102
{ACAD_REACTORS
330
29D
102
}
330
29D
100
TcOptionalData
 70
     2
 70
     3
  1
Line/Polyline
 10
76.66666412353516
 20
9.999999999999972
 30
0.0
  0
TCOPTIONALDATA
  5
2A1
102
{ACAD_REACTORS
330
2A0
102
}
330
2A0
100
TcOptionalData
 70
     2
 70
     1
  1
Line/Polyline
  0
TCOPTIONALDATA
  5
2A4
102
{ACAD_REACTORS
330
2A3
102
}
330
2A3
100
TcOptionalData
 70
     2
 70
     1
  1
Line/Polyline
  0
TCOPTIONALDATA
  5
2A7
102
{ACAD_REACTORS
330
2A6
102
}
330
2A6
100
TcOptionalData
 70
     2
 70
     1
  1
Line/Polyline
  0
TCOPTIONALDATA
  5
2AA
102
{ACAD_REACTORS
330
2A9
102
}
330
2A9
100
TcOptionalData
 70
     2
 70
     1
  1
Line/Polyline
  0
TCOPTIONALDATA
  5
2AD
102
{ACAD_REACTORS
330
2AC
102
}
330
2AC
100
TcOptionalData
 70
     2
 70
     1
  1
Line/Polyline
  0
TCOPTIONALDATA
  5
2B0
102
{ACAD_REACTORS
330
2AF
102
}
330
2AF
100
TcOptionalData
 70
     2
 70
     1
  1
Line/Polyline
  0
TCOPTIONALDATA
  5
2B3
102
{ACAD_REACTORS
330
2B2
102
}
330
2B2
100
TcOptionalData
 70
     2
 70
     3
  1
Line/Polyline
 10
410.0
 20
148.5
 30
0.0
  0
TCOPTIONALDATA
  5
2B6
102
{ACAD_REACTORS
330
2B5
102
}
330
2B5
100
TcOptionalData
 70
     2
 70
     3
  1
Line/Polyline
 10
10.0
 20
148.5
 30
0.0
  0
TCOPTIONALDATA
  5
2B9
102
{ACAD_REACTORS
330
2B8
102
}
330
2B8
100
TcOptionalData
 70
     2
 70
     3
  1
Line/Polyline
 10
210.0
 20
9.999999999999972
 30
0.0
  0
TCOPTIONALDATA
  5
2BC
102
{ACAD_REACTORS
330
2BB
102
}
330
2BB
100
TcOptionalData
 70
     2
 70
     3
  1
Line/Polyline
 10
210.0
 20
287.0
 30
0.0
  0
TCOPTIONALDATA
  5
2BF
102
{ACAD_REACTORS
330
2BE
102
}
330
2BE
100
TcOptionalData
 70
     2
 70
     1
  1
Line/Polyline
  0
TCOPTIONALDATA
  5
2C2
102
{ACAD_REACTORS
330
2C1
102
}
330
2C1
100
TcOptionalData
 70
     2
 70
     1
  1
Line/Polyline
  0
TCOPTIONALDATA
  5
2C5
102
{ACAD_REACTORS
330
2C4
102
}
330
2C4
100
TcOptionalData
 70
     2
 70
     1
  1
Line/Polyline
  0
TCOPTIONALDATA
  5
2C8
102
{ACAD_REACTORS
330
2C7
102
}
330
2C7
100
TcOptionalData
 70
     2
 70
     1
  1
Line/Polyline
  0
TCOPTIONALDATA
  5
2CB
102
{ACAD_REACTORS
330
2CA
102
}
330
2CA
100
TcOptionalData
 70
     2
 70
     1
  1
Line/Polyline
  0
TCOPTIONALDATA
  5
2CE
102
{ACAD_REACTORS
330
2CD
102
}
330
2CD
100
TcOptionalData
 70
     2
 70
     1
  1
Line/Polyline
  0
TCOPTIONALDATA
  5
2D1
102
{ACAD_REACTORS
330
2D0
102
}
330
2D0
100
TcOptionalData
 70
     2
 70
     1
  1
Line/Polyline
  0
TCOPTIONALDATA
  5
2D4
102
{ACAD_REACTORS
330
2D3
102
}
330
2D3
100
TcOptionalData
 70
     2
 70
     1
  1
Line/Polyline
  0
TCOPTIONALDATA
  5
2D7
102
{ACAD_REACTORS
330
2D6
102
}
330
2D6
100
TcOptionalData
 70
     2
 70
     1
  1
Line/Polyline
  0
TCOPTIONALDATA
  5
2DA
102
{ACAD_REACTORS
330
2D9
102
}
330
2D9
100
TcOptionalData
 70
     2
 70
     1
  1
Line/Polyline
  0
TCOPTIONALDATA
  5
2DD
102
{ACAD_REACTORS
330
2DC
102
}
330
2DC
100
TcOptionalData
 70
     2
 70
     1
  1
Line/Polyline
  0
TCOPTIONALDATA
  5
2E0
102
{ACAD_REACTORS
330
2DF
102
}
330
2DF
100
TcOptionalData
 70
     2
 70
     1
  1
Line/Polyline
  0
TCOPTIONALDATA
  5
2E3
102
{ACAD_REACTORS
330
2E2
102
}
330
2E2
100
TcOptionalData
 70
     2
 70
     1
  1
Line/Polyline
  0
TCOPTIONALDATA
  5
2E6
102
{ACAD_REACTORS
330
2E5
102
}
330
2E5
100
TcOptionalData
 70
     2
 70
     1
  1
Line/Polyline
  0
TCOPTIONALDATA
  5
2E9
102
{ACAD_REACTORS
330
2E8
102
}
330
2E8
100
TcOptionalData
 70
     2
 70
     1
  1
Line/Polyline
  0
TCOPTIONALDATA
  5
2EC
102
{ACAD_REACTORS
330
2EB
102
}
330
2EB
100
TcOptionalData
 70
     2
 70
     1
  1
Line/Polyline
  0
TCOPTIONALDATA
  5
2EF
102
{ACAD_REACTORS
330
2EE
102
}
330
2EE
100
TcOptionalData
 70
     2
 70
     1
  1
Line/Polyline
  0
TCOPTIONALDATA
  5
2F2
102
{ACAD_REACTORS
330
2F1
102
}
330
2F1
100
TcOptionalData
 70
     2
 70
     1
  1
Line/Polyline
  0
TCOPTIONALDATA
  5
2F5
102
{ACAD_REACTORS
330
2F4
102
}
330
2F4
100
TcOptionalData
 70
     2
 70
     1
  1
Line/Polyline
  0
TCOPTIONALDATA
  5
2F8
102
{ACAD_REACTORS
330
2F7
102
}
330
2F7
100
TcOptionalData
 70
     2
 70
    18
 10
303.5709298940805
 20
15.99999999999997
 30
0.0
  1
Arial
 70
     0
  0
TCOPTIONALDATA
  5
2FB
102
{ACAD_REACTORS
330
2FA
102
}
330
2FA
100
TcOptionalData
 70
     2
 70
    18
 10
303.5709298940805
 20
25.99999999999997
 30
0.0
  1
Arial
 70
     0
  0
TCOPTIONALDATA
  5
2FE
102
{ACAD_REACTORS
330
2FD
102
}
330
2FD
100
TcOptionalData
 70
     2
 70
    18
 10
315.0
 20
25.99999999999997
 30
0.0
  1
Arial
 70
     0
  0
TCOPTIONALDATA
  5
301
102
{ACAD_REACTORS
330
300
102
}
330
300
100
TcOptionalData
 70
     2
 70
    18
 10
340.0
 20
25.99999999999997
 30
0.0
  1
Arial
 70
     0
  0
TCOPTIONALDATA
  5
304
102
{ACAD_REACTORS
330
303
102
}
330
303
100
TcOptionalData
 70
     2
 70
    18
 10
365.0
 20
15.99999999999997
 30
0.0
  1
Arial
 70
     0
  0
TCOPTIONALDATA
  5
307
102
{ACAD_REACTORS
330
306
102
}
330
306
100
TcOptionalData
 70
     2
 70
    18
 10
400.0
 20
25.99999999999997
 30
0.0
  1
Arial
 70
     0
  0
TCOPTIONALDATA
  5
30A
102
{ACAD_REACTORS
330
309
102
}
330
309
100
TcOptionalData
 70
     2
 70
    18
 10
300.0
 20
45.99999999999997
 30
0.0
  1
Arial
 70
     0
  0
TCOPTIONALDATA
  5
30D
102
{ACAD_REACTORS
330
30C
102
}
330
30C
100
TcOptionalData
 70
     2
 70
     1
  1
Line/Polyline
  0
TCOPTIONALDATA
  5
310
102
{ACAD_REACTORS
330
30F
102
}
330
30F
100
TcOptionalData
 70
     2
 70
     1
  1
Line/Polyline
  0
TCOPTIONALDATA
  5
313
102
{ACAD_REACTORS
330
312
102
}
330
312
100
TcOptionalData
 70
     2
 70
     1
  1
Line/Polyline
  0
TCOPTIONALDATA
  5
316
102
{ACAD_REACTORS
330
315
102
}
330
315
100
TcOptionalData
 70
     2
 70
     1
  1
Line/Polyline
  0
GROUP
  5
269
102
{ACAD_REACTORS
330
D
102
}
102
{ACAD_XDICTIONARY
360
26A
102
}
330
D
100
AcDbGroup
300

 70
     0
 71
     1
340
200
340
201
340
204
340
207
340
20A
340
20D
340
210
340
213
340
216
340
219
340
21C
340
21F
340
222
340
225
340
228
340
22B
340
22E
340
231
340
234
340
237
340
23A
340
23D
340
240
340
243
340
247
340
24B
340
24E
340
251
340
254
340
257
340
25A
340
25D
340
260
340
263
340
266
  0
GROUP
  5
317
102
{ACAD_REACTORS
330
D
102
}
102
{ACAD_XDICTIONARY
360
318
102
}
330
D
100
AcDbGroup
300

 70
     0
 71
     1
340
271
340
273
340
275
340
277
340
278
340
279
340
27A
340
27B
340
27C
340
27E
340
27F
340
280
340
281
340
282
340
284
340
286
340
287
340
288
340
289
340
28A
340
28C
340
28D
340
290
340
293
340
296
340
299
340
29C
340
29F
340
2A2
340
2A5
340
2A8
340
2AB
340
2AE
340
2B1
340
2B4
340
2B7
340
2BA
340
2BD
340
2C0
340
2C3
340
2C6
340
2C9
340
2CC
340
2CF
340
2D2
340
2D5
340
2D8
340
2DB
340
2DE
340
2E1
340
2E4
340
2E7
340
2EA
340
2ED
340
2F0
340
2F3
340
2F6
340
2F9
340
2FC
340
2FF
340
302
340
305
340
308
340
30B
340
30E
340
311
340
314
  0
GROUP
  5
3EA
102
{ACAD_REACTORS
330
D
102
}
102
{ACAD_XDICTIONARY
360
3EB
102
}
330
D
100
AcDbGroup
300

 70
     0
 71
     1
340
31F
340
321
340
323
340
325
340
327
340
329
340
32B
340
32C
340
32D
340
32E
340
330
340
332
340
333
340
335
340
337
340
339
340
33B
340
33C
340
33D
340
33E
340
340
340
342
340
343
340
344
340
345
340
346
340
347
340
348
340
34A
340
34B
340
34E
340
351
340
354
340
357
340
35A
340
35D
340
360
340
363
340
366
340
369
340
36C
340
36F
340
372
340
375
340
378
340
37B
340
37E
340
381
340
384
340
387
340
38A
340
38D
340
390
340
393
340
396
340
399
340
39C
340
39F
340
3A2
340
3A5
340
3A8
340
3AB
340
3AE
340
3B1
340
3B4
340
3B7
340
3BA
340
3BD
340
3C0
340
3C3
340
3C6
340
3C9
340
3CC
340
3CF
340
3D2
340
3D5
340
3D8
340
3DB
340
3DE
340
3E1
340
3E4
340
3E7
  0
GROUP
  5
511
102
{ACAD_REACTORS
330
D
102
}
102
{ACAD_XDICTIONARY
360
512
102
}
330
D
100
AcDbGroup
300

 70
     0
 71
     1
340
3F2
340
3F3
340
3F6
340
3F9
340
3FC
340
3FF
340
402
340
405
340
408
340
40B
340
40E
340
411
340
414
340
417
340
41A
340
41D
340
420
340
423
340
426
340
429
340
42C
340
430
340
432
340
433
340
434
340
435
340
436
340
437
340
439
340
43A
340
43B
340
43C
340
43D
340
43E
340
43F
340
440
340
442
340
444
340
446
340
447
340
448
340
44A
340
44B
340
44C
340
44D
340
44F
340
450
340
451
340
452
340
453
340
454
340
455
340
456
340
457
340
458
340
459
340
45A
340
45B
340
45C
340
45D
340
45E
340
460
340
463
340
466
340
469
340
46C
340
46F
340
472
340
475
340
478
340
47B
340
47E
340
481
340
484
340
487
340
48A
340
48D
340
490
340
493
340
496
340
499
340
49C
340
49F
340
4A2
340
4A5
340
4A8
340
4AB
340
4AE
340
4B1
340
4B4
340
4B7
340
4BA
340
4BD
340
4C0
340
4C3
340
4C6
340
4C9
340
4CC
340
4CF
340
4D2
340
4D5
340
4D8
340
4DB
340
4DE
340
4E1
340
4E4
340
4E7
340
4EA
340
4ED
340
4F0
340
4F3
340
4F6
340
4F9
340
4FC
340
4FF
340
502
340
505
340
508
340
50B
340
50E
  0
GROUP
  5
626
102
{ACAD_REACTORS
330
D
102
}
102
{ACAD_XDICTIONARY
360
627
102
}
330
D
100
AcDbGroup
300

 70
     0
 71
     1
340
519
340
51A
340
51D
340
520
340
523
340
526
340
529
340
52C
340
52F
340
532
340
535
340
538
340
53B
340
53E
340
541
340
544
340
547
340
54A
340
54D
340
550
340
553
340
556
340
559
340
55C
340
55F
340
562
340
565
340
568
340
56B
340
56E
340
571
340
574
340
577
340
57A
340
57D
340
580
340
583
340
586
340
589
340
58C
340
58F
340
592
340
595
340
598
340
59B
340
59E
340
5A1
340
5A5
340
5A7
340
5A8
340
5AA
340
5AB
340
5AC
340
5AD
340
5AF
340
5B0
340
5B2
340
5B4
340
5B5
340
5B6
340
5B7
340
5B8
340
5B9
340
5BA
340
5BB
340
5BC
340
5BD
340
5BE
340
5BF
340
5C2
340
5C3
340
5C4
340
5C5
340
5C6
340
5C7
340
5C8
340
5C9
340
5CA
340
5CB
340
5CE
340
5CF
340
5D0
340
5D1
340
5D2
340
5D3
340
5D4
340
5D5
340
5D6
340
5D7
340
5D8
340
5D9
340
5DA
340
5DB
340
5DD
340
5DE
340
5DF
340
5E0
340
5E1
340
5E2
340
5E3
340
5E5
340
5E6
340
5E7
340
5E8
340
5E9
340
5EA
340
5EB
340
5EC
340
5EE
340
5EF
340
5F0
340
5F1
340
5F2
340
5F3
340
5F4
340
5F5
340
5F6
340
5F7
340
5F8
340
5F9
340
5FA
340
5FB
340
5FC
340
5FD
340
5FE
340
5FF
340
600
340
601
340
602
340
603
340
604
340
605
340
606
340
607
340
608
340
609
340
60A
340
60B
340
60C
340
60D
340
60E
340
60F
340
610
340
611
340
612
340
613
340
614
340
617
340
618
340
619
340
61A
340
61B
340
61C
340
61D
340
61E
340
61F
340
620
340
621
340
622
340
623
340
624
340
625
  0
LAYOUT
  5
15D
102
{ACAD_REACTORS
330
1A
102
}
330
1A
100
AcDbPlotSettings
  1

  2
none_device
  4
ISO_A0_(1189.00_x_841.00_MM)
  6

 40
7.5
 41
20.0
 42
7.5
 43
20.0
 44
1189.0
 45
841.0
 46
0.0
 47
0.0
 48
0.0
 49
0.0
140
0.0
141
0.0
142
1.0
143
1.0
 70
   672
 72
     1
 73
     0
 74
     5
  7

 75
    16
 76
     0
 77
     2
 78
   300
147
1.0
148
-7.5
149
-20.0
100
AcDbLayout
  1
A0
 70
     1
 71
     5
 10
0.0
 20
0.0
 11
1188.0
 21
840.0
 12
0.0
 22
0.0
 32
0.0
 14
0.0
 24
0.0
 34
0.0
 15
0.0
 25
0.0
 35
0.0
146
0.0
 13
0.0
 23
0.0
 33
0.0
 16
1.0
 26
0.0
 36
0.0
 17
0.0
 27
1.0
 37
0.0
 76
     0
330
15C
331
517
  0
LAYOUT
  5
159
102
{ACAD_REACTORS
330
1A
102
}
330
1A
100
AcDbPlotSettings
  1

  2
none_device
  4
ISO_A1_(841.00_x_594.00_MM)
  6

 40
7.5
 41
20.0
 42
7.5
 43
20.0
 44
841.0
 45
594.0
 46
0.0
 47
0.0
 48
0.0
 49
0.0
140
0.0
141
0.0
142
1.0
143
1.0
 70
   672
 72
     1
 73
     0
 74
     5
  7

 75
    16
 76
     0
 77
     2
 78
   300
147
1.0
148
-7.5
149
-20.0
100
AcDbLayout
  1
A1
 70
     1
 71
     4
 10
0.0
 20
0.0
 11
841.0
 21
594.0
 12
0.0
 22
0.0
 32
0.0
 14
0.0
 24
0.0
 34
0.0
 15
0.0
 25
0.0
 35
0.0
146
0.0
 13
0.0
 23
0.0
 33
0.0
 16
1.0
 26
0.0
 36
0.0
 17
0.0
 27
1.0
 37
0.0
 76
     0
330
158
331
3F0
  0
LAYOUT
  5
155
102
{ACAD_REACTORS
330
1A
102
}
330
1A
100
AcDbPlotSettings
  1

  2
none_device
  4
ISO_A2_(594.00_x_420.00_MM)
  6

 40
7.5
 41
20.0
 42
7.5
 43
20.0
 44
594.0
 45
420.0
 46
0.0
 47
0.0
 48
0.0
 49
0.0
140
0.0
141
0.0
142
1.0
143
1.0
 70
   672
 72
     1
 73
     0
 74
     5
  7

 75
    16
 76
     0
 77
     2
 78
   300
147
1.0
148
-7.5
149
-20.0
100
AcDbLayout
  1
A2
 70
     1
 71
     3
 10
0.0
 20
0.0
 11
594.0
 21
420.0
 12
0.0
 22
0.0
 32
0.0
 14
0.0
 24
0.0
 34
0.0
 15
0.0
 25
0.0
 35
0.0
146
0.0
 13
0.0
 23
0.0
 33
0.0
 16
1.0
 26
0.0
 36
0.0
 17
0.0
 27
1.0
 37
0.0
 76
     0
330
154
331
31D
  0
LAYOUT
  5
1E
102
{ACAD_REACTORS
330
1A
102
}
330
1A
100
AcDbPlotSettings
  1

  2
none_device
  4
ISO_A3_(420.00_x_297.00_MM)
  6

 40
7.5
 41
20.0
 42
7.5
 43
20.0
 44
420.0
 45
297.0
 46
0.0
 47
0.0
 48
0.0
 49
0.0
140
0.0
141
0.0
142
1.0
143
1.0
 70
   672
 72
     1
 73
     0
 74
     5
  7

 75
    16
 76
     0
 77
     2
 78
   300
147
1.0
148
-7.5
149
-20.0
100
AcDbLayout
  1
A3
 70
     1
 71
     2
 10
0.0
 20
0.0
 11
420.0
 21
297.0
 12
0.0
 22
0.0
 32
0.0
 14
0.0
 24
0.0
 34
0.0
 15
420.0
 25
297.0
 35
0.0
146
0.0
 13
0.0
 23
0.0
 33
0.0
 16
1.0
 26
0.0
 36
0.0
 17
0.0
 27
1.0
 37
0.0
 76
     0
330
1B
331
26F
  0
LAYOUT
  5
151
102
{ACAD_REACTORS
330
1A
102
}
330
1A
100
AcDbPlotSettings
  1

  2
none_device
  4
ISO_A4_(297.00_x_210.00_MM)
  6

 40
7.5
 41
20.0
 42
7.5
 43
20.0
 44
297.0
 45
210.0
 46
0.0
 47
0.0
 48
0.0
 49
0.0
140
0.0
141
0.0
142
1.0
143
1.0
 70
   672
 72
     1
 73
     0
 74
     5
  7

 75
    16
 76
     0
 77
     2
 78
   300
147
1.0
148
-7.5
149
-20.0
100
AcDbLayout
  1
A4
 70
     1
 71
     1
 10
0.0
 20
0.0
 11
297.0
 21
210.0
 12
0.0
 22
0.0
 32
0.0
 14
0.0
 24
0.0
 34
0.0
 15
0.0
 25
0.0
 35
0.0
146
0.0
 13
0.0
 23
0.0
 33
0.0
 16
1.0
 26
0.0
 36
0.0
 17
0.0
 27
1.0
 37
0.0
 76
     0
330
150
331
1FE
  0
LAYOUT
  5
22
102
{ACAD_REACTORS
330
1A
102
}
330
1A
100
AcDbPlotSettings
  1

  2
none_device
  4
ISO_A4_(297.00_x_210.00_MM)
  6

 40
7.5
 41
20.0
 42
7.5
 43
20.0
 44
297.0
 45
210.0
 46
-7.5
 47
-20.0
 48
-148.5
 49
-105.0
140
148.5
141
105.0
142
1.0
143
1.0
 70
  1696
 72
     1
 73
     0
 74
     4
  7

 75
     0
 76
     0
 77
     2
 78
   300
147
0.0334551636815609
148
0.0
149
0.0
100
AcDbLayout
  1
Model
 70
     1
 71
     0
 10
0.0
 20
0.0
 11
297.0
 21
210.0
 12
0.0
 22
0.0
 32
0.0
 14
-60.04830133129688
 24
-20.01797759581144
 34
0.0
 15
100.9955241799053
 25
20.17517610899152
 35
0.0
146
0.0
 13
0.0
 23
0.0
 33
0.0
 16
1.0
 26
0.0
 36
0.0
 17
0.0
 27
1.0
 37
0.0
 76
     0
330
1F
331
29
  0
MATERIAL
  5
3D
102
{ACAD_REACTORS
330
3B
102
}
330
3B
100
AcDbMaterial
  1
ByBlock
 72
     1
 94
      127
  0
MATERIAL
  5
3C
102
{ACAD_REACTORS
330
3B
102
}
330
3B
100
AcDbMaterial
  1
ByLayer
 72
     1
 94
      127
  0
MATERIAL
  5
3E
102
{ACAD_REACTORS
330
3B
102
}
330
3B
100
AcDbMaterial
  1
Global
 72
     1
 94
      127
  0
MLEADERSTYLE
  5
183
102
{ACAD_REACTORS
330
182
102
}
330
182
100
AcDbMLeaderStyle
170
     2
171
     1
172
     0
 90
        2
 40
0.0
 41
0.0
173
     1
 91
-1056964608
340
14
 92
       -2
290
     1
 42
3.0
291
     1
 43
3.0
  3

341
0
 44
3.0
300

342
11
174
     1
178
     1
175
     1
176
     0
 93
-1056964608
 45
3.0
292
     0
297
     0
 46
0.18
343
0
 94
-1056964608
 47
1.0
 49
1.0
140
1.0
293
     1
141
0.0
294
     1
177
     0
142
1.0
295
     0
296
     0
143
0.125
1001
ACAD_MLEADERVER
1070
     2
  0
MLINESTYLE
  5
18
102
{ACAD_REACTORS
330
17
102
}
330
17
100
AcDbMlineStyle
  2
Standard
 70
     0
  3

 62
     0
 51
90.0
 52
90.0
 71
     3
 49
5.0
 62
     0
  6
BYLAYER
 49
0.0
 62
     0
  6
BYLAYER
 49
-5.0
 62
     0
  6
BYLAYER
  0
ACDBPLACEHOLDER
  5
F
102
{ACAD_REACTORS
330
E
102
}
330
E
  0
SCALE
  5
62D
102
{ACAD_REACTORS
330
62C
102
}
330
62C
100
AcDbScale
 70
     0
300
1:1
140
1.0
141
1.0
290
     1
  0
SCALE
  5
62E
102
{ACAD_REACTORS
330
62C
102
}
330
62C
100
AcDbScale
 70
     0
300
1:2
140
1.0
141
2.0
290
     0
  0
SCALE
  5
62F
102
{ACAD_REACTORS
330
62C
102
}
330
62C
100
AcDbScale
 70
     0
300
1:4
140
1.0
141
4.0
290
     0
  0
SCALE
  5
630
102
{ACAD_REACTORS
330
62C
102
}
330
62C
100
AcDbScale
 70
     0
300
1:5
140
1.0
141
5.0
290
     0
  0
SCALE
  5
631
102
{ACAD_REACTORS
330
62C
102
}
330
62C
100
AcDbScale
 70
     0
300
1:8
140
1.0
141
8.0
290
     0
  0
SCALE
  5
632
102
{ACAD_REACTORS
330
62C
102
}
330
62C
100
AcDbScale
 70
     0
300
1:10
140
1.0
141
10.0
290
     0
  0
SCALE
  5
633
102
{ACAD_REACTORS
330
62C
102
}
330
62C
100
AcDbScale
 70
     0
300
1:16
140
1.0
141
16.0
290
     0
  0
SCALE
  5
634
102
{ACAD_REACTORS
330
62C
102
}
330
62C
100
AcDbScale
 70
     0
300
1:20
140
1.0
141
20.0
290
     0
  0
SCALE
  5
635
102
{ACAD_REACTORS
330
62C
102
}
330
62C
100
AcDbScale
 70
     0
300
1:30
140
1.0
141
30.0
290
     0
  0
SCALE
  5
636
102
{ACAD_REACTORS
330
62C
102
}
330
62C
100
AcDbScale
 70
     0
300
1:40
140
1.0
141
40.0
290
     0
  0
SCALE
  5
637
102
{ACAD_REACTORS
330
62C
102
}
330
62C
100
AcDbScale
 70
     0
300
1:50
140
1.0
141
50.0
290
     0
  0
SCALE
  5
638
102
{ACAD_REACTORS
330
62C
102
}
330
62C
100
AcDbScale
 70
     0
300
1:100
140
1.0
141
100.0
290
     0
  0
SCALE
  5
639
102
{ACAD_REACTORS
330
62C
102
}
330
62C
100
AcDbScale
 70
     0
300
2:1
140
2.0
141
1.0
290
     0
  0
SCALE
  5
63A
102
{ACAD_REACTORS
330
62C
102
}
330
62C
100
AcDbScale
 70
     0
300
4:1
140
4.0
141
1.0
290
     0
  0
SCALE
  5
63B
102
{ACAD_REACTORS
330
62C
102
}
330
62C
100
AcDbScale
 70
     0
300
8:1
140
8.0
141
1.0
290
     0
  0
SCALE
  5
63C
102
{ACAD_REACTORS
330
62C
102
}
330
62C
100
AcDbScale
 70
     0
300
10:1
140
10.0
141
1.0
290
     0
  0
SCALE
  5
63D
102
{ACAD_REACTORS
330
62C
102
}
330
62C
100
AcDbScale
 70
     0
300
100:1
140
100.0
141
1.0
290
     0
  0
SCALE
  5
63E
102
{ACAD_REACTORS
330
62C
102
}
330
62C
100
AcDbScale
 70
     0
300
1/128" = 1'-0"
140
0.0078125
141
12.0
290
     0
  0
SCALE
  5
63F
102
{ACAD_REACTORS
330
62C
102
}
330
62C
100
AcDbScale
 70
     0
300
1/64" = 1'-0"
140
0.015625
141
12.0
290
     0
  0
SCALE
  5
640
102
{ACAD_REACTORS
330
62C
102
}
330
62C
100
AcDbScale
 70
     0
300
1/32" = 1'-0"
140
0.03125
141
12.0
290
     0
  0
SCALE
  5
641
102
{ACAD_REACTORS
330
62C
102
}
330
62C
100
AcDbScale
 70
     0
300
1/16" = 1'-0"
140
0.0625
141
12.0
290
     0
  0
SCALE
  5
642
102
{ACAD_REACTORS
330
62C
102
}
330
62C
100
AcDbScale
 70
     0
300
3/32" = 1'-0"
140
0.09375
141
12.0
290
     0
  0
SCALE
  5
643
102
{ACAD_REACTORS
330
62C
102
}
330
62C
100
AcDbScale
 70
     0
300
1/8" = 1'-0"
140
0.125
141
12.0
290
     0
  0
SCALE
  5
644
102
{ACAD_REACTORS
330
62C
102
}
330
62C
100
AcDbScale
 70
     0
300
3/16" = 1'-0"
140
0.1875
141
12.0
290
     0
  0
SCALE
  5
645
102
{ACAD_REACTORS
330
62C
102
}
330
62C
100
AcDbScale
 70
     0
300
1/4" = 1'-0"
140
0.25
141
12.0
290
     0
  0
SCALE
  5
646
102
{ACAD_REACTORS
330
62C
102
}
330
62C
100
AcDbScale
 70
     0
300
3/8" = 1'-0"
140
0.375
141
12.0
290
     0
  0
SCALE
  5
647
102
{ACAD_REACTORS
330
62C
102
}
330
62C
100
AcDbScale
 70
     0
300
1/2" = 1'-0"
140
0.5
141
12.0
290
     0
  0
SCALE
  5
648
102
{ACAD_REACTORS
330
62C
102
}
330
62C
100
AcDbScale
 70
     0
300
3/4" = 1'-0"
140
0.75
141
12.0
290
     0
  0
SCALE
  5
649
102
{ACAD_REACTORS
330
62C
102
}
330
62C
100
AcDbScale
 70
     0
300
1" = 1'-0"
140
1.0
141
12.0
290
     0
  0
SCALE
  5
64A
102
{ACAD_REACTORS
330
62C
102
}
330
62C
100
AcDbScale
 70
     0
300
1-1/2" = 1'-0"
140
1.5
141
12.0
290
     0
  0
SCALE
  5
64B
102
{ACAD_REACTORS
330
62C
102
}
330
62C
100
AcDbScale
 70
     0
300
3" = 1'-0"
140
3.0
141
12.0
290
     0
  0
SCALE
  5
64C
102
{ACAD_REACTORS
330
62C
102
}
330
62C
100
AcDbScale
 70
     0
300
6" = 1'-0"
140
6.0
141
12.0
290
     0
  0
SCALE
  5
64D
102
{ACAD_REACTORS
330
62C
102
}
330
62C
100
AcDbScale
 70
     0
300
1'-0" = 1'-0"
140
12.0
141
12.0
290
     0
  0
TABLESTYLE
  5
191
102
{ACAD_REACTORS
330
190
102
}
102
{ACAD_XDICTIONARY
360
670
102
}
330
190
100
AcDbTableStyle
  3

 70
     0
 71
     0
 40
25.40000000000001
 41
25.40000000000001
280
     0
281
     0
  7
Standard
140
76.2
170
     5
 62
     0
 63
   257
283
     1
 90
        4
 91
        0
  1

274
    -2
284
     1
 64
     0
275
    -2
285
     1
 65
     0
276
    -2
286
     1
 66
     0
277
    -2
287
     1
 67
     0
278
    -2
288
     1
 68
     0
279
    -2
289
     1
 69
     0
  7
Standard
140
76.2
170
     5
 62
     0
 63
   257
283
     1
 90
        4
 91
        0
  1

274
    -2
284
     1
 64
     0
275
    -2
285
     1
 65
     0
276
    -2
286
     1
 66
     0
277
    -2
287
     1
 67
     0
278
    -2
288
     1
 68
     0
279
    -2
289
     1
 69
     0
  7
Standard
140
76.2
170
     5
 62
     0
 63
   257
283
     1
 90
        4
 91
        0
  1

274
    -2
284
     1
 64
     0
275
    -2
285
     1
 65
     0
276
    -2
286
     1
 66
     0
277
    -2
287
     1
 67
     0
278
    -2
288
     1
 68
     0
279
    -2
289
     1
 69
     0
  0
VISUALSTYLE
  5
2F
102
{ACAD_REACTORS
330
2A
102
}
102
{ACAD_XDICTIONARY
360
658
102
}
330
2A
100
AcDbVisualStyle
  2
2dWireframe
 70
     4
 71
     0
 72
     2
 73
     0
 90
        0
 40
-0.6
 41
-30.0
 62
     5
 63
     7
421
 16777215
 74
     1
 91
        4
 64
     7
 65
   257
 75
     1
175
     1
 42
1.0
 92
        0
 66
   257
 43
1.0
 76
     1
 77
     6
 78
     2
 67
     7
 79
     5
170
     0
171
     0
290
     0
174
     0
 93
        1
 44
0.0
173
     0
291
     0
 45
0.0
  0
VISUALSTYLE
  5
31
102
{ACAD_REACTORS
330
2A
102
}
102
{ACAD_XDICTIONARY
360
65C
102
}
330
2A
100
AcDbVisualStyle
  2
3D Hidden
 70
     6
 71
     1
 72
     2
 73
     2
 90
        0
 40
-0.6
 41
-30.0
 62
     5
 63
     7
421
 16777215
 74
     2
 91
        2
 64
     7
 65
   257
 75
     2
175
     1
 42
40.0
 92
        0
 66
   257
 43
1.0
 76
     1
 77
     6
 78
     2
 67
     7
 79
     3
170
     0
171
     0
290
     0
174
     0
 93
        1
 44
0.0
173
     0
291
     0
 45
0.0
  0
VISUALSTYLE
  5
30
102
{ACAD_REACTORS
330
2A
102
}
102
{ACAD_XDICTIONARY
360
65A
102
}
330
2A
100
AcDbVisualStyle
  2
3dWireframe
 70
     5
 71
     0
 72
     2
 73
     0
 90
        0
 40
-0.6
 41
-30.0
 62
     5
 63
     7
421
 16777215
 74
     1
 91
        4
 64
     7
 65
   257
 75
     1
175
     1
 42
1.0
 92
        0
 66
   257
 43
1.0
 76
     1
 77
     6
 78
     2
 67
     7
 79
     5
170
     0
171
     0
290
     0
174
     0
 93
        1
 44
0.0
173
     0
291
     0
 45
0.0
  0
VISUALSTYLE
  5
32
102
{ACAD_REACTORS
330
2A
102
}
102
{ACAD_XDICTIONARY
360
65E
102
}
330
2A
100
AcDbVisualStyle
  2
Basic
 70
     7
 71
     1
 72
     0
 73
     1
 90
        0
 40
-0.6
 41
-30.0
 62
     5
 63
     7
421
 16777215
 74
     0
 91
        4
 64
     7
 65
   257
 75
     1
175
     1
 42
1.0
 92
        8
 66
     7
 43
1.0
 76
     1
 77
     6
 78
     2
 67
     7
 79
     5
170
     0
171
     0
290
     0
174
     0
 93
        1
 44
0.0
173
     0
291
     1
 45
0.0
  0
VISUALSTYLE
  5
36
102
{ACAD_REACTORS
330
2A
102
}
102
{ACAD_XDICTIONARY
360
666
102
}
330
2A
100
AcDbVisualStyle
  2
Brighten
 70
    12
 71
     2
 72
     2
 73
     0
 90
        0
 40
-0.6
 41
-30.0
 62
     5
 63
     7
421
 16777215
 74
     1
 91
        4
 64
     7
 65
   257
 75
     1
175
     1
 42
1.0
 92
        8
 66
     7
 43
1.0
 76
     1
 77
     6
 78
     2
 67
     7
 79
     5
170
     0
171
     0
290
     0
174
     0
 93
        1
 44
50.0
173
     0
291
     1
 45
0.0
  0
VISUALSTYLE
  5
3A
102
{ACAD_REACTORS
330
2A
102
}
102
{ACAD_XDICTIONARY
360
66E
102
}
330
2A
100
AcDbVisualStyle
  2
ColorChange
 70
    16
 71
     2
 72
     2
 73
     3
 90
        0
 40
-0.6
 41
-30.0
 62
     5
 63
     8
421
  8421504
 74
     1
 91
        4
 64
     7
 65
   257
 75
     1
175
     1
 42
1.0
 92
        8
 66
     8
424
  8421504
 43
1.0
 76
     1
 77
     6
 78
     2
 67
     7
 79
     5
170
     0
171
     0
290
     0
174
     0
 93
        1
 44
0.0
173
     0
291
     1
 45
0.0
  0
VISUALSTYLE
  5
34
102
{ACAD_REACTORS
330
2A
102
}
102
{ACAD_XDICTIONARY
360
662
102
}
330
2A
100
AcDbVisualStyle
  2
Conceptual
 70
     9
 71
     3
 72
     2
 73
     0
 90
        0
 40
-0.6
 41
-30.0
 62
     5
 63
     7
421
 16777215
 74
     2
 91
        2
 64
     7
 65
   257
 75
     1
175
     1
 42
40.0
 92
        8
 66
     7
 43
1.0
 76
     1
 77
     6
 78
     2
 67
     7
 79
     3
170
     0
171
     0
290
     0
174
     0
 93
        1
 44
0.0
173
     0
291
     0
 45
0.0
  0
VISUALSTYLE
  5
35
102
{ACAD_REACTORS
330
2A
102
}
102
{ACAD_XDICTIONARY
360
664
102
}
330
2A
100
AcDbVisualStyle
  2
Dim
 70
    11
 71
     2
 72
     2
 73
     0
 90
        0
 40
-0.6
 41
-30.0
 62
     5
 63
     7
421
 16777215
 74
     1
 91
        4
 64
     7
 65
   257
 75
     1
175
     1
 42
1.0
 92
        8
 66
     7
 43
1.0
 76
     1
 77
     6
 78
     2
 67
     7
 79
     5
170
     0
171
     0
290
     0
174
     0
 93
        1
 44
-50.0
173
     0
291
     1
 45
0.0
  0
VISUALSTYLE
  5
39
102
{ACAD_REACTORS
330
2A
102
}
102
{ACAD_XDICTIONARY
360
66C
102
}
330
2A
100
AcDbVisualStyle
  2
Facepattern
 70
    15
 71
     2
 72
     2
 73
     0
 90
        0
 40
-0.6
 41
-30.0
 62
     5
 63
     7
421
 16777215
 74
     1
 91
        4
 64
     7
 65
   257
 75
     1
175
     1
 42
1.0
 92
        8
 66
     7
 43
1.0
 76
     1
 77
     6
 78
     2
 67
     7
 79
     5
170
     0
171
     0
290
     0
174
     0
 93
        1
 44
0.0
173
     0
291
     1
 45
0.0
  0
VISUALSTYLE
  5
2B
102
{ACAD_REACTORS
330
2A
102
}
102
{ACAD_XDICTIONARY
360
650
102
}
330
2A
100
AcDbVisualStyle
  2
Flat
 70
     0
 71
     2
 72
     1
 73
     1
 90
        2
 40
-0.6
 41
30.0
 62
     5
 63
     7
421
 16777215
 74
     0
 91
        4
 64
     7
 65
   257
 75
     1
175
     1
 42
1.0
 92
        8
 66
     7
 43
1.0
 76
     1
 77
     6
 78
     2
 67
     7
 79
     5
170
     0
171
     0
290
     0
174
     0
 93
       13
 44
0.0
173
     0
291
     1
 45
0.0
  0
VISUALSTYLE
  5
2C
102
{ACAD_REACTORS
330
2A
102
}
102
{ACAD_XDICTIONARY
360
652
102
}
330
2A
100
AcDbVisualStyle
  2
FlatWithEdges
 70
     1
 71
     2
 72
     1
 73
     1
 90
        2
 40
-0.6
 41
30.0
 62
     5
 63
     7
421
 16777215
 74
     1
 91
        4
 64
     7
 65
   257
 75
     1
175
     1
 42
1.0
 92
        0
 66
   257
 43
1.0
 76
     1
 77
     6
 78
     2
 67
     7
 79
     5
170
     0
171
     0
290
     0
174
     0
 93
       13
 44
0.0
173
     0
291
     1
 45
0.0
  0
VISUALSTYLE
  5
2D
102
{ACAD_REACTORS
330
2A
102
}
102
{ACAD_XDICTIONARY
360
654
102
}
330
2A
100
AcDbVisualStyle
  2
Gouraud
 70
     2
 71
     2
 72
     2
 73
     1
 90
        2
 40
-0.6
 41
30.0
 62
     5
 63
     7
421
 16777215
 74
     0
 91
        4
 64
     7
 65
   257
 75
     1
175
     1
 42
1.0
 92
        0
 66
     7
 43
1.0
 76
     1
 77
     6
 78
     2
 67
     7
 79
     5
170
     0
171
     0
290
     0
174
     0
 93
       13
 44
0.0
173
     0
291
     1
 45
0.0
  0
VISUALSTYLE
  5
2E
102
{ACAD_REACTORS
330
2A
102
}
102
{ACAD_XDICTIONARY
360
656
102
}
330
2A
100
AcDbVisualStyle
  2
GouraudWithEdges
 70
     3
 71
     2
 72
     2
 73
     1
 90
        2
 40
-0.6
 41
30.0
 62
     5
 63
     7
421
 16777215
 74
     1
 91
        4
 64
     7
 65
   257
 75
     1
175
     1
 42
1.0
 92
        0
 66
   257
 43
1.0
 76
     1
 77
     6
 78
     2
 67
     7
 79
     5
170
     0
171
     0
290
     0
174
     0
 93
       13
 44
0.0
173
     0
291
     1
 45
0.0
  0
VISUALSTYLE
  5
38
102
{ACAD_REACTORS
330
2A
102
}
102
{ACAD_XDICTIONARY
360
66A
102
}
330
2A
100
AcDbVisualStyle
  2
Linepattern
 70
    14
 71
     2
 72
     2
 73
     0
 90
        0
 40
-0.6
 41
-30.0
 62
     5
 63
     7
421
 16777215
 74
     1
 91
        4
 64
     7
 65
   257
 75
     7
175
     7
 42
1.0
 92
        8
 66
     7
 43
1.0
 76
     1
 77
     6
 78
     2
 67
     7
 79
     5
170
     0
171
     0
290
     0
174
     0
 93
        1
 44
0.0
173
     0
291
     1
 45
0.0
  0
VISUALSTYLE
  5
33
102
{ACAD_REACTORS
330
2A
102
}
102
{ACAD_XDICTIONARY
360
660
102
}
330
2A
100
AcDbVisualStyle
  2
Realistic
 70
     8
 71
     2
 72
     2
 73
     0
 90
        0
 40
-0.6
 41
-30.0
 62
     5
 63
     7
421
 16777215
 74
     1
 91
        0
 64
     7
 65
   257
 75
     1
175
     1
 42
1.0
 92
        8
 66
     8
424
  7895160
 43
1.0
 76
     1
 77
     6
 78
     2
 67
     7
 79
     5
170
     0
171
     0
290
     0
174
     0
 93
       13
 44
0.0
173
     0
291
     0
 45
0.0
  0
VISUALSTYLE
  5
37
102
{ACAD_REACTORS
330
2A
102
}
102
{ACAD_XDICTIONARY
360
668
102
}
330
2A
100
AcDbVisualStyle
  2
Thicken
 70
    13
 71
     2
 72
     2
 73
     0
 90
        0
 40
-0.6
 41
-30.0
 62
     5
 63
     7
421
 16777215
 74
     1
 91
        4
 64
     7
 65
   257
 75
     1
175
     1
 42
1.0
 92
       12
 66
     7
 43
1.0
 76
     1
 77
     6
 78
     2
 67
     7
 79
     5
170
     0
171
     0
290
     0
174
     0
 93
        1
 44
0.0
173
     0
291
     1
 45
0.0
  0
DICTIONARYVAR
  5
64F
102
{ACAD_REACTORS
330
64E
102
}
330
64E
100
DictionaryVariables
280
     0
  1
1:1
  0
DICTIONARY
  5
26A
330
269
100
AcDbDictionary
280
     1
281
     1
  3
TC_EXTENDED_DATA
360
26B
  0
DICTIONARY
  5
318
330
317
100
AcDbDictionary
280
     1
281
     1
  3
TC_EXTENDED_DATA
360
319
  0
DICTIONARY
  5
3EB
330
3EA
100
AcDbDictionary
280
     1
281
     1
  3
TC_EXTENDED_DATA
360
3EC
  0
DICTIONARY
  5
512
330
511
100
AcDbDictionary
280
     1
281
     1
  3
TC_EXTENDED_DATA
360
513
  0
DICTIONARY
  5
627
330
626
100
AcDbDictionary
280
     1
281
     1
  3
TC_EXTENDED_DATA
360
628
  0
DICTIONARY
  5
670
330
191
100
AcDbDictionary
280
     1
281
     1
  3
ACAD_ROUNDTRIP_2008_TABLESTYLE_CELLSTYLEMAP
360
671
  0
DICTIONARY
  5
658
330
2F
100
AcDbDictionary
280
     1
281
     1
  3
ACAD_XREC_ROUNDTRIP
360
659
  0
DICTIONARY
  5
65C
330
31
100
AcDbDictionary
280
     1
281
     1
  3
ACAD_XREC_ROUNDTRIP
360
65D
  0
DICTIONARY
  5
65A
330
30
100
AcDbDictionary
280
     1
281
     1
  3
ACAD_XREC_ROUNDTRIP
360
65B
  0
DICTIONARY
  5
65E
330
32
100
AcDbDictionary
280
     1
281
     1
  3
ACAD_XREC_ROUNDTRIP
360
65F
  0
DICTIONARY
  5
666
330
36
100
AcDbDictionary
280
     1
281
     1
  3
ACAD_XREC_ROUNDTRIP
360
667
  0
DICTIONARY
  5
66E
330
3A
100
AcDbDictionary
280
     1
281
     1
  3
ACAD_XREC_ROUNDTRIP
360
66F
  0
DICTIONARY
  5
662
330
34
100
AcDbDictionary
280
     1
281
     1
  3
ACAD_XREC_ROUNDTRIP
360
663
  0
DICTIONARY
  5
664
330
35
100
AcDbDictionary
280
     1
281
     1
  3
ACAD_XREC_ROUNDTRIP
360
665
  0
DICTIONARY
  5
66C
330
39
100
AcDbDictionary
280
     1
281
     1
  3
ACAD_XREC_ROUNDTRIP
360
66D
  0
DICTIONARY
  5
650
330
2B
100
AcDbDictionary
280
     1
281
     1
  3
ACAD_XREC_ROUNDTRIP
360
651
  0
DICTIONARY
  5
652
330
2C
100
AcDbDictionary
280
     1
281
     1
  3
ACAD_XREC_ROUNDTRIP
360
653
  0
DICTIONARY
  5
654
330
2D
100
AcDbDictionary
280
     1
281
     1
  3
ACAD_XREC_ROUNDTRIP
360
655
  0
DICTIONARY
  5
656
330
2E
100
AcDbDictionary
280
     1
281
     1
  3
ACAD_XREC_ROUNDTRIP
360
657
  0
DICTIONARY
  5
66A
330
38
100
AcDbDictionary
280
     1
281
     1
  3
ACAD_XREC_ROUNDTRIP
360
66B
  0
DICTIONARY
  5
660
330
33
100
AcDbDictionary
280
     1
281
     1
  3
ACAD_XREC_ROUNDTRIP
360
661
  0
DICTIONARY
  5
668
330
37
100
AcDbDictionary
280
     1
281
     1
  3
ACAD_XREC_ROUNDTRIP
360
669
  0
TCOPTIONALDATA
  5
26B
102
{ACAD_REACTORS
330
26A
102
}
330
26A
100
TcOptionalData
 70
     2
 70
     2
 10
148.4999960362911
 20
105.0000022053719
 30
0.0
  0
TCOPTIONALDATA
  5
319
102
{ACAD_REACTORS
330
318
102
}
330
318
100
TcOptionalData
 70
     2
 70
     2
 10
209.9999984502792
 20
148.5000055432319
 30
0.0
  0
TCOPTIONALDATA
  5
3EC
102
{ACAD_REACTORS
330
3EB
102
}
330
3EB
100
TcOptionalData
 70
     2
 70
     2
 10
297.0000076293945
 20
209.9999969005585
 30
0.0
  0
TCOPTIONALDATA
  5
513
102
{ACAD_REACTORS
330
512
102
}
330
512
100
TcOptionalData
 70
     2
 70
     2
 10
420.5000033378601
 20
296.9999862909317
 30
0.0
  0
TCOPTIONALDATA
  5
628
102
{ACAD_REACTORS
330
627
102
}
330
627
100
TcOptionalData
 70
     2
 70
     2
 10
594.0000305175781
 20
420.0000107288361
 30
0.0
  0
CELLSTYLEMAP
  5
671
102
{ACAD_REACTORS
330
670
102
}
330
670
100
AcDbCellStyleMap
 90
        3
300
CELLSTYLE
  1
TABLEFORMAT_BEGIN
 90
        5
170
     1
 91
        0
 92
        0
 62
   257
 93
        1
300
CONTENTFORMAT
  1
CONTENTFORMAT_BEGIN
 90
        0
 91
        0
 92
        4
 93
        0
300

 40
0.0
140
1.0
 94
        5
 62
     0
340
11
144
76.2
309
CONTENTFORMAT_END
171
     0
 94
        6
 95
        1
302
GRIDFORMAT
  1
GRIDFORMAT_BEGIN
 90
        0
 91
        1
 62
     0
 92
       -2
340
0
 93
        0
 40
0.045
309
GRIDFORMAT_END
 95
        2
302
GRIDFORMAT
  1
GRIDFORMAT_BEGIN
 90
        0
 91
        1
 62
     0
 92
       -2
340
0
 93
        0
 40
0.045
309
GRIDFORMAT_END
 95
        4
302
GRIDFORMAT
  1
GRIDFORMAT_BEGIN
 90
        0
 91
        1
 62
     0
 92
       -2
340
0
 93
        0
 40
0.045
309
GRIDFORMAT_END
 95
        8
302
GRIDFORMAT
  1
GRIDFORMAT_BEGIN
 90
        0
 91
        1
 62
     0
 92
       -2
340
0
 93
        0
 40
0.045
309
GRIDFORMAT_END
 95
       16
302
GRIDFORMAT
  1
GRIDFORMAT_BEGIN
 90
        0
 91
        1
 62
     0
 92
       -2
340
0
 93
        0
 40
0.045
309
GRIDFORMAT_END
 95
       32
302
GRIDFORMAT
  1
GRIDFORMAT_BEGIN
 90
        0
 91
        1
 62
     0
 92
       -2
340
0
 93
        0
 40
0.045
309
GRIDFORMAT_END
309
TABLEFORMAT_END
  1
CELLSTYLE_BEGIN
 90
        1
 91
        1
300
_TITLE
309
CELLSTYLE_END
300
CELLSTYLE
  1
TABLEFORMAT_BEGIN
 90
        5
170
     1
 91
        0
 92
        0
 62
   257
 93
        1
300
CONTENTFORMAT
  1
CONTENTFORMAT_BEGIN
 90
        0
 91
        0
 92
        4
 93
        0
300

 40
0.0
140
1.0
 94
        5
 62
     0
340
11
144
76.2
309
CONTENTFORMAT_END
171
     0
 94
        6
 95
        1
302
GRIDFORMAT
  1
GRIDFORMAT_BEGIN
 90
        0
 91
        1
 62
     0
 92
       -2
340
0
 93
        0
 40
0.045
309
GRIDFORMAT_END
 95
        2
302
GRIDFORMAT
  1
GRIDFORMAT_BEGIN
 90
        0
 91
        1
 62
     0
 92
       -2
340
0
 93
        0
 40
0.045
309
GRIDFORMAT_END
 95
        4
302
GRIDFORMAT
  1
GRIDFORMAT_BEGIN
 90
        0
 91
        1
 62
     0
 92
       -2
340
0
 93
        0
 40
0.045
309
GRIDFORMAT_END
 95
        8
302
GRIDFORMAT
  1
GRIDFORMAT_BEGIN
 90
        0
 91
        1
 62
     0
 92
       -2
340
0
 93
        0
 40
0.045
309
GRIDFORMAT_END
 95
       16
302
GRIDFORMAT
  1
GRIDFORMAT_BEGIN
 90
        0
 91
        1
 62
     0
 92
       -2
340
0
 93
        0
 40
0.045
309
GRIDFORMAT_END
 95
       32
302
GRIDFORMAT
  1
GRIDFORMAT_BEGIN
 90
        0
 91
        1
 62
     0
 92
       -2
340
0
 93
        0
 40
0.045
309
GRIDFORMAT_END
309
TABLEFORMAT_END
  1
CELLSTYLE_BEGIN
 90
        2
 91
        1
300
_HEADER
309
CELLSTYLE_END
300
CELLSTYLE
  1
TABLEFORMAT_BEGIN
 90
        5
170
     1
 91
        0
 92
        0
 62
   257
 93
        1
300
CONTENTFORMAT
  1
CONTENTFORMAT_BEGIN
 90
        0
 91
        0
 92
        4
 93
        0
300

 40
0.0
140
1.0
 94
        5
 62
     0
340
11
144
76.2
309
CONTENTFORMAT_END
171
     0
 94
        6
 95
        1
302
GRIDFORMAT
  1
GRIDFORMAT_BEGIN
 90
        0
 91
        1
 62
     0
 92
       -2
340
0
 93
        0
 40
0.045
309
GRIDFORMAT_END
 95
        2
302
GRIDFORMAT
  1
GRIDFORMAT_BEGIN
 90
        0
 91
        1
 62
     0
 92
       -2
340
0
 93
        0
 40
0.045
309
GRIDFORMAT_END
 95
        4
302
GRIDFORMAT
  1
GRIDFORMAT_BEGIN
 90
        0
 91
        1
 62
     0
 92
       -2
340
0
 93
        0
 40
0.045
309
GRIDFORMAT_END
 95
        8
302
GRIDFORMAT
  1
GRIDFORMAT_BEGIN
 90
        0
 91
        1
 62
     0
 92
       -2
340
0
 93
        0
 40
0.045
309
GRIDFORMAT_END
 95
       16
302
GRIDFORMAT
  1
GRIDFORMAT_BEGIN
 90
        0
 91
        1
 62
     0
 92
       -2
340
0
 93
        0
 40
0.045
309
GRIDFORMAT_END
 95
       32
302
GRIDFORMAT
  1
GRIDFORMAT_BEGIN
 90
        0
 91
        1
 62
     0
 92
       -2
340
0
 93
        0
 40
0.045
309
GRIDFORMAT_END
309
TABLEFORMAT_END
  1
CELLSTYLE_BEGIN
 90
        3
 91
        2
300
_DATA
309
CELLSTYLE_END
  0
XRECORD
  5
659
102
{ACAD_REACTORS
330
658
102
}
330
658
100
AcDbXrecord
280
     1
102
RTVSPropertyOp0
 70
     1
102
RTVSPropertyOp1
 70
     1
102
RTVSPropertyOp2
 70
     1
102
RTVSPropertyOp3
 70
     1
102
RTVSPropertyOp4
 70
     1
102
RTVSPropertyOp5
 70
     1
102
RTVSPropertyOp6
 70
     1
102
RTVSPropertyOp7
 70
     1
102
RTVSPropertyOp8
 70
     1
102
RTVSPropertyOp9
 70
     1
102
RTVSPropertyOp10
 70
     1
102
RTVSPropertyOp11
 70
     1
102
RTVSPropertyOp12
 70
     1
102
RTVSPropertyOp13
 70
     1
102
RTVSPropertyOp14
 70
     1
102
RTVSPropertyOp15
 70
     1
102
RTVSPropertyOp16
 70
     1
102
RTVSPropertyOp17
 70
     1
102
RTVSPropertyOp18
 70
     1
102
RTVSPropertyOp19
 70
     1
102
RTVSPropertyOp20
 70
     1
102
RTVSPropertyOp21
 70
     1
102
RTVSPropertyOp22
 70
     1
102
RTVSPropertyOp23
 70
     1
102
RTVSPropertyOp24
 70
     1
102
RTVSPropertyOp25
 70
     1
102
RTVSPropertyOp26
 70
     1
102
RTVSPropertyOp27
 70
     1
  0
XRECORD
  5
65D
102
{ACAD_REACTORS
330
65C
102
}
330
65C
100
AcDbXrecord
280
     1
102
RTVSPropertyOp0
 70
     1
102
RTVSPropertyOp1
 70
     1
102
RTVSPropertyOp2
 70
     1
102
RTVSPropertyOp3
 70
     1
102
RTVSPropertyOp4
 70
     1
102
RTVSPropertyOp5
 70
     1
102
RTVSPropertyOp6
 70
     1
102
RTVSPropertyOp7
 70
     1
102
RTVSPropertyOp8
 70
     1
102
RTVSPropertyOp9
 70
     1
102
RTVSPropertyOp10
 70
     1
102
RTVSPropertyOp11
 70
     1
102
RTVSPropertyOp12
 70
     1
102
RTVSPropertyOp13
 70
     1
102
RTVSPropertyOp14
 70
     1
102
RTVSPropertyOp15
 70
     1
102
RTVSPropertyOp16
 70
     1
102
RTVSPropertyOp17
 70
     1
102
RTVSPropertyOp18
 70
     1
102
RTVSPropertyOp19
 70
     1
102
RTVSPropertyOp20
 70
     1
102
RTVSPropertyOp21
 70
     1
102
RTVSPropertyOp22
 70
     1
102
RTVSPropertyOp23
 70
     1
102
RTVSPropertyOp24
 70
     1
102
RTVSPropertyOp25
 70
     1
102
RTVSPropertyOp26
 70
     1
102
RTVSPropertyOp27
 70
     1
  0
XRECORD
  5
65B
102
{ACAD_REACTORS
330
65A
102
}
330
65A
100
AcDbXrecord
280
     1
102
RTVSPropertyOp0
 70
     1
102
RTVSPropertyOp1
 70
     1
102
RTVSPropertyOp2
 70
     1
102
RTVSPropertyOp3
 70
     1
102
RTVSPropertyOp4
 70
     1
102
RTVSPropertyOp5
 70
     1
102
RTVSPropertyOp6
 70
     1
102
RTVSPropertyOp7
 70
     1
102
RTVSPropertyOp8
 70
     1
102
RTVSPropertyOp9
 70
     1
102
RTVSPropertyOp10
 70
     1
102
RTVSPropertyOp11
 70
     1
102
RTVSPropertyOp12
 70
     1
102
RTVSPropertyOp13
 70
     1
102
RTVSPropertyOp14
 70
     1
102
RTVSPropertyOp15
 70
     1
102
RTVSPropertyOp16
 70
     1
102
RTVSPropertyOp17
 70
     1
102
RTVSPropertyOp18
 70
     1
102
RTVSPropertyOp19
 70
     1
102
RTVSPropertyOp20
 70
     1
102
RTVSPropertyOp21
 70
     1
102
RTVSPropertyOp22
 70
     1
102
RTVSPropertyOp23
 70
     1
102
RTVSPropertyOp24
 70
     1
102
RTVSPropertyOp25
 70
     1
102
RTVSPropertyOp26
 70
     1
102
RTVSPropertyOp27
 70
     1
  0
XRECORD
  5
65F
102
{ACAD_REACTORS
330
65E
102
}
330
65E
100
AcDbXrecord
280
     1
102
RTVSPropertyOp0
 70
     1
102
RTVSPropertyOp1
 70
     1
102
RTVSPropertyOp2
 70
     1
102
RTVSPropertyOp3
 70
     1
102
RTVSPropertyOp4
 70
     1
102
RTVSPropertyOp5
 70
     1
102
RTVSPropertyOp6
 70
     1
102
RTVSPropertyOp7
 70
     1
102
RTVSPropertyOp8
 70
     1
102
RTVSPropertyOp9
 70
     1
102
RTVSPropertyOp10
 70
     1
102
RTVSPropertyOp11
 70
     1
102
RTVSPropertyOp12
 70
     1
102
RTVSPropertyOp13
 70
     1
102
RTVSPropertyOp14
 70
     1
102
RTVSPropertyOp15
 70
     1
102
RTVSPropertyOp16
 70
     1
102
RTVSPropertyOp17
 70
     1
102
RTVSPropertyOp18
 70
     1
102
RTVSPropertyOp19
 70
     1
102
RTVSPropertyOp20
 70
     1
102
RTVSPropertyOp21
 70
     1
102
RTVSPropertyOp22
 70
     1
102
RTVSPropertyOp23
 70
     1
102
RTVSPropertyOp24
 70
     1
102
RTVSPropertyOp25
 70
     1
102
RTVSPropertyOp26
 70
     1
102
RTVSPropertyOp27
 70
     1
  0
XRECORD
  5
667
102
{ACAD_REACTORS
330
666
102
}
330
666
100
AcDbXrecord
280
     1
102
RTVSPropertyOp0
 70
     1
102
RTVSPropertyOp1
 70
     1
102
RTVSPropertyOp2
 70
     1
102
RTVSPropertyOp3
 70
     1
102
RTVSPropertyOp4
 70
     1
102
RTVSPropertyOp5
 70
     1
102
RTVSPropertyOp6
 70
     1
102
RTVSPropertyOp7
 70
     1
102
RTVSPropertyOp8
 70
     1
102
RTVSPropertyOp9
 70
     1
102
RTVSPropertyOp10
 70
     1
102
RTVSPropertyOp11
 70
     1
102
RTVSPropertyOp12
 70
     1
102
RTVSPropertyOp13
 70
     1
102
RTVSPropertyOp14
 70
     1
102
RTVSPropertyOp15
 70
     1
102
RTVSPropertyOp16
 70
     1
102
RTVSPropertyOp17
 70
     1
102
RTVSPropertyOp18
 70
     1
102
RTVSPropertyOp19
 70
     1
102
RTVSPropertyOp20
 70
     1
102
RTVSPropertyOp21
 70
     1
102
RTVSPropertyOp22
 70
     1
102
RTVSPropertyOp23
 70
     1
102
RTVSPropertyOp24
 70
     1
102
RTVSPropertyOp25
 70
     1
102
RTVSPropertyOp26
 70
     1
102
RTVSPropertyOp27
 70
     1
  0
XRECORD
  5
66F
102
{ACAD_REACTORS
330
66E
102
}
330
66E
100
AcDbXrecord
280
     1
102
RTVSPropertyOp0
 70
     1
102
RTVSPropertyOp1
 70
     1
102
RTVSPropertyOp2
 70
     1
102
RTVSPropertyOp3
 70
     1
102
RTVSPropertyOp4
 70
     1
102
RTVSPropertyOp5
 70
     1
102
RTVSPropertyOp6
 70
     1
102
RTVSPropertyOp7
 70
     1
102
RTVSPropertyOp8
 70
     1
102
RTVSPropertyOp9
 70
     1
102
RTVSPropertyOp10
 70
     1
102
RTVSPropertyOp11
 70
     1
102
RTVSPropertyOp12
 70
     1
102
RTVSPropertyOp13
 70
     1
102
RTVSPropertyOp14
 70
     1
102
RTVSPropertyOp15
 70
     1
102
RTVSPropertyOp16
 70
     1
102
RTVSPropertyOp17
 70
     1
102
RTVSPropertyOp18
 70
     1
102
RTVSPropertyOp19
 70
     1
102
RTVSPropertyOp20
 70
     1
102
RTVSPropertyOp21
 70
     1
102
RTVSPropertyOp22
 70
     1
102
RTVSPropertyOp23
 70
     1
102
RTVSPropertyOp24
 70
     1
102
RTVSPropertyOp25
 70
     1
102
RTVSPropertyOp26
 70
     1
102
RTVSPropertyOp27
 70
     1
  0
XRECORD
  5
663
102
{ACAD_REACTORS
330
662
102
}
330
662
100
AcDbXrecord
280
     1
102
RTVSPropertyOp0
 70
     1
102
RTVSPropertyOp1
 70
     1
102
RTVSPropertyOp2
 70
     1
102
RTVSPropertyOp3
 70
     1
102
RTVSPropertyOp4
 70
     1
102
RTVSPropertyOp5
 70
     1
102
RTVSPropertyOp6
 70
     1
102
RTVSPropertyOp7
 70
     1
102
RTVSPropertyOp8
 70
     1
102
RTVSPropertyOp9
 70
     1
102
RTVSPropertyOp10
 70
     1
102
RTVSPropertyOp11
 70
     1
102
RTVSPropertyOp12
 70
     1
102
RTVSPropertyOp13
 70
     1
102
RTVSPropertyOp14
 70
     1
102
RTVSPropertyOp15
 70
     1
102
RTVSPropertyOp16
 70
     1
102
RTVSPropertyOp17
 70
     1
102
RTVSPropertyOp18
 70
     1
102
RTVSPropertyOp19
 70
     1
102
RTVSPropertyOp20
 70
     1
102
RTVSPropertyOp21
 70
     1
102
RTVSPropertyOp22
 70
     1
102
RTVSPropertyOp23
 70
     1
102
RTVSPropertyOp24
 70
     1
102
RTVSPropertyOp25
 70
     1
102
RTVSPropertyOp26
 70
     1
102
RTVSPropertyOp27
 70
     1
  0
XRECORD
  5
665
102
{ACAD_REACTORS
330
664
102
}
330
664
100
AcDbXrecord
280
     1
102
RTVSPropertyOp0
 70
     1
102
RTVSPropertyOp1
 70
     1
102
RTVSPropertyOp2
 70
     1
102
RTVSPropertyOp3
 70
     1
102
RTVSPropertyOp4
 70
     1
102
RTVSPropertyOp5
 70
     1
102
RTVSPropertyOp6
 70
     1
102
RTVSPropertyOp7
 70
     1
102
RTVSPropertyOp8
 70
     1
102
RTVSPropertyOp9
 70
     1
102
RTVSPropertyOp10
 70
     1
102
RTVSPropertyOp11
 70
     1
102
RTVSPropertyOp12
 70
     1
102
RTVSPropertyOp13
 70
     1
102
RTVSPropertyOp14
 70
     1
102
RTVSPropertyOp15
 70
     1
102
RTVSPropertyOp16
 70
     1
102
RTVSPropertyOp17
 70
     1
102
RTVSPropertyOp18
 70
     1
102
RTVSPropertyOp19
 70
     1
102
RTVSPropertyOp20
 70
     1
102
RTVSPropertyOp21
 70
     1
102
RTVSPropertyOp22
 70
     1
102
RTVSPropertyOp23
 70
     1
102
RTVSPropertyOp24
 70
     1
102
RTVSPropertyOp25
 70
     1
102
RTVSPropertyOp26
 70
     1
102
RTVSPropertyOp27
 70
     1
  0
XRECORD
  5
66D
102
{ACAD_REACTORS
330
66C
102
}
330
66C
100
AcDbXrecord
280
     1
102
RTVSPropertyOp0
 70
     1
102
RTVSPropertyOp1
 70
     1
102
RTVSPropertyOp2
 70
     1
102
RTVSPropertyOp3
 70
     1
102
RTVSPropertyOp4
 70
     1
102
RTVSPropertyOp5
 70
     1
102
RTVSPropertyOp6
 70
     1
102
RTVSPropertyOp7
 70
     1
102
RTVSPropertyOp8
 70
     1
102
RTVSPropertyOp9
 70
     1
102
RTVSPropertyOp10
 70
     1
102
RTVSPropertyOp11
 70
     1
102
RTVSPropertyOp12
 70
     1
102
RTVSPropertyOp13
 70
     1
102
RTVSPropertyOp14
 70
     1
102
RTVSPropertyOp15
 70
     1
102
RTVSPropertyOp16
 70
     1
102
RTVSPropertyOp17
 70
     1
102
RTVSPropertyOp18
 70
     1
102
RTVSPropertyOp19
 70
     1
102
RTVSPropertyOp20
 70
     1
102
RTVSPropertyOp21
 70
     1
102
RTVSPropertyOp22
 70
     1
102
RTVSPropertyOp23
 70
     1
102
RTVSPropertyOp24
 70
     1
102
RTVSPropertyOp25
 70
     1
102
RTVSPropertyOp26
 70
     1
102
RTVSPropertyOp27
 70
     1
  0
XRECORD
  5
651
102
{ACAD_REACTORS
330
650
102
}
330
650
100
AcDbXrecord
280
     1
102
RTVSPropertyOp0
 70
     1
102
RTVSPropertyOp1
 70
     1
102
RTVSPropertyOp2
 70
     1
102
RTVSPropertyOp3
 70
     1
102
RTVSPropertyOp4
 70
     1
102
RTVSPropertyOp5
 70
     1
102
RTVSPropertyOp6
 70
     1
102
RTVSPropertyOp7
 70
     1
102
RTVSPropertyOp8
 70
     1
102
RTVSPropertyOp9
 70
     1
102
RTVSPropertyOp10
 70
     1
102
RTVSPropertyOp11
 70
     1
102
RTVSPropertyOp12
 70
     1
102
RTVSPropertyOp13
 70
     1
102
RTVSPropertyOp14
 70
     1
102
RTVSPropertyOp15
 70
     1
102
RTVSPropertyOp16
 70
     1
102
RTVSPropertyOp17
 70
     1
102
RTVSPropertyOp18
 70
     1
102
RTVSPropertyOp19
 70
     1
102
RTVSPropertyOp20
 70
     1
102
RTVSPropertyOp21
 70
     1
102
RTVSPropertyOp22
 70
     1
102
RTVSPropertyOp23
 70
     1
102
RTVSPropertyOp24
 70
     1
102
RTVSPropertyOp25
 70
     1
102
RTVSPropertyOp26
 70
     1
102
RTVSPropertyOp27
 70
     1
  0
XRECORD
  5
653
102
{ACAD_REACTORS
330
652
102
}
330
652
100
AcDbXrecord
280
     1
102
RTVSPropertyOp0
 70
     1
102
RTVSPropertyOp1
 70
     1
102
RTVSPropertyOp2
 70
     1
102
RTVSPropertyOp3
 70
     1
102
RTVSPropertyOp4
 70
     1
102
RTVSPropertyOp5
 70
     1
102
RTVSPropertyOp6
 70
     1
102
RTVSPropertyOp7
 70
     1
102
RTVSPropertyOp8
 70
     1
102
RTVSPropertyOp9
 70
     1
102
RTVSPropertyOp10
 70
     1
102
RTVSPropertyOp11
 70
     1
102
RTVSPropertyOp12
 70
     1
102
RTVSPropertyOp13
 70
     1
102
RTVSPropertyOp14
 70
     1
102
RTVSPropertyOp15
 70
     1
102
RTVSPropertyOp16
 70
     1
102
RTVSPropertyOp17
 70
     1
102
RTVSPropertyOp18
 70
     1
102
RTVSPropertyOp19
 70
     1
102
RTVSPropertyOp20
 70
     1
102
RTVSPropertyOp21
 70
     1
102
RTVSPropertyOp22
 70
     1
102
RTVSPropertyOp23
 70
     1
102
RTVSPropertyOp24
 70
     1
102
RTVSPropertyOp25
 70
     1
102
RTVSPropertyOp26
 70
     1
102
RTVSPropertyOp27
 70
     1
  0
XRECORD
  5
655
102
{ACAD_REACTORS
330
654
102
}
330
654
100
AcDbXrecord
280
     1
102
RTVSPropertyOp0
 70
     1
102
RTVSPropertyOp1
 70
     1
102
RTVSPropertyOp2
 70
     1
102
RTVSPropertyOp3
 70
     1
102
RTVSPropertyOp4
 70
     1
102
RTVSPropertyOp5
 70
     1
102
RTVSPropertyOp6
 70
     1
102
RTVSPropertyOp7
 70
     1
102
RTVSPropertyOp8
 70
     1
102
RTVSPropertyOp9
 70
     1
102
RTVSPropertyOp10
 70
     1
102
RTVSPropertyOp11
 70
     1
102
RTVSPropertyOp12
 70
     1
102
RTVSPropertyOp13
 70
     1
102
RTVSPropertyOp14
 70
     1
102
RTVSPropertyOp15
 70
     1
102
RTVSPropertyOp16
 70
     1
102
RTVSPropertyOp17
 70
     1
102
RTVSPropertyOp18
 70
     1
102
RTVSPropertyOp19
 70
     1
102
RTVSPropertyOp20
 70
     1
102
RTVSPropertyOp21
 70
     1
102
RTVSPropertyOp22
 70
     1
102
RTVSPropertyOp23
 70
     1
102
RTVSPropertyOp24
 70
     1
102
RTVSPropertyOp25
 70
     1
102
RTVSPropertyOp26
 70
     1
102
RTVSPropertyOp27
 70
     1
  0
XRECORD
  5
657
102
{ACAD_REACTORS
330
656
102
}
330
656
100
AcDbXrecord
280
     1
102
RTVSPropertyOp0
 70
     1
102
RTVSPropertyOp1
 70
     1
102
RTVSPropertyOp2
 70
     1
102
RTVSPropertyOp3
 70
     1
102
RTVSPropertyOp4
 70
     1
102
RTVSPropertyOp5
 70
     1
102
RTVSPropertyOp6
 70
     1
102
RTVSPropertyOp7
 70
     1
102
RTVSPropertyOp8
 70
     1
102
RTVSPropertyOp9
 70
     1
102
RTVSPropertyOp10
 70
     1
102
RTVSPropertyOp11
 70
     1
102
RTVSPropertyOp12
 70
     1
102
RTVSPropertyOp13
 70
     1
102
RTVSPropertyOp14
 70
     1
102
RTVSPropertyOp15
 70
     1
102
RTVSPropertyOp16
 70
     1
102
RTVSPropertyOp17
 70
     1
102
RTVSPropertyOp18
 70
     1
102
RTVSPropertyOp19
 70
     1
102
RTVSPropertyOp20
 70
     1
102
RTVSPropertyOp21
 70
     1
102
RTVSPropertyOp22
 70
     1
102
RTVSPropertyOp23
 70
     1
102
RTVSPropertyOp24
 70
     1
102
RTVSPropertyOp25
 70
     1
102
RTVSPropertyOp26
 70
     1
102
RTVSPropertyOp27
 70
     1
  0
XRECORD
  5
66B
102
{ACAD_REACTORS
330
66A
102
}
330
66A
100
AcDbXrecord
280
     1
102
RTVSPropertyOp0
 70
     1
102
RTVSPropertyOp1
 70
     1
102
RTVSPropertyOp2
 70
     1
102
RTVSPropertyOp3
 70
     1
102
RTVSPropertyOp4
 70
     1
102
RTVSPropertyOp5
 70
     1
102
RTVSPropertyOp6
 70
     1
102
RTVSPropertyOp7
 70
     1
102
RTVSPropertyOp8
 70
     1
102
RTVSPropertyOp9
 70
     1
102
RTVSPropertyOp10
 70
     1
102
RTVSPropertyOp11
 70
     1
102
RTVSPropertyOp12
 70
     1
102
RTVSPropertyOp13
 70
     1
102
RTVSPropertyOp14
 70
     1
102
RTVSPropertyOp15
 70
     1
102
RTVSPropertyOp16
 70
     1
102
RTVSPropertyOp17
 70
     1
102
RTVSPropertyOp18
 70
     1
102
RTVSPropertyOp19
 70
     1
102
RTVSPropertyOp20
 70
     1
102
RTVSPropertyOp21
 70
     1
102
RTVSPropertyOp22
 70
     1
102
RTVSPropertyOp23
 70
     1
102
RTVSPropertyOp24
 70
     1
102
RTVSPropertyOp25
 70
     1
102
RTVSPropertyOp26
 70
     1
102
RTVSPropertyOp27
 70
     1
  0
XRECORD
  5
661
102
{ACAD_REACTORS
330
660
102
}
330
660
100
AcDbXrecord
280
     1
102
RTVSPropertyOp0
 70
     1
102
RTVSPropertyOp1
 70
     1
102
RTVSPropertyOp2
 70
     1
102
RTVSPropertyOp3
 70
     1
102
RTVSPropertyOp4
 70
     1
102
RTVSPropertyOp5
 70
     1
102
RTVSPropertyOp6
 70
     1
102
RTVSPropertyOp7
 70
     1
102
RTVSPropertyOp8
 70
     1
102
RTVSPropertyOp9
 70
     1
102
RTVSPropertyOp10
 70
     1
102
RTVSPropertyOp11
 70
     1
102
RTVSPropertyOp12
 70
     1
102
RTVSPropertyOp13
 70
     1
102
RTVSPropertyOp14
 70
     1
102
RTVSPropertyOp15
 70
     1
102
RTVSPropertyOp16
 70
     1
102
RTVSPropertyOp17
 70
     1
102
RTVSPropertyOp18
 70
     1
102
RTVSPropertyOp19
 70
     1
102
RTVSPropertyOp20
 70
     1
102
RTVSPropertyOp21
 70
     1
102
RTVSPropertyOp22
 70
     1
102
RTVSPropertyOp23
 70
     1
102
RTVSPropertyOp24
 70
     1
102
RTVSPropertyOp25
 70
     1
102
RTVSPropertyOp26
 70
     1
102
RTVSPropertyOp27
 70
     1
  0
XRECORD
  5
669
102
{ACAD_REACTORS
330
668
102
}
330
668
100
AcDbXrecord
280
     1
102
RTVSPropertyOp0
 70
     1
102
RTVSPropertyOp1
 70
     1
102
RTVSPropertyOp2
 70
     1
102
RTVSPropertyOp3
 70
     1
102
RTVSPropertyOp4
 70
     1
102
RTVSPropertyOp5
 70
     1
102
RTVSPropertyOp6
 70
     1
102
RTVSPropertyOp7
 70
     1
102
RTVSPropertyOp8
 70
     1
102
RTVSPropertyOp9
 70
     1
102
RTVSPropertyOp10
 70
     1
102
RTVSPropertyOp11
 70
     1
102
RTVSPropertyOp12
 70
     1
102
RTVSPropertyOp13
 70
     1
102
RTVSPropertyOp14
 70
     1
102
RTVSPropertyOp15
 70
     1
102
RTVSPropertyOp16
 70
     1
102
RTVSPropertyOp17
 70
     1
102
RTVSPropertyOp18
 70
     1
102
RTVSPropertyOp19
 70
     1
102
RTVSPropertyOp20
 70
     1
102
RTVSPropertyOp21
 70
     1
102
RTVSPropertyOp22
 70
     1
102
RTVSPropertyOp23
 70
     1
102
RTVSPropertyOp24
 70
     1
102
RTVSPropertyOp25
 70
     1
102
RTVSPropertyOp26
 70
     1
102
RTVSPropertyOp27
 70
     1
  0
ENDSEC
  0
EOF
