  0
SECTION
  2
HEADER
  9
$ACADVER
  1
AC1018
  9
$ACADMAINTVER
 70
     0
  9
$DWGCODEPAGE
  3
ANSI_1252
  9
$INSBASE
 10
0.0
 20
0.0
 30
0.0
  9
$EXTMIN
 10
1804.820000281701
 20
-100.8008571000298
 30
0.0
  9
$EXTMAX
 10
2041.5070169614
 20
194.6799997182993
 30
0.0
  9
$LIMMIN
 10
-1275.089770160241
 20
-638.9547597110579
  9
$LIMMAX
 10
2025.14265378938
 20
1911.224840613649
  9
$ORTHOMODE
 70
     0
  9
$REGENMODE
 70
     1
  9
$FILLMODE
 70
     1
  9
$QTEXTMODE
 70
     0
  9
$MIRRTEXT
 70
     1
  9
$LTSCALE
 40
1.0
  9
$ATTMODE
 70
     1
  9
$TEXTSIZE
 40
2.5
  9
$TRACEWID
 40
1.0
  9
$TEXTSTYLE
  7
Standard
  9
$CLAYER
  8
0
  9
$CELTYPE
  6
ByLayer
  9
$CECOLOR
 62
     7
  9
$CELTSCALE
 40
1.0
  9
$DISPSILH
 70
     0
  9
$DIMSCALE
 40
1.0
  9
$DIMASZ
 40
6.0
  9
$DIMEXO
 40
1.0
  9
$DIMDLI
 40
1.0
  9
$DIMRND
 40
0.0
  9
$DIMDLE
 40
0.0
  9
$DIMEXE
 40
1.0
  9
$DIMTP
 40
0.0
  9
$DIMTM
 40
0.0
  9
$DIMTXT
 40
6.0
  9
$DIMCEN
 40
0.09
  9
$DIMTSZ
 40
0.0
  9
$DIMTOL
 70
     0
  9
$DIMLIM
 70
     0
  9
$DIMTIH
 70
     0
  9
$DIMTOH
 70
     0
  9
$DIMSE1
 70
     0
  9
$DIMSE2
 70
     0
  9
$DIMTAD
 70
     1
  9
$DIMZIN
 70
    12
  9
$DIMBLK
  1

  9
$DIMASO
 70
     1
  9
$DIMSHO
 70
     1
  9
$DIMPOST
  1
 mm
  9
$DIMAPOST
  1

  9
$DIMALT
 70
     0
  9
$DIMALTD
 70
     2
  9
$DIMALTF
 40
25.4
  9
$DIMLFAC
 40
1.0
  9
$DIMTOFL
 70
     1
  9
$DIMTVP
 40
0.0
  9
$DIMTIX
 70
     0
  9
$DIMSOXD
 70
     0
  9
$DIMSAH
 70
     0
  9
$DIMBLK1
  1

  9
$DIMBLK2
  1

  9
$DIMSTYLE
  2
Standard
  9
$DIMCLRD
 70
     0
  9
$DIMCLRE
 70
     0
  9
$DIMCLRT
 70
     0
  9
$DIMTFAC
 40
1.0
  9
$DIMGAP
 40
1.5
  9
$DIMJUST
 70
     0
  9
$DIMSD1
 70
     0
  9
$DIMSD2
 70
     0
  9
$DIMTOLJ
 70
     1
  9
$DIMTZIN
 70
     0
  9
$DIMALTZ
 70
     0
  9
$DIMALTTZ
 70
     0
  9
$DIMUPT
 70
     0
  9
$DIMDEC
 70
     2
  9
$DIMTDEC
 70
     4
  9
$DIMALTU
 70
     2
  9
$DIMALTTD
 70
     2
  9
$DIMTXSTY
  7
VCDSTYLE14
  9
$DIMAUNIT
 70
     0
  9
$DIMADEC
 70
     2
  9
$DIMALTRND
 40
0.0
  9
$DIMAZIN
 70
     3
  9
$DIMDSEP
 70
    44
  9
$DIMATFIT
 70
     0
  9
$DIMFRAC
 70
     0
  9
$DIMLDRBLK
  1

  9
$DIMLUNIT
 70
     2
  9
$DIMLWD
 70
    -2
  9
$DIMLWE
 70
    -2
  9
$DIMTMOVE
 70
     0
  9
$LUNITS
 70
     2
  9
$LUPREC
 70
     4
  9
$SKETCHINC
 40
1.0
  9
$FILLETRAD
 40
10.0
  9
$AUNITS
 70
     0
  9
$AUPREC
 70
     0
  9
$MENU
  1
.
  9
$ELEVATION
 40
0.0
  9
$PELEVATION
 40
0.0
  9
$THICKNESS
 40
0.0
  9
$LIMCHECK
 70
     0
  9
$CHAMFERA
 40
0.5
  9
$CHAMFERB
 40
0.5
  9
$CHAMFERC
 40
1.0
  9
$CHAMFERD
 40
0.0
  9
$SKPOLY
 70
     0
  9
$TDCREATE
 40
2458821.556238449
  9
$TDUCREATE
 40
2458821.514571782
  9
$TDUPDATE
 40
2458821.556238461
  9
$TDUUPDATE
 40
2458821.514571794
  9
$TDINDWG
 40
0.0
  9
$TDUSRTIMER
 40
0.0
  9
$USRTIMER
 70
     1
  9
$ANGBASE
 50
0.0
  9
$ANGDIR
 70
     0
  9
$PDMODE
 70
     0
  9
$PDSIZE
 40
0.0
  9
$PLINEWID
 40
0.0
  9
$SPLFRAME
 70
     0
  9
$SPLINETYPE
 70
     6
  9
$SPLINESEGS
 70
     8
  9
$HANDSEED
  5
3CB
  9
$SURFTAB1
 70
     6
  9
$SURFTAB2
 70
     6
  9
$SURFTYPE
 70
     6
  9
$SURFU
 70
     6
  9
$SURFV
 70
     6
  9
$UCSBASE
  2

  9
$UCSNAME
  2

  9
$UCSORG
 10
0.0
 20
0.0
 30
0.0
  9
$UCSXDIR
 10
1.0
 20
0.0
 30
0.0
  9
$UCSYDIR
 10
0.0
 20
1.0
 30
0.0
  9
$UCSORTHOREF
  2

  9
$UCSORTHOVIEW
 70
     0
  9
$UCSORGTOP
 10
0.0
 20
0.0
 30
0.0
  9
$UCSORGBOTTOM
 10
0.0
 20
0.0
 30
0.0
  9
$UCSORGLEFT
 10
0.0
 20
0.0
 30
0.0
  9
$UCSORGRIGHT
 10
0.0
 20
0.0
 30
0.0
  9
$UCSORGFRONT
 10
0.0
 20
0.0
 30
0.0
  9
$UCSORGBACK
 10
0.0
 20
0.0
 30
0.0
  9
$PUCSBASE
  2

  9
$PUCSNAME
  2

  9
$PUCSORG
 10
0.0
 20
0.0
 30
0.0
  9
$PUCSXDIR
 10
1.0
 20
0.0
 30
0.0
  9
$PUCSYDIR
 10
0.0
 20
1.0
 30
0.0
  9
$PUCSORTHOREF
  2

  9
$PUCSORTHOVIEW
 70
     0
  9
$PUCSORGTOP
 10
0.0
 20
0.0
 30
0.0
  9
$PUCSORGBOTTOM
 10
0.0
 20
0.0
 30
0.0
  9
$PUCSORGLEFT
 10
0.0
 20
0.0
 30
0.0
  9
$PUCSORGRIGHT
 10
0.0
 20
0.0
 30
0.0
  9
$PUCSORGFRONT
 10
0.0
 20
0.0
 30
0.0
  9
$PUCSORGBACK
 10
0.0
 20
0.0
 30
0.0
  9
$USERI1
 70
     0
  9
$USERI2
 70
     0
  9
$USERI3
 70
     0
  9
$USERI4
 70
     0
  9
$USERI5
 70
     0
  9
$USERR1
 40
0.0
  9
$USERR2
 40
0.0
  9
$USERR3
 40
0.0
  9
$USERR4
 40
0.0
  9
$USERR5
 40
0.0
  9
$WORLDVIEW
 70
     1
  9
$SHADEDGE
 70
     3
  9
$SHADEDIF
 70
    70
  9
$TILEMODE
 70
     1
  9
$MAXACTVP
 70
    64
  9
$PINSBASE
 10
0.0
 20
0.0
 30
0.0
  9
$PLIMCHECK
 70
     0
  9
$PEXTMIN
 10
0.0
 20
0.0
 30
0.0
  9
$PEXTMAX
 10
420.0
 20
297.0
 30
0.0
  9
$PLIMMIN
 10
0.0
 20
0.0
  9
$PLIMMAX
 10
420.0
 20
297.0
  9
$UNITMODE
 70
     0
  9
$VISRETAIN
 70
     1
  9
$PLINEGEN
 70
     0
  9
$PSLTSCALE
 70
     1
  9
$TREEDEPTH
 70
  3020
  9
$CMLSTYLE
  2
Standard
  9
$CMLJUST
 70
     0
  9
$CMLSCALE
 40
1.0
  9
$PROXYGRAPHICS
 70
     1
  9
$MEASUREMENT
 70
     1
  9
$CELWEIGHT
370
    -1
  9
$ENDCAPS
280
     0
  9
$JOINSTYLE
280
     0
  9
$LWDISPLAY
290
     0
  9
$INSUNITS
 70
     4
  9
$HYPERLINKBASE
  1

  9
$STYLESHEET
  1

  9
$XEDIT
290
     1
  9
$CEPSNTYPE
380
     0
  9
$PSTYLEMODE
290
     1
  9
$FINGERPRINTGUID
  2
{12CB551B-E54D-4A5E-B170-54D03E703B95}
  9
$VERSIONGUID
  2
{FAEB1C32-E019-11D5-929B-00C0DF256EC4}
  9
$EXTNAMES
290
     1
  9
$PSVPSCALE
 40
0.0
  9
$OLESTARTUP
290
     0
  9
$SORTENTS
280
   127
  9
$INDEXCTL
280
     0
  9
$HIDETEXT
280
     1
  9
$XCLIPFRAME
290
     0
  9
$HALOGAP
280
     0
  9
$OBSCOLOR
 70
   257
  9
$OBSLTYPE
280
     0
  9
$INTERSECTIONDISPLAY
280
     0
  9
$INTERSECTIONCOLOR
 70
   257
  9
$DIMASSOC
280
     2
  9
$PROJECTNAME
  1

  0
ENDSEC
  0
SECTION
  2
CLASSES
  0
CLASS
  1
ACDBDICTIONARYWDFLT
  2
AcDbDictionaryWithDefault
  3
ObjectDBX Classes
 90
        0
 91
        4
280
     0
281
     0
  0
CLASS
  1
VISUALSTYLE
  2
AcDbVisualStyle
  3
ObjectDBX Classes
 90
     4095
 91
        4
280
     0
281
     0
  0
CLASS
  1
MATERIAL
  2
AcDbMaterial
  3
ObjectDBX Classes
 90
     1153
 91
        4
280
     0
281
     0
  0
CLASS
  1
AEC_VARS_DWG_SETUP
  2
AecDbVarsDwgSetup
  3
AecBase60
 90
      129
 91
        4
280
     0
281
     0
  0
CLASS
  1
AEC_DISP_REP_2D_SECTION
  2
AecDbDispRep2dSection
  3
AecBase60
 90
      129
 91
        4
280
     0
281
     0
  0
CLASS
  1
AEC_DISP_PROPS_2D_SECTION
  2
AecDbDispProps2dSection
  3
AecBase60
 90
      129
 91
        4
280
     0
281
     0
  0
CLASS
  1
AEC_DISP_REP_CLIP_VOLUME_MODEL
  2
AecDbDispRepClipVolModel
  3
AecBase60
 90
      129
 91
        6
280
     0
281
     0
  0
CLASS
  1
AEC_DISP_PROPS_CLIP_VOLUME
  2
AecDbDispPropsClipVol
  3
AecBase60
 90
      129
 91
        4
280
     0
281
     0
  0
CLASS
  1
AEC_DISP_REP_CLIP_VOLUME_PLAN
  2
AecDbDispRepClipVolPlan
  3
AecBase60
 90
      129
 91
        4
280
     0
281
     0
  0
CLASS
  1
AEC_DISP_REP_CLIP_VOLUME_RESULT
  2
AecDbDispRepClipVolResult
  3
AecBase60
 90
      129
 91
        6
280
     0
281
     0
  0
CLASS
  1
AEC_DISP_REP_CLIP_VOLUME_RESULT_SUBDIV
  2
AecDbDispRepClipVolResSubDiv
  3
AecBase60
 90
      129
 91
        5
280
     0
281
     0
  0
CLASS
  1
AEC_DISP_PROPS_CLIP_VOLUME_RESULT
  2
AecDbDispPropsClipVolResSubDiv
  3
AecBase60
 90
      129
 91
        4
280
     0
281
     0
  0
CLASS
  1
AEC_DISP_REP_DISPLAYTHEME
  2
AecDbDispRepDisplayTheme
  3
AecBase60
 90
      129
 91
        4
280
     0
281
     0
  0
CLASS
  1
AEC_DISP_REP_ENT_REF
  2
AecDbDispRepEntRef
  3
AecBase60
 90
      129
 91
        4
280
     0
281
     0
  0
CLASS
  1
AEC_DISP_PROPS_ENT_REF
  2
AecDbDispPropsEntRef
  3
AecBase60
 90
      129
 91
        4
280
     0
281
     0
  0
CLASS
  1
AEC_DISP_REP_LAYOUT_CURVE
  2
AecDbDispRepLayoutCurve
  3
AecBase60
 90
      129
 91
        4
280
     0
281
     0
  0
CLASS
  1
AEC_DISP_PROPS_LAYOUT_CURVE
  2
AecDbDispPropsLayoutCurve
  3
AecBase60
 90
      129
 91
        4
280
     0
281
     0
  0
CLASS
  1
AEC_DISP_REP_LAYOUT_GRID2D
  2
AecDbDispRepLayoutGrid2d
  3
AecBase60
 90
      129
 91
        6
280
     0
281
     0
  0
CLASS
  1
AEC_DISP_PROPS_LAYOUT_GRID2D
  2
AecDbDispPropsLayoutGrid2d
  3
AecBase60
 90
      129
 91
        5
280
     0
281
     0
  0
CLASS
  1
AEC_DISP_REP_LAYOUT_GRID3D
  2
AecDbDispRepLayoutGrid3d
  3
AecBase60
 90
      129
 91
        4
280
     0
281
     0
  0
CLASS
  1
AEC_DISP_PROPS_LAYOUT_GRID3D
  2
AecDbDispPropsLayoutGrid3d
  3
AecBase60
 90
      129
 91
        4
280
     0
281
     0
  0
CLASS
  1
AEC_DISP_REP_MASKBLOCK_REF
  2
AecDbDispRepMaskBlockRef
  3
AecBase60
 90
      129
 91
        5
280
     0
281
     0
  0
CLASS
  1
AEC_DISP_PROPS_MASKBLOCK
  2
AecDbDispPropsMaskBlock
  3
AecBase60
 90
      129
 91
        4
280
     0
281
     0
  0
CLASS
  1
AEC_DISP_REP_MASKBLOCK_REF_RCP
  2
AecDbDispRepMaskBlockRefRcp
  3
AecArchBase60
 90
      129
 91
        4
280
     0
281
     0
  0
CLASS
  1
AEC_DISP_REP_MASS_ELEM_MODEL
  2
AecDbDispRepMassElemModel
  3
AecBase60
 90
      129
 91
        4
280
     0
281
     0
  0
CLASS
  1
AEC_DISP_PROPS_MASS_ELEM_MODEL
  2
AecDbDispPropsMassElem
  3
AecBase60
 90
      129
 91
        5
280
     0
281
     0
  0
CLASS
  1
AEC_DISP_REP_MASS_ELEM_SCHEM
  2
AecDbDispRepMassElemSchem
  3
AecBase60
 90
      129
 91
        5
280
     0
281
     0
  0
CLASS
  1
AEC_DISPREPAECDBDISPREPMASSELEMPLAN50
  2
AecDbDispRepMassElemPlan50
  3
AecArchDACHBase60
 90
      129
 91
        4
280
     0
281
     0
  0
CLASS
  1
AEC_DISPROPSMASSELEMPLANCOMMON
  2
AecDbDispPropsMassElemPlanCommon
  3
AecArchDACHBase60
 90
      129
 91
        4
280
     0
281
     0
  0
CLASS
  1
AEC_DISPREPAECDBDISPREPMASSELEMPLAN100
  2
AecDbDispRepMassElemPlan100
  3
AecArchDACHBase60
 90
      129
 91
        4
280
     0
281
     0
  0
CLASS
  1
AEC_DISP_REP_MASS_ELEM_RCP
  2
AecDbDispRepMassElemRcp
  3
AecArchBase60
 90
      129
 91
        4
280
     0
281
     0
  0
CLASS
  1
AEC_DISP_REP_MASS_GROUP_MODEL
  2
AecDbDispRepMassGroupModel
  3
AecBase60
 90
      129
 91
        4
280
     0
281
     0
  0
CLASS
  1
AEC_DISP_PROPS_MASS_GROUP
  2
AecDbDispPropsMassGroup
  3
AecBase60
 90
      129
 91
        5
280
     0
281
     0
  0
CLASS
  1
AEC_DISP_REP_MASS_GROUP_PLAN
  2
AecDbDispRepMassGroupPlan
  3
AecBase60
 90
      129
 91
        8
280
     0
281
     0
  0
CLASS
  1
AEC_DISPREPAECDBDISPREPMASSGROUPPLAN50
  2
AecDbDispRepMassGroupPlan50
  3
AecArchDACHBase60
 90
      129
 91
        4
280
     0
281
     0
  0
CLASS
  1
AEC_DISPROPSMASSGROUPPLANCOMMON
  2
AecDbDispPropsMassGroupPlanCommon
  3
AecArchDACHBase60
 90
      129
 91
        4
280
     0
281
     0
  0
CLASS
  1
AEC_DISPREPAECDBDISPREPMASSGROUPPLAN100
  2
AecDbDispRepMassGroupPlan100
  3
AecArchDACHBase60
 90
      129
 91
        4
280
     0
281
     0
  0
CLASS
  1
AEC_DISP_REP_MASS_GROUP_RCP
  2
AecDbDispRepMassGroupRcp
  3
AecArchBase60
 90
      129
 91
        4
280
     0
281
     0
  0
CLASS
  1
AEC_DISP_REP_MVBLOCK_REF
  2
AecDbDispRepMvBlockRef
  3
AecBase60
 90
      129
 91
        8
280
     0
281
     0
  0
CLASS
  1
AEC_DISP_REP_MVBLOCK_REF_MODEL
  2
AecDbDispRepMvBlockRefModel
  3
AecBase60
 90
      129
 91
        4
280
     0
281
     0
  0
CLASS
  1
AEC_AECDBDISPREPMVBLOCKREFPLAN100
  2
AecDbDispRepMvBlockRefPlan100
  3
AecBase60
 90
      129
 91
        4
280
     0
281
     0
  0
CLASS
  1
AEC_AECDBDISPREPMVBLOCKREFPLAN50
  2
AecDbDispRepMvBlockRefPlan50
  3
AecBase60
 90
      129
 91
        4
280
     0
281
     0
  0
CLASS
  1
AEC_DISP_REP_POLYGON_MODEL
  2
AecDbDispRepPolygonModel
  3
AecBase60
 90
      129
 91
        4
280
     0
281
     0
  0
CLASS
  1
AEC_DISP_PROPS_POLYGON_MODEL
  2
AecDbDispPropsPolygonModel
  3
AecBase60
 90
      129
 91
        4
280
     0
281
     0
  0
CLASS
  1
AEC_DISP_REP_POLYGON_TRUECOLOUR
  2
AecDbDispRepPolygonTrueColour
  3
AecBase60
 90
      129
 91
        4
280
     0
281
     0
  0
CLASS
  1
AEC_DISP_PROPS_POLYGON_TRUECOLOUR
  2
AecDbDispPropsPolygonTrueColour
  3
AecBase60
 90
      129
 91
        4
280
     0
281
     0
  0
CLASS
  1
AEC_DISP_REP_SLICE
  2
AecDbDispRepSlice
  3
AecBase60
 90
      129
 91
        4
280
     0
281
     0
  0
CLASS
  1
AEC_DISP_PROPS_SLICE
  2
AecDbDispPropsSlice
  3
AecBase60
 90
      129
 91
        4
280
     0
281
     0
  0
CLASS
  1
AEC_DISP_REP_ANCHOR
  2
AecDbDispRepAnchor
  3
AecBase60
 90
      129
 91
        4
280
     0
281
     0
  0
CLASS
  1
AEC_DISP_REP_ANCHOR_ENT_TO_NODE
  2
AecDbDispRepAnchorEntToNode
  3
AecBase60
 90
      129
 91
        5
280
     0
281
     0
  0
CLASS
  1
AEC_DISP_PROPS_ENT
  2
AecDbDispPropsEnt
  3
AecBase60
 90
      129
 91
        4
280
     0
281
     0
  0
CLASS
  1
AEC_DISP_REP_MATERIAL
  2
AecDbDispRepMaterial
  3
AecBase60
 90
      129
 91
        4
280
     0
281
     0
  0
CLASS
  1
AEC_DISP_PROPS_MATERIAL
  2
AecDbDispPropsMaterial
  3
AecBase60
 90
      129
 91
        4
280
     0
281
     0
  0
CLASS
  1
AEC_DISP_REP_EDITINPLACEPROFILE
  2
AecDbDispRepEditInPlaceProfile
  3
AecBase60
 90
      129
 91
        4
280
     0
281
     0
  0
CLASS
  1
AEC_DISP_PROPS_EDITINPLACEPROFILE_MODEL
  2
AecDbDispPropsEditInPlaceProfile
  3
AecBase60
 90
      129
 91
        4
280
     0
281
     0
  0
CLASS
  1
AEC_VARS_ARCHBASE
  2
AecDbVarsArchBase
  3
AecArchBase60
 90
      129
 91
        4
280
     0
281
     0
  0
CLASS
  1
AEC_DISP_REP_BDG_ELEVLINE_PLAN
  2
AecDbDispRepBdgElevLinePlan
  3
AecArchBase60
 90
      129
 91
        7
280
     0
281
     0
  0
CLASS
  1
AEC_DISP_REP_BDG_ELEVLINE_MODEL
  2
AecDbDispRepBdgElevLineModel
  3
AecArchBase60
 90
      129
 91
        4
280
     0
281
     0
  0
CLASS
  1
AEC_DISP_REP_BDG_ELEVLINE_RCP
  2
AecDbDispRepBdgElevLineRcp
  3
AecArchBase60
 90
      129
 91
        4
280
     0
281
     0
  0
CLASS
  1
AEC_AECDBDISPREPBDGELEVLINEPLAN100
  2
AecDbDispRepBdgElevLinePlan100
  3
AecBase60
 90
      129
 91
        4
280
     0
281
     0
  0
CLASS
  1
AEC_AECDBDISPREPBDGELEVLINEPLAN50
  2
AecDbDispRepBdgElevLinePlan50
  3
AecBase60
 90
      129
 91
        4
280
     0
281
     0
  0
CLASS
  1
AEC_DISP_REP_BDG_SECTIONLINE_MODEL
  2
AecDbDispRepBdgSectionLineModel
  3
AecArchBase60
 90
      129
 91
        4
280
     0
281
     0
  0
CLASS
  1
AEC_DISP_REP_BDG_SECTIONLINE_PLAN
  2
AecDbDispRepBdgSectionLinePlan
  3
AecArchBase60
 90
      129
 91
        7
280
     0
281
     0
  0
CLASS
  1
AEC_DISP_REP_BDG_SECTIONLINE_RCP
  2
AecDbDispRepBdgSectionLineRcp
  3
AecArchBase60
 90
      129
 91
        4
280
     0
281
     0
  0
CLASS
  1
AEC_AECDBDISPREPBDGSECTIONLINEPLAN100
  2
AecDbDispRepBdgSectionLinePlan100
  3
AecBase60
 90
      129
 91
        4
280
     0
281
     0
  0
CLASS
  1
AEC_AECDBDISPREPBDGSECTIONLINEPLAN50
  2
AecDbDispRepBdgSectionLinePlan50
  3
AecBase60
 90
      129
 91
        4
280
     0
281
     0
  0
CLASS
  1
AEC_DISP_REP_BDG_SECTION_SUBDIV
  2
AecDbDispRepBdgSectionSubDiv
  3
AecArchBase60
 90
      129
 91
        4
280
     0
281
     0
  0
CLASS
  1
AEC_DISP_REP_BDG_SECTION_MODEL
  2
AecDbDispRepBdgSectionModel
  3
AecArchBase60
 90
      129
 91
        4
280
     0
281
     0
  0
CLASS
  1
AEC_DISP_REP_CEILING_GRID
  2
AecDbDispRepCeilingGrid
  3
AecArchBase60
 90
      893
 91
        8
280
     0
281
     0
  0
CLASS
  1
AEC_DISP_REP_CEILING_GRID_MODEL
  2
AecDbDispRepCeilingGridModel
  3
AecArchBase60
 90
      129
 91
        4
280
     0
281
     0
  0
CLASS
  1
AEC_DISP_REP_CEILING_GRID_RCP
  2
AecDbDispRepCeilingGridRcp
  3
AecArchBase60
 90
      129
 91
        4
280
     0
281
     0
  0
CLASS
  1
AEC_AECDBDISPREPCEILINGGRIDPLAN100
  2
AecDbDispRepCeilingGridPlan100
  3
AecBase60
 90
      129
 91
        4
280
     0
281
     0
  0
CLASS
  1
AEC_AECDBDISPREPCEILINGGRIDPLAN50
  2
AecDbDispRepCeilingGridPlan50
  3
AecBase60
 90
      129
 91
        4
280
     0
281
     0
  0
CLASS
  1
AEC_DISP_REP_CURTAIN_WALL_LAYOUT_MODEL
  2
AecDbDispRepCurtainWallLayoutModel
  3
AecArchBase60
 90
      129
 91
        4
280
     0
281
     0
  0
CLASS
  1
AEC_DISP_PROPS_GRID_ASSEMBLY_MODEL
  2
AecDbDispPropsGridAssemblyModel
  3
AecArchBase60
 90
      129
 91
        4
280
     0
281
     0
  0
CLASS
  1
AEC_DISP_REP_CURTAIN_WALL_LAYOUT_PLAN
  2
AecDbDispRepCurtainWallLayoutPlan
  3
AecArchBase60
 90
      129
 91
        6
280
     0
281
     0
  0
CLASS
  1
AEC_DISP_PROPS_GRID_ASSEMBLY_PLAN
  2
AecDbDispPropsGridAssemblyPlan
  3
AecArchBase60
 90
      129
 91
        4
280
     0
281
     0
  0
CLASS
  1
AEC_AECDBDISPREPCURTAINWALLLAYOUTPLAN100
  2
AecDbDispRepCurtainWallLayoutPlan100
  3
AecBase60
 90
      129
 91
        4
280
     0
281
     0
  0
CLASS
  1
AEC_AECDBDISPREPCURTAINWALLLAYOUTPLAN50
  2
AecDbDispRepCurtainWallLayoutPlan50
  3
AecBase60
 90
      129
 91
        4
280
     0
281
     0
  0
CLASS
  1
AEC_DISP_REP_CURTAIN_WALL_UNIT_MODEL
  2
AecDbDispRepCurtainWallUnitModel
  3
AecArchBase60
 90
      129
 91
        4
280
     0
281
     0
  0
CLASS
  1
AEC_DISP_REP_CURTAIN_WALL_UNIT_PLAN
  2
AecDbDispRepCurtainWallUnitPlan
  3
AecArchBase60
 90
      129
 91
        6
280
     0
281
     0
  0
CLASS
  1
AEC_AECDBDISPREPCURTAINWALLUNITPLAN100
  2
AecDbDispRepCurtainWallUnitPlan100
  3
AecBase60
 90
      129
 91
        4
280
     0
281
     0
  0
CLASS
  1
AEC_AECDBDISPREPCURTAINWALLUNITPLAN50
  2
AecDbDispRepCurtainWallUnitPlan50
  3
AecBase60
 90
      129
 91
        4
280
     0
281
     0
  0
CLASS
  1
AEC_DISP_REP_DOOR_MODEL
  2
AecDbDispRepDoorModel
  3
AecArchBase60
 90
      129
 91
        5
280
     0
281
     0
  0
CLASS
  1
AEC_DISP_PROPS_DOOR
  2
AecDbDispPropsDoor
  3
AecArchBase60
 90
      129
 91
        5
280
     0
281
     0
  0
CLASS
  1
AEC_DISP_REP_DOOR_ELEV
  2
AecDbDispRepDoorElev
  3
AecArchBase60
 90
      129
 91
        4
280
     0
281
     0
  0
CLASS
  1
AEC_DISP_REP_DOOR_PLAN
  2
AecDbDispRepDoorPlan
  3
AecArchBase60
 90
      129
 91
        8
280
     0
281
     0
  0
CLASS
  1
AEC_DISP_REP_DOOR_NOMINAL
  2
AecDbDispRepDoorNominal
  3
AecArchBase60
 90
      129
 91
        4
280
     0
281
     0
  0
CLASS
  1
AEC_DISP_PROPS_DOOR_NOMINAL
  2
AecDbDispPropsDoorNominal
  3
AecArchBase60
 90
      129
 91
        4
280
     0
281
     0
  0
CLASS
  1
AEC_DISP_REP_DOOR_THRESHOLD_PLAN
  2
AecDbDispRepDoorThresholdPlan
  3
AecArchBase60
 90
      129
 91
        4
280
     0
281
     0
  0
CLASS
  1
AEC_DISP_PROPS_DOOR_THRESHOLD_PLAN
  2
AecDbDispPropsDoorThresholdPlan
  3
AecArchBase60
 90
      129
 91
        4
280
     0
281
     0
  0
CLASS
  1
AEC_DISP_REP_DOOR_PLAN_50
  2
AecDbDispRepDoorPlan50
  3
AecArchDACHBase60
 90
      129
 91
        4
280
     0
281
     0
  0
CLASS
  1
AEC_DISP_PROPS_DOOR_PLAN_50
  2
AecDbDispPropsDoorPlan50
  3
AecArchDACHBase60
 90
      129
 91
        4
280
     0
281
     0
  0
CLASS
  1
AEC_DISP_REP_DOOR_PLAN_HEKTO
  2
AecDbDispRepDoorPlanHekto
  3
AecArchDACHBase60
 90
      129
 91
        4
280
     0
281
     0
  0
CLASS
  1
AEC_DISP_PROPS_DOOR_PLAN_100
  2
AecDbDispPropsDoorPlan100
  3
AecArchDACHBase60
 90
      129
 91
        4
280
     0
281
     0
  0
CLASS
  1
AEC_DISP_REP_DOOR_RCP
  2
AecDbDispRepDoorRcp
  3
AecArchBase60
 90
      129
 91
        4
280
     0
281
     0
  0
CLASS
  1
AEC_DISP_REP_DOOR_THRESHOLD_SYMBOL_PLAN
  2
AecDbDispRepDoorThresholdSymbolPlan
  3
AecArchDACHBase60
 90
      129
 91
        4
280
     0
281
     0
  0
CLASS
  1
AEC_DISP_PROPS_DOOR_THRESHOLD_SYMBOL_PLAN
  2
AecDbDispPropsDoorThresholdSymbolPlan
  3
AecArchDACHBase60
 90
      129
 91
        4
280
     0
281
     0
  0
CLASS
  1
AEC_DISP_REP_OPENING
  2
AecDbDispRepOpening
  3
AecArchBase60
 90
      129
 91
        6
280
     0
281
     0
  0
CLASS
  1
AEC_DISP_PROPS_OPENING
  2
AecDbDispPropsOpening
  3
AecArchBase60
 90
      129
 91
        5
280
     0
281
     0
  0
CLASS
  1
AEC_DISP_REP_OPENING_MODEL
  2
AecDbDispRepOpeningModel
  3
AecArchBase60
 90
      129
 91
        4
280
     0
281
     0
  0
CLASS
  1
AEC_DISPREPAECDBDISPREPOPENINGPLAN100
  2
AecDbDispRepOpeningPlan100
  3
AecArchDACHBase60
 90
      129
 91
        4
280
     0
281
     0
  0
CLASS
  1
AEC_DISPROPSOPENINGPLANCOMMONHATCHED
  2
AecDbDispPropsOpeningPlanCommonHatched
  3
AecArchDACHBase60
 90
      129
 91
        4
280
     0
281
     0
  0
CLASS
  1
AEC_DISPREPAECDBDISPREPOPENINGPLAN50
  2
AecDbDispRepOpeningPlan50
  3
AecArchDACHBase60
 90
      129
 91
        4
280
     0
281
     0
  0
CLASS
  1
AEC_DISPREPAECDBDISPREPOPENINGPLANREFLECTED
  2
AecDbDispRepOpeningPlanReflected
  3
AecArchDACHBase60
 90
      129
 91
        4
280
     0
281
     0
  0
CLASS
  1
AEC_DISPROPSOPENINGPLANCOMMON
  2
AecDbDispPropsOpeningPlanCommon
  3
AecArchDACHBase60
 90
      129
 91
        5
280
     0
281
     0
  0
CLASS
  1
AEC_DISPREPAECDBDISPREPOPENINGSILLPLAN
  2
AecDbDispRepOpeningSillPlan
  3
AecArchDACHBase60
 90
      129
 91
        4
280
     0
281
     0
  0
CLASS
  1
AEC_DISPROPSOPENINGSILLPLAN
  2
AecDbDispPropsOpeningSillPlan
  3
AecArchDACHBase60
 90
      129
 91
        4
280
     0
281
     0
  0
CLASS
  1
AEC_DISP_REP_RAILING_MODEL
  2
AecDbDispRepRailingModel
  3
AecArchBase60
 90
      129
 91
        4
280
     0
281
     0
  0
CLASS
  1
AEC_DISP_PROPS_RAILING_MODEL
  2
AecDbDispPropsRailingModel
  3
AecArchBase60
 90
      129
 91
        4
280
     0
281
     0
  0
CLASS
  1
AEC_DISP_REP_RAILING_PLAN
  2
AecDbDispRepRailingPlan
  3
AecArchBase60
 90
      129
 91
        5
280
     0
281
     0
  0
CLASS
  1
AEC_DISP_PROPS_RAILING_PLAN
  2
AecDbDispPropsRailingPlan
  3
AecArchBase60
 90
      129
 91
        5
280
     0
281
     0
  0
CLASS
  1
AEC_DISP_REP_RAILING_PLAN_100
  2
AecDbDispRepRailingPlan100
  3
AecArchDACHBase60
 90
      129
 91
        4
280
     0
281
     0
  0
CLASS
  1
AEC_DISP_ROPS_RAILING_PLAN_100
  2
AecDbDispPropsRailingPlan100
  3
AecArchDACHBase60
 90
      129
 91
        4
280
     0
281
     0
  0
CLASS
  1
AEC_DISP_REP_RAILING_PLAN_50
  2
AecDbDispRepRailingPlan50
  3
AecArchDACHBase60
 90
      129
 91
        4
280
     0
281
     0
  0
CLASS
  1
AEC_DISP_ROPS_RAILING_PLAN_50
  2
AecDbDispPropsRailingPlan50
  3
AecArchDACHBase60
 90
      129
 91
        4
280
     0
281
     0
  0
CLASS
  1
AEC_DISP_REP_ROOF_MODEL
  2
AecDbDispRepRoofModel
  3
AecArchBase60
 90
      129
 91
        4
280
     0
281
     0
  0
CLASS
  1
AEC_DISP_PROPS_ROOF
  2
AecDbDispPropsRoof
  3
AecArchBase60
 90
      129
 91
        4
280
     0
281
     0
  0
CLASS
  1
AEC_DISP_REP_ROOF_PLAN
  2
AecDbDispRepRoofPlan
  3
AecArchBase60
 90
      129
 91
        8
280
     0
281
     0
  0
CLASS
  1
AEC_DISP_REP_ROOF_RCP
  2
AecDbDispRepRoofRcp
  3
AecArchBase60
 90
      129
 91
        4
280
     0
281
     0
  0
CLASS
  1
AEC_AECDBDISPREPROOFPLAN100
  2
AecDbDispRepRoofPlan100
  3
AecBase60
 90
      129
 91
        4
280
     0
281
     0
  0
CLASS
  1
AEC_AECDBDISPREPROOFPLAN50
  2
AecDbDispRepRoofPlan50
  3
AecBase60
 90
      129
 91
        4
280
     0
281
     0
  0
CLASS
  1
AEC_DISP_REP_ROOFSLAB_MODEL
  2
AecDbDispRepRoofSlabModel
  3
AecArchBase60
 90
      129
 91
        4
280
     0
281
     0
  0
CLASS
  1
AEC_DISP_PROPS_ROOFSLAB
  2
AecDbDispPropsRoofSlab
  3
AecArchBase60
 90
      129
 91
        4
280
     0
281
     0
  0
CLASS
  1
AEC_DISP_REP_ROOFSLAB_PLAN
  2
AecDbDispRepRoofSlabPlan
  3
AecArchBase60
 90
      129
 91
        6
280
     0
281
     0
  0
CLASS
  1
AEC_DISP_PROPS_ROOFSLAB_PLAN
  2
AecDbDispPropsRoofSlabPlan
  3
AecArchBase60
 90
      129
 91
        4
280
     0
281
     0
  0
CLASS
  1
AEC_AECDBDISPREPROOFSLABPLAN100
  2
AecDbDispRepRoofSlabPlan100
  3
AecBase60
 90
      129
 91
        4
280
     0
281
     0
  0
CLASS
  1
AEC_AECDBDISPREPROOFSLABPLAN50
  2
AecDbDispRepRoofSlabPlan50
  3
AecBase60
 90
      129
 91
        4
280
     0
281
     0
  0
CLASS
  1
AEC_DISP_REP_SLAB_MODEL
  2
AecDbDispRepSlabModel
  3
AecArchBase60
 90
      129
 91
        5
280
     0
281
     0
  0
CLASS
  1
AEC_DISP_PROPS_SLAB
  2
AecDbDispPropsSlab
  3
AecArchBase60
 90
      129
 91
        6
280
     0
281
     0
  0
CLASS
  1
AEC_DISP_REP_SLAB_PLAN
  2
AecDbDispRepSlabPlan
  3
AecArchBase60
 90
      129
 91
        7
280
     0
281
     0
  0
CLASS
  1
AEC_DISP_PROPS_SLAB_PLAN
  2
AecDbDispPropsSlabPlan
  3
AecArchBase60
 90
      129
 91
        5
280
     0
281
     0
  0
CLASS
  1
AEC_AECDBDISPREPSLABPLAN100
  2
AecDbDispRepSlabPlan100
  3
AecBase60
 90
      129
 91
        4
280
     0
281
     0
  0
CLASS
  1
AEC_AECDBDISPREPSLABPLAN50
  2
AecDbDispRepSlabPlan50
  3
AecBase60
 90
      129
 91
        4
280
     0
281
     0
  0
CLASS
  1
AEC_DISP_REP_SPACE_MODEL
  2
AecDbDispRepSpaceModel
  3
AecArchBase60
 90
      129
 91
        4
280
     0
281
     0
  0
CLASS
  1
AEC_DISP_PROPS_SPACE_MODEL
  2
AecDbDispPropsSpaceModel
  3
AecArchBase60
 90
      129
 91
        4
280
     0
281
     0
  0
CLASS
  1
AEC_DISP_REP_SPACE_PLAN
  2
AecDbDispRepSpacePlan
  3
AecArchBase60
 90
      129
 91
        7
280
     0
281
     0
  0
CLASS
  1
AEC_DISP_PROPS_SPACE_PLAN
  2
AecDbDispPropsSpacePlan
  3
AecArchBase60
 90
      129
 91
        4
280
     0
281
     0
  0
CLASS
  1
AEC_DISP_REP_SPACE_RCP
  2
AecDbDispRepSpaceRcp
  3
AecArchBase60
 90
      129
 91
        4
280
     0
281
     0
  0
CLASS
  1
AEC_DISP_REP_SPACE_VOLUME
  2
AecDbDispRepSpaceVolume
  3
AecArchBase60
 90
      129
 91
        4
280
     0
281
     0
  0
CLASS
  1
AEC_DISP_REP_SPACE_DECOMPOSED
  2
AecDbDispRepSpaceDecomposed
  3
AecArchBase60
 90
      129
 91
        4
280
     0
281
     0
  0
CLASS
  1
AEC_DISP_PROPS_SPACE_DECOMPOSED
  2
AecDbDispPropsSpaceDecomposed
  3
AecArchBase60
 90
      129
 91
        4
280
     0
281
     0
  0
CLASS
  1
AEC_AECDBDISPREPSPACEPLAN100
  2
AecDbDispRepSpacePlan100
  3
AecBase60
 90
      129
 91
        4
280
     0
281
     0
  0
CLASS
  1
AEC_AECDBDISPREPSPACEPLAN50
  2
AecDbDispRepSpacePlan50
  3
AecBase60
 90
      129
 91
        4
280
     0
281
     0
  0
CLASS
  1
AEC_DISP_REP_STAIR_MODEL
  2
AecDbDispRepStairModel
  3
AecArchBase60
 90
      129
 91
        4
280
     0
281
     0
  0
CLASS
  1
AEC_DISP_PROPS_STAIR_MODEL
  2
AecDbDispPropsStairModel
  3
AecArchBase60
 90
      129
 91
        4
280
     0
281
     0
  0
CLASS
  1
AEC_DISP_REP_STAIR_PLAN
  2
AecDbDispRepStairPlan
  3
AecArchBase60
 90
      129
 91
        7
280
     0
281
     0
  0
CLASS
  1
AEC_DISP_PROPS_STAIR_PLAN
  2
AecDbDispPropsStairPlan
  3
AecArchBase60
 90
      129
 91
        6
280
     0
281
     0
  0
CLASS
  1
AEC_DISP_REP_STAIR_RCP
  2
AecDbDispRepStairRcp
  3
AecArchBase60
 90
      129
 91
        4
280
     0
281
     0
  0
CLASS
  1
AEC_DISP_REP_STAIR_PLAN_100
  2
AecDbDispRepStairPlan100
  3
AecArchDACHBase60
 90
      129
 91
        4
280
     0
281
     0
  0
CLASS
  1
AEC_DISP_ROPS_STAIR_PLAN_100
  2
AecDbDispPropsStairPlan100
  3
AecArchDACHBase60
 90
      129
 91
        4
280
     0
281
     0
  0
CLASS
  1
AEC_DISP_REP_STAIR_PLAN_50
  2
AecDbDispRepStairPlan50
  3
AecArchDACHBase60
 90
      129
 91
        4
280
     0
281
     0
  0
CLASS
  1
AEC_DISP_ROPS_STAIR_PLAN_50
  2
AecDbDispPropsStairPlan50
  3
AecArchDACHBase60
 90
      129
 91
        4
280
     0
281
     0
  0
CLASS
  1
AEC_DISP_REP_STAIR_PLAN_OVERLAPPING
  2
AecDbDispRepStairPlanOverlapping
  3
AecArchBase60
 90
      129
 91
        4
280
     0
281
     0
  0
CLASS
  1
AEC_DISP_PROPS_STAIR_PLAN_OVERLAPPING
  2
AecDbDispPropsStairPlanOverlapping
  3
AecArchBase60
 90
      129
 91
        4
280
     0
281
     0
  0
CLASS
  1
AEC_DISP_REP_WALL_GRAPH
  2
AecDbDispRepWallGraph
  3
AecArchBase60
 90
      129
 91
        4
280
     0
281
     0
  0
CLASS
  1
AEC_DISP_PROPS_WALL_GRAPH
  2
AecDbDispPropsWallGraph
  3
AecArchBase60
 90
      129
 91
        4
280
     0
281
     0
  0
CLASS
  1
AEC_DISP_REP_WALL_MODEL
  2
AecDbDispRepWallModel
  3
AecArchBase60
 90
      129
 91
        4
280
     0
281
     0
  0
CLASS
  1
AEC_DISP_PROPS_WALL_MODEL
  2
AecDbDispPropsWallModel
  3
AecArchBase60
 90
      129
 91
        4
280
     0
281
     0
  0
CLASS
  1
AEC_DISP_REP_WALL_PLAN
  2
AecDbDispRepWallPlan
  3
AecArchBase60
 90
      129
 91
        7
280
     0
281
     0
  0
CLASS
  1
AEC_DISP_PROPS_WALL_PLAN
  2
AecDbDispPropsWallPlan
  3
AecArchBase60
 90
      129
 91
        4
280
     0
281
     0
  0
CLASS
  1
AEC_DISP_REP_WALL_RCP
  2
AecDbDispRepWallRcp
  3
AecArchBase60
 90
      129
 91
        4
280
     0
281
     0
  0
CLASS
  1
AEC_DISP_REP_WALL_SCHEM
  2
AecDbDispRepWallSchem
  3
AecArchBase60
 90
      129
 91
        4
280
     0
281
     0
  0
CLASS
  1
AEC_DISP_PROPS_WALL_SCHEM
  2
AecDbDispPropsWallSchem
  3
AecArchBase60
 90
      129
 91
        4
280
     0
281
     0
  0
CLASS
  1
AEC_AECDBDISPREPWALLPLAN100
  2
AecDbDispRepWallPlan100
  3
AecBase60
 90
      129
 91
        4
280
     0
281
     0
  0
CLASS
  1
AEC_AECDBDISPREPWALLPLAN50
  2
AecDbDispRepWallPlan50
  3
AecBase60
 90
      129
 91
        4
280
     0
281
     0
  0
CLASS
  1
AEC_DISP_REP_WINDOW_MODEL
  2
AecDbDispRepWindowModel
  3
AecArchBase60
 90
      129
 91
        5
280
     0
281
     0
  0
CLASS
  1
AEC_DISP_PROPS_WINDOW
  2
AecDbDispPropsWindow
  3
AecArchBase60
 90
      129
 91
        6
280
     0
281
     0
  0
CLASS
  1
AEC_DISP_REP_WINDOW_ELEV
  2
AecDbDispRepWindowElev
  3
AecArchBase60
 90
      129
 91
        4
280
     0
281
     0
  0
CLASS
  1
AEC_DISP_REP_WINDOW_PLAN
  2
AecDbDispRepWindowPlan
  3
AecArchBase60
 90
      129
 91
        8
280
     0
281
     0
  0
CLASS
  1
AEC_DISP_REP_WINDOW_NOMINAL
  2
AecDbDispRepWindowNominal
  3
AecArchBase60
 90
      129
 91
        4
280
     0
281
     0
  0
CLASS
  1
AEC_DISP_PROPS_WINDOW_NOMINAL
  2
AecDbDispPropsWindowNominal
  3
AecArchBase60
 90
      129
 91
        4
280
     0
281
     0
  0
CLASS
  1
AEC_DISP_REP_WINDOW_RCP
  2
AecDbDispRepWindowRcp
  3
AecArchBase60
 90
      129
 91
        4
280
     0
281
     0
  0
CLASS
  1
AEC_DISP_REP_WINDOW_SILL_PLAN
  2
AecDbDispRepWindowSillPlan
  3
AecArchBase60
 90
      129
 91
        4
280
     0
281
     0
  0
CLASS
  1
AEC_DISP_PROPS_WINDOW_SILL_PLAN
  2
AecDbDispPropsWindowSillPlan
  3
AecArchBase60
 90
      129
 91
        4
280
     0
281
     0
  0
CLASS
  1
AEC_DISP_REP_WINDOW_PLAN_100
  2
AecDbDispRepWindowPlan100
  3
AecArchDACHBase60
 90
      129
 91
        4
280
     0
281
     0
  0
CLASS
  1
AEC_DISP_PROPS_WINDOW_PLAN_100
  2
AecDbDispPropsWindowPlan100
  3
AecArchDACHBase60
 90
      129
 91
        4
280
     0
281
     0
  0
CLASS
  1
AEC_DISP_REP_WINDOW_PLAN_50
  2
AecDbDispRepWindowPlan50
  3
AecArchDACHBase60
 90
      129
 91
        4
280
     0
281
     0
  0
CLASS
  1
AEC_DISP_PROPS_WINDOW_PLAN_50
  2
AecDbDispPropsWindowPlan50
  3
AecArchDACHBase60
 90
      129
 91
        4
280
     0
281
     0
  0
CLASS
  1
AEC_DISP_REP_WINDOW_ASSEMBLY_MODEL
  2
AecDbDispRepWindowAssemblyModel
  3
AecArchBase60
 90
      129
 91
        4
280
     0
281
     0
  0
CLASS
  1
AEC_DISP_REP_WINDOW_ASSEMBLY_PLAN
  2
AecDbDispRepWindowAssemblyPlan
  3
AecArchBase60
 90
      129
 91
        6
280
     0
281
     0
  0
CLASS
  1
AEC_DISP_REP_WINDOWASSEMBLY_SILL_PLAN
  2
AecDbDispRepWindowAssemblySillPlan
  3
AecArchBase60
 90
      129
 91
        4
280
     0
281
     0
  0
CLASS
  1
AEC_DISP_PROPS_WINDOW_ASSEMBLY_SILL_PLAN
  2
AecDbDispPropsWindowAssemblySillPlan
  3
AecArchBase60
 90
      129
 91
        4
280
     0
281
     0
  0
CLASS
  1
AEC_AECDBDISPREPWINDOWASSEMBLYPLAN100
  2
AecDbDispRepWindowAssemblyPlan100
  3
AecBase60
 90
      129
 91
        4
280
     0
281
     0
  0
CLASS
  1
AEC_AECDBDISPREPWINDOWASSEMBLYPLAN50
  2
AecDbDispRepWindowAssemblyPlan50
  3
AecBase60
 90
      129
 91
        4
280
     0
281
     0
  0
CLASS
  1
AEC_DB_DISP_REP_DIM_GROUP_PLAN
  2
AecDbDispRepDimGroupPlan
  3
AecArchDACHBase60
 90
      129
 91
        4
280
     0
281
     0
  0
CLASS
  1
AEC_DISP_PROPS_DIM
  2
AecDbDispPropsDimGroup
  3
AecArchDACHBase60
 90
      129
 91
        4
280
     0
281
     0
  0
CLASS
  1
AEC_DB_DISP_REP_DIM_GROUP_PLAN100
  2
AecDbDispRepDimGroupPlan100
  3
AecArchDACHBase60
 90
      129
 91
        4
280
     0
281
     0
  0
CLASS
  1
AEC_DB_DISP_REP_DIM_GROUP_PLAN50
  2
AecDbDispRepDimGroupPlan50
  3
AecArchDACHBase60
 90
      129
 91
        4
280
     0
281
     0
  0
CLASS
  1
AEC_DISP_REP_SCHEDULE_TABLE
  2
AecDbDispRepScheduleTable
  3
AecSchedule50
 90
      129
 91
        4
280
     0
281
     0
  0
CLASS
  1
AEC_DISP_PROPS_SCHEDULE_TABLE
  2
AecDbDispPropsScheduleTable
  3
AecSchedule50
 90
      129
 91
        4
280
     0
281
     0
  0
CLASS
  1
AEC_DISP_REP_ANCHOR_TAG_TO_ENT
  2
AecDbDispRepAnchorTagToEnt
  3
AecScheduleData60
 90
      129
 91
        5
280
     0
281
     0
  0
CLASS
  1
AEC_DISP_REP_ANCHOR_EXT_TAG_TO_ENT
  2
AecDbDispRepAnchorExtendedTagToEnt
  3
AecScheduleData60
 90
      129
 91
        4
280
     0
281
     0
  0
CLASS
  1
AEC_DISP_REP_SET
  2
AecDbDispRepSet
  3
AecBase60
 90
      129
 91
        4
280
     0
281
     0
  0
CLASS
  1
AECS_DISP_REP_MEMBER_MODEL_DESIGN
  2
AecsDbDispRepMemberModelDesign
  3
AecStructureBase60
 90
      129
 91
        4
280
     0
281
     0
  0
CLASS
  1
AECS_DISP_PROPS_MEMBER
  2
AecsDbDispPropsMember
  3
AecStructureBase60
 90
      129
 91
        6
280
     0
281
     0
  0
CLASS
  1
AECS_DISP_REP_MEMBER_PLAN_DESIGN
  2
AecsDbDispRepMemberPlanDesign
  3
AecStructureBase60
 90
      129
 91
        4
280
     0
281
     0
  0
CLASS
  1
AECS_DISP_PROPS_MEMBER_PLAN
  2
AecsDbDispPropsMemberPlan
  3
AecStructureBase60
 90
      129
 91
        5
280
     0
281
     0
  0
CLASS
  1
AEC_DISP_REP_CONFIG
  2
AecDbDispRepConfig
  3
AecBase60
 90
      129
 91
        4
280
     0
281
     0
  0
CLASS
  1
MLEADERSTYLE
  2
AcDbMLeaderStyle
  3
ACDB_MLEADERSTYLE_CLASS
 90
     4095
 91
        4
280
     0
281
     0
  0
CLASS
  1
AEC_WALL_STYLE
  2
AecDbWallStyle
  3
AecArchBase60
 90
      129
 91
        4
280
     0
281
     0
  0
CLASS
  1
AEC_CLEANUP_GROUP_DEF
  2
AecDbCleanupGroupDef
  3
AecArchBase60
 90
      129
 91
        4
280
     0
281
     0
  0
CLASS
  1
AEC_ENDCAP_STYLE
  2
AecDbEndcapStyle
  3
AecArchBase60
 90
      129
 91
        4
280
     0
281
     0
  0
CLASS
  1
AEC_FRAME_DEF
  2
AecDbOpeningEndcapStyle
  3
AecArchBase60
 90
      129
 91
        4
280
     0
281
     0
  0
CLASS
  1
AEC_MATERIAL_DEF
  2
AecDbMaterialDef
  3
AecBase60
 90
      129
 91
        4
280
     0
281
     0
  0
CLASS
  1
TABLESTYLE
  2
AcDbTableStyle
  3
ObjectDBX Classes
 90
     4095
 91
        4
280
     0
281
     0
  0
CLASS
  1
TCOPTIONALDATA
  2
TcOptionalData
  3
ExTcadCustObjs|Description: TurboCAD extension data object
 90
     4095
 91
        4
280
     0
281
     0
  0
CLASS
  1
SCALE
  2
AcDbScale
  3
ObjectDBX Classes
 90
     1153
 91
        4
280
     0
281
     0
  0
CLASS
  1
DICTIONARYVAR
  2
AcDbDictionaryVar
  3
ObjectDBX Classes
 90
        0
 91
        4
280
     0
281
     0
  0
CLASS
  1
CELLSTYLEMAP
  2
AcDbCellStyleMap
  3
ObjectDBX Classes
 90
     1152
 91
        4
280
     0
281
     0
  0
ENDSEC
  0
SECTION
  2
TABLES
  0
TABLE
  2
VPORT
  5
8
330
0
100
AcDbSymbolTable
 70
     1
  0
VPORT
  5
29
330
8
100
AcDbSymbolTableRecord
100
AcDbViewportTableRecord
  2
*Active
 70
     0
 10
0.0
 20
0.0
 11
1.0
 21
1.0
 12
0.0
 22
0.0
 13
0.0
 23
0.0
 14
10.0
 24
10.0
 15
10.0
 25
10.0
 16
0.0
 26
0.0
 36
1.0
 17
1968.803322046327
 27
18.30987207416965
 37
0.0
 40
452.0857109320433
 41
1.941176470588235
 42
50.0
 43
0.0
 44
0.0
 50
0.0
 51
0.0
 71
     0
 72
   100
 73
     1
 74
     3
 75
     0
 76
     0
 77
     0
 78
     0
281
     0
 65
     1
110
0.0
120
0.0
130
0.0
111
1.0
121
0.0
131
0.0
112
0.0
122
1.0
132
0.0
 79
     0
146
0.0
  0
ENDTAB
  0
TABLE
  2
LTYPE
  5
5
330
0
100
AcDbSymbolTable
 70
    22
  0
LTYPE
  5
14
330
5
100
AcDbSymbolTableRecord
100
AcDbLinetypeTableRecord
  2
ByBlock
 70
     0
  3

 72
    65
 73
     0
 40
0.0
  0
LTYPE
  5
15
330
5
100
AcDbSymbolTableRecord
100
AcDbLinetypeTableRecord
  2
ByLayer
 70
     0
  3

 72
    65
 73
     0
 40
0.0
  0
LTYPE
  5
16
330
5
100
AcDbSymbolTableRecord
100
AcDbLinetypeTableRecord
  2
Continuous
 70
     0
  3
Solid line
 72
    65
 73
     0
 40
0.0
  0
LTYPE
  5
153
330
5
100
AcDbSymbolTableRecord
100
AcDbLinetypeTableRecord
  2
Durchgehend
 70
     0
  3
Durchgehend
 72
    65
 73
     0
 40
0.0
  0
LTYPE
  5
154
330
5
100
AcDbSymbolTableRecord
100
AcDbLinetypeTableRecord
  2
Rand
 70
     0
  3
Rand
 72
    65
 73
     6
 40
1.75
 49
0.5
 74
     0
 49
-0.25
 74
     0
 49
0.5
 74
     0
 49
-0.25
 74
     0
 49
0.0
 74
     0
 49
-0.25
 74
     0
  0
LTYPE
  5
155
330
5
100
AcDbSymbolTableRecord
100
AcDbLinetypeTableRecord
  2
Mitte
 70
     0
  3
Mitte
 72
    65
 73
     4
 40
2.0
 49
1.25
 74
     0
 49
-0.25
 74
     0
 49
0.25
 74
     0
 49
-0.25
 74
     0
  0
LTYPE
  5
156
330
5
100
AcDbSymbolTableRecord
100
AcDbLinetypeTableRecord
  2
Strichpunkt
 70
     0
  3
Strichpunkt
 72
    65
 73
     4
 40
1.0
 49
0.5
 74
     0
 49
-0.25
 74
     0
 49
0.0
 74
     0
 49
-0.25
 74
     0
  0
LTYPE
  5
157
330
5
100
AcDbSymbolTableRecord
100
AcDbLinetypeTableRecord
  2
Gestrichelt
 70
     0
  3
Gestrichelt
 72
    65
 73
     2
 40
0.75
 49
0.5
 74
     0
 49
-0.25
 74
     0
  0
LTYPE
  5
158
330
5
100
AcDbSymbolTableRecord
100
AcDbLinetypeTableRecord
  2
Geteilt
 70
     0
  3
Geteilt
 72
    65
 73
     6
 40
1.25
 49
0.5
 74
     0
 49
-0.25
 74
     0
 49
0.0
 74
     0
 49
-0.25
 74
     0
 49
0.0
 74
     0
 49
-0.25
 74
     0
  0
LTYPE
  5
159
330
5
100
AcDbSymbolTableRecord
100
AcDbLinetypeTableRecord
  2
Punkt
 70
     0
  3
Punkt
 72
    65
 73
     2
 40
0.25
 49
0.0
 74
     0
 49
-0.25
 74
     0
  0
LTYPE
  5
15A
330
5
100
AcDbSymbolTableRecord
100
AcDbLinetypeTableRecord
  2
Verdeckt
 70
     0
  3
Verdeckt
 72
    65
 73
     2
 40
0.375
 49
0.25
 74
     0
 49
-0.125
 74
     0
  0
LTYPE
  5
15C
330
5
100
AcDbSymbolTableRecord
100
AcDbLinetypeTableRecord
  2
ZickZack2
 70
     0
  3
ZickZack2
 72
    65
 73
     2
 40
3.0
 49
2.0
 74
     0
 49
-1.0
 74
     4
 75
     1
340
15B
 46
1.0
 50
0.0
 44
0.0
 45
0.0
  0
LTYPE
  5
15E
330
5
100
AcDbSymbolTableRecord
100
AcDbLinetypeTableRecord
  2
Isolierung1
 70
     0
  3
Isolierung1
 72
    65
 73
     2
 40
1.0
 49
-1.0
 74
     4
 75
     1
340
15D
 46
1.0
 50
0.0
 44
0.0
 45
0.0
 49
0.0
 74
     0
  0
LTYPE
  5
15F
330
5
100
AcDbSymbolTableRecord
100
AcDbLinetypeTableRecord
  2
Isolierung3
 70
     0
  3
Isolierung3
 72
    65
 73
     3
 40
1.0
 49
0.0
 74
     0
 49
-1.0
 74
     4
 75
     1
340
15D
 46
1.0
 50
0.0
 44
0.0
 45
0.0
 49
0.0
 74
     0
  0
LTYPE
  5
160
330
5
100
AcDbSymbolTableRecord
100
AcDbLinetypeTableRecord
  2
Isolierung 1
 70
     0
  3
Isolierung 1
 72
    65
 73
     2
 40
0.0
 49
0.0
 74
     4
 75
     1
340
15D
 46
1.0
 50
0.0
 44
0.0
 45
0.0
 49
0.0
 74
     0
  0
LTYPE
  5
161
330
5
100
AcDbSymbolTableRecord
100
AcDbLinetypeTableRecord
  2
$INVISIBLE
 70
     0
  3
$INVISIBLE
 72
    65
 73
     2
 40
200.0
 49
-100.0
 74
     0
 49
-100.0
 74
     0
  0
LTYPE
  5
162
330
5
100
AcDbSymbolTableRecord
100
AcDbLinetypeTableRecord
  2
DOT
 70
     0
  3
DOT
 72
    65
 73
     2
 40
2.032
 49
1.016
 74
     0
 49
-1.016
 74
     0
  0
LTYPE
  5
163
330
5
100
AcDbSymbolTableRecord
100
AcDbLinetypeTableRecord
  2
CENTER
 70
     0
  3
CENTER
 72
    65
 73
     4
 40
13.208
 49
8.128
 74
     0
 49
-1.524
 74
     0
 49
2.032
 74
     0
 49
-1.524
 74
     0
  0
LTYPE
  5
164
330
5
100
AcDbSymbolTableRecord
100
AcDbLinetypeTableRecord
  2
HIDDEN2
 70
     0
  3
HIDDEN2
 72
    65
 73
     2
 40
4.762499999999999
 49
3.175
 74
     0
 49
-1.5875
 74
     0
  0
LTYPE
  5
165
330
5
100
AcDbSymbolTableRecord
100
AcDbLinetypeTableRecord
  2
DASHED
 70
     0
  3
DASHED
 72
    65
 73
     2
 40
9.652000000000001
 49
8.128
 74
     0
 49
-1.524
 74
     0
  0
LTYPE
  5
166
330
5
100
AcDbSymbolTableRecord
100
AcDbLinetypeTableRecord
  2
PHANTOM2
 70
     0
  3
PHANTOM2
 72
    65
 73
     6
 40
14.732
 49
8.128
 74
     0
 49
-1.524
 74
     0
 49
1.016
 74
     0
 49
-1.524
 74
     0
 49
1.016
 74
     0
 49
-1.524
 74
     0
  0
LTYPE
  5
167
330
5
100
AcDbSymbolTableRecord
100
AcDbLinetypeTableRecord
  2
DASHDOT
 70
     0
  3
DASHDOT
 72
    65
 73
     4
 40
11.176
 49
8.128
 74
     0
 49
-1.524
 74
     0
 49
0.0
 74
     0
 49
-1.524
 74
     0
  0
LTYPE
  5
168
330
5
100
AcDbSymbolTableRecord
100
AcDbLinetypeTableRecord
  2
$SNAPEXT
 70
     0
  3
$SNAPEXT
 72
    65
 73
     2
 40
0.04
 49
0.02
 74
     0
 49
-0.02
 74
     0
  0
LTYPE
  5
169
330
5
100
AcDbSymbolTableRecord
100
AcDbLinetypeTableRecord
  2
$AUXILIARY
 70
     0
  3
$AUXILIARY
 72
    65
 73
     2
 40
0.1
 49
0.05
 74
     0
 49
-0.05
 74
     0
  0
ENDTAB
  0
TABLE
  2
LAYER
  5
2
330
0
100
AcDbSymbolTable
 70
    19
  0
LAYER
  5
10
330
2
100
AcDbSymbolTableRecord
100
AcDbLayerTableRecord
  2
0
 70
     0
 62
     7
  6
Continuous
370
     0
390
F
  0
LAYER
  5
16A
330
2
100
AcDbSymbolTableRecord
100
AcDbLayerTableRecord
  2
Umrisslinie
 70
     0
 62
     7
  6
Continuous
370
     0
390
F
  0
LAYER
  5
16B
330
2
100
AcDbSymbolTableRecord
100
AcDbLayerTableRecord
  2
Achse
 70
     0
 62
     5
  6
DASHDOT
370
     0
390
F
  0
LAYER
  5
16C
330
2
100
AcDbSymbolTableRecord
100
AcDbLayerTableRecord
  2
Bemaßung
 70
     0
 62
     7
  6
Continuous
370
     0
390
F
  0
LAYER
  5
16D
330
2
100
AcDbSymbolTableRecord
100
AcDbLayerTableRecord
  2
Schraffur
 70
     0
 62
     5
  6
Continuous
370
     0
390
F
  0
LAYER
  5
16E
330
2
100
AcDbSymbolTableRecord
100
AcDbLayerTableRecord
  2
Hilfe
 70
     0
 62
     1
  6
DOT
370
     0
390
F
  0
LAYER
  5
16F
330
2
100
AcDbSymbolTableRecord
100
AcDbLayerTableRecord
  2
Unsichtbar
 70
     0
 62
     6
  6
DOT
370
     0
390
F
  0
LAYER
  5
170
330
2
100
AcDbSymbolTableRecord
100
AcDbLayerTableRecord
  2
Bem
 70
     0
 62
     4
  6
Continuous
370
     0
390
F
  0
LAYER
  5
171
330
2
100
AcDbSymbolTableRecord
100
AcDbLayerTableRecord
  2
Mittellinie
 70
     0
 62
     7
  6
DASHDOT
370
     0
390
F
  0
LAYER
  5
172
330
2
100
AcDbSymbolTableRecord
100
AcDbLayerTableRecord
  2
Flansche
 70
     0
 62
     3
  6
Continuous
370
     0
390
F
  0
LAYER
  5
173
330
2
100
AcDbSymbolTableRecord
100
AcDbLayerTableRecord
  2
Defpoints
 70
     0
 62
     7
  6
Continuous
290
     0
370
     0
390
F
  0
LAYER
  5
174
330
2
100
AcDbSymbolTableRecord
100
AcDbLayerTableRecord
  2
Muttern
 70
     0
 62
     7
  6
Continuous
370
     0
390
F
  0
LAYER
  5
175
330
2
100
AcDbSymbolTableRecord
100
AcDbLayerTableRecord
  2
12-Outline thin visible
 70
     0
 62
     1
  6
Continuous
370
     0
390
F
  0
LAYER
  5
176
330
2
100
AcDbSymbolTableRecord
100
AcDbLayerTableRecord
  2
92-unplottable
 70
     0
 62
     7
  6
DASHED
370
     0
390
F
  0
LAYER
  5
177
330
2
100
AcDbSymbolTableRecord
100
AcDbLayerTableRecord
  2
90-Drawing frame 05
 70
     0
 62
     6
  6
Continuous
370
     0
390
F
  0
LAYER
  5
178
330
2
100
AcDbSymbolTableRecord
100
AcDbLayerTableRecord
  2
91-Drawing frame 025
 70
     0
 62
     6
  6
Continuous
370
     0
390
F
  0
LAYER
  5
179
330
2
100
AcDbSymbolTableRecord
100
AcDbLayerTableRecord
  2
10-Outline
 70
     0
 62
     7
  6
Continuous
370
     0
390
F
  0
LAYER
  5
17A
330
2
100
AcDbSymbolTableRecord
100
AcDbLayerTableRecord
  2
13-Center line
 70
     0
 62
     2
  6
DASHDOT
370
     0
390
F
  0
LAYER
  5
17B
330
2
100
AcDbSymbolTableRecord
100
AcDbLayerTableRecord
  2
11-Outline hidden
 70
     0
 62
     1
  6
DASHED
370
     0
390
F
  0
ENDTAB
  0
TABLE
  2
STYLE
  5
3
330
0
100
AcDbSymbolTable
 70
    36
  0
STYLE
  5
11
330
3
100
AcDbSymbolTableRecord
100
AcDbTextStyleTableRecord
  2
Standard
 70
     0
 40
0.0
 41
1.0
 50
0.0
 71
     0
 42
2.5
  3
TXT.SHX
  4

  0
STYLE
  5
15B
330
3
100
AcDbSymbolTableRecord
100
AcDbTextStyleTableRecord
  2

 70
     1
 40
0.0
 41
1.0
 50
0.0
 71
     0
 42
0.2
  3
zikzak2.shx
  4

  0
STYLE
  5
15D
330
3
100
AcDbSymbolTableRecord
100
AcDbTextStyleTableRecord
  2

 70
     1
 40
0.0
 41
1.0
 50
0.0
 71
     0
 42
0.2
  3
Iso2.shx
  4

  0
STYLE
  5
17F
330
3
100
AcDbSymbolTableRecord
100
AcDbTextStyleTableRecord
  2
VCDSTYLE01
 70
     0
 40
0.0
 41
1.0
 50
0.0
 71
     0
 42
2.5
  3
TXT.SHX
  4

  0
STYLE
  5
180
330
3
100
AcDbSymbolTableRecord
100
AcDbTextStyleTableRecord
  2
VCDSTYLE02
 70
     0
 40
0.0
 41
1.0
 50
0.0
 71
     0
 42
2.5
  3
TXT.SHX
  4

  0
STYLE
  5
181
330
3
100
AcDbSymbolTableRecord
100
AcDbTextStyleTableRecord
  2
VCDSTYLE03
 70
     0
 40
0.0
 41
1.0
 50
0.0
 71
     0
 42
2.5
  3
TXT.SHX
  4

  0
STYLE
  5
182
330
3
100
AcDbSymbolTableRecord
100
AcDbTextStyleTableRecord
  2
VCDSTYLE04
 70
     0
 40
0.0
 41
1.0
 50
0.0
 71
     0
 42
2.5
  3
TXT.SHX
  4

  0
STYLE
  5
183
330
3
100
AcDbSymbolTableRecord
100
AcDbTextStyleTableRecord
  2
VCDSTYLE05
 70
     0
 40
0.0
 41
1.0
 50
0.0
 71
     0
 42
2.5
  3
TXT.SHX
  4

  0
STYLE
  5
184
330
3
100
AcDbSymbolTableRecord
100
AcDbTextStyleTableRecord
  2
VCDSTYLE06
 70
     0
 40
0.0
 41
1.0
 50
0.0
 71
     0
 42
2.5
  3
TXT.SHX
  4

  0
STYLE
  5
185
330
3
100
AcDbSymbolTableRecord
100
AcDbTextStyleTableRecord
  2
VCDSTYLE07
 70
     0
 40
0.0
 41
1.0
 50
0.0
 71
     0
 42
2.5
  3
TXT.SHX
  4

  0
STYLE
  5
186
330
3
100
AcDbSymbolTableRecord
100
AcDbTextStyleTableRecord
  2
VCDSTYLE08
 70
     0
 40
0.0
 41
1.0
 50
0.0
 71
     0
 42
2.5
  3
TXT.SHX
  4

  0
STYLE
  5
187
330
3
100
AcDbSymbolTableRecord
100
AcDbTextStyleTableRecord
  2
VCDSTYLE09
 70
     0
 40
0.0
 41
1.0
 50
0.0
 71
     0
 42
2.5
  3
TXT.SHX
  4

  0
STYLE
  5
188
330
3
100
AcDbSymbolTableRecord
100
AcDbTextStyleTableRecord
  2
VCDSTYLE10
 70
     0
 40
0.0
 41
1.0
 50
0.0
 71
     0
 42
2.499999761581421
  3

  4

1001
ACAD
1000
Microsoft Sans Serif
1071
       34
  0
STYLE
  5
189
330
3
100
AcDbSymbolTableRecord
100
AcDbTextStyleTableRecord
  2
VCDSTYLE11
 70
     0
 40
0.0
 41
1.0
 50
0.0
 71
     0
 42
2.499999761581421
  3

  4

1001
ACAD
1000
Arial Unicode MS
1071
       34
  0
STYLE
  5
18A
330
3
100
AcDbSymbolTableRecord
100
AcDbTextStyleTableRecord
  2
VCDSTYLE12
 70
     0
 40
0.0
 41
1.0
 50
0.0
 71
     0
 42
2.5
  3

  4

1001
ACAD
1000
MS Gothic
1071
       34
  0
STYLE
  5
18B
330
3
100
AcDbSymbolTableRecord
100
AcDbTextStyleTableRecord
  2
VCDSTYLE13
 70
     0
 40
0.0
 41
1.0
 50
0.0
 71
     0
 42
2.5
  3

  4

1001
ACAD
1000
MS Gothic
1071
 16777250
  0
STYLE
  5
18C
330
3
100
AcDbSymbolTableRecord
100
AcDbTextStyleTableRecord
  2
VCDSTYLE14
 70
     0
 40
0.0
 41
1.0
 50
0.0
 71
     0
 42
2.500000238418579
  3
arial.ttf
  4

1001
ACAD
1000
Arial
1071
       34
  0
STYLE
  5
18D
330
3
100
AcDbSymbolTableRecord
100
AcDbTextStyleTableRecord
  2
VCDSTYLE15
 70
     0
 40
0.0
 41
1.0
 50
0.0
 71
     0
 42
2.500000238418579
  3

  4

1001
ACAD
1000
Arial
1071
 16777250
  0
STYLE
  5
18E
330
3
100
AcDbSymbolTableRecord
100
AcDbTextStyleTableRecord
  2
VCDSTYLE16
 70
     0
 40
0.0
 41
1.0
 50
0.0
 71
     0
 42
2.5
  3

  4

1001
ACAD
1000
Lucida Sans Unicode
1071
       34
  0
STYLE
  5
18F
330
3
100
AcDbSymbolTableRecord
100
AcDbTextStyleTableRecord
  2
VCDSTYLE17
 70
     0
 40
0.0
 41
1.0
 50
0.0
 71
     0
 42
2.5
  3

  4

1001
ACAD
1000
Lucida Sans Unicode
1071
 16777250
  0
STYLE
  5
190
330
3
100
AcDbSymbolTableRecord
100
AcDbTextStyleTableRecord
  2
VCDSTYLE18
 70
     0
 40
0.0
 41
1.0
 50
0.0
 71
     0
 42
2.5
  3

  4

1001
ACAD
1000
Lucida Console
1071
       34
  0
STYLE
  5
191
330
3
100
AcDbSymbolTableRecord
100
AcDbTextStyleTableRecord
  2
VCDSTYLE19
 70
     0
 40
0.0
 41
1.0
 50
0.0
 71
     0
 42
2.5
  3

  4

1001
ACAD
1000
Lucida Console
1071
 16777250
  0
STYLE
  5
192
330
3
100
AcDbSymbolTableRecord
100
AcDbTextStyleTableRecord
  2
VCDSTYLE20
 70
     0
 40
0.0
 41
1.0
 50
0.0
 71
     0
 42
2.5
  3

  4

1001
ACAD
1000
Impact
1071
       34
  0
STYLE
  5
193
330
3
100
AcDbSymbolTableRecord
100
AcDbTextStyleTableRecord
  2
VCDSTYLE21
 70
     0
 40
0.0
 41
1.0
 50
0.0
 71
     0
 42
2.5
  3

  4

1001
ACAD
1000
Arial Black
1071
       34
  0
STYLE
  5
194
330
3
100
AcDbSymbolTableRecord
100
AcDbTextStyleTableRecord
  2
VCDSTYLE22
 70
     0
 40
0.0
 41
1.0
 50
0.0
 71
     0
 42
2.5
  3

  4

1001
ACAD
1000
Franklin Gothic Medium
1071
       34
  0
STYLE
  5
195
330
3
100
AcDbSymbolTableRecord
100
AcDbTextStyleTableRecord
  2
VCDSTYLE23
 70
     0
 40
0.0
 41
1.0
 50
0.0
 71
     0
 42
2.5
  3

  4

1001
ACAD
1000
Gulim
1071
       34
  0
STYLE
  5
196
330
3
100
AcDbSymbolTableRecord
100
AcDbTextStyleTableRecord
  2
VCDSTYLE24
 70
     0
 40
0.0
 41
1.0
 50
0.0
 71
     0
 42
2.5
  3

  4

1001
ACAD
1000
Gulim
1071
 16777250
  0
STYLE
  5
197
330
3
100
AcDbSymbolTableRecord
100
AcDbTextStyleTableRecord
  2
VCDSTYLE25
 70
     0
 40
0.0
 41
1.0
 50
0.0
 71
     0
 42
2.5
  3

  4

1001
ACAD
1000
GulimChe
1071
       34
  0
STYLE
  5
198
330
3
100
AcDbSymbolTableRecord
100
AcDbTextStyleTableRecord
  2
VCDSTYLE26
 70
     0
 40
0.0
 41
1.0
 50
0.0
 71
     0
 42
2.5
  3

  4

1001
ACAD
1000
GulimChe
1071
 16777250
  0
STYLE
  5
199
330
3
100
AcDbSymbolTableRecord
100
AcDbTextStyleTableRecord
  2
VCDSTYLE27
 70
     0
 40
0.0
 41
1.0
 50
0.0
 71
     0
 42
2.5
  3

  4

1001
ACAD
1000
@Gulim
1071
       34
  0
STYLE
  5
19A
330
3
100
AcDbSymbolTableRecord
100
AcDbTextStyleTableRecord
  2
VCDSTYLE28
 70
     0
 40
0.0
 41
1.0
 50
0.0
 71
     0
 42
2.5
  3

  4

1001
ACAD
1000
Dotum
1071
       34
  0
STYLE
  5
19B
330
3
100
AcDbSymbolTableRecord
100
AcDbTextStyleTableRecord
  2
VCDSTYLE29
 70
     0
 40
0.0
 41
1.0
 50
0.0
 71
     0
 42
2.5
  3

  4

1001
ACAD
1000
Dotum
1071
 16777250
  0
STYLE
  5
19C
330
3
100
AcDbSymbolTableRecord
100
AcDbTextStyleTableRecord
  2
VCDSTYLE30
 70
     0
 40
0.0
 41
1.0
 50
0.0
 71
     0
 42
2.5
  3

  4

1001
ACAD
1000
DotumChe
1071
       34
  0
STYLE
  5
19D
330
3
100
AcDbSymbolTableRecord
100
AcDbTextStyleTableRecord
  2
VCDSTYLE31
 70
     0
 40
0.0
 41
1.0
 50
0.0
 71
     0
 42
2.5
  3

  4

1001
ACAD
1000
DotumChe
1071
 16777250
  0
STYLE
  5
19E
330
3
100
AcDbSymbolTableRecord
100
AcDbTextStyleTableRecord
  2
VCDSTYLE32
 70
     0
 40
0.0
 41
1.0
 50
0.0
 71
     0
 42
2.5
  3

  4

1001
ACAD
1000
@Dotum
1071
       34
  0
STYLE
  5
2E7
330
3
100
AcDbSymbolTableRecord
100
AcDbTextStyleTableRecord
  2
_TCW_TXTSTY_1
 70
     0
 40
10.00000095367432
 41
1.0
 50
0.0
 71
     0
 42
10.00000095367432
  3

  4

1001
ACAD
1000
Arial
1071
       34
  0
ENDTAB
  0
TABLE
  2
VIEW
  5
6
330
0
100
AcDbSymbolTable
 70
     3
  0
VIEW
  5
17C
330
6
100
AcDbSymbolTableRecord
100
AcDbViewTableRecord
  2
Ansicht_0
 70
     0
 40
210.0
 10
148.5
 20
105.0
 41
297.0
 11
0.0
 21
0.0
 31
1.0
 12
0.0
 22
0.0
 32
0.0
 42
50.0
 43
0.0
 44
0.0
 50
0.0
 71
     0
281
     0
 72
     0
  0
VIEW
  5
17D
330
6
100
AcDbSymbolTableRecord
100
AcDbViewTableRecord
  2
Ansicht_1
 70
     0
 40
331.9917047292735
 10
18.34691005153388
 20
14.41542925682066
 41
287.4349233050818
 11
0.0
 21
0.0
 31
1.0
 12
1913.545107348728
 22
36.62889891884076
 32
0.0
 42
50.0
 43
0.0
 44
0.0
 50
0.0
 71
     0
281
     0
 72
     0
  0
VIEW
  5
17E
330
6
100
AcDbSymbolTableRecord
100
AcDbViewTableRecord
  2
Ansicht_2
 70
     1
 40
276.4508108384559
 10
238.8972973295901
 20
147.2959459306786
 41
215.2848648863934
 11
0.0
 21
0.0
 31
1.0
 12
0.0
 22
0.0
 32
0.0
 42
50.0
 43
0.0
 44
0.0
 50
0.0
 71
     0
281
     0
 72
     0
  0
ENDTAB
  0
TABLE
  2
UCS
  5
7
330
0
100
AcDbSymbolTable
 70
     0
  0
ENDTAB
  0
TABLE
  2
APPID
  5
9
330
0
100
AcDbSymbolTable
 70
    10
  0
APPID
  5
12
330
9
100
AcDbSymbolTableRecord
100
AcDbRegAppTableRecord
  2
ACAD
 70
     0
  0
APPID
  5
3F
330
9
100
AcDbSymbolTableRecord
100
AcDbRegAppTableRecord
  2
TCAD
 70
     0
  0
APPID
  5
40
330
9
100
AcDbSymbolTableRecord
100
AcDbRegAppTableRecord
  2
AECBASE
 70
     0
  0
APPID
  5
41
330
9
100
AcDbSymbolTableRecord
100
AcDbRegAppTableRecord
  2
AEC_2DSECTION_XDATA
 70
     0
  0
APPID
  5
42
330
9
100
AcDbSymbolTableRecord
100
AcDbRegAppTableRecord
  2
AEC_MASSGROUP_XDADA
 70
     0
  0
APPID
  5
1A4
330
9
100
AcDbSymbolTableRecord
100
AcDbRegAppTableRecord
  2
ACAD_MLEADERVER
 70
     0
  0
APPID
  5
39B
330
9
100
AcDbSymbolTableRecord
100
AcDbRegAppTableRecord
  2
ACAD_DSTYLE_DIMTEXT_FILL
 70
     0
  0
APPID
  5
39C
330
9
100
AcDbSymbolTableRecord
100
AcDbRegAppTableRecord
  2
ACAD_DSTYLE_DIM_LINETYPE
 70
     0
  0
APPID
  5
39D
330
9
100
AcDbSymbolTableRecord
100
AcDbRegAppTableRecord
  2
ACAD_DSTYLE_DIM_EXT1_LINETYPE
 70
     0
  0
APPID
  5
39E
330
9
100
AcDbSymbolTableRecord
100
AcDbRegAppTableRecord
  2
ACAD_DSTYLE_DIM_EXT2_LINETYPE
 70
     0
  0
ENDTAB
  0
TABLE
  2
DIMSTYLE
  5
A
330
0
100
AcDbSymbolTable
 70
     3
100
AcDbDimStyleTable
  0
DIMSTYLE
105
27
330
A
100
AcDbSymbolTableRecord
100
AcDbDimStyleTableRecord
  2
Standard
 70
     0
  3
 mm
  4
 mm
 41
3.0
 42
1.0
 43
7.5
 44
2.0
 45
0.01
 74
     0
 77
     1
 78
     1
140
3.0
141
0.0
143
1.0
147
2.0
148
0.01
172
     1
176
     7
177
     7
178
     7
271
     2
272
     3
276
     2
278
     0
340
11
1001
ACAD_DSTYLE_DIMTEXT_FILL
1070
   376
1070
     0
1001
ACAD_DSTYLE_DIM_LINETYPE
1070
   380
1005
14
1001
ACAD_DSTYLE_DIM_EXT1_LINETYPE
1070
   381
1005
14
1001
ACAD_DSTYLE_DIM_EXT2_LINETYPE
1070
   382
1005
14
  0
DIMSTYLE
105
19F
330
A
100
AcDbSymbolTableRecord
100
AcDbDimStyleTableRecord
  2
ISO-25
 70
     0
  3
 mm
 41
2.5
 42
0.625
 43
3.75
 44
1.25
 73
     0
 74
     0
 77
     1
 78
     8
140
2.5
141
0.0
143
0.03937007874016
147
0.625
171
     3
172
     1
271
     2
272
     2
274
     3
278
    44
283
     0
284
     8
340
11
1001
ACAD_DSTYLE_DIM_LINETYPE
1070
   380
1005
14
1001
ACAD_DSTYLE_DIM_EXT1_LINETYPE
1070
   381
1005
14
1001
ACAD_DSTYLE_DIM_EXT2_LINETYPE
1070
   382
1005
14
  0
DIMSTYLE
105
1A0
102
{ACAD_REACTORS
330
25C
330
290
330
29F
330
2AC
330
2FB
330
32C
330
33B
330
34A
330
359
330
367
102
}
330
A
100
AcDbSymbolTableRecord
100
AcDbDimStyleTableRecord
  2
VCDDIMSTYLE01
 70
     0
  3
 mm
 41
6.0
 42
1.0
 43
1.0
 44
1.0
 73
     0
 74
     0
 77
     1
 78
    12
 79
     3
140
6.0
147
1.5
172
     1
179
     2
271
     2
278
    44
289
     0
340
18C
1001
ACAD_DSTYLE_DIM_LINETYPE
1070
   380
1005
14
1001
ACAD_DSTYLE_DIM_EXT1_LINETYPE
1070
   381
1005
14
1001
ACAD_DSTYLE_DIM_EXT2_LINETYPE
1070
   382
1005
14
  0
ENDTAB
  0
TABLE
  2
BLOCK_RECORD
  5
1
330
0
100
AcDbSymbolTable
 70
    15
  0
BLOCK_RECORD
  5
1F
330
1
100
AcDbSymbolTableRecord
100
AcDbBlockTableRecord
  2
*Model_Space
340
22
  0
BLOCK_RECORD
  5
1B
330
1
100
AcDbSymbolTableRecord
100
AcDbBlockTableRecord
  2
*Paper_Space
340
1E
  0
BLOCK_RECORD
  5
14F
330
1
100
AcDbSymbolTableRecord
100
AcDbBlockTableRecord
  2
*Paper_Space2
340
150
  0
BLOCK_RECORD
  5
1B6
330
1
100
AcDbSymbolTableRecord
100
AcDbBlockTableRecord
  2
Dichtung 40°- Gr.1 bis DN65-80
340
0
102
{BLKREFS
331
2F7
102
}
  0
BLOCK_RECORD
  5
1C0
330
1
100
AcDbSymbolTableRecord
100
AcDbBlockTableRecord
  2
Dichtung 40°- Gr.1 bis DN65-80(1)
340
0
102
{BLKREFS
331
328
102
}
  0
BLOCK_RECORD
  5
25D
330
1
100
AcDbSymbolTableRecord
100
AcDbBlockTableRecord
  2
*D5
340
0
  0
BLOCK_RECORD
  5
291
330
1
100
AcDbSymbolTableRecord
100
AcDbBlockTableRecord
  2
*D6
340
0
  0
BLOCK_RECORD
  5
2A0
330
1
100
AcDbSymbolTableRecord
100
AcDbBlockTableRecord
  2
*D7
340
0
  0
BLOCK_RECORD
  5
2AD
330
1
100
AcDbSymbolTableRecord
100
AcDbBlockTableRecord
  2
*D8
340
0
  0
BLOCK_RECORD
  5
2FC
330
1
100
AcDbSymbolTableRecord
100
AcDbBlockTableRecord
  2
*D9
340
0
  0
BLOCK_RECORD
  5
32D
330
1
100
AcDbSymbolTableRecord
100
AcDbBlockTableRecord
  2
*D10
340
0
  0
BLOCK_RECORD
  5
33C
330
1
100
AcDbSymbolTableRecord
100
AcDbBlockTableRecord
  2
*D11
340
0
  0
BLOCK_RECORD
  5
34B
330
1
100
AcDbSymbolTableRecord
100
AcDbBlockTableRecord
  2
*D12
340
0
  0
BLOCK_RECORD
  5
35A
330
1
100
AcDbSymbolTableRecord
100
AcDbBlockTableRecord
  2
*D13
340
0
  0
BLOCK_RECORD
  5
368
330
1
100
AcDbSymbolTableRecord
100
AcDbBlockTableRecord
  2
*D14
340
0
  0
ENDTAB
  0
ENDSEC
  0
SECTION
  2
BLOCKS
  0
BLOCK
  5
20
330
1F
100
AcDbEntity
  8
0
100
AcDbBlockBegin
  2
*Model_Space
 70
     0
 10
0.0
 20
0.0
 30
0.0
  3
*Model_Space
  1

  0
ENDBLK
  5
21
330
1F
100
AcDbEntity
  8
0
100
AcDbBlockEnd
  0
BLOCK
  5
1C
330
1B
100
AcDbEntity
 67
     1
  8
0
100
AcDbBlockBegin
  2
*Paper_Space
 70
     0
 10
0.0
 20
0.0
 30
0.0
  3
*Paper_Space
  1

  0
ENDBLK
  5
1D
330
1B
100
AcDbEntity
 67
     1
  8
0
100
AcDbBlockEnd
  0
BLOCK
  5
151
330
14F
100
AcDbEntity
  8
0
100
AcDbBlockBegin
  2
*Paper_Space2
 70
     0
 10
0.0
 20
0.0
 30
0.0
  3
*Paper_Space2
  1

  0
VIEWPORT
  5
378
330
14F
100
AcDbEntity
  8
0
100
AcDbViewport
 10
105.0
 20
148.5
 30
0.0
 40
588.0600000000001
 41
302.9400000000001
 68
     1
 69
     1
 12
105.0
 22
148.5
 13
0.0
 23
0.0
 14
5.0
 24
5.0
 15
5.0
 25
5.0
 16
0.0
 26
0.0
 36
1.0
 17
0.0
 27
0.0
 37
0.0
 42
50.0
 43
0.0
 44
0.0
 45
302.9400000000001
 50
0.0
 51
0.0
 72
  1000
 90
    33312
  1

281
     0
 71
     1
 74
     0
110
0.0
120
0.0
130
0.0
111
1.0
121
0.0
131
0.0
112
0.0
122
1.0
132
0.0
 79
     0
146
0.0
170
     0
  0
ENDBLK
  5
152
330
14F
100
AcDbEntity
  8
0
100
AcDbBlockEnd
  0
BLOCK
  5
1B7
330
1B6
100
AcDbEntity
  8
0
100
AcDbBlockBegin
  2
Dichtung 40°- Gr.1 bis DN65-80
 70
     0
 10
0.0
 20
0.0
 30
0.0
  3
Dichtung 40°- Gr.1 bis DN65-80
  1

  0
LINE
  5
1B8
330
1B6
100
AcDbEntity
  8
Flansche
100
AcDbLine
 10
17.24314582125021
 20
0.0
 30
0.0
 11
1.243145821246571
 21
0.0
 31
0.0
  0
LINE
  5
1B9
330
1B6
100
AcDbEntity
  8
Flansche
100
AcDbLine
 10
9.987847919108162
 20
10.00000000000728
 30
0.0
 11
3.001400137734663
 21
10.00000000000364
 31
0.0
  0
ARC
  5
1BA
330
1B6
100
AcDbEntity
  8
Flansche
100
AcDbCircle
 10
1.243145821246571
 20
1.0
 30
0.0
 40
1.000000000000092
100
AcDbArc
 50
165.9337263189677
 51
270.0000000000032
  0
LINE
  5
1BB
330
1B6
100
AcDbEntity
  8
Flansche
100
AcDbLine
 10
2.024699789422357
 20
9.214607617775926
 30
0.0
 11
0.2731305735994738
 21
1.243044068698509
 31
0.0
  0
LINE
  5
1BC
330
1B6
100
AcDbEntity
  8
Flansche
100
AcDbLine
 10
17.24314582125021
 20
3.912082206238608
 30
0.0
 11
17.24314582125021
 21
0.0
 31
0.0
  0
LINE
  5
1BD
330
1B6
100
AcDbEntity
  8
Flansche
100
AcDbLine
 10
9.987847919108162
 20
10.00000000000728
 30
0.0
 11
17.24314582125021
 21
3.912082206238608
 31
0.0
  0
HATCH
  5
1BE
330
1B6
100
AcDbEntity
  8
Schraffur
  6
Durchgehend
370
     0
100
AcDbHatch
 10
0.0
 20
0.0
 30
0.0
210
0.0
220
0.0
230
1.0
  2
_USER
 70
     0
 71
     0
 91
        1
 92
        3
 72
     0
 73
     1
 93
       63
 10
2.058877614047788
 20
9.370154254762781
 10
0.2731305736090235
 20
1.243044068741824
 10
0.2618294809805206
 20
1.192401248246383
 10
0.2531704942427511
 20
1.141240404713386
 10
0.2471769269378705
 20
1.089699284107654
 10
0.2438649162062003
 20
1.037916656255777
 10
0.2432433793384298
 20
0.9860319412208589
 10
0.2453139897666137
 20
0.9341848339265517
 10
0.2500711725586073
 20
0.8825149280410534
 10
0.2575021194280686
 20
0.8311613401337227
 10
0.2675868232196166
 20
0.7802623351162429
 10
0.280298131776296
 20
0.7299549539767959
 10
0.2956018210443143
 20
0.6803746448095405
 10
0.3134566872182261
 20
0.6316548981328138
 10
0.3338146576784683
 20
0.5839268874779311
 10
0.3566209204225611
 20
0.5373191162162616
 10
0.3818140716414887
 20
0.4919570715754724
 10
0.4093262810439268
 20
0.4479628867764662
 10
0.4390834744831941
 20
0.4054550122006806
 10
0.471005533395224
 20
0.364547896473101
 10
0.5050065105105834
 20
0.3253516783196426
 10
0.540994861259758
 20
0.2879718900285476
 10
0.5788736902486626
 20
0.2525091733142009
 10
0.6185410121407663
 20
0.2190590083483753
 10
0.6598900262434273
 20
0.1877114566884668
 10
0.7028094040591433
 20
0.1585509187948591
 10
0.7471835890275059
 20
0.131655906790284
 10
0.7928931076508361
 20
0.1070988330729997
 10
0.8398148911658188
 20
0.0849458153529283
 10
0.8878226068950679
 20
0.0652564986356752
 10
0.9367869983864852
 20
0.0480838946337213
 10
0.9865762334246195
 20
0.0334742390371606
 10
1.037056258977037
 20
0.0214668670282677
 10
1.088091162120042
 20
0.0120941073750608
 10
1.139543535971986
 20
0.0053811953890046
 10
1.191274849648923
 20
0.0013462049812069
 10
1.243145821246571
 20
0.0
 10
17.24314582125021
 20
0.0
 10
17.24314582125021
 20
3.912082206238608
 10
9.987847919108162
 20
10.00000000000728
 10
2.987847919108162
 20
10.00000000000378
 10
2.936061474107066
 20
9.998658181822838
 10
2.884414005092827
 20
9.994636328232078
 10
2.833044115091291
 20
9.987945232424034
 10
2.782089662207173
 20
9.97860285086672
 10
2.731687389663032
 20
9.966634255114988
 10
2.681972558830187
 20
9.952071564527598
 10
2.63307858623639
 20
9.93495386007054
 10
2.585136685524367
 20
9.915327079437924
 10
2.538275515322128
 20
9.893243893771924
 10
2.492620833969987
 20
9.868763566312577
 10
2.448295162030912
 20
9.841951793356808
 10
2.405417453489883
 20
9.812880527953443
 10
2.364102776524655
 20
9.781627786807407
 10
2.324462004704611
 20
9.748277440911247
 10
2.28660151944642
 20
9.712918990465893
 10
2.250622924525
 20
9.675647324694657
 10
2.216622773405931
 20
9.636562467195073
 10
2.184692310131067
 20
9.595769307511926
 10
2.154917224452702
 20
9.553377319651855
 10
2.127377421873443
 20
9.509500268294936
 10
2.102146809208889
 20
9.464255903491642
 10
2.079293096248619
 20
9.41776564466453
 97
        0
 75
     0
 76
     1
 52
0.0
 41
1.0
 77
     0
 78
     1
 53
134.999999999977
 43
422.4143017602519
 44
-476.3205241494996
 45
2.245064030267258
 46
2.245064030267372
 79
     1
 49
1.0
 98
        0
  0
ARC
  5
1BF
330
1B6
100
AcDbEntity
  8
Flansche
100
AcDbCircle
 10
3.001400137735118
 20
9.000000000003638
 30
0.0
 40
1.000000000000085
100
AcDbArc
 50
90.0
 51
167.6074918724788
  0
ENDBLK
  5
1C2
330
1B6
100
AcDbEntity
  8
0
100
AcDbBlockEnd
  0
BLOCK
  5
1C1
330
1C0
100
AcDbEntity
  8
0
100
AcDbBlockBegin
  2
Dichtung 40°- Gr.1 bis DN65-80(1)
 70
     0
 10
0.0
 20
0.0
 30
0.0
  3
Dichtung 40°- Gr.1 bis DN65-80(1)
  1

  0
LINE
  5
1C3
330
1C0
100
AcDbEntity
  8
Flansche
100
AcDbLine
 10
17.24314581339308
 20
-0.0005204829622987
 30
0.0
 11
1.243145820679956
 21
-0.000037524256091
 31
0.0
  0
LINE
  5
1C4
330
1C0
100
AcDbEntity
  8
Flansche
100
AcDbLine
 10
9.98754606536636
 20
-10.00030147783342
 30
0.0
 11
3.001098287176319
 21
-10.00009059246845
 31
0.0
  0
ARC
  5
1C5
330
1C0
100
AcDbEntity
  8
Flansche
100
AcDbCircle
 10
1.243115635760887
 20
-1.000037523800526
 30
0.0
 40
1.0
100
AcDbArc
 50
89.99827053153214
 51
194.0645442125677
  0
LINE
  5
1C6
330
1C0
100
AcDbEntity
  8
Flansche
100
AcDbLine
 10
2.02442164631475
 20
-9.214668728977497
 30
0.0
 11
0.2730930522902781
 21
-1.2430523125565
 31
0.0
  0
LINE
  5
1C7
330
1C0
100
AcDbEntity
  8
Flansche
100
AcDbLine
 10
17.24302772750843
 20
-3.912602687418699
 30
0.0
 11
17.24314581339308
 21
-0.0005204829622987
 31
0.0
  0
LINE
  5
1C8
330
1C0
100
AcDbEntity
  8
Flansche
100
AcDbLine
 10
9.98754606536636
 20
-10.00030147783342
 30
0.0
 11
17.24302772750843
 21
-3.912602687418699
 31
0.0
  0
HATCH
  5
1C9
330
1C0
100
AcDbEntity
  8
Schraffur
  6
Durchgehend
370
     0
100
AcDbHatch
 10
0.0
 20
0.0
 30
0.0
210
0.0
220
0.0
230
1.0
  2
_USER
 70
     0
 71
     0
 91
        1
 92
        3
 72
     0
 73
     1
 93
       63
 10
17.24314581339308
 20
-0.0005204829622987
 10
1.243145820679956
 20
-0.000037524256091
 10
1.191274808470874
 20
-0.0013821635155772
 10
1.139543373021644
 20
-0.0054155924160308
 10
1.088090796564435
 20
-0.0121269513132988
 10
1.037055610528688
 20
-0.0214981704778253
 10
0.9865752225577156
 20
-0.0335040187457727
 10
0.9367855465509929
 20
-0.048112171451658
 10
0.887820636728222
 20
-0.0652832974596047
 10
0.8398123267004141
 20
-0.0849711650588845
 10
0.7928898745197632
 20
-0.1071227664386359
 10
0.7471796146639775
 20
-0.1316784604066227
 10
0.7028046178920734
 20
-0.1585721329677732
 10
0.6598843598874381
 20
-0.18773137533016
 10
0.6185343995803093
 20
-0.219077678859153
 10
0.5788660680157598
 20
-0.2525266464548479
 10
0.5409861686048832
 20
-0.2879882197836605
 10
0.5049966895662257
 20
-0.3253669217522803
 10
0.4709945293316898
 20
-0.364562113571148
 10
0.4390712356562322
 20
-0.4054682657153347
 10
0.409312759133775
 20
-0.447975242053287
 10
0.3817992217829709
 20
-0.4919685963784437
 10
0.3566047013258824
 20
-0.5373298805453435
 10
0.3337970317403844
 20
-0.5839369633805911
 10
0.3134376206232865
 20
-0.6316643595100456
 10
0.2955812838559075
 20
-0.680383567216892
 10
0.2802760980172508
 20
-0.7299634144209431
 10
0.2675632709421438
 20
-0.7802704118476561
 10
0.2574770307728527
 20
-0.8311691124359841
 10
0.2500445338028919
 20
-0.8825224760173933
 10
0.2452857913611484
 20
-0.9341922382841777
 10
0.2432136159331804
 20
-0.9860392830536592
 10
0.243833586664754
 20
-1.037924016825982
 10
0.247144034340495
 20
-1.089706744627046
 10
0.2531360458781016
 20
-1.141248046124642
 10
0.2617934883260156
 20
-1.192409151005146
 10
0.2730930522998278
 20
-1.243052312599816
 10
2.058594775761777
 20
-9.370216397548363
 10
2.079008820807396
 20
-9.417828403668183
 10
2.101861130452541
 20
-9.464319352311557
 10
2.127090377408095
 20
-9.509564478678206
 10
2.154628855549545
 20
-9.553442361301816
 10
2.1844026616156
 20
-9.595835247901094
 10
2.216331893537669
 20
-9.63662937138408
 10
2.25033086486796
 20
-9.675715255157641
 10
2.286308334730744
 20
-9.71298800692285
 10
2.324167752679689
 20
-9.74834760016776
 10
2.363807517804148
 20
-9.781699142602196
 10
2.405121251389057
 20
-9.812953130814162
 10
2.447998082396721
 20
-9.842025690464432
 10
2.492322945004367
 20
-9.8688388013748
 10
2.537976887398965
 20
-9.89332050690585
 10
2.584837391000643
 20
-9.91540510706242
 10
2.632778699257998
 20
-9.93503333480849
 10
2.681672155132956
 20
-9.95215251511836
 10
2.731386546369473
 20
-9.96671670633727
 10
2.781788457619517
 20
-9.97868682347208
 10
2.832742628481349
 20
-9.988030743081191
 10
2.884112316489256
 20
-9.994723389482179
 10
2.935759664080601
 20
-9.998746802045805
 10
2.987546068555503
 20
-10.00009018339583
 10
9.98754606536636
 20
-10.00030147783342
 10
17.24302772750843
 20
-3.912602687418699
 97
        0
 75
     0
 76
     1
 52
0.0
 41
1.0
 77
     0
 78
     1
 53
134.999999999977
 43
422.4143017602519
 44
-476.3205241494996
 45
2.245064030267258
 46
2.245064030267372
 79
     1
 49
1.0
 98
        0
  0
ARC
  5
1CA
330
1C0
100
AcDbEntity
  8
Flansche
100
AcDbCircle
 10
3.001128472095843
 20
-9.000090592924012
 30
0.0
 40
0.9999999999997834
100
AcDbArc
 50
192.3907786590489
 51
269.9982705315015
  0
ENDBLK
  5
1CB
330
1C0
100
AcDbEntity
  8
0
100
AcDbBlockEnd
  0
BLOCK
  5
267
330
25D
100
AcDbEntity
  8
0
100
AcDbBlockBegin
  2
*D5
 70
     1
 10
0.0
 20
0.0
 30
0.0
  3
*D5
  1

  0
LINE
  5
25E
330
25D
100
AcDbEntity
  8
Bem
  6
ByBlock
 62
     0
370
    -2
100
AcDbLine
 10
1820.856718586112
 20
130.9678476930163
 30
0.0
 11
1820.856718586112
 21
186.5
 31
0.0
  0
LINE
  5
25F
330
25D
100
AcDbEntity
  8
Bem
  6
ByBlock
 62
     0
370
    -2
100
AcDbLine
 10
2010.858983002718
 20
123.9678476929761
 30
0.0
 11
2010.858983002718
 21
186.5
 31
0.0
  0
LINE
  5
260
330
25D
100
AcDbEntity
  8
Bem
  6
ByBlock
 62
     0
370
    -2
100
AcDbLine
 10
1826.856718586112
 20
185.5
 30
0.0
 11
2004.858983002718
 21
185.5
 31
0.0
  0
SOLID
  5
261
330
25D
100
AcDbEntity
  8
Bem
 62
     0
100
AcDbTrace
 10
1826.856718586112
 20
186.5
 30
0.0
 11
1826.856718586112
 21
184.5
 31
0.0
 12
1820.856718586112
 22
185.5
 32
0.0
 13
1820.856718586112
 23
185.5
 33
0.0
  0
SOLID
  5
262
330
25D
100
AcDbEntity
  8
Bem
 62
     0
100
AcDbTrace
 10
2004.858983002718
 20
184.5
 30
0.0
 11
2004.858983002718
 21
186.5
 31
0.0
 12
2010.858983002718
 22
185.5
 32
0.0
 13
2010.858983002718
 23
185.5
 33
0.0
  0
MTEXT
  5
263
330
25D
100
AcDbEntity
  8
Bem
 62
     0
100
AcDbMText
 10
1915.857850794415
 20
190.063
 30
0.0
 40
6.0
 41
0.0
 71
     5
 72
     1
  1
\A1;190
  7
VCDSTYLE14
 73
     1
 44
1.0
  0
POINT
  5
264
330
25D
100
AcDbEntity
  8
Defpoints
 62
     0
100
AcDbPoint
 10
1820.856718586112
 20
129.9678476930163
 30
0.0
  0
POINT
  5
265
330
25D
100
AcDbEntity
  8
Defpoints
 62
     0
100
AcDbPoint
 10
2010.858983002718
 20
122.9678476929761
 30
0.0
  0
POINT
  5
266
330
25D
100
AcDbEntity
  8
Defpoints
 62
     0
100
AcDbPoint
 10
2010.858983002718
 20
185.5
 30
0.0
  0
ENDBLK
  5
268
330
25D
100
AcDbEntity
  8
0
100
AcDbBlockEnd
  0
BLOCK
  5
29D
330
291
100
AcDbEntity
  8
0
100
AcDbBlockBegin
  2
*D6
 70
     1
 10
0.0
 20
0.0
 30
0.0
  3
*D6
  1

  0
LINE
  5
292
330
291
100
AcDbEntity
  8
Bem
  6
ByBlock
 62
     0
370
    -2
100
AcDbLine
 10
1955.858983002708
 20
143.9678476930027
 30
0.0
 11
1955.858983002708
 21
156.2919992939913
 31
0.0
  0
LINE
  5
293
330
291
100
AcDbEntity
  8
Bem
  6
ByBlock
 62
     0
370
    -2
100
AcDbLine
 10
1965.858983002712
 20
143.9678476930019
 30
0.0
 11
1965.858983002712
 21
156.2919992939913
 31
0.0
  0
LINE
  5
294
330
291
100
AcDbEntity
  8
Bem
  6
ByBlock
 62
     0
370
    -2
100
AcDbLine
 10
1971.858983002712
 20
155.2919992939913
 30
0.0
 11
1988.856983002712
 21
155.2919992939913
 31
0.0
  0
LINE
  5
295
330
291
100
AcDbEntity
  8
Bem
  6
ByBlock
 62
     0
370
    -2
100
AcDbLine
 10
1955.858983002708
 20
155.2919992939913
 30
0.0
 11
1965.858983002712
 21
155.2919992939913
 31
0.0
  0
LINE
  5
296
330
291
100
AcDbEntity
  8
Bem
  6
ByBlock
 62
     0
370
    -2
100
AcDbLine
 10
1949.858983002708
 20
155.2919992939913
 30
0.0
 11
1943.858983002708
 21
155.2919992939913
 31
0.0
  0
SOLID
  5
297
330
291
100
AcDbEntity
  8
Bem
 62
     0
100
AcDbTrace
 10
1949.858983002708
 20
154.2919992939913
 30
0.0
 11
1949.858983002708
 21
156.2919992939913
 31
0.0
 12
1955.858983002708
 22
155.2919992939913
 32
0.0
 13
1955.858983002708
 23
155.2919992939913
 33
0.0
  0
SOLID
  5
298
330
291
100
AcDbEntity
  8
Bem
 62
     0
100
AcDbTrace
 10
1971.858983002712
 20
156.2919992939913
 30
0.0
 11
1971.858983002712
 21
154.2919992939913
 31
0.0
 12
1965.858983002712
 22
155.2919992939913
 32
0.0
 13
1965.858983002712
 23
155.2919992939913
 33
0.0
  0
MTEXT
  5
299
330
291
100
AcDbEntity
  8
Bem
 62
     0
100
AcDbMText
 10
1983.357983002712
 20
159.8549992939913
 30
0.0
 40
6.0
 41
0.0
 71
     5
 72
     1
  1
\A1;10
  7
VCDSTYLE14
 73
     1
 44
1.0
  0
POINT
  5
29A
330
291
100
AcDbEntity
  8
Defpoints
 62
     0
100
AcDbPoint
 10
1955.858983002708
 20
142.9678476930027
 30
0.0
  0
POINT
  5
29B
330
291
100
AcDbEntity
  8
Defpoints
 62
     0
100
AcDbPoint
 10
1965.858983002712
 20
142.9678476930019
 30
0.0
  0
POINT
  5
29C
330
291
100
AcDbEntity
  8
Defpoints
 62
     0
100
AcDbPoint
 10
1965.858983002712
 20
155.2919992939913
 30
0.0
  0
ENDBLK
  5
29E
330
291
100
AcDbEntity
  8
0
100
AcDbBlockEnd
  0
BLOCK
  5
2AA
330
2A0
100
AcDbEntity
  8
0
100
AcDbBlockBegin
  2
*D7
 70
     1
 10
0.0
 20
0.0
 30
0.0
  3
*D7
  1

  0
LINE
  5
2A1
330
2A0
100
AcDbEntity
  8
Bem
  6
ByBlock
 62
     0
370
    -2
100
AcDbLine
 10
1869.858983002712
 20
84.41794247521408
 30
0.0
 11
1869.858983002712
 21
59.14155959386016
 31
0.0
  0
LINE
  5
2A2
330
2A0
100
AcDbEntity
  8
Bem
  6
ByBlock
 62
     0
370
    -2
100
AcDbLine
 10
1960.858983002704
 20
43.96819078694723
 30
0.0
 11
1960.858983002704
 21
61.14155959386016
 31
0.0
  0
LINE
  5
2A3
330
2A0
100
AcDbEntity
  8
Bem
  6
ByBlock
 62
     0
370
    -2
100
AcDbLine
 10
1875.858983002712
 20
60.14155959386016
 30
0.0
 11
1954.858983002704
 21
60.14155959386016
 31
0.0
  0
SOLID
  5
2A4
330
2A0
100
AcDbEntity
  8
Bem
 62
     0
100
AcDbTrace
 10
1875.858983002712
 20
61.14155959386016
 30
0.0
 11
1875.858983002712
 21
59.14155959386016
 31
0.0
 12
1869.858983002712
 22
60.14155959386016
 32
0.0
 13
1869.858983002712
 23
60.14155959386016
 33
0.0
  0
SOLID
  5
2A5
330
2A0
100
AcDbEntity
  8
Bem
 62
     0
100
AcDbTrace
 10
1954.858983002704
 20
59.14155959386016
 30
0.0
 11
1954.858983002704
 21
61.14155959386016
 31
0.0
 12
1960.858983002704
 22
60.14155959386016
 32
0.0
 13
1960.858983002704
 23
60.14155959386016
 33
0.0
  0
MTEXT
  5
2A6
330
2A0
100
AcDbEntity
  8
Bem
 62
     0
100
AcDbMText
 10
1915.358983002708
 20
64.70455959386015
 30
0.0
 40
6.0
 41
0.0
 71
     5
 72
     1
  1
\A1;91
  7
VCDSTYLE14
 73
     1
 44
1.0
  0
POINT
  5
2A7
330
2A0
100
AcDbEntity
  8
Defpoints
 62
     0
100
AcDbPoint
 10
1869.858983002712
 20
85.41794247521408
 30
0.0
  0
POINT
  5
2A8
330
2A0
100
AcDbEntity
  8
Defpoints
 62
     0
100
AcDbPoint
 10
1960.858983002704
 20
42.96819078694723
 30
0.0
  0
POINT
  5
2A9
330
2A0
100
AcDbEntity
  8
Defpoints
 62
     0
100
AcDbPoint
 10
1960.858983002704
 20
60.14155959386016
 30
0.0
  0
ENDBLK
  5
2AB
330
2A0
100
AcDbEntity
  8
0
100
AcDbBlockEnd
  0
BLOCK
  5
2B9
330
2AD
100
AcDbEntity
  8
0
100
AcDbBlockBegin
  2
*D8
 70
     1
 10
0.0
 20
0.0
 30
0.0
  3
*D8
  1

  0
LINE
  5
2AE
330
2AD
100
AcDbEntity
  8
Bem
  6
ByBlock
 62
     0
370
    -2
100
AcDbLine
 10
1960.858983002704
 20
43.96819078694723
 30
0.0
 11
1960.858983002704
 21
61.14155036655779
 31
0.0
  0
LINE
  5
2AF
330
2AD
100
AcDbEntity
  8
Bem
  6
ByBlock
 62
     0
370
    -2
100
AcDbLine
 10
1965.858983002704
 20
43.96784769299613
 30
0.0
 11
1965.858983002704
 21
61.14155036655779
 31
0.0
  0
LINE
  5
2B0
330
2AD
100
AcDbEntity
  8
Bem
  6
ByBlock
 62
     0
370
    -2
100
AcDbLine
 10
1971.858983002704
 20
60.14155036655779
 30
0.0
 11
1998.474983002704
 21
60.14155036655779
 31
0.0
  0
LINE
  5
2B1
330
2AD
100
AcDbEntity
  8
Bem
  6
ByBlock
 62
     0
370
    -2
100
AcDbLine
 10
1960.858983002704
 20
60.14155036655779
 30
0.0
 11
1965.858983002704
 21
60.14155036655779
 31
0.0
  0
LINE
  5
2B2
330
2AD
100
AcDbEntity
  8
Bem
  6
ByBlock
 62
     0
370
    -2
100
AcDbLine
 10
1954.858983002704
 20
60.14155036655779
 30
0.0
 11
1948.858983002704
 21
60.14155036655779
 31
0.0
  0
SOLID
  5
2B3
330
2AD
100
AcDbEntity
  8
Bem
 62
     0
100
AcDbTrace
 10
1954.858983002704
 20
59.14155036655779
 30
0.0
 11
1954.858983002704
 21
61.14155036655779
 31
0.0
 12
1960.858983002704
 22
60.14155036655779
 32
0.0
 13
1960.858983002704
 23
60.14155036655779
 33
0.0
  0
SOLID
  5
2B4
330
2AD
100
AcDbEntity
  8
Bem
 62
     0
100
AcDbTrace
 10
1971.858983002704
 20
61.14155036655779
 30
0.0
 11
1971.858983002704
 21
59.14155036655779
 31
0.0
 12
1965.858983002704
 22
60.14155036655779
 32
0.0
 13
1965.858983002704
 23
60.14155036655779
 33
0.0
  0
MTEXT
  5
2B5
330
2AD
100
AcDbEntity
  8
Bem
 62
     0
100
AcDbMText
 10
1988.166983002704
 20
64.69255036655778
 30
0.0
 40
6.0
 41
0.0
 71
     5
 72
     1
  1
\A1;TH 5
  7
VCDSTYLE14
 73
     1
 44
1.0
  0
POINT
  5
2B6
330
2AD
100
AcDbEntity
  8
Defpoints
 62
     0
100
AcDbPoint
 10
1960.858983002704
 20
42.96819078694723
 30
0.0
  0
POINT
  5
2B7
330
2AD
100
AcDbEntity
  8
Defpoints
 62
     0
100
AcDbPoint
 10
1965.858983002704
 20
42.96784769299613
 30
0.0
  0
POINT
  5
2B8
330
2AD
100
AcDbEntity
  8
Defpoints
 62
     0
100
AcDbPoint
 10
1965.858983002704
 20
60.14155036655779
 30
0.0
  0
ENDBLK
  5
2BA
330
2AD
100
AcDbEntity
  8
0
100
AcDbBlockEnd
  0
BLOCK
  5
308
330
2FC
100
AcDbEntity
  8
0
100
AcDbBlockBegin
  2
*D9
 70
     1
 10
0.0
 20
0.0
 30
0.0
  3
*D9
  1

  0
LINE
  5
2FD
330
2FC
100
AcDbEntity
  8
Bem
  6
ByBlock
 62
     0
370
    -2
100
AcDbLine
 10
1869.858983002712
 20
43.96956470478474
 30
0.0
 11
1869.858983002712
 21
61.14155959386016
 31
0.0
  0
LINE
  5
2FE
330
2FC
100
AcDbEntity
  8
Bem
  6
ByBlock
 62
     0
370
    -2
100
AcDbLine
 10
1865.858983002712
 20
43.96962507462303
 30
0.0
 11
1865.858983002712
 21
61.14155959386016
 31
0.0
  0
LINE
  5
2FF
330
2FC
100
AcDbEntity
  8
Bem
  6
ByBlock
 62
     0
370
    -2
100
AcDbLine
 10
1859.858983002712
 20
60.14155959386016
 30
0.0
 11
1833.308983002712
 21
60.14155959386016
 31
0.0
  0
LINE
  5
300
330
2FC
100
AcDbEntity
  8
Bem
  6
ByBlock
 62
     0
370
    -2
100
AcDbLine
 10
1869.858983002712
 20
60.14155959386016
 30
0.0
 11
1865.858983002712
 21
60.14155959386016
 31
0.0
  0
LINE
  5
301
330
2FC
100
AcDbEntity
  8
Bem
  6
ByBlock
 62
     0
370
    -2
100
AcDbLine
 10
1875.858983002712
 20
60.14155959386016
 30
0.0
 11
1881.858983002712
 21
60.14155959386016
 31
0.0
  0
SOLID
  5
302
330
2FC
100
AcDbEntity
  8
Bem
 62
     0
100
AcDbTrace
 10
1875.858983002712
 20
61.14155959386016
 30
0.0
 11
1875.858983002712
 21
59.14155959386016
 31
0.0
 12
1869.858983002712
 22
60.14155959386016
 32
0.0
 13
1869.858983002712
 23
60.14155959386016
 33
0.0
  0
SOLID
  5
303
330
2FC
100
AcDbEntity
  8
Bem
 62
     0
100
AcDbTrace
 10
1859.858983002712
 20
59.14155959386016
 30
0.0
 11
1859.858983002712
 21
61.14155959386016
 31
0.0
 12
1865.858983002712
 22
60.14155959386016
 32
0.0
 13
1865.858983002712
 23
60.14155959386016
 33
0.0
  0
MTEXT
  5
304
330
2FC
100
AcDbEntity
  8
Bem
 62
     0
100
AcDbMText
 10
1843.583983002712
 20
64.64155959386017
 30
0.0
 40
6.0
 41
0.0
 71
     5
 72
     1
  1
\A1;TH 4
  7
VCDSTYLE14
 73
     1
 44
1.0
  0
POINT
  5
305
330
2FC
100
AcDbEntity
  8
Defpoints
 62
     0
100
AcDbPoint
 10
1869.858983002712
 20
42.96956470478474
 30
0.0
  0
POINT
  5
306
330
2FC
100
AcDbEntity
  8
Defpoints
 62
     0
100
AcDbPoint
 10
1865.858983002712
 20
42.96962507462303
 30
0.0
  0
POINT
  5
307
330
2FC
100
AcDbEntity
  8
Defpoints
 62
     0
100
AcDbPoint
 10
1865.858983002712
 20
60.14155959386016
 30
0.0
  0
ENDBLK
  5
309
330
2FC
100
AcDbEntity
  8
0
100
AcDbBlockEnd
  0
BLOCK
  5
337
330
32D
100
AcDbEntity
  8
0
100
AcDbBlockBegin
  2
*D10
 70
     1
 10
0.0
 20
0.0
 30
0.0
  3
*D10
  1

  0
LINE
  5
32E
330
32D
100
AcDbEntity
  8
Bem
  6
ByBlock
 62
     0
370
    -2
100
AcDbLine
 10
1868.858983002712
 20
87.41779277296843
 30
0.0
 11
1833.0
 21
87.41779277296843
 31
0.0
  0
LINE
  5
32F
330
32D
100
AcDbEntity
  8
Bem
  6
ByBlock
 62
     0
370
    -2
100
AcDbLine
 10
1868.857641332023
 20
-1.478813045395483
 30
0.0
 11
1833.0
 21
-1.478813045395481
 31
0.0
  0
LINE
  5
330
330
32D
100
AcDbEntity
  8
Bem
  6
ByBlock
 62
     0
370
    -2
100
AcDbLine
 10
1834.0
 20
81.41779277296843
 30
0.0
 11
1834.0
 21
4.521186954604519
 31
0.0
  0
SOLID
  5
331
330
32D
100
AcDbEntity
  8
Bem
 62
     0
100
AcDbTrace
 10
1835.0
 20
81.41779277296843
 30
0.0
 11
1833.0
 21
81.41779277296843
 31
0.0
 12
1834.0
 22
87.41779277296843
 32
0.0
 13
1834.0
 23
87.41779277296843
 33
0.0
  0
SOLID
  5
332
330
32D
100
AcDbEntity
  8
Bem
 62
     0
100
AcDbTrace
 10
1833.0
 20
4.521186954604519
 30
0.0
 11
1835.0
 21
4.521186954604519
 31
0.0
 12
1834.0
 22
-1.478813045395481
 32
0.0
 13
1834.0
 23
-1.478813045395481
 33
0.0
  0
MTEXT
  5
333
330
32D
100
AcDbEntity
  8
Bem
 62
     0
100
AcDbMText
 10
1828.897
 20
42.96948986378647
 30
0.0
 40
6.0
 41
0.0
 71
     5
 72
     1
  1
ø\A1;ø 88,9x2
  7
VCDSTYLE14
 11
0.0
 21
1.0
 31
0.0
 73
     1
 44
1.0
  0
POINT
  5
334
330
32D
100
AcDbEntity
  8
Defpoints
 62
     0
100
AcDbPoint
 10
1869.858983002712
 20
87.41779277296843
 30
0.0
  0
POINT
  5
335
330
32D
100
AcDbEntity
  8
Defpoints
 62
     0
100
AcDbPoint
 10
1869.857641332023
 20
-1.478813045395483
 30
0.0
  0
POINT
  5
336
330
32D
100
AcDbEntity
  8
Defpoints
 62
     0
100
AcDbPoint
 10
1834.0
 20
-1.478813045395481
 30
0.0
  0
ENDBLK
  5
338
330
32D
100
AcDbEntity
  8
0
100
AcDbBlockEnd
  0
BLOCK
  5
346
330
33C
100
AcDbEntity
  8
0
100
AcDbBlockBegin
  2
*D11
 70
     1
 10
0.0
 20
0.0
 30
0.0
  3
*D11
  1

  0
LINE
  5
33D
330
33C
100
AcDbEntity
  8
Bem
  6
ByBlock
 62
     0
370
    -2
100
AcDbLine
 10
1865.858983002712
 20
86.49999999999999
 30
0.0
 11
1865.858983002712
 21
170.5
 31
0.0
  0
LINE
  5
33E
330
33C
100
AcDbEntity
  8
Bem
  6
ByBlock
 62
     0
370
    -2
100
AcDbLine
 10
1965.858983002712
 20
143.9678476930063
 30
0.0
 11
1965.858983002712
 21
170.5
 31
0.0
  0
LINE
  5
33F
330
33C
100
AcDbEntity
  8
Bem
  6
ByBlock
 62
     0
370
    -2
100
AcDbLine
 10
1871.858983002712
 20
169.5
 30
0.0
 11
1959.858983002712
 21
169.5
 31
0.0
  0
SOLID
  5
340
330
33C
100
AcDbEntity
  8
Bem
 62
     0
100
AcDbTrace
 10
1871.858983002712
 20
170.5
 30
0.0
 11
1871.858983002712
 21
168.5
 31
0.0
 12
1865.858983002712
 22
169.5
 32
0.0
 13
1865.858983002712
 23
169.5
 33
0.0
  0
SOLID
  5
341
330
33C
100
AcDbEntity
  8
Bem
 62
     0
100
AcDbTrace
 10
1959.858983002712
 20
168.5
 30
0.0
 11
1959.858983002712
 21
170.5
 31
0.0
 12
1965.858983002712
 22
169.5
 32
0.0
 13
1965.858983002712
 23
169.5
 33
0.0
  0
MTEXT
  5
342
330
33C
100
AcDbEntity
  8
Bem
 62
     0
100
AcDbMText
 10
1915.858983002712
 20
174.063
 30
0.0
 40
6.0
 41
0.0
 71
     5
 72
     1
  1
\A1;100
  7
VCDSTYLE14
 73
     1
 44
1.0
  0
POINT
  5
343
330
33C
100
AcDbEntity
  8
Defpoints
 62
     0
100
AcDbPoint
 10
1865.858983002712
 20
85.49999999999999
 30
0.0
  0
POINT
  5
344
330
33C
100
AcDbEntity
  8
Defpoints
 62
     0
100
AcDbPoint
 10
1965.858983002712
 20
142.9678476930063
 30
0.0
  0
POINT
  5
345
330
33C
100
AcDbEntity
  8
Defpoints
 62
     0
100
AcDbPoint
 10
1965.858983002712
 20
169.5
 30
0.0
  0
ENDBLK
  5
347
330
33C
100
AcDbEntity
  8
0
100
AcDbBlockEnd
  0
BLOCK
  5
357
330
34B
100
AcDbEntity
  8
0
100
AcDbBlockBegin
  2
*D12
 70
     1
 10
0.0
 20
0.0
 30
0.0
  3
*D12
  1

  0
LINE
  5
34C
330
34B
100
AcDbEntity
  8
Bem
  6
ByBlock
 62
     0
370
    -2
100
AcDbLine
 10
1869.858983002712
 20
86.41794247521406
 30
0.0
 11
1869.858983002712
 21
71.0
 31
0.0
  0
LINE
  5
34D
330
34B
100
AcDbEntity
  8
Bem
  6
ByBlock
 62
     0
370
    -2
100
AcDbLine
 10
1873.858983002712
 20
86.41794247521406
 30
0.0
 11
1873.858983002712
 21
71.0
 31
0.0
  0
LINE
  5
34E
330
34B
100
AcDbEntity
  8
Bem
  6
ByBlock
 62
     0
370
    -2
100
AcDbLine
 10
1879.858983002712
 20
72.0
 30
0.0
 11
1906.408983002712
 21
72.0
 31
0.0
  0
LINE
  5
34F
330
34B
100
AcDbEntity
  8
Bem
  6
ByBlock
 62
     0
370
    -2
100
AcDbLine
 10
1869.858983002712
 20
72.0
 30
0.0
 11
1873.858983002712
 21
72.0
 31
0.0
  0
LINE
  5
350
330
34B
100
AcDbEntity
  8
Bem
  6
ByBlock
 62
     0
370
    -2
100
AcDbLine
 10
1863.858983002712
 20
72.0
 30
0.0
 11
1857.858983002712
 21
72.0
 31
0.0
  0
SOLID
  5
351
330
34B
100
AcDbEntity
  8
Bem
 62
     0
100
AcDbTrace
 10
1863.858983002712
 20
71.0
 30
0.0
 11
1863.858983002712
 21
73.0
 31
0.0
 12
1869.858983002712
 22
72.0
 32
0.0
 13
1869.858983002712
 23
72.0
 33
0.0
  0
SOLID
  5
352
330
34B
100
AcDbEntity
  8
Bem
 62
     0
100
AcDbTrace
 10
1879.858983002712
 20
73.0
 30
0.0
 11
1879.858983002712
 21
71.0
 31
0.0
 12
1873.858983002712
 22
72.0
 32
0.0
 13
1873.858983002712
 23
72.0
 33
0.0
  0
MTEXT
  5
353
330
34B
100
AcDbEntity
  8
Bem
 62
     0
100
AcDbMText
 10
1896.133983002712
 20
76.5
 30
0.0
 40
6.0
 41
0.0
 71
     5
 72
     1
  1
\A1;TH 4
  7
VCDSTYLE14
 73
     1
 44
1.0
  0
POINT
  5
354
330
34B
100
AcDbEntity
  8
Defpoints
 62
     0
100
AcDbPoint
 10
1869.858983002712
 20
87.41794247521406
 30
0.0
  0
POINT
  5
355
330
34B
100
AcDbEntity
  8
Defpoints
 62
     0
100
AcDbPoint
 10
1873.858983002712
 20
87.41794247521406
 30
0.0
  0
POINT
  5
356
330
34B
100
AcDbEntity
  8
Defpoints
 62
     0
100
AcDbPoint
 10
1873.858983002712
 20
72.0
 30
0.0
  0
ENDBLK
  5
358
330
34B
100
AcDbEntity
  8
0
100
AcDbBlockEnd
  0
BLOCK
  5
364
330
35A
100
AcDbEntity
  8
0
100
AcDbBlockBegin
  2
*D13
 70
     1
 10
0.0
 20
0.0
 30
0.0
  3
*D13
  1

  0
LINE
  5
35B
330
35A
100
AcDbEntity
  8
Bem
  6
ByBlock
 62
     0
370
    -2
100
AcDbLine
 10
1952.858983002706
 20
-37.74034562091335
 30
0.0
 11
1952.858983002706
 21
-79.5
 31
0.0
  0
LINE
  5
35C
330
35A
100
AcDbEntity
  8
Bem
  6
ByBlock
 62
     0
370
    -2
100
AcDbLine
 10
2010.858983002718
 20
-45.03215230697886
 30
0.0
 11
2010.858983002718
 21
-79.5
 31
0.0
  0
LINE
  5
35D
330
35A
100
AcDbEntity
  8
Bem
  6
ByBlock
 62
     0
370
    -2
100
AcDbLine
 10
1958.858983002706
 20
-78.5
 30
0.0
 11
2004.858983002718
 21
-78.5
 31
0.0
  0
SOLID
  5
35E
330
35A
100
AcDbEntity
  8
Bem
 62
     0
100
AcDbTrace
 10
1958.858983002706
 20
-77.5
 30
0.0
 11
1958.858983002706
 21
-79.5
 31
0.0
 12
1952.858983002706
 22
-78.5
 32
0.0
 13
1952.858983002706
 23
-78.5
 33
0.0
  0
SOLID
  5
35F
330
35A
100
AcDbEntity
  8
Bem
 62
     0
100
AcDbTrace
 10
2004.858983002718
 20
-79.5
 30
0.0
 11
2004.858983002718
 21
-77.5
 31
0.0
 12
2010.858983002718
 22
-78.5
 32
0.0
 13
2010.858983002718
 23
-78.5
 33
0.0
  0
MTEXT
  5
360
330
35A
100
AcDbEntity
  8
Bem
 62
     0
100
AcDbMText
 10
1981.858983002712
 20
-73.937
 30
0.0
 40
6.0
 41
0.0
 71
     5
 72
     1
  1
\A1;58
  7
VCDSTYLE14
 73
     1
 44
1.0
  0
POINT
  5
361
330
35A
100
AcDbEntity
  8
Defpoints
 62
     0
100
AcDbPoint
 10
1952.858983002706
 20
-36.74034562091335
 30
0.0
  0
POINT
  5
362
330
35A
100
AcDbEntity
  8
Defpoints
 62
     0
100
AcDbPoint
 10
2010.858983002718
 20
-44.03215230697886
 30
0.0
  0
POINT
  5
363
330
35A
100
AcDbEntity
  8
Defpoints
 62
     0
100
AcDbPoint
 10
2010.858983002718
 20
-78.5
 30
0.0
  0
ENDBLK
  5
365
330
35A
100
AcDbEntity
  8
0
100
AcDbBlockEnd
  0
BLOCK
  5
372
330
368
100
AcDbEntity
  8
0
100
AcDbBlockBegin
  2
*D14
 70
     1
 10
0.0
 20
0.0
 30
0.0
  3
*D14
  1

  0
LINE
  5
369
330
368
100
AcDbEntity
  8
Bem
  6
ByBlock
 62
     0
370
    -2
100
AcDbLine
 10
1875.13863248691
 20
96.96946992942878
 30
0.0
 11
1813.0
 21
96.96946992942878
 31
0.0
  0
LINE
  5
36A
330
368
100
AcDbEntity
  8
Bem
  6
ByBlock
 62
     0
370
    -2
100
AcDbLine
 10
1875.137002501276
 20
-11.0305300459705
 30
0.0
 11
1813.0
 21
-11.0305300459705
 31
0.0
  0
LINE
  5
36B
330
368
100
AcDbEntity
  8
Bem
  6
ByBlock
 62
     0
370
    -2
100
AcDbLine
 10
1814.0
 20
90.96946992942878
 30
0.0
 11
1814.0
 21
-5.030530045970496
 31
0.0
  0
SOLID
  5
36C
330
368
100
AcDbEntity
  8
Bem
 62
     0
100
AcDbTrace
 10
1815.0
 20
90.96946992942878
 30
0.0
 11
1813.0
 21
90.96946992942878
 31
0.0
 12
1814.0
 22
96.96946992942878
 32
0.0
 13
1814.0
 23
96.96946992942878
 33
0.0
  0
SOLID
  5
36D
330
368
100
AcDbEntity
  8
Bem
 62
     0
100
AcDbTrace
 10
1813.0
 20
-5.030530045970496
 30
0.0
 11
1815.0
 21
-5.030530045970496
 31
0.0
 12
1814.0
 22
-11.0305300459705
 32
0.0
 13
1814.0
 23
-11.0305300459705
 33
0.0
  0
MTEXT
  5
36E
330
368
100
AcDbEntity
  8
Bem
 62
     0
100
AcDbMText
 10
1809.329
 20
42.96946994172914
 30
0.0
 40
6.0
 41
0.0
 71
     5
 72
     1
  1
ø\A1;ø 108
  7
VCDSTYLE14
 11
0.0
 21
1.0
 31
0.0
 73
     1
 44
1.0
  0
POINT
  5
36F
330
368
100
AcDbEntity
  8
Defpoints
 62
     0
100
AcDbPoint
 10
1876.13863248691
 20
96.96946992942878
 30
0.0
  0
POINT
  5
370
330
368
100
AcDbEntity
  8
Defpoints
 62
     0
100
AcDbPoint
 10
1876.137002501276
 20
-11.0305300459705
 30
0.0
  0
POINT
  5
371
330
368
100
AcDbEntity
  8
Defpoints
 62
     0
100
AcDbPoint
 10
1814.0
 20
-11.0305300459705
 30
0.0
  0
ENDBLK
  5
373
330
368
100
AcDbEntity
  8
0
100
AcDbBlockEnd
  0
ENDSEC
  0
SECTION
  2
ENTITIES
  0
LINE
  5
1CC
330
1F
100
AcDbEntity
  8
Flansche
100
AcDbLine
 10
1886.138632486912
 20
87.41794247521563
 30
0.0
 11
1886.138632486914
 21
114.9679424752182
 31
0.0
  0
LINE
  5
1CD
330
1F
100
AcDbEntity
  8
Flansche
100
AcDbLine
 10
1886.138632486915
 20
130.9679424752181
 30
0.0
 11
1886.138632486916
 21
142.9679424752265
 31
0.0
  0
LINE
  5
1CE
330
1F
100
AcDbEntity
  8
Flansche
100
AcDbLine
 10
1876.138632486911
 20
130.9679424752208
 30
0.0
 11
1876.138632486912
 21
142.9679424752229
 31
0.0
  0
LINE
  5
1CF
330
1F
100
AcDbEntity
  8
Flansche
100
AcDbLine
 10
1960.858983002704
 20
42.96784769299654
 30
0.0
 11
1960.858983002708
 21
87.4178476930004
 31
0.0
  0
LINE
  5
1D0
330
1F
100
AcDbEntity
  8
Flansche
100
AcDbLine
 10
1876.138632486909
 20
142.9679424752192
 30
0.0
 11
1886.138632486913
 21
142.9679424752229
 31
0.0
  0
LINE
  5
1D1
330
1F
100
AcDbEntity
  8
13-Center line
100
AcDbLine
 10
1810.695593092636
 20
122.9678476930163
 30
0.0
 11
2020.813041488551
 21
122.9678476929761
 31
0.0
  0
LINE
  5
1D2
330
1F
100
AcDbEntity
  8
Flansche
100
AcDbLine
 10
1876.138632486911
 20
113.9679424752208
 30
0.0
 11
1886.138632486914
 21
113.9679424752182
 31
0.0
  0
LINE
  5
1D3
330
1F
100
AcDbEntity
  8
Flansche
100
AcDbLine
 10
1876.138632486911
 20
131.9679424752208
 30
0.0
 11
1886.138632486915
 21
131.9679424752181
 31
0.0
  0
LINE
  5
1D4
330
1F
100
AcDbEntity
  8
Schraffur
100
AcDbLine
 10
1853.486718586115
 20
114.9697997027068
 30
0.0
 11
1886.138632486909
 21
114.9679424752186
 31
0.0
  0
LINE
  5
1D5
330
1F
100
AcDbEntity
  8
Schraffur
100
AcDbLine
 10
1902.138632486915
 20
114.9679424752143
 30
0.0
 11
1939.858983002701
 21
114.9678476929888
 31
0.0
  0
LINE
  5
1D6
330
1F
100
AcDbEntity
  8
Schraffur
100
AcDbLine
 10
1955.858983002707
 20
114.9678476929846
 30
0.0
 11
1978.858983002712
 21
114.9678476929828
 31
0.0
  0
LINE
  5
1D7
330
1F
100
AcDbEntity
  8
Schraffur
100
AcDbLine
 10
1853.486718586115
 20
115.9697997027067
 30
0.0
 11
1886.138632486909
 21
115.9679424752186
 31
0.0
  0
LINE
  5
1D8
330
1F
100
AcDbEntity
  8
Schraffur
100
AcDbLine
 10
1902.138632486915
 20
115.9679424752144
 30
0.0
 11
1939.858983002701
 21
115.967847692989
 31
0.0
  0
LINE
  5
1D9
330
1F
100
AcDbEntity
  8
Schraffur
100
AcDbLine
 10
1955.858983002707
 20
115.9678476929848
 30
0.0
 11
1978.858983002712
 21
115.967847692983
 31
0.0
  0
LINE
  5
1DA
330
1F
100
AcDbEntity
  8
Schraffur
100
AcDbLine
 10
1853.486718586113
 20
130.9697997027067
 30
0.0
 11
1886.138632486911
 21
130.9679424752186
 31
0.0
  0
LINE
  5
1DB
330
1F
100
AcDbEntity
  8
Schraffur
100
AcDbLine
 10
1902.138632486912
 20
130.9679424752144
 30
0.0
 11
1939.858983002707
 21
130.967847692989
 31
0.0
  0
LINE
  5
1DC
330
1F
100
AcDbEntity
  8
Schraffur
100
AcDbLine
 10
1955.858983002707
 20
130.9678476929849
 30
0.0
 11
1978.858983002714
 21
130.9678476929831
 31
0.0
  0
LINE
  5
1DD
330
1F
100
AcDbEntity
  8
Schraffur
100
AcDbLine
 10
1853.486718586113
 20
129.9697997027068
 30
0.0
 11
1886.138632486911
 21
129.9679424752185
 31
0.0
  0
LINE
  5
1DE
330
1F
100
AcDbEntity
  8
Schraffur
100
AcDbLine
 10
1902.138632486913
 20
129.9679424752143
 30
0.0
 11
1939.858983002706
 21
129.9678476929888
 31
0.0
  0
LINE
  5
1DF
330
1F
100
AcDbEntity
  8
Schraffur
100
AcDbLine
 10
1955.858983002707
 20
129.9678476929846
 30
0.0
 11
1978.858983002714
 21
129.9678476929828
 31
0.0
  0
LINE
  5
1E0
330
1F
100
AcDbEntity
  8
13-Center line
100
AcDbLine
 10
1854.288431983755
 20
42.9697997026965
 30
0.0
 11
1983.625183698988
 21
42.96784769300006
 31
0.0
  0
LINE
  5
1E1
330
1F
100
AcDbEntity
  8
Flansche
100
AcDbLine
 10
1869.858983002712
 20
87.41779277296843
 30
0.0
 11
1960.858983002707
 21
87.4178476930004
 31
0.0
  0
LINE
  5
1E2
330
1F
100
AcDbEntity
  8
Flansche
100
AcDbLine
 10
1869.858983002712
 20
85.41794247521408
 30
0.0
 11
1960.858983002707
 21
85.4178476930004
 31
0.0
  0
LINE
  5
1E3
330
1F
100
AcDbEntity
  8
Muttern
100
AcDbLine
 10
1838.486718586112
 20
116.2822997027013
 30
0.0
 11
1849.486718586112
 21
116.2822997027013
 31
0.0
  0
LINE
  5
1E4
330
1F
100
AcDbEntity
  8
Muttern
100
AcDbLine
 10
1838.486718586116
 20
109.5947997027013
 30
0.0
 11
1849.486718586109
 21
109.594799702705
 31
0.0
  0
LINE
  5
1E5
330
1F
100
AcDbEntity
  8
Muttern
100
AcDbLine
 10
1838.486718586112
 20
129.6572997027049
 30
0.0
 11
1849.486718586112
 21
129.6572997027049
 31
0.0
  0
LINE
  5
1E6
330
1F
100
AcDbEntity
  8
Muttern
100
AcDbLine
 10
1838.486718586112
 20
136.3447997027013
 30
0.0
 11
1849.486718586112
 21
136.3447997027013
 31
0.0
  0
LINE
  5
1E7
330
1F
100
AcDbEntity
  8
Muttern
100
AcDbLine
 10
1837.486718586109
 20
112.8468834040339
 30
0.0
 11
1837.486718586113
 21
133.178206390601
 31
0.0
  0
LINE
  5
1E8
330
1F
100
AcDbEntity
  8
Muttern
100
AcDbLine
 10
1850.486718586116
 20
112.8468834040339
 30
0.0
 11
1850.486718586112
 21
133.178206390601
 31
0.0
  0
LINE
  5
1E9
330
1F
100
AcDbEntity
  8
Muttern
100
AcDbLine
 10
1853.486718586116
 20
107.9697997027049
 30
0.0
 11
1853.486718586113
 21
137.9697997027049
 31
0.0
  0
ARC
  5
1EA
330
1F
100
AcDbEntity
  8
Muttern
100
AcDbCircle
 10
1860.305471140089
 20
122.9697997027013
 30
0.0
 40
22.82061829271145
100
AcDbArc
 50
162.9595722250033
 51
197.0404277749966
  0
ARC
  5
1EB
330
1F
100
AcDbEntity
  8
Muttern
100
AcDbCircle
 10
1843.572849262165
 20
112.9385497026977
 30
0.0
 40
6.086820953200503
100
AcDbArc
 50
146.6780762771778
 51
213.3219237228218
  0
ARC
  5
1EC
330
1F
100
AcDbEntity
  8
Muttern
100
AcDbCircle
 10
1843.561358371322
 20
133.0010497027013
 30
0.0
 40
6.077222475121901
100
AcDbArc
 50
146.6185629067631
 51
213.3814370932376
  0
ARC
  5
1ED
330
1F
100
AcDbEntity
  8
Muttern
100
AcDbCircle
 10
1827.667966032137
 20
122.9697997027013
 30
0.0
 40
22.82061829271149
100
AcDbArc
 50
342.9595722250032
 51
17.04042777499675
  0
ARC
  5
1EE
330
1F
100
AcDbEntity
  8
Muttern
100
AcDbCircle
 10
1844.40058791006
 20
112.9385497026977
 30
0.0
 40
6.086820953200685
100
AcDbArc
 50
326.6780762770702
 51
33.32192372293052
  0
ARC
  5
1EF
330
1F
100
AcDbEntity
  8
Muttern
100
AcDbCircle
 10
1844.412078800903
 20
133.0010497027013
 30
0.0
 40
6.077222475121798
100
AcDbArc
 50
326.6185629064723
 51
33.38143709352719
  0
LINE
  5
1F0
330
1F
100
AcDbEntity
  8
Muttern
100
AcDbLine
 10
1853.486718586113
 20
137.9697997027049
 30
0.0
 11
1853.486718586109
 21
137.9697997027049
 31
0.0
  0
ARC
  5
1F1
330
1F
100
AcDbEntity
  8
Muttern
100
AcDbCircle
 10
1853.486718586113
 20
134.9697997027049
 30
0.0
 40
3.0
100
AcDbArc
 50
90.0
 51
180.0
  0
LINE
  5
1F2
330
1F
100
AcDbEntity
  8
Muttern
100
AcDbLine
 10
1853.486718586116
 20
107.9697997027049
 30
0.0
 11
1853.486718586116
 21
107.9697997027049
 31
0.0
  0
LINE
  5
1F3
330
1F
100
AcDbEntity
  8
Muttern
100
AcDbLine
 10
1850.486718586112
 20
122.9825439896429
 30
0.0
 11
1850.486718586112
 21
110.9697997027049
 31
0.0
  0
ARC
  5
1F4
330
1F
100
AcDbEntity
  8
Muttern
100
AcDbCircle
 10
1853.486718586113
 20
110.9697997027049
 30
0.0
 40
3.0
100
AcDbArc
 50
180.0
 51
270.0
  0
LINE
  5
1F5
330
1F
100
AcDbEntity
  8
Muttern
100
AcDbLine
 10
1850.486718586112
 20
122.9825439896429
 30
0.0
 11
1850.486718586112
 21
134.9697997027049
 31
0.0
  0
LINE
  5
1F6
330
1F
100
AcDbEntity
  8
Flansche
100
AcDbLine
 10
1965.858983002705
 20
42.96811582866581
 30
0.0
 11
1965.85898300271
 21
114.967847692982
 31
0.0
  0
LINE
  5
1F7
330
1F
100
AcDbEntity
  8
Flansche
100
AcDbLine
 10
1965.858983002711
 20
130.9678476929823
 30
0.0
 11
1965.858983002712
 21
142.9678476930063
 31
0.0
  0
LINE
  5
1F8
330
1F
100
AcDbEntity
  8
Flansche
100
AcDbLine
 10
1955.858983002704
 20
87.4178476930004
 30
0.0
 11
1955.858983002706
 21
114.9678476929847
 31
0.0
  0
LINE
  5
1F9
330
1F
100
AcDbEntity
  8
Flansche
100
AcDbLine
 10
1955.858983002707
 20
130.9678476929849
 30
0.0
 11
1955.858983002708
 21
142.9678476930027
 31
0.0
  0
LINE
  5
1FA
330
1F
100
AcDbEntity
  8
Flansche
100
AcDbLine
 10
1955.858983002704
 20
142.967847692999
 30
0.0
 11
1965.858983002708
 21
142.9678476930027
 31
0.0
  0
LINE
  5
1FB
330
1F
100
AcDbEntity
  8
Flansche
100
AcDbLine
 10
1955.858983002704
 20
88.11811583380847
 30
0.0
 11
1965.858983002708
 21
88.118115833808
 31
0.0
  0
LINE
  5
1FC
330
1F
100
AcDbEntity
  8
Muttern
100
AcDbLine
 10
1993.858983002716
 20
116.2803476930037
 30
0.0
 11
1982.858983002716
 21
116.2803476930037
 31
0.0
  0
LINE
  5
1FD
330
1F
100
AcDbEntity
  8
Muttern
100
AcDbLine
 10
1993.858983002712
 20
109.5928476930037
 30
0.0
 11
1982.858983002719
 21
109.5928476930073
 31
0.0
  0
LINE
  5
1FE
330
1F
100
AcDbEntity
  8
Muttern
100
AcDbLine
 10
1993.858983002716
 20
129.6553476930074
 30
0.0
 11
1982.858983002716
 21
129.6553476930073
 31
0.0
  0
LINE
  5
1FF
330
1F
100
AcDbEntity
  8
Muttern
100
AcDbLine
 10
1993.858983002715
 20
136.3428476930037
 30
0.0
 11
1982.858983002715
 21
136.3428476930037
 31
0.0
  0
LINE
  5
200
330
1F
100
AcDbEntity
  8
Muttern
100
AcDbLine
 10
1994.858983002719
 20
112.8449313943364
 30
0.0
 11
1994.858983002716
 21
133.1762543809035
 31
0.0
  0
LINE
  5
201
330
1F
100
AcDbEntity
  8
Muttern
100
AcDbLine
 10
1981.858983002712
 20
112.8449313943362
 30
0.0
 11
1981.858983002716
 21
133.1762543809033
 31
0.0
  0
LINE
  5
202
330
1F
100
AcDbEntity
  8
Muttern
100
AcDbLine
 10
1978.858983002712
 20
107.9678476930073
 30
0.0
 11
1978.858983002715
 21
137.9678476930073
 31
0.0
  0
ARC
  5
203
330
1F
100
AcDbEntity
  8
Muttern
100
AcDbCircle
 10
1972.04023044874
 20
122.9678476930036
 30
0.0
 40
22.82061829271137
100
AcDbArc
 50
342.959572225004
 51
17.04042777499741
  0
ARC
  5
204
330
1F
100
AcDbEntity
  8
Muttern
100
AcDbCircle
 10
1988.772852326663
 20
112.9365976930001
 30
0.0
 40
6.086820953200625
100
AcDbArc
 50
326.6780762771838
 51
33.32192372282289
  0
ARC
  5
205
330
1F
100
AcDbEntity
  8
Muttern
100
AcDbCircle
 10
1988.784343217506
 20
132.9990976930037
 30
0.0
 40
6.077222475121893
100
AcDbArc
 50
326.6185629067633
 51
33.38143709323742
  0
ARC
  5
206
330
1F
100
AcDbEntity
  8
Muttern
100
AcDbCircle
 10
2004.677735556692
 20
122.9678476930039
 30
0.0
 40
22.82061829271138
100
AcDbArc
 50
162.9595722250038
 51
197.0404277749975
  0
ARC
  5
207
330
1F
100
AcDbEntity
  8
Muttern
100
AcDbCircle
 10
1987.945113678768
 20
112.9365976930001
 30
0.0
 40
6.086820953200689
100
AcDbArc
 50
146.6780762770702
 51
213.3219237229345
  0
ARC
  5
208
330
1F
100
AcDbEntity
  8
Muttern
100
AcDbCircle
 10
1987.933622787925
 20
132.9990976930037
 30
0.0
 40
6.077222475121782
100
AcDbArc
 50
146.6185629064727
 51
213.3814370935271
  0
LINE
  5
209
330
1F
100
AcDbEntity
  8
Muttern
100
AcDbLine
 10
1978.858983002715
 20
137.9678476930073
 30
0.0
 11
1978.858983002719
 21
137.9678476930073
 31
0.0
  0
ARC
  5
20A
330
1F
100
AcDbEntity
  8
Muttern
100
AcDbCircle
 10
1978.858983002715
 20
134.9678476930073
 30
0.0
 40
3.0
100
AcDbArc
 50
0.0
 51
90.0
  0
LINE
  5
20B
330
1F
100
AcDbEntity
  8
Muttern
100
AcDbLine
 10
1978.858983002712
 20
107.9678476930073
 30
0.0
 11
1978.858983002712
 21
107.9678476930073
 31
0.0
  0
LINE
  5
20C
330
1F
100
AcDbEntity
  8
Muttern
100
AcDbLine
 10
1981.858983002716
 20
122.9805919799453
 30
0.0
 11
1981.858983002716
 21
110.9678476930073
 31
0.0
  0
ARC
  5
20D
330
1F
100
AcDbEntity
  8
Muttern
100
AcDbCircle
 10
1978.858983002716
 20
110.9678476930073
 30
0.0
 40
3.0
100
AcDbArc
 50
270.0
 51
0.0
  0
LINE
  5
20E
330
1F
100
AcDbEntity
  8
Muttern
100
AcDbLine
 10
1981.858983002716
 20
122.9805919799453
 30
0.0
 11
1981.858983002716
 21
134.9678476930073
 31
0.0
  0
LINE
  5
20F
330
1F
100
AcDbEntity
  8
Muttern
100
AcDbLine
 10
1820.856718586112
 20
129.9678476930163
 30
0.0
 11
1820.856718586109
 21
115.9678476930164
 31
0.0
  0
LINE
  5
210
330
1F
100
AcDbEntity
  8
Muttern
100
AcDbLine
 10
1821.856718586112
 20
130.967847693016
 30
0.0
 11
1821.856718586109
 21
114.9678476930162
 31
0.0
  0
LINE
  5
211
330
1F
100
AcDbEntity
  8
Muttern
100
AcDbLine
 10
1837.486718586112
 20
129.9697997027096
 30
0.0
 11
1820.856718586112
 21
129.9678476930163
 31
0.0
  0
LINE
  5
212
330
1F
100
AcDbEntity
  8
Muttern
100
AcDbLine
 10
1837.486718586112
 20
130.9697997027096
 30
0.0
 11
1821.856718586112
 21
130.9678476930161
 31
0.0
  0
LINE
  5
213
330
1F
100
AcDbEntity
  8
Muttern
100
AcDbLine
 10
1821.856718586112
 20
130.967847693016
 30
0.0
 11
1820.856718586112
 21
129.9678476930163
 31
0.0
  0
LINE
  5
214
330
1F
100
AcDbEntity
  8
Muttern
100
AcDbLine
 10
1837.486718586109
 20
115.9697997027097
 30
0.0
 11
1820.856718586109
 21
115.9678476930162
 31
0.0
  0
LINE
  5
215
330
1F
100
AcDbEntity
  8
Muttern
100
AcDbLine
 10
1837.486718586109
 20
114.9697997027097
 30
0.0
 11
1821.85671858611
 21
114.9678476930161
 31
0.0
  0
LINE
  5
216
330
1F
100
AcDbEntity
  8
Flansche
100
AcDbLine
 10
1955.858983002707
 20
113.9678476930006
 30
0.0
 11
1965.85898300271
 21
113.967847692998
 31
0.0
  0
LINE
  5
217
330
1F
100
AcDbEntity
  8
Flansche
100
AcDbLine
 10
1955.858983002707
 20
131.9678476930006
 30
0.0
 11
1965.858983002711
 21
131.9678476929979
 31
0.0
  0
LINE
  5
218
330
1F
100
AcDbEntity
  8
Mittellinie
100
AcDbLine
 10
1994.858983002716
 20
133.176254380947
 30
0.0
 11
1994.858983002719
 21
112.8449313943392
 31
0.0
  0
LINE
  5
219
330
1F
100
AcDbEntity
  8
Muttern
100
AcDbLine
 10
2010.858983002716
 20
129.9678476929174
 30
0.0
 11
2010.858983002719
 21
115.9678476929372
 31
0.0
  0
LINE
  5
21A
330
1F
100
AcDbEntity
  8
Muttern
100
AcDbLine
 10
2009.858983002716
 20
130.9678476929177
 30
0.0
 11
2009.858983002719
 21
114.9678476929177
 31
0.0
  0
LINE
  5
21B
330
1F
100
AcDbEntity
  8
Muttern
100
AcDbLine
 10
1994.858983002716
 20
130.9678476929881
 30
0.0
 11
2009.858983002716
 21
130.9678476929178
 31
0.0
  0
LINE
  5
21C
330
1F
100
AcDbEntity
  8
Muttern
100
AcDbLine
 10
1994.858983002717
 20
129.9678476929878
 30
0.0
 11
2010.858983002716
 21
129.9678476929177
 31
0.0
  0
LINE
  5
21D
330
1F
100
AcDbEntity
  8
Muttern
100
AcDbLine
 10
1994.858983002719
 20
115.9678476929998
 30
0.0
 11
2010.858983002719
 21
115.9678476929371
 31
0.0
  0
LINE
  5
21E
330
1F
100
AcDbEntity
  8
Muttern
100
AcDbLine
 10
1994.858983002719
 20
114.9678476929877
 30
0.0
 11
2009.858983002718
 21
114.9678476929175
 31
0.0
  0
LINE
  5
21F
330
1F
100
AcDbEntity
  8
Muttern
100
AcDbLine
 10
2009.858983002716
 20
130.9678476929178
 30
0.0
 11
2010.858983002716
 21
129.9678476929177
 31
0.0
  0
LINE
  5
220
330
1F
100
AcDbEntity
  8
Muttern
100
AcDbLine
 10
2010.858983002719
 20
115.9678476929371
 30
0.0
 11
2009.858983002719
 21
114.9678476929175
 31
0.0
  0
LINE
  5
221
330
1F
100
AcDbEntity
  8
Flansche
100
AcDbLine
 10
1960.858983002704
 20
42.9678476930036
 30
0.0
 11
1960.858983002708
 21
-1.482152307000261
 31
0.0
  0
LINE
  5
222
330
1F
100
AcDbEntity
  8
Schraffur
100
AcDbLine
 10
1855.286718586113
 20
-29.03020029731333
 30
0.0
 11
1886.136459138288
 21
-29.03182205115392
 31
0.0
  0
LINE
  5
223
330
1F
100
AcDbEntity
  8
Schraffur
100
AcDbLine
 10
1902.136459135614
 20
-29.03215230700237
 30
0.0
 11
1939.858983002701
 21
-29.03215230698913
 31
0.0
  0
LINE
  5
224
330
1F
100
AcDbEntity
  8
Schraffur
100
AcDbLine
 10
1955.858983002707
 20
-29.0321523069847
 30
0.0
 11
1978.857117263979
 21
-29.03215230696017
 31
0.0
  0
LINE
  5
225
330
1F
100
AcDbEntity
  8
Schraffur
100
AcDbLine
 10
1855.286718586113
 20
-30.03020029731327
 30
0.0
 11
1886.136428953368
 21
-30.03182204956706
 31
0.0
  0
LINE
  5
226
330
1F
100
AcDbEntity
  8
Schraffur
100
AcDbLine
 10
1902.136428950694
 20
-30.0321523070024
 30
0.0
 11
1939.858983002702
 21
-30.03215230698931
 31
0.0
  0
LINE
  5
227
330
1F
100
AcDbEntity
  8
Schraffur
100
AcDbLine
 10
1955.858983002707
 20
-30.03215230698487
 30
0.0
 11
1978.857117263979
 21
-30.0321523069604
 31
0.0
  0
LINE
  5
228
330
1F
100
AcDbEntity
  8
Schraffur
100
AcDbLine
 10
1855.286718586114
 20
-45.03020029731326
 30
0.0
 11
1886.135976179584
 21
-45.03182202576502
 31
0.0
  0
LINE
  5
229
330
1F
100
AcDbEntity
  8
Schraffur
100
AcDbLine
 10
1902.135976176904
 20
-45.03215230700238
 30
0.0
 11
1939.858983002707
 21
-45.03215230698935
 31
0.0
  0
LINE
  5
22A
330
1F
100
AcDbEntity
  8
Schraffur
100
AcDbLine
 10
1955.858983002708
 20
-45.03215230698497
 30
0.0
 11
1978.857117263981
 21
-45.0321523069605
 31
0.0
  0
LINE
  5
22B
330
1F
100
AcDbEntity
  8
Schraffur
100
AcDbLine
 10
1855.286718586114
 20
-44.03020029731332
 30
0.0
 11
1886.136006364503
 21
-44.03182202735186
 31
0.0
  0
LINE
  5
22C
330
1F
100
AcDbEntity
  8
Schraffur
100
AcDbLine
 10
1902.136006361824
 20
-44.03215230700229
 30
0.0
 11
1939.858983002707
 21
-44.03215230698913
 31
0.0
  0
LINE
  5
22D
330
1F
100
AcDbEntity
  8
Schraffur
100
AcDbLine
 10
1955.858983002708
 20
-44.0321523069847
 30
0.0
 11
1978.857117263981
 21
-44.03215230696017
 31
0.0
  0
LINE
  5
22E
330
1F
100
AcDbEntity
  8
Flansche
100
AcDbLine
 10
1869.857641341275
 20
-1.478506525954695
 30
0.0
 11
1960.858983002708
 21
-1.482152307000261
 31
0.0
  0
LINE
  5
22F
330
1F
100
AcDbEntity
  8
Flansche
100
AcDbLine
 10
1869.857701601066
 20
0.5178476929992825
 30
0.0
 11
1960.858983002708
 21
0.5178476929997374
 31
0.0
  0
LINE
  5
230
330
1F
100
AcDbEntity
  8
Flansche
100
AcDbLine
 10
1965.858983002705
 20
42.96811582866581
 30
0.0
 11
1965.85898300271
 21
-29.03215230698186
 31
0.0
  0
LINE
  5
231
330
1F
100
AcDbEntity
  8
Flansche
100
AcDbLine
 10
1965.858983002711
 20
-45.03215230698218
 30
0.0
 11
1965.858983002712
 21
-57.03215230700617
 31
0.0
  0
LINE
  5
232
330
1F
100
AcDbEntity
  8
Flansche
100
AcDbLine
 10
1955.858983002704
 20
-1.482152307000261
 30
0.0
 11
1955.858983002706
 21
-29.03215230698459
 31
0.0
  0
LINE
  5
233
330
1F
100
AcDbEntity
  8
Flansche
100
AcDbLine
 10
1955.858983002707
 20
-45.03215230698481
 30
0.0
 11
1955.858983002708
 21
-57.03215230700255
 31
0.0
  0
LINE
  5
234
330
1F
100
AcDbEntity
  8
Flansche
100
AcDbLine
 10
1955.858983002704
 20
-57.03215230699891
 30
0.0
 11
1965.858983002708
 21
-57.03215230700255
 31
0.0
  0
LINE
  5
235
330
1F
100
AcDbEntity
  8
Flansche
100
AcDbLine
 10
1955.858983002704
 20
-2.181884176476824
 30
0.0
 11
1965.858983002708
 21
-2.18188417647637
 31
0.0
  0
LINE
  5
236
330
1F
100
AcDbEntity
  8
Muttern
100
AcDbLine
 10
1993.858983002716
 20
-30.38739750161562
 30
0.0
 11
1982.858983002716
 21
-30.38739750161552
 31
0.0
  0
LINE
  5
237
330
1F
100
AcDbEntity
  8
Muttern
100
AcDbLine
 10
1993.858983002712
 20
-23.69989750161562
 30
0.0
 11
1982.858983002719
 21
-23.69989750161916
 31
0.0
  0
LINE
  5
238
330
1F
100
AcDbEntity
  8
Muttern
100
AcDbLine
 10
1993.858983002715
 20
-43.76239750161925
 30
0.0
 11
1982.858983002715
 21
-43.76239750161914
 31
0.0
  0
LINE
  5
239
330
1F
100
AcDbEntity
  8
Muttern
100
AcDbLine
 10
1993.858983002715
 20
-50.44989750161562
 30
0.0
 11
1982.858983002715
 21
-50.4498975016155
 31
0.0
  0
LINE
  5
23A
330
1F
100
AcDbEntity
  8
Muttern
100
AcDbLine
 10
1994.858983002719
 20
-26.95198120294822
 30
0.0
 11
1994.858983002716
 21
-47.28330418951531
 31
0.0
  0
LINE
  5
23B
330
1F
100
AcDbEntity
  8
Muttern
100
AcDbLine
 10
1981.858983002712
 20
-26.9519812029481
 30
0.0
 11
1981.858983002716
 21
-47.28330418951521
 31
0.0
  0
LINE
  5
23C
330
1F
100
AcDbEntity
  8
Muttern
100
AcDbLine
 10
1978.858983002712
 20
-22.07489750161912
 30
0.0
 11
1978.858983002715
 21
-52.07489750161911
 31
0.0
  0
ARC
  5
23D
330
1F
100
AcDbEntity
  8
Muttern
100
AcDbCircle
 10
1972.04023044874
 20
-37.07489750161542
 30
0.0
 40
22.82061829271151
100
AcDbArc
 50
342.9595722250028
 51
17.04042777499631
  0
ARC
  5
23E
330
1F
100
AcDbEntity
  8
Muttern
100
AcDbCircle
 10
1988.772852326663
 20
-27.04364750161194
 30
0.0
 40
6.086820953200566
100
AcDbArc
 50
326.6780762771772
 51
33.32192372281627
  0
ARC
  5
23F
330
1F
100
AcDbEntity
  8
Muttern
100
AcDbCircle
 10
1988.784343217506
 20
-47.10614750161557
 30
0.0
 40
6.077222475121909
100
AcDbArc
 50
326.6185629067629
 51
33.38143709323729
  0
ARC
  5
240
330
1F
100
AcDbEntity
  8
Muttern
100
AcDbCircle
 10
2004.677735556692
 20
-37.07489750161573
 30
0.0
 40
22.82061829271152
100
AcDbArc
 50
162.9595722250028
 51
197.040427774996
  0
ARC
  5
241
330
1F
100
AcDbEntity
  8
Muttern
100
AcDbCircle
 10
1987.945113678768
 20
-27.04364750161193
 30
0.0
 40
6.086820953200503
100
AcDbArc
 50
146.678076277069
 51
213.3219237229299
  0
ARC
  5
242
330
1F
100
AcDbEntity
  8
Muttern
100
AcDbCircle
 10
1987.933622787925
 20
-47.10614750161556
 30
0.0
 40
6.077222475121804
100
AcDbArc
 50
146.6185629064723
 51
213.381437093527
  0
LINE
  5
243
330
1F
100
AcDbEntity
  8
Muttern
100
AcDbLine
 10
1978.858983002715
 20
-52.07489750161911
 30
0.0
 11
1978.858983002719
 21
-52.07489750161911
 31
0.0
  0
ARC
  5
244
330
1F
100
AcDbEntity
  8
Muttern
100
AcDbCircle
 10
1978.858983002715
 20
-49.07489750161912
 30
0.0
 40
3.0
100
AcDbArc
 50
270.0
 51
0.0
  0
LINE
  5
245
330
1F
100
AcDbEntity
  8
Muttern
100
AcDbLine
 10
1978.858983002712
 20
-22.07489750161912
 30
0.0
 11
1978.858983002712
 21
-22.07489750161912
 31
0.0
  0
LINE
  5
246
330
1F
100
AcDbEntity
  8
Muttern
100
AcDbLine
 10
1981.858983002716
 20
-37.08764178855711
 30
0.0
 11
1981.858983002716
 21
-25.07489750161915
 31
0.0
  0
ARC
  5
247
330
1F
100
AcDbEntity
  8
Muttern
100
AcDbCircle
 10
1978.858983002716
 20
-25.07489750161912
 30
0.0
 40
3.0
100
AcDbArc
 50
0.0
 51
90.0
  0
LINE
  5
248
330
1F
100
AcDbEntity
  8
Muttern
100
AcDbLine
 10
1981.858983002716
 20
-37.08764178855711
 30
0.0
 11
1981.858983002716
 21
-49.07489750161914
 31
0.0
  0
LINE
  5
249
330
1F
100
AcDbEntity
  8
Muttern
100
AcDbLine
 10
1820.856718586112
 20
-44.03215230701468
 30
0.0
 11
1820.856718586109
 21
-30.03215230701478
 31
0.0
  0
LINE
  5
24A
330
1F
100
AcDbEntity
  8
Muttern
100
AcDbLine
 10
1821.856718586112
 20
-45.03215230701443
 30
0.0
 11
1821.856718586109
 21
-29.03215230701467
 31
0.0
  0
LINE
  5
24B
330
1F
100
AcDbEntity
  8
Muttern
100
AcDbLine
 10
1839.286718586111
 20
-44.03020029731623
 30
0.0
 11
1820.856718586112
 21
-44.03215230701472
 31
0.0
  0
LINE
  5
24C
330
1F
100
AcDbEntity
  8
Muttern
100
AcDbLine
 10
1839.286718586111
 20
-45.03020029731621
 30
0.0
 11
1821.856718586112
 21
-45.03215230701449
 31
0.0
  0
LINE
  5
24D
330
1F
100
AcDbEntity
  8
Muttern
100
AcDbLine
 10
1821.856718586112
 20
-45.03215230701443
 30
0.0
 11
1820.856718586112
 21
-44.03215230701472
 31
0.0
  0
LINE
  5
24E
330
1F
100
AcDbEntity
  8
Muttern
100
AcDbLine
 10
1839.286718586109
 20
-30.03020029731623
 30
0.0
 11
1820.856718586109
 21
-30.03215230701467
 31
0.0
  0
LINE
  5
24F
330
1F
100
AcDbEntity
  8
Muttern
100
AcDbLine
 10
1839.286718586108
 20
-29.03020029731628
 30
0.0
 11
1821.85671858611
 21
-29.03215230701455
 31
0.0
  0
LINE
  5
250
330
1F
100
AcDbEntity
  8
Muttern
100
AcDbLine
 10
1821.856718586109
 20
-29.03215230701455
 30
0.0
 11
1820.856718586109
 21
-30.03215230701467
 31
0.0
  0
LINE
  5
251
330
1F
100
AcDbEntity
  8
Flansche
100
AcDbLine
 10
1955.858983002707
 20
-28.0321523070005
 30
0.0
 11
1965.85898300271
 21
-28.03215230699789
 31
0.0
  0
LINE
  5
252
330
1F
100
AcDbEntity
  8
Flansche
100
AcDbLine
 10
1955.858983002707
 20
-46.0321523070005
 30
0.0
 11
1965.858983002711
 21
-46.03215230699777
 31
0.0
  0
LINE
  5
253
330
1F
100
AcDbEntity
  8
Mittellinie
100
AcDbLine
 10
1994.857117263982
 20
-47.24055899492433
 30
0.0
 11
1994.857117263986
 21
-26.90923600831664
 31
0.0
  0
LINE
  5
254
330
1F
100
AcDbEntity
  8
Muttern
100
AcDbLine
 10
2010.858983002718
 20
-44.03215230698331
 30
0.0
 11
2010.85898300272
 21
-30.03215230700317
 31
0.0
  0
LINE
  5
255
330
1F
100
AcDbEntity
  8
Muttern
100
AcDbLine
 10
2009.858983002717
 20
-45.03215230698367
 30
0.0
 11
2009.85898300272
 21
-29.03215230698367
 31
0.0
  0
LINE
  5
256
330
1F
100
AcDbEntity
  8
Muttern
100
AcDbLine
 10
1994.857117263982
 20
-45.03215230696546
 30
0.0
 11
2009.858983002717
 21
-45.03215230698378
 31
0.0
  0
LINE
  5
257
330
1F
100
AcDbEntity
  8
Muttern
100
AcDbLine
 10
1994.857117263983
 20
-44.03215230696523
 30
0.0
 11
2010.858983002717
 21
-44.03215230698367
 31
0.0
  0
LINE
  5
258
330
1F
100
AcDbEntity
  8
Muttern
100
AcDbLine
 10
1994.857117263985
 20
-30.03215230697717
 30
0.0
 11
2010.858983002719
 21
-30.03215230700305
 31
0.0
  0
LINE
  5
259
330
1F
100
AcDbEntity
  8
Muttern
100
AcDbLine
 10
1994.857117263985
 20
-29.03215230696512
 30
0.0
 11
2009.85898300272
 21
-29.0321523069835
 31
0.0
  0
LINE
  5
25A
330
1F
100
AcDbEntity
  8
Muttern
100
AcDbLine
 10
2009.858983002717
 20
-45.03215230698378
 30
0.0
 11
2010.858983002717
 21
-44.03215230698367
 31
0.0
  0
LINE
  5
25B
330
1F
100
AcDbEntity
  8
Muttern
100
AcDbLine
 10
2010.858983002719
 20
-30.03215230700305
 30
0.0
 11
2009.85898300272
 21
-29.0321523069835
 31
0.0
  0
DIMENSION
  5
25C
330
1F
100
AcDbEntity
  8
Bem
100
AcDbDimension
  2
*D5
 10
2010.858983002718
 20
185.5
 30
0.0
 11
1915.857850794415
 21
190.063
 31
0.0
 70
    32
  1
<>
 71
     5
 42
190.0022644166061
  3
VCDDIMSTYLE01
100
AcDbAlignedDimension
 13
1820.856718586112
 23
129.9678476930163
 33
0.0
 14
2010.858983002718
 24
122.9678476929761
 34
0.0
100
AcDbRotatedDimension
1001
ACAD
1000
DSTYLE
1002
{
1070
   148
1040
0.0000001
1070
     3
1000

1070
    45
1040
0.0000001
1002
}
  0
LINE
  5
269
330
1F
100
AcDbEntity
  8
Muttern
100
AcDbLine
 10
1901.138632486912
 20
116.2804424752186
 30
0.0
 11
1890.138632486912
 21
116.2804424752186
 31
0.0
  0
LINE
  5
26A
330
1F
100
AcDbEntity
  8
Muttern
100
AcDbLine
 10
1901.138632486908
 20
109.5929424752186
 30
0.0
 11
1890.138632486916
 21
109.5929424752223
 31
0.0
  0
LINE
  5
26B
330
1F
100
AcDbEntity
  8
Muttern
100
AcDbLine
 10
1901.138632486912
 20
129.6554424752223
 30
0.0
 11
1890.138632486912
 21
129.6554424752223
 31
0.0
  0
LINE
  5
26C
330
1F
100
AcDbEntity
  8
Muttern
100
AcDbLine
 10
1901.138632486912
 20
136.3429424752186
 30
0.0
 11
1890.138632486912
 21
136.3429424752186
 31
0.0
  0
LINE
  5
26D
330
1F
100
AcDbEntity
  8
Muttern
100
AcDbLine
 10
1902.138632486915
 20
112.8450261765512
 30
0.0
 11
1902.138632486912
 21
133.1763491631183
 31
0.0
  0
LINE
  5
26E
330
1F
100
AcDbEntity
  8
Muttern
100
AcDbLine
 10
1889.138632486908
 20
112.8450261765512
 30
0.0
 11
1889.138632486912
 21
133.1763491631183
 31
0.0
  0
LINE
  5
26F
330
1F
100
AcDbEntity
  8
Muttern
100
AcDbLine
 10
1886.138632486908
 20
107.9679424752223
 30
0.0
 11
1886.138632486912
 21
137.9679424752223
 31
0.0
  0
ARC
  5
270
330
1F
100
AcDbEntity
  8
Muttern
100
AcDbCircle
 10
1879.319879932936
 20
122.9679424752186
 30
0.0
 40
22.82061829271148
100
AcDbArc
 50
342.9595722250032
 51
17.04042777499672
  0
ARC
  5
271
330
1F
100
AcDbEntity
  8
Muttern
100
AcDbCircle
 10
1896.052501810859
 20
112.936692475215
 30
0.0
 40
6.086820953200565
100
AcDbArc
 50
326.6780762771772
 51
33.32192372282246
  0
ARC
  5
272
330
1F
100
AcDbEntity
  8
Muttern
100
AcDbCircle
 10
1896.063992701703
 20
132.9991924752186
 30
0.0
 40
6.077222475121909
100
AcDbArc
 50
326.6185629067629
 51
33.38143709323729
  0
ARC
  5
273
330
1F
100
AcDbEntity
  8
Muttern
100
AcDbCircle
 10
1911.957385040888
 20
122.9679424752186
 30
0.0
 40
22.82061829271144
100
AcDbArc
 50
162.9595722250033
 51
197.0404277749966
  0
ARC
  5
274
330
1F
100
AcDbEntity
  8
Muttern
100
AcDbCircle
 10
1895.224763162964
 20
112.936692475215
 30
0.0
 40
6.086820953200689
100
AcDbArc
 50
146.6780762770702
 51
213.3219237229304
  0
ARC
  5
275
330
1F
100
AcDbEntity
  8
Muttern
100
AcDbCircle
 10
1895.213272272121
 20
132.9991924752186
 30
0.0
 40
6.077222475121798
100
AcDbArc
 50
146.6185629064724
 51
213.3814370935272
  0
LINE
  5
276
330
1F
100
AcDbEntity
  8
Muttern
100
AcDbLine
 10
1886.138632486912
 20
137.9679424752223
 30
0.0
 11
1886.138632486915
 21
137.9679424752223
 31
0.0
  0
ARC
  5
277
330
1F
100
AcDbEntity
  8
Muttern
100
AcDbCircle
 10
1886.138632486912
 20
134.9679424752223
 30
0.0
 40
3.0
100
AcDbArc
 50
0.0
 51
90.0
  0
LINE
  5
278
330
1F
100
AcDbEntity
  8
Muttern
100
AcDbLine
 10
1886.138632486908
 20
107.9679424752223
 30
0.0
 11
1886.138632486908
 21
107.9679424752223
 31
0.0
  0
LINE
  5
279
330
1F
100
AcDbEntity
  8
Muttern
100
AcDbLine
 10
1889.138632486912
 20
122.9806867621602
 30
0.0
 11
1889.138632486912
 21
110.9679424752223
 31
0.0
  0
ARC
  5
27A
330
1F
100
AcDbEntity
  8
Muttern
100
AcDbCircle
 10
1886.138632486912
 20
110.9679424752223
 30
0.0
 40
3.0
100
AcDbArc
 50
270.0
 51
0.0
  0
LINE
  5
27B
330
1F
100
AcDbEntity
  8
Muttern
100
AcDbLine
 10
1889.138632486912
 20
122.9806867621602
 30
0.0
 11
1889.138632486912
 21
134.9679424752223
 31
0.0
  0
LINE
  5
27C
330
1F
100
AcDbEntity
  8
Muttern
100
AcDbLine
 10
1940.858983002703
 20
116.2803476930072
 30
0.0
 11
1951.858983002704
 21
116.2803476930053
 31
0.0
  0
LINE
  5
27D
330
1F
100
AcDbEntity
  8
Muttern
100
AcDbLine
 10
1940.858983002707
 20
109.5928476930072
 30
0.0
 11
1951.858983002699
 21
109.592847693009
 31
0.0
  0
LINE
  5
27E
330
1F
100
AcDbEntity
  8
Muttern
100
AcDbLine
 10
1940.858983002706
 20
129.6553476930108
 30
0.0
 11
1951.858983002706
 21
129.655347693009
 31
0.0
  0
LINE
  5
27F
330
1F
100
AcDbEntity
  8
Muttern
100
AcDbLine
 10
1940.858983002707
 20
136.3428476930072
 30
0.0
 11
1951.858983002708
 21
136.3428476930053
 31
0.0
  0
LINE
  5
280
330
1F
100
AcDbEntity
  8
Muttern
100
AcDbLine
 10
1939.8589830027
 20
112.8449313943399
 30
0.0
 11
1939.858983002707
 21
133.176254380907
 31
0.0
  0
LINE
  5
281
330
1F
100
AcDbEntity
  8
Muttern
100
AcDbLine
 10
1952.858983002707
 20
112.8449313943377
 30
0.0
 11
1952.858983002707
 21
133.1762543809049
 31
0.0
  0
LINE
  5
282
330
1F
100
AcDbEntity
  8
Muttern
100
AcDbLine
 10
1955.858983002707
 20
107.9678476930083
 30
0.0
 11
1955.858983002707
 21
137.9678476930083
 31
0.0
  0
ARC
  5
283
330
1F
100
AcDbEntity
  8
Muttern
100
AcDbCircle
 10
1962.677735556681
 20
122.9678476930035
 30
0.0
 40
22.82061829271147
100
AcDbArc
 50
162.9595722249935
 51
197.0404277749889
  0
ARC
  5
284
330
1F
100
AcDbEntity
  8
Muttern
100
AcDbCircle
 10
1945.945113678756
 20
112.9365976930027
 30
0.0
 40
6.086820953200579
100
AcDbArc
 50
146.6780762771691
 51
213.3219237228085
  0
ARC
  5
285
330
1F
100
AcDbEntity
  8
Muttern
100
AcDbCircle
 10
1945.933622787916
 20
132.9990976930063
 30
0.0
 40
6.077222475121804
100
AcDbArc
 50
146.6185629067452
 51
213.3814370932321
  0
ARC
  5
286
330
1F
100
AcDbEntity
  8
Muttern
100
AcDbCircle
 10
1930.040230448729
 20
122.967847693009
 30
0.0
 40
22.82061829271148
100
AcDbArc
 50
342.9595722249935
 51
17.04042777498886
  0
ARC
  5
287
330
1F
100
AcDbEntity
  8
Muttern
100
AcDbCircle
 10
1946.772852326651
 20
112.9365976930025
 30
0.0
 40
6.086820953200524
100
AcDbArc
 50
326.6780762770529
 51
33.32192372292464
  0
ARC
  5
288
330
1F
100
AcDbEntity
  8
Muttern
100
AcDbCircle
 10
1946.784343217498
 20
132.9990976930062
 30
0.0
 40
6.077222475121861
100
AcDbArc
 50
326.6185629064597
 51
33.38143709351962
  0
LINE
  5
289
330
1F
100
AcDbEntity
  8
Muttern
100
AcDbLine
 10
1955.858983002707
 20
137.9678476930083
 30
0.0
 11
1955.858983002704
 21
137.9678476930083
 31
0.0
  0
ARC
  5
28A
330
1F
100
AcDbEntity
  8
Muttern
100
AcDbCircle
 10
1955.858983002707
 20
134.9678476930083
 30
0.0
 40
3.0
100
AcDbArc
 50
90.0
 51
179.9999999999902
  0
LINE
  5
28B
330
1F
100
AcDbEntity
  8
Muttern
100
AcDbLine
 10
1955.858983002707
 20
107.9678476930083
 30
0.0
 11
1955.858983002707
 21
107.9678476930083
 31
0.0
  0
LINE
  5
28C
330
1F
100
AcDbEntity
  8
Muttern
100
AcDbLine
 10
1952.858983002705
 20
122.9805919799467
 30
0.0
 11
1952.858983002703
 21
110.9678476930088
 31
0.0
  0
ARC
  5
28D
330
1F
100
AcDbEntity
  8
Muttern
100
AcDbCircle
 10
1955.858983002703
 20
110.9678476930083
 30
0.0
 40
3.0
100
AcDbArc
 50
180.0
 51
269.9999999999956
  0
LINE
  5
28E
330
1F
100
AcDbEntity
  8
Muttern
100
AcDbLine
 10
1952.858983002705
 20
122.9805919799467
 30
0.0
 11
1952.858983002707
 21
134.9678476930088
 31
0.0
  0
LINE
  5
28F
330
1F
100
AcDbEntity
  8
Mittellinie
100
AcDbLine
 10
1939.858983002707
 20
133.1762543809477
 30
0.0
 11
1939.8589830027
 21
112.8449313943399
 31
0.0
  0
DIMENSION
  5
290
330
1F
100
AcDbEntity
  8
Bem
100
AcDbDimension
  2
*D6
 10
1965.858983002712
 20
155.2919992939913
 30
0.0
 11
1983.357983002712
 21
159.8549992939913
 31
0.0
 70
    32
  1
<>
 71
     5
 42
10.00000000000387
  3
VCDDIMSTYLE01
100
AcDbAlignedDimension
 13
1955.858983002708
 23
142.9678476930027
 33
0.0
 14
1965.858983002712
 24
142.9678476930019
 34
0.0
100
AcDbRotatedDimension
1001
ACAD
1000
DSTYLE
1002
{
1070
   148
1040
0.0000001
1070
     3
1000

1070
    45
1040
0.0000001
1002
}
  0
DIMENSION
  5
29F
330
1F
100
AcDbEntity
  8
Bem
100
AcDbDimension
  2
*D7
 10
1960.858983002704
 20
60.14155959386016
 30
0.0
 11
1915.358983002708
 21
64.70455959386015
 31
0.0
 70
    32
  1
<>
 71
     5
 42
90.99999999999204
  3
VCDDIMSTYLE01
100
AcDbAlignedDimension
 13
1869.858983002712
 23
85.41794247521408
 33
0.0
 14
1960.858983002704
 24
42.96819078694723
 34
0.0
100
AcDbRotatedDimension
1001
ACAD
1000
DSTYLE
1002
{
1070
   148
1040
0.0000001
1070
     3
1000

1070
    45
1040
0.0000001
1002
}
  0
DIMENSION
  5
2AC
330
1F
100
AcDbEntity
  8
Bem
100
AcDbDimension
  2
*D8
 10
1965.858983002704
 20
60.14155036655779
 30
0.0
 11
1988.166983002704
 21
64.69255036655778
 31
0.0
 70
    32
  1
<>
 71
     5
 42
5.0
  3
VCDDIMSTYLE01
100
AcDbAlignedDimension
 13
1960.858983002704
 23
42.96819078694723
 33
0.0
 14
1965.858983002704
 24
42.96784769299613
 34
0.0
100
AcDbRotatedDimension
1001
ACAD
1000
DSTYLE
1002
{
1070
   148
1040
0.0000001
1070
     3
1000
TH <>
1070
    45
1040
0.0000001
1002
}
  0
LINE
  5
2BB
330
1F
100
AcDbEntity
  8
Flansche
100
AcDbLine
 10
1885.577833401421
 20
87.41779277296843
 30
0.0
 11
1869.858983002712
 21
87.41779277296843
 31
0.0
  0
LINE
  5
2BC
330
1F
100
AcDbEntity
  8
Flansche
100
AcDbLine
 10
1884.481057686041
 20
89.96934402171374
 30
0.0
 11
1884.481057686041
 21
87.41794247521425
 31
0.0
  0
LINE
  5
2BD
330
1F
100
AcDbEntity
  8
Flansche
100
AcDbLine
 10
1876.13863248691
 20
96.96946992942878
 30
0.0
 11
1884.481057686041
 21
89.96934402171367
 31
0.0
  0
LINE
  5
2BE
330
1F
100
AcDbEntity
  8
Mittellinie
100
AcDbLine
 10
1885.57783340142
 20
89.96931900483307
 30
0.0
 11
1886.138632486912
 21
89.96931900483307
 31
0.0
  0
LINE
  5
2BF
330
1F
100
AcDbEntity
  8
Flansche
100
AcDbLine
 10
1876.13863248691
 20
96.96946992942878
 30
0.0
 11
1876.13863248691
 21
114.9679424752208
 31
0.0
  0
LINE
  5
2C0
330
1F
100
AcDbEntity
  8
Muttern
100
AcDbLine
 10
1840.286718586113
 20
-30.34270029730818
 30
0.0
 11
1851.286718586113
 21
-30.34270029730818
 31
0.0
  0
LINE
  5
2C1
330
1F
100
AcDbEntity
  8
Muttern
100
AcDbLine
 10
1840.286718586116
 20
-23.65520029730818
 30
0.0
 11
1851.286718586109
 21
-23.6552002973118
 31
0.0
  0
LINE
  5
2C2
330
1F
100
AcDbEntity
  8
Muttern
100
AcDbLine
 10
1840.286718586113
 20
-43.71770029731182
 30
0.0
 11
1851.286718586113
 21
-43.71770029731179
 31
0.0
  0
LINE
  5
2C3
330
1F
100
AcDbEntity
  8
Muttern
100
AcDbLine
 10
1840.286718586113
 20
-50.40520029730817
 30
0.0
 11
1851.286718586113
 21
-50.40520029730817
 31
0.0
  0
LINE
  5
2C4
330
1F
100
AcDbEntity
  8
Muttern
100
AcDbLine
 10
1839.286718586109
 20
-26.90728399864078
 30
0.0
 11
1839.286718586112
 21
-47.23860698520788
 31
0.0
  0
LINE
  5
2C5
330
1F
100
AcDbEntity
  8
Muttern
100
AcDbLine
 10
1852.286718586116
 20
-26.90728399864076
 30
0.0
 11
1852.286718586112
 21
-47.23860698520787
 31
0.0
  0
LINE
  5
2C6
330
1F
100
AcDbEntity
  8
Muttern
100
AcDbLine
 10
1855.286718586116
 20
-22.0302002973118
 30
0.0
 11
1855.286718586113
 21
-52.03020029731179
 31
0.0
  0
ARC
  5
2C7
330
1F
100
AcDbEntity
  8
Muttern
100
AcDbCircle
 10
1862.105471140089
 20
-37.03020029730816
 30
0.0
 40
22.82061829271156
100
AcDbArc
 50
162.9595722250027
 51
197.0404277749975
  0
ARC
  5
2C8
330
1F
100
AcDbEntity
  8
Muttern
100
AcDbCircle
 10
1845.372849262165
 20
-26.99895029730454
 30
0.0
 40
6.086820953200604
100
AcDbArc
 50
146.6780762771842
 51
213.3219237228235
  0
ARC
  5
2C9
330
1F
100
AcDbEntity
  8
Muttern
100
AcDbCircle
 10
1845.361358371322
 20
-47.06145029730818
 30
0.0
 40
6.07722247512174
100
AcDbArc
 50
146.6185629067613
 51
213.3814370932381
  0
ARC
  5
2CA
330
1F
100
AcDbEntity
  8
Muttern
100
AcDbCircle
 10
1829.467966032137
 20
-37.0302002973082
 30
0.0
 40
22.82061829271152
100
AcDbArc
 50
342.9595722250027
 51
17.04042777499761
  0
ARC
  5
2CB
330
1F
100
AcDbEntity
  8
Muttern
100
AcDbCircle
 10
1846.20058791006
 20
-26.99895029730453
 30
0.0
 40
6.086820953200535
100
AcDbArc
 50
326.6780762770683
 51
33.32192372293154
  0
ARC
  5
2CC
330
1F
100
AcDbEntity
  8
Muttern
100
AcDbCircle
 10
1846.212078800904
 20
-47.06145029730818
 30
0.0
 40
6.077222475121888
100
AcDbArc
 50
326.6185629064748
 51
33.3814370935258
  0
LINE
  5
2CD
330
1F
100
AcDbEntity
  8
Muttern
100
AcDbLine
 10
1855.286718586113
 20
-52.03020029731179
 30
0.0
 11
1855.286718586109
 21
-52.03020029731179
 31
0.0
  0
ARC
  5
2CE
330
1F
100
AcDbEntity
  8
Muttern
100
AcDbCircle
 10
1855.286718586113
 20
-49.03020029731179
 30
0.0
 40
3.0
100
AcDbArc
 50
180.0
 51
270.0
  0
LINE
  5
2CF
330
1F
100
AcDbEntity
  8
Muttern
100
AcDbLine
 10
1855.286718586116
 20
-22.0302002973118
 30
0.0
 11
1855.286718586116
 21
-22.0302002973118
 31
0.0
  0
LINE
  5
2D0
330
1F
100
AcDbEntity
  8
Muttern
100
AcDbLine
 10
1852.286718586112
 20
-37.04294458424977
 30
0.0
 11
1852.286718586112
 21
-25.0302002973118
 31
0.0
  0
ARC
  5
2D1
330
1F
100
AcDbEntity
  8
Muttern
100
AcDbCircle
 10
1855.286718586113
 20
-25.0302002973118
 30
0.0
 40
3.0
100
AcDbArc
 50
90.0
 51
180.0
  0
LINE
  5
2D2
330
1F
100
AcDbEntity
  8
Muttern
100
AcDbLine
 10
1852.286718586112
 20
-37.04294458424977
 30
0.0
 11
1852.286718586112
 21
-49.03020029731179
 31
0.0
  0
LINE
  5
2D3
330
1F
100
AcDbEntity
  8
Muttern
100
AcDbLine
 10
1940.858983002705
 20
-30.34465230700734
 30
0.0
 11
1951.858983002705
 21
-30.34465230700541
 31
0.0
  0
LINE
  5
2D4
330
1F
100
AcDbEntity
  8
Muttern
100
AcDbLine
 10
1940.858983002707
 20
-23.65715230700732
 30
0.0
 11
1951.8589830027
 21
-23.65715230700905
 31
0.0
  0
LINE
  5
2D5
330
1F
100
AcDbEntity
  8
Muttern
100
AcDbLine
 10
1940.858983002707
 20
-43.71965230701096
 30
0.0
 11
1951.858983002707
 21
-43.71965230700904
 31
0.0
  0
LINE
  5
2D6
330
1F
100
AcDbEntity
  8
Muttern
100
AcDbLine
 10
1940.858983002708
 20
-50.40715230700733
 30
0.0
 11
1951.858983002708
 21
-50.4071523070054
 31
0.0
  0
LINE
  5
2D7
330
1F
100
AcDbEntity
  8
Muttern
100
AcDbLine
 10
1939.8589830027
 20
-26.9092360083401
 30
0.0
 11
1939.858983002707
 21
-47.2405589949072
 31
0.0
  0
LINE
  5
2D8
330
1F
100
AcDbEntity
  8
Muttern
100
AcDbLine
 10
1952.858983002708
 20
-26.90923600833783
 30
0.0
 11
1952.858983002708
 21
-47.24055899490493
 31
0.0
  0
LINE
  5
2D9
330
1F
100
AcDbEntity
  8
Muttern
100
AcDbLine
 10
1955.858983002707
 20
-22.03215230700835
 30
0.0
 11
1955.858983002708
 21
-52.03215230700835
 31
0.0
  0
ARC
  5
2DA
330
1F
100
AcDbEntity
  8
Muttern
100
AcDbCircle
 10
1962.677735556682
 20
-37.03215230700353
 30
0.0
 40
22.82061829271138
100
AcDbArc
 50
162.9595722250116
 51
197.0404277750064
  0
ARC
  5
2DB
330
1F
100
AcDbEntity
  8
Muttern
100
AcDbCircle
 10
1945.945113678757
 20
-27.0009023070028
 30
0.0
 40
6.08682095320063
100
AcDbArc
 50
146.6780762771915
 51
213.3219237228309
  0
ARC
  5
2DC
330
1F
100
AcDbEntity
  8
Muttern
100
AcDbCircle
 10
1945.933622787917
 20
-47.06340230700646
 30
0.0
 40
6.077222475121826
100
AcDbArc
 50
146.6185629067681
 51
213.3814370932521
  0
ARC
  5
2DD
330
1F
100
AcDbEntity
  8
Muttern
100
AcDbCircle
 10
1930.04023044873
 20
-37.03215230700922
 30
0.0
 40
22.82061829271139
100
AcDbArc
 50
342.9595722250116
 51
17.04042777500649
  0
ARC
  5
2DE
330
1F
100
AcDbEntity
  8
Muttern
100
AcDbCircle
 10
1946.772852326651
 20
-27.00090230700266
 30
0.0
 40
6.086820953200624
100
AcDbArc
 50
326.678076277075
 51
33.32192372294575
  0
ARC
  5
2DF
330
1F
100
AcDbEntity
  8
Muttern
100
AcDbCircle
 10
1946.784343217499
 20
-47.06340230700629
 30
0.0
 40
6.077222475121784
100
AcDbArc
 50
326.6185629064805
 51
33.3814370935395
  0
LINE
  5
2E0
330
1F
100
AcDbEntity
  8
Muttern
100
AcDbLine
 10
1955.858983002708
 20
-52.03215230700835
 30
0.0
 11
1955.858983002705
 21
-52.03215230700835
 31
0.0
  0
ARC
  5
2E1
330
1F
100
AcDbEntity
  8
Muttern
100
AcDbCircle
 10
1955.858983002708
 20
-49.03215230700835
 30
0.0
 40
3.0
100
AcDbArc
 50
180.0
 51
270.0000000000043
  0
LINE
  5
2E2
330
1F
100
AcDbEntity
  8
Muttern
100
AcDbLine
 10
1955.858983002707
 20
-22.03215230700835
 30
0.0
 11
1955.858983002707
 21
-22.03215230700835
 31
0.0
  0
LINE
  5
2E3
330
1F
100
AcDbEntity
  8
Muttern
100
AcDbLine
 10
1952.858983002706
 20
-37.04489659394683
 30
0.0
 11
1952.858983002704
 21
-25.03215230700887
 31
0.0
  0
ARC
  5
2E4
330
1F
100
AcDbEntity
  8
Muttern
100
AcDbCircle
 10
1955.858983002704
 20
-25.03215230700835
 30
0.0
 40
3.0
100
AcDbArc
 50
90.0
 51
180.00000000001
  0
LINE
  5
2E5
330
1F
100
AcDbEntity
  8
Muttern
100
AcDbLine
 10
1952.858983002706
 20
-37.04489659394683
 30
0.0
 11
1952.858983002708
 21
-49.03215230700888
 31
0.0
  0
LINE
  5
2E6
330
1F
100
AcDbEntity
  8
13-Center line
100
AcDbLine
 10
1813.822428556536
 20
-37.02744184656657
 30
0.0
 11
2018.098484985812
 21
-37.03318285252966
 31
0.0
  0
TEXT
  5
2E8
330
1F
100
AcDbEntity
  8
Mittellinie
  6
Durchgehend
100
AcDbText
 10
1936.280567113866
 20
-98.00085703156083
 30
0.0
 40
10.00000024453188
  1
1
  7
_TCW_TXTSTY_1
100
AcDbText
  0
LINE
  5
2E9
330
1F
100
AcDbEntity
  8
12-Outline thin visible
100
AcDbLine
 10
1943.300567113866
 20
-84.48689719542448
 30
0.0
 11
1961.870966574001
 21
-50.32628670453481
 31
0.0
  0
TEXT
  5
2EA
330
1F
100
AcDbEntity
  8
Mittellinie
  6
Durchgehend
100
AcDbText
 10
1874.158210605475
 20
-98.00085703156083
 30
0.0
 40
10.00000024453188
  1
2
  7
_TCW_TXTSTY_1
100
AcDbText
  0
LINE
  5
2EB
330
1F
100
AcDbEntity
  8
12-Outline thin visible
100
AcDbLine
 10
1878.044743501379
 20
-81.59192930642371
 30
0.0
 11
1882.5
 21
-55.5372264587395
 31
0.0
  0
TEXT
  5
2EC
330
1F
100
AcDbEntity
  8
Mittellinie
  6
Durchgehend
100
AcDbText
 10
1895.416833217138
 20
-98.00085703156083
 30
0.0
 40
10.00000024453188
  1
3
  7
_TCW_TXTSTY_1
100
AcDbText
  0
LINE
  5
2ED
330
1F
100
AcDbEntity
  8
12-Outline thin visible
100
AcDbLine
 10
1899.483366113042
 20
-81.59192930642371
 30
0.0
 11
1925.557366536628
 21
6.415068156789857
 31
0.0
  0
TEXT
  5
2EE
330
1F
100
AcDbEntity
  8
Mittellinie
  6
Durchgehend
100
AcDbText
 10
2018.280125283385
 20
-97.96085703156083
 30
0.0
 40
10.00000024453188
  1
5
  7
_TCW_TXTSTY_1
100
AcDbText
  0
LINE
  5
2EF
330
1F
100
AcDbEntity
  8
12-Outline thin visible
100
AcDbLine
 10
2015.963013919413
 20
-81.59192930642371
 30
0.0
 11
1987.365545465654
 21
-43.3783656733749
 31
0.0
  0
TEXT
  5
2F0
330
1F
100
AcDbEntity
  8
Mittellinie
  6
Durchgehend
100
AcDbText
 10
1990.92496884974
 20
-98.00085703156083
 30
0.0
 40
10.00000024453188
  1
6
  7
_TCW_TXTSTY_1
100
AcDbText
  0
LINE
  5
2F1
330
1F
100
AcDbEntity
  8
12-Outline thin visible
100
AcDbLine
 10
1994.5
 20
-85.5
 30
0.0
 11
1993.104084688512
 21
-81.48536960154463
 31
0.0
  0
TEXT
  5
2F2
330
1F
100
AcDbEntity
  8
Mittellinie
  6
Durchgehend
100
AcDbText
 10
2033.745102709096
 20
-97.96085703156083
 30
0.0
 40
10.00000024453188
  1
4
  7
_TCW_TXTSTY_1
100
AcDbText
  0
LINE
  5
2F3
330
1F
100
AcDbEntity
  8
12-Outline thin visible
100
AcDbLine
 10
2033.345679325009
 20
-81.59192930642371
 30
0.0
 11
2000.54243452527
 21
-43.3783656733749
 31
0.0
  0
TEXT
  5
2F4
330
1F
100
AcDbEntity
  8
Mittellinie
  6
Durchgehend
100
AcDbText
 10
1837.929153275119
 20
-97.96085703156083
 30
0.0
 40
10.00000024453188
  1
7
  7
_TCW_TXTSTY_1
100
AcDbText
  0
LINE
  5
2F5
330
1F
100
AcDbEntity
  8
12-Outline thin visible
100
AcDbLine
 10
1843.239922653696
 20
-85.62613000907106
 30
0.0
 11
1871.5
 21
-10.98120651851013
 31
0.0
  0
LINE
  5
2F6
330
1F
100
AcDbEntity
  8
Muttern
100
AcDbLine
 10
1821.886509682039
 20
114.9716279424875
 30
0.0
 11
1820.882791864853
 21
115.9678962514608
 31
0.0
  0
INSERT
  5
2F7
330
1F
100
AcDbEntity
  8
Mittellinie
100
AcDbBlockReference
  2
Dichtung 40°- Gr.1 bis DN65-80
 10
1865.615837181465
 20
87.41834408399515
 30
0.0
  0
LINE
  5
2F8
330
1F
100
AcDbEntity
  8
Flansche
100
AcDbLine
 10
1884.481057686041
 20
89.96934402171374
 30
0.0
 11
1886.138632486912
 21
89.96931900483307
 31
0.0
  0
LINE
  5
2F9
330
1F
100
AcDbEntity
  8
Flansche
100
AcDbLine
 10
1865.858983002712
 20
88.41834408399515
 30
0.0
 11
1865.858983002712
 21
42.96962507462303
 31
0.0
  0
LINE
  5
2FA
330
1F
100
AcDbEntity
  8
Flansche
100
AcDbLine
 10
1869.858983002712
 20
87.41794247521406
 30
0.0
 11
1869.858983002712
 21
42.96956470478474
 31
0.0
  0
DIMENSION
  5
2FB
330
1F
100
AcDbEntity
  8
Bem
100
AcDbDimension
  2
*D9
 10
1865.858983002712
 20
60.14155959386016
 30
0.0
 11
1843.583983002712
 21
64.64155959386017
 31
0.0
 70
    32
  1
<>
 71
     5
 42
4.0
  3
VCDDIMSTYLE01
100
AcDbAlignedDimension
 13
1869.858983002712
 23
42.96956470478474
 33
0.0
 14
1865.858983002712
 24
42.96962507462303
 34
0.0
100
AcDbRotatedDimension
1001
ACAD
1000
DSTYLE
1002
{
1070
   148
1040
0.0000001
1070
     3
1000
TH <>
1070
    45
1040
0.0000001
1002
}
  0
LINE
  5
30A
330
1F
100
AcDbEntity
  8
Flansche
100
AcDbLine
 10
1886.137290808807
 20
-1.479304445300313
 30
0.0
 11
1886.136459214287
 21
-29.02930443275207
 31
0.0
  0
LINE
  5
30B
330
1F
100
AcDbEntity
  8
Flansche
100
AcDbLine
 10
1886.135976255582
 20
-45.02930442546298
 30
0.0
 11
1886.135614036553
 21
-57.0293044200046
 31
0.0
  0
LINE
  5
30C
330
1F
100
AcDbEntity
  8
Flansche
100
AcDbLine
 10
1876.137002501276
 20
-11.03053004597076
 30
0.0
 11
1876.136459218839
 21
-29.02900258356337
 31
0.0
  0
LINE
  5
30D
330
1F
100
AcDbEntity
  8
Flansche
100
AcDbLine
 10
1876.135976260133
 20
-45.02900257627428
 30
0.0
 11
1876.135614041105
 21
-57.02900257080957
 31
0.0
  0
LINE
  5
30E
330
1F
100
AcDbEntity
  8
Flansche
100
AcDbLine
 10
1876.135614041101
 20
-57.02900257080594
 30
0.0
 11
1886.135614036549
 21
-57.02930442000095
 31
0.0
  0
LINE
  5
30F
330
1F
100
AcDbEntity
  8
Flansche
100
AcDbLine
 10
1876.136489403758
 20
-28.02900258401889
 30
0.0
 11
1886.136489399206
 21
-28.02930443320764
 31
0.0
  0
LINE
  5
310
330
1F
100
AcDbEntity
  8
Flansche
100
AcDbLine
 10
1876.135946075215
 20
-46.02900257581871
 30
0.0
 11
1886.135946070663
 21
-46.02930442500735
 31
0.0
  0
LINE
  5
311
330
1F
100
AcDbEntity
  8
Muttern
100
AcDbLine
 10
1901.136419589745
 20
-30.34225720594165
 30
0.0
 11
1890.136419594756
 21
-30.34192517183115
 31
0.0
  0
LINE
  5
312
330
1F
100
AcDbEntity
  8
Muttern
100
AcDbLine
 10
1901.136621451388
 20
-23.65475720898825
 30
0.0
 11
1890.136621456406
 21
-23.65442517488138
 31
0.0
  0
LINE
  5
313
330
1F
100
AcDbEntity
  8
Muttern
100
AcDbLine
 10
1901.136015866451
 20
-43.71725719985209
 30
0.0
 11
1890.136015871462
 21
-43.71692516574159
 31
0.0
  0
LINE
  5
314
330
1F
100
AcDbEntity
  8
Muttern
100
AcDbLine
 10
1901.135814004804
 20
-50.40475719680188
 30
0.0
 11
1890.135814009816
 21
-50.40442516269138
 31
0.0
  0
LINE
  5
315
330
1F
100
AcDbEntity
  8
Muttern
100
AcDbLine
 10
1902.136523287056
 20
-26.90687109375844
 30
0.0
 11
1902.135909587712
 21
-47.23819407106332
 31
0.0
  0
LINE
  5
316
330
1F
100
AcDbEntity
  8
Muttern
100
AcDbLine
 10
1889.136523292971
 20
-26.90647868980966
 30
0.0
 11
1889.135909593634
 21
-47.23780166711454
 31
0.0
  0
LINE
  5
317
330
1F
100
AcDbEntity
  8
Muttern
100
AcDbLine
 10
1886.136670508715
 20
-22.02930443594512
 30
0.0
 11
1886.135764961144
 21
-52.02930442227816
 31
0.0
  0
ARC
  5
318
330
1F
100
AcDbEntity
  8
Muttern
100
AcDbCircle
 10
1879.317465184062
 20
-37.02909860561354
 30
0.0
 40
22.82061829271149
100
AcDbArc
 50
342.9578427565314
 51
17.03869830652475
  0
ARC
  5
319
330
1F
100
AcDbEntity
  8
Muttern
100
AcDbCircle
 10
1896.050389846832
 20
-26.99835368301812
 30
0.0
 40
6.086820953200576
100
AcDbArc
 50
326.6763468087056
 51
33.32019425435107
  0
ARC
  5
31A
330
1F
100
AcDbEntity
  8
Muttern
100
AcDbCircle
 10
1896.061275152731
 20
-47.06085402073362
 30
0.0
 40
6.077222475121946
100
AcDbArc
 50
326.6168334382911
 51
33.37970762476603
  0
ARC
  5
31B
330
1F
100
AcDbEntity
  8
Muttern
100
AcDbCircle
 10
1911.954970277145
 20
-37.03008376606607
 30
0.0
 40
22.8206182927115
100
AcDbArc
 50
162.9578427565313
 51
197.0386983065245
  0
ARC
  5
31C
330
1F
100
AcDbEntity
  8
Muttern
100
AcDbCircle
 10
1895.222651199315
 20
-26.99832869779398
 30
0.0
 40
6.086820953200515
100
AcDbArc
 50
146.6763468085973
 51
213.3201942544584
  0
ARC
  5
31D
330
1F
100
AcDbEntity
  8
Muttern
100
AcDbCircle
 10
1895.210554723536
 20
-47.06082834180622
 30
0.0
 40
6.077222475121832
100
AcDbArc
 50
146.6168334380006
 51
213.379707625056
  0
LINE
  5
31E
330
1F
100
AcDbEntity
  8
Muttern
100
AcDbLine
 10
1886.135764961144
 20
-52.02930442227816
 30
0.0
 11
1886.135764961148
 21
-52.02930442227816
 31
0.0
  0
ARC
  5
31F
330
1F
100
AcDbEntity
  8
Muttern
100
AcDbCircle
 10
1886.135855515902
 20
-49.02930442364486
 30
0.0
 40
2.999999999999976
100
AcDbArc
 50
269.9982705315278
 51
359.9982705315278
  0
LINE
  5
320
330
1F
100
AcDbEntity
  8
Muttern
100
AcDbLine
 10
1886.136670508715
 20
-22.02930443594512
 30
0.0
 11
1886.136670508715
 21
-22.02930443594512
 31
0.0
  0
LINE
  5
321
330
1F
100
AcDbEntity
  8
Muttern
100
AcDbLine
 10
1889.13621734888
 20
-37.04213927080122
 30
0.0
 11
1889.136579952594
 21
-25.02939498933583
 31
0.0
  0
ARC
  5
322
330
1F
100
AcDbEntity
  8
Muttern
100
AcDbCircle
 10
1886.136579953961
 20
-25.02930443457842
 30
0.0
 40
2.999999999999951
100
AcDbArc
 50
359.9982705316909
 51
89.99827053169281
  0
LINE
  5
323
330
1F
100
AcDbEntity
  8
Muttern
100
AcDbLine
 10
1889.13621734888
 20
-37.04213927080122
 30
0.0
 11
1889.135855514535
 21
-49.02939497840231
 31
0.0
  0
LINE
  5
324
330
1F
100
AcDbEntity
  8
Mittellinie
100
AcDbLine
 10
1885.576414710476
 20
-4.030664046080388
 30
0.0
 11
1886.137213795713
 21
-4.030680973755437
 31
0.0
  0
LINE
  5
325
330
1F
100
AcDbEntity
  8
Flansche
100
AcDbLine
 10
1885.576491728089
 20
-1.479137815378138
 30
0.0
 11
1869.857641336542
 21
-1.478663343149918
 31
0.0
  0
LINE
  5
326
330
1F
100
AcDbEntity
  8
Flansche
100
AcDbLine
 10
1884.479638994841
 20
-4.030655956874767
 30
0.0
 11
1884.479716008691
 21
-1.479254411537596
 31
0.0
  0
LINE
  5
327
330
1F
100
AcDbEntity
  8
Flansche
100
AcDbLine
 10
1876.137002501276
 20
-11.03053004597076
 30
0.0
 11
1884.479638994841
 21
-4.030655956874709
 31
0.0
  0
INSERT
  5
328
330
1F
100
AcDbEntity
  8
Mittellinie
100
AcDbBlockReference
  2
Dichtung 40°- Gr.1 bis DN65-80(1)
 10
1865.614495500587
 20
-1.47908657516288
 30
0.0
  0
LINE
  5
329
330
1F
100
AcDbEntity
  8
Flansche
100
AcDbLine
 10
1884.479638994841
 20
-4.030655956874767
 30
0.0
 11
1886.137213795713
 21
-4.030680973755437
 31
0.0
  0
LINE
  5
32A
330
1F
100
AcDbEntity
  8
Flansche
100
AcDbLine
 10
1865.857611136804
 20
-2.479093914044284
 30
0.0
 11
1865.858983002712
 21
42.96962507462303
 31
0.0
  0
LINE
  5
32B
330
1F
100
AcDbEntity
  8
Flansche
100
AcDbLine
 10
1869.857641332023
 20
-1.478813045395483
 30
0.0
 11
1869.858983002712
 21
42.96956470478471
 31
0.0
  0
DIMENSION
  5
32C
330
1F
100
AcDbEntity
  8
Bem
100
AcDbDimension
  2
*D10
 10
1834.0
 20
-1.478813045395481
 30
0.0
 11
1828.897
 21
42.96948986378647
 31
0.0
 70
    32
  1
ø<>x2
 71
     5
 42
88.89660581836391
  3
VCDDIMSTYLE01
100
AcDbAlignedDimension
 13
1869.858983002712
 23
87.41779277296843
 33
0.0
 14
1869.857641332023
 24
-1.478813045395483
 34
0.0
 50
90.0
100
AcDbRotatedDimension
1001
ACAD
1000
DSTYLE
1002
{
1070
   148
1040
0.0000001
1070
     3
1000
ø <>
1070
    45
1040
0.0000001
1002
}
  0
HATCH
  5
339
330
1F
100
AcDbEntity
  8
Mittellinie
  6
Durchgehend
370
     0
100
AcDbHatch
 10
0.0
 20
0.0
 30
0.0
210
0.0
220
0.0
230
1.0
  2
_USER
 70
     0
 71
     0
 91
        8
 92
        3
 72
     0
 73
     1
 93
        5
 10
1886.138632486912
 20
137.9679424752223
 10
1886.138632486916
 20
142.9679424752229
 10
1876.138632486912
 20
142.9679424752192
 10
1876.138632486911
 20
131.9679424752208
 10
1886.138632486911
 20
131.9679424752181
 97
        0
 92
        3
 72
     0
 73
     1
 93
        6
 10
1886.138632486914
 20
113.9679424752182
 10
1876.13863248691
 20
113.9679424752208
 10
1876.13863248691
 20
96.96946992942868
 10
1882.858983002716
 20
91.33042629023377
 10
1884.481057686041
 20
89.96934402171374
 10
1886.138632486912
 20
89.96931900483307
 97
        0
 92
        3
 72
     0
 73
     1
 93
        6
 10
1886.137213795713
 20
-4.030680973755437
 10
1884.479638994841
 20
-4.030655956874794
 10
1876.137002501276
 20
-11.03053004597075
 10
1876.136489403758
 20
-28.02900258401886
 10
1886.1364893992
 20
-28.02930443320764
 10
1886.136670508715
 20
-22.02930443594511
 97
        0
 92
        3
 72
     0
 73
     1
 93
        4
 10
1886.135946070663
 20
-46.02930442500735
 10
1876.135946075214
 20
-46.02900257581871
 10
1876.135614041105
 20
-57.02900257080594
 10
1886.135614036553
 20
-57.02930442000095
 97
        0
 92
        3
 72
     0
 73
     1
 93
        4
 10
1965.858983002712
 20
142.9678476930027
 10
1955.858983002708
 20
142.967847692999
 10
1955.858983002707
 20
131.9678476930006
 10
1965.858983002711
 20
131.9678476929979
 97
        0
 92
        3
 72
     0
 73
     1
 93
        5
 10
1965.85898300271
 20
113.967847692998
 10
1955.858983002707
 20
113.9678476930006
 10
1955.858983002707
 20
107.9678476930083
 10
1955.858983002704
 20
88.11811583380847
 10
1965.858983002708
 20
88.118115833808
 97
        0
 92
        3
 72
     0
 73
     1
 93
        4
 10
1965.858983002708
 20
-2.181884176476386
 10
1955.858983002704
 20
-2.181884176476784
 10
1955.858983002706
 20
-28.0321523070005
 10
1965.85898300271
 20
-28.03215230699789
 97
        0
 92
        3
 72
     0
 73
     1
 93
        5
 10
1965.858983002711
 20
-46.03215230699777
 10
1955.858983002708
 20
-46.03215230700053
 10
1955.858983002708
 20
-52.03215230700834
 10
1955.858983002708
 20
-57.03215230699894
 10
1965.858983002712
 20
-57.03215230700255
 97
        0
 75
     0
 76
     1
 52
0.0
 41
4.000001895644509
 77
     0
 78
     1
 53
134.999999999977
 43
1689.658007788359
 44
-1905.282999532384
 45
8.980260376912334
 46
8.98026037691279
 79
     1
 49
4.000001895644509
 98
        0
  0
HATCH
  5
33A
330
1F
100
AcDbEntity
  8
Mittellinie
  6
Durchgehend
370
     0
100
AcDbHatch
 10
0.0
 20
0.0
 30
0.0
210
0.0
220
0.0
230
1.0
  2
_USER
 70
     0
 71
     0
 91
        3
 92
        3
 72
     0
 73
     1
 93
        4
 10
1869.858983002712
 20
87.41779277296843
 10
1869.858983002712
 20
85.41794247521408
 10
1960.858983002708
 20
85.4178476930004
 10
1960.858983002708
 20
87.4178476930004
 97
        0
 92
        3
 72
     0
 73
     1
 93
        4
 10
1960.858983002708
 20
-1.482152307000291
 10
1960.858983002708
 20
0.5178476929997374
 10
1923.810185820286
 20
0.5178476929995526
 10
1923.218088798097
 20
-1.480644302215664
 97
        0
 92
        3
 72
     0
 73
     1
 93
        4
 10
1923.218088798097
 20
-1.480644302215707
 10
1923.810185820286
 20
0.5178476929995384
 10
1869.857701601066
 20
0.5178476929992684
 10
1869.857641341275
 20
-1.478506525954713
 97
        0
 75
     0
 76
     1
 52
0.0
 41
1.820026833228662
 77
     0
 78
     1
 53
134.999999999977
 43
768.8053639432078
 44
-866.9161351696304
 45
4.086076777402896
 46
4.086076777403104
 79
     1
 49
1.820026833228662
 98
        0
  0
DIMENSION
  5
33B
330
1F
100
AcDbEntity
  8
Bem
100
AcDbDimension
  2
*D11
 10
1965.858983002712
 20
169.5
 30
0.0
 11
1915.858983002712
 21
174.063
 31
0.0
 70
    32
  1
<>
 71
     5
 42
100.0
  3
VCDDIMSTYLE01
100
AcDbAlignedDimension
 13
1865.858983002712
 23
85.49999999999999
 33
0.0
 14
1965.858983002712
 24
142.9678476930063
 34
0.0
100
AcDbRotatedDimension
1001
ACAD
1000
DSTYLE
1002
{
1070
   148
1040
0.0000001
1070
     3
1000

1070
    45
1040
0.0000001
1002
}
  0
LINE
  5
348
330
1F
100
AcDbEntity
  8
11-Outline hidden
100
AcDbLine
 10
1873.858983002712
 20
87.41794247521406
 30
0.0
 11
1873.858983002712
 21
42.96956470478474
 31
0.0
  0
LINE
  5
349
330
1F
100
AcDbEntity
  8
11-Outline hidden
100
AcDbLine
 10
1873.857641332023
 20
-1.478813045395483
 30
0.0
 11
1873.858983002712
 21
42.96956470478471
 31
0.0
  0
DIMENSION
  5
34A
330
1F
100
AcDbEntity
  8
Bem
100
AcDbDimension
  2
*D12
 10
1873.858983002712
 20
72.0
 30
0.0
 11
1896.133983002712
 21
76.5
 31
0.0
 70
    33
  1
<>
 71
     5
 42
4.0
  3
VCDDIMSTYLE01
100
AcDbAlignedDimension
 13
1869.858983002712
 23
87.41794247521406
 33
0.0
 14
1873.858983002712
 24
87.41794247521406
 34
0.0
1001
ACAD
1000
DSTYLE
1002
{
1070
   148
1040
0.0000001
1070
     3
1000
TH <>
1070
    45
1040
0.0000001
1002
}
  0
DIMENSION
  5
359
330
1F
100
AcDbEntity
  8
Bem
100
AcDbDimension
  2
*D13
 10
2010.858983002718
 20
-78.5
 30
0.0
 11
1981.858983002712
 21
-73.937
 31
0.0
 70
    32
  1
<>
 71
     5
 42
58.00000000001205
  3
VCDDIMSTYLE01
100
AcDbAlignedDimension
 13
1952.858983002706
 23
-36.74034562091335
 33
0.0
 14
2010.858983002718
 24
-44.03215230697886
 34
0.0
100
AcDbRotatedDimension
1001
ACAD
1000
DSTYLE
1002
{
1070
   148
1040
0.0000001
1070
     3
1000

1070
    45
1040
0.0000001
1002
}
  0
LINE
  5
366
330
1F
100
AcDbEntity
  8
12-Outline thin visible
100
AcDbLine
 10
1991.283417897111
 20
-76.24916065243417
 30
0.0
 11
1979.85401058985
 21
-43.3783656733749
 31
0.0
  0
DIMENSION
  5
367
330
1F
100
AcDbEntity
  8
Bem
100
AcDbDimension
  2
*D14
 10
1814.0
 20
-11.0305300459705
 30
0.0
 11
1809.329
 21
42.96946994172914
 31
0.0
 70
    32
  1
ø<>
 71
     5
 42
107.9999999753993
  3
VCDDIMSTYLE01
100
AcDbAlignedDimension
 13
1876.13863248691
 23
96.96946992942878
 33
0.0
 14
1876.137002501276
 24
-11.0305300459705
 34
0.0
 50
90.0
100
AcDbRotatedDimension
1001
ACAD
1000
DSTYLE
1002
{
1070
   148
1040
0.0000001
1070
     3
1000
ø <>
1070
    45
1040
0.0000001
1002
}
  0
VIEWPORT
  5
374
330
1B
100
AcDbEntity
 67
     1
  8
0
100
AcDbViewport
 10
198.1099662162163
 20
220.2917229729731
 30
0.0
 40
1323.135
 41
681.6150000000002
 68
     1
 69
     1
 12
198.1099662162163
 22
220.2917229729731
 13
0.0
 23
0.0
 14
5.0
 24
5.0
 15
5.0
 25
5.0
 16
0.0
 26
0.0
 36
1.0
 17
0.0
 27
0.0
 37
0.0
 42
50.0
 43
0.0
 44
0.0
 45
681.6150000000002
 50
0.0
 51
0.0
 72
  1000
 90
    33312
  1

281
     0
 71
     1
 74
     0
110
0.0
120
0.0
130
0.0
111
1.0
121
0.0
131
0.0
112
0.0
122
1.0
132
0.0
 79
     0
146
0.0
170
     0
  0
VIEWPORT
  5
377
102
{ACAD_XDICTIONARY
360
375
102
}
330
1B
100
AcDbEntity
 67
     1
  8
0
  6
Durchgehend
 62
     7
100
AcDbViewport
 10
243.1716892486635
 20
142.8108445527658
 30
0.0000000000000053
 40
322.7466892438414
 41
411.7864865276653
 68
     2
 69
     2
 12
9.662534213003255
 22
-4.515208601938042
 13
0.0
 23
0.0
 14
0.5
 24
0.5
 15
0.0
 25
0.0
 16
0.0
 26
0.0
 36
1.0
 17
1931.892017400262
 27
51.04432817566142
 37
0.0
 42
50.0
 43
0.0
 44
0.0
 45
411.7864865276653
 50
0.0
 51
0.0
 72
   100
 90
   557152
  1

281
     0
 71
     1
 74
     0
110
0.0
120
0.0
130
0.0
111
1.0
121
0.0
131
0.0
112
0.0
122
1.0
132
0.0
 79
     0
146
0.0
170
     0
  0
ENDSEC
  0
SECTION
  2
OBJECTS
  0
DICTIONARY
  5
C
330
0
100
AcDbDictionary
281
     1
  3
ACAD_GROUP
350
D
  3
ACAD_LAYOUT
350
1A
  3
ACAD_MATERIAL
350
3B
  3
ACAD_MLEADERSTYLE
350
1A2
  3
ACAD_MLINESTYLE
350
17
  3
ACAD_PLOTSETTINGS
350
19
  3
ACAD_PLOTSTYLENAME
350
E
  3
ACAD_SCALELIST
350
379
  3
ACAD_TABLESTYLE
350
1B4
  3
ACAD_VISUALSTYLE
350
2A
  3
ACDB_RECOMPOSE_DATA
350
3CA
  3
AcDbVariableDictionary
350
39F
  3
TC_CUSTOM_TABLES
350
1A1
  0
DICTIONARY
  5
375
330
377
100
AcDbDictionary
280
     1
281
     1
  3
TC_EXTENDED_DATA
360
376
  0
DICTIONARY
  5
D
102
{ACAD_REACTORS
330
C
102
}
330
C
100
AcDbDictionary
281
     1
  0
DICTIONARY
  5
1A
102
{ACAD_REACTORS
330
C
102
}
330
C
100
AcDbDictionary
281
     1
  3
Layout1
350
1E
  3
Layout2
350
150
  3
Model
350
22
  0
DICTIONARY
  5
3B
102
{ACAD_REACTORS
330
C
102
}
330
C
100
AcDbDictionary
281
     1
  3
ByBlock
350
3D
  3
ByLayer
350
3C
  3
Global
350
3E
  0
DICTIONARY
  5
1A2
102
{ACAD_REACTORS
330
C
102
}
330
C
100
AcDbDictionary
281
     1
  3
Standard
350
1A3
  0
DICTIONARY
  5
17
102
{ACAD_REACTORS
330
C
102
}
330
C
100
AcDbDictionary
281
     1
  3
Standard
350
18
  0
DICTIONARY
  5
19
102
{ACAD_REACTORS
330
C
102
}
330
C
100
AcDbDictionary
281
     1
  0
ACDBDICTIONARYWDFLT
  5
E
102
{ACAD_REACTORS
330
C
102
}
330
C
100
AcDbDictionary
281
     1
  3
Normal
350
F
100
AcDbDictionaryWithDefault
340
F
  0
DICTIONARY
  5
379
102
{ACAD_REACTORS
330
C
102
}
330
C
100
AcDbDictionary
281
     1
  3
A0
350
37A
  3
A1
350
37B
  3
A2
350
37C
  3
A3
350
37D
  3
A4
350
37E
  3
A5
350
37F
  3
A6
350
380
  3
A7
350
381
  3
A8
350
382
  3
A9
350
383
  3
B0
350
384
  3
B1
350
385
  3
B2
350
386
  3
B3
350
387
  3
B4
350
388
  3
B5
350
389
  3
B6
350
38A
  3
B7
350
38B
  3
B8
350
38C
  3
B9
350
38D
  3
C0
350
38E
  3
C1
350
38F
  3
C2
350
390
  3
C3
350
391
  3
C4
350
392
  3
C5
350
393
  3
C6
350
394
  3
C7
350
395
  3
C8
350
396
  3
C9
350
397
  3
D0
350
398
  3
D1
350
399
  3
D2
350
39A
  0
DICTIONARY
  5
1B4
102
{ACAD_REACTORS
330
C
102
}
330
C
100
AcDbDictionary
281
     1
  3
Standard
350
1B5
  0
DICTIONARY
  5
2A
102
{ACAD_REACTORS
330
C
102
}
330
C
100
AcDbDictionary
281
     1
  3
2dWireframe
350
2F
  3
3D Hidden
350
31
  3
3dWireframe
350
30
  3
Basic
350
32
  3
Brighten
350
36
  3
ColorChange
350
3A
  3
Conceptual
350
34
  3
Dim
350
35
  3
Facepattern
350
39
  3
Flat
350
2B
  3
FlatWithEdges
350
2C
  3
Gouraud
350
2D
  3
GouraudWithEdges
350
2E
  3
Linepattern
350
38
  3
Realistic
350
33
  3
Thicken
350
37
  0
XRECORD
  5
3CA
102
{ACAD_REACTORS
330
C
102
}
330
C
100
AcDbXrecord
280
     1
 90
        1
330
1B5
  0
DICTIONARY
  5
39F
102
{ACAD_REACTORS
330
C
102
}
330
C
100
AcDbDictionary
281
     1
  3
CANNOSCALE
350
3A0
  0
DICTIONARY
  5
1A1
102
{ACAD_REACTORS
330
C
102
}
330
C
100
AcDbDictionary
281
     1
  0
TCOPTIONALDATA
  5
376
102
{ACAD_REACTORS
330
375
102
}
330
375
100
TcOptionalData
 70
     2
 70
   128
 90
        1
  1
#$AUX@_PS_VIEWPORT_FLAG
 70
    18
 70
     0
  0
LAYOUT
  5
1E
102
{ACAD_REACTORS
330
1A
102
}
330
1A
100
AcDbPlotSettings
  1

  2
TCAD_Plot
  4
420.00 x 297.00 MM
  6

 40
6.35
 41
6.35
 42
6.35000508
 43
6.35000508
 44
420.0
 45
297.0
 46
0.0
 47
0.0
 48
0.0
 49
0.0
140
0.0
141
0.0
142
1.0
143
1.0
 70
   672
 72
     1
 73
     0
 74
     5
  7

 75
    16
 76
     0
 77
     2
 78
   300
147
1.0
148
-6.35
149
-6.35
100
AcDbLayout
  1
Layout1
 70
     1
 71
     1
 10
0.0
 20
0.0
 11
420.0
 21
297.0
 12
0.0
 22
0.0
 32
0.0
 14
0.0
 24
0.0
 34
0.0
 15
420.0
 25
297.0
 35
0.0
146
0.0
 13
0.0
 23
0.0
 33
0.0
 16
1.0
 26
0.0
 36
0.0
 17
0.0
 27
1.0
 37
0.0
 76
     0
330
1B
331
374
  0
LAYOUT
  5
150
102
{ACAD_REACTORS
330
1A
102
}
330
1A
100
AcDbPlotSettings
  1

  2
TCAD_Plot
  4
210.00 x 297.00 MM
  6

 40
0.0
 41
0.0
 42
0.0
 43
0.0
 44
210.0
 45
297.0
 46
0.0
 47
0.0
 48
0.0
 49
0.0
140
0.0
141
0.0
142
1.0
143
1.0
 70
   672
 72
     1
 73
     0
 74
     5
  7

 75
    16
 76
     0
 77
     2
 78
   300
147
1.0
148
0.0
149
0.0
100
AcDbLayout
  1
Layout2
 70
     1
 71
     2
 10
0.0
 20
0.0
 11
210.0
 21
297.0
 12
0.0
 22
0.0
 32
0.0
 14
0.0
 24
0.0
 34
0.0
 15
0.0
 25
0.0
 35
0.0
146
0.0
 13
0.0
 23
0.0
 33
0.0
 16
1.0
 26
0.0
 36
0.0
 17
0.0
 27
1.0
 37
0.0
 76
     0
330
14F
331
378
  0
LAYOUT
  5
22
102
{ACAD_REACTORS
330
1A
102
}
330
1A
100
AcDbPlotSettings
  1

  2
none_device
  4
ANSI_A_(11.00_x_8.50_Inches)
  6

 40
6.35
 41
19.05
 42
6.35000508
 43
19.05000254
 44
279.4
 45
215.9
 46
-6.35
 47
-19.05
 48
-1650.116211974811
 49
-1275.089800162354
140
1650.116211974811
141
1275.089800162354
142
1.0
143
11.811855
 70
  1696
 72
     1
 73
     0
 74
     4
  7

 75
     0
 76
     0
 77
     2
 78
   300
147
0.0091159970742834
148
0.0
149
0.0
100
AcDbLayout
  1
Model
 70
     1
 71
     0
 10
-1275.089770160241
 20
-638.9547597110579
 11
2025.14265378938
 21
1911.224840613649
 12
0.0
 22
0.0
 32
0.0
 14
1804.820000281701
 24
-100.8008571000298
 34
0.0
 15
2041.5070169614
 25
194.6799997182993
 35
0.0
146
0.0
 13
0.0
 23
0.0
 33
0.0
 16
1.0
 26
0.0
 36
0.0
 17
0.0
 27
1.0
 37
0.0
 76
     0
330
1F
331
29
  0
MATERIAL
  5
3D
102
{ACAD_REACTORS
330
3B
102
}
102
{ACAD_XDICTIONARY
360
3C3
102
}
330
3B
100
AcDbMaterial
  1
ByBlock
  0
MATERIAL
  5
3C
102
{ACAD_REACTORS
330
3B
102
}
102
{ACAD_XDICTIONARY
360
3C1
102
}
330
3B
100
AcDbMaterial
  1
ByLayer
  0
MATERIAL
  5
3E
102
{ACAD_REACTORS
330
3B
102
}
102
{ACAD_XDICTIONARY
360
3C5
102
}
330
3B
100
AcDbMaterial
  1
Global
  0
MLEADERSTYLE
  5
1A3
102
{ACAD_REACTORS
330
1A2
102
}
330
1A2
100
AcDbMLeaderStyle
170
     2
171
     1
172
     0
 90
        2
 40
0.0
 41
0.0
173
     1
 91
-1056964608
340
14
 92
       -2
290
     1
 42
2.0
291
     1
 43
8.0
  3

341
0
 44
4.0
300

342
11
174
     1
178
     6
175
     1
176
     0
 93
-1056964608
 45
4.069565217391304
292
     0
297
     0
 46
0.18
343
0
 94
-1056964608
 47
1.0
 49
1.0
140
1.0
293
     1
141
0.0
294
     1
177
     0
142
1.0
295
     0
296
     0
143
0.125
1001
ACAD_MLEADERVER
1070
     2
  0
MLINESTYLE
  5
18
102
{ACAD_REACTORS
330
17
102
}
330
17
100
AcDbMlineStyle
  2
Standard
 70
     0
  3

 62
   256
 51
90.0
 52
90.0
 71
     4
 49
0.5
 62
   256
  6
BYLAYER
 49
-0.5
 62
   256
  6
BYLAYER
 49
0.5
 62
   256
  6
BYLAYER
 49
-0.5
 62
   256
  6
BYLAYER
  0
ACDBPLACEHOLDER
  5
F
102
{ACAD_REACTORS
330
E
102
}
330
E
  0
SCALE
  5
37A
102
{ACAD_REACTORS
330
379
102
}
330
379
100
AcDbScale
 70
     0
300
1:1
140
1.0
141
1.0
290
     1
  0
SCALE
  5
37B
102
{ACAD_REACTORS
330
379
102
}
330
379
100
AcDbScale
 70
     0
300
1:2
140
1.0
141
2.0
290
     0
  0
SCALE
  5
37C
102
{ACAD_REACTORS
330
379
102
}
330
379
100
AcDbScale
 70
     0
300
1:4
140
1.0
141
4.0
290
     0
  0
SCALE
  5
37D
102
{ACAD_REACTORS
330
379
102
}
330
379
100
AcDbScale
 70
     0
300
1:5
140
1.0
141
5.0
290
     0
  0
SCALE
  5
37E
102
{ACAD_REACTORS
330
379
102
}
330
379
100
AcDbScale
 70
     0
300
1:8
140
1.0
141
8.0
290
     0
  0
SCALE
  5
37F
102
{ACAD_REACTORS
330
379
102
}
330
379
100
AcDbScale
 70
     0
300
1:10
140
1.0
141
10.0
290
     0
  0
SCALE
  5
380
102
{ACAD_REACTORS
330
379
102
}
330
379
100
AcDbScale
 70
     0
300
1:16
140
1.0
141
16.0
290
     0
  0
SCALE
  5
381
102
{ACAD_REACTORS
330
379
102
}
330
379
100
AcDbScale
 70
     0
300
1:20
140
1.0
141
20.0
290
     0
  0
SCALE
  5
382
102
{ACAD_REACTORS
330
379
102
}
330
379
100
AcDbScale
 70
     0
300
1:30
140
1.0
141
30.0
290
     0
  0
SCALE
  5
383
102
{ACAD_REACTORS
330
379
102
}
330
379
100
AcDbScale
 70
     0
300
1:40
140
1.0
141
40.0
290
     0
  0
SCALE
  5
384
102
{ACAD_REACTORS
330
379
102
}
330
379
100
AcDbScale
 70
     0
300
1:50
140
1.0
141
50.0
290
     0
  0
SCALE
  5
385
102
{ACAD_REACTORS
330
379
102
}
330
379
100
AcDbScale
 70
     0
300
1:100
140
1.0
141
100.0
290
     0
  0
SCALE
  5
386
102
{ACAD_REACTORS
330
379
102
}
330
379
100
AcDbScale
 70
     0
300
2:1
140
2.0
141
1.0
290
     0
  0
SCALE
  5
387
102
{ACAD_REACTORS
330
379
102
}
330
379
100
AcDbScale
 70
     0
300
4:1
140
4.0
141
1.0
290
     0
  0
SCALE
  5
388
102
{ACAD_REACTORS
330
379
102
}
330
379
100
AcDbScale
 70
     0
300
8:1
140
8.0
141
1.0
290
     0
  0
SCALE
  5
389
102
{ACAD_REACTORS
330
379
102
}
330
379
100
AcDbScale
 70
     0
300
10:1
140
10.0
141
1.0
290
     0
  0
SCALE
  5
38A
102
{ACAD_REACTORS
330
379
102
}
330
379
100
AcDbScale
 70
     0
300
100:1
140
100.0
141
1.0
290
     0
  0
SCALE
  5
38B
102
{ACAD_REACTORS
330
379
102
}
330
379
100
AcDbScale
 70
     0
300
1/128" = 1'-0"
140
0.0078125
141
12.0
290
     0
  0
SCALE
  5
38C
102
{ACAD_REACTORS
330
379
102
}
330
379
100
AcDbScale
 70
     0
300
1/64" = 1'-0"
140
0.015625
141
12.0
290
     0
  0
SCALE
  5
38D
102
{ACAD_REACTORS
330
379
102
}
330
379
100
AcDbScale
 70
     0
300
1/32" = 1'-0"
140
0.03125
141
12.0
290
     0
  0
SCALE
  5
38E
102
{ACAD_REACTORS
330
379
102
}
330
379
100
AcDbScale
 70
     0
300
1/16" = 1'-0"
140
0.0625
141
12.0
290
     0
  0
SCALE
  5
38F
102
{ACAD_REACTORS
330
379
102
}
330
379
100
AcDbScale
 70
     0
300
3/32" = 1'-0"
140
0.09375
141
12.0
290
     0
  0
SCALE
  5
390
102
{ACAD_REACTORS
330
379
102
}
330
379
100
AcDbScale
 70
     0
300
1/8" = 1'-0"
140
0.125
141
12.0
290
     0
  0
SCALE
  5
391
102
{ACAD_REACTORS
330
379
102
}
330
379
100
AcDbScale
 70
     0
300
3/16" = 1'-0"
140
0.1875
141
12.0
290
     0
  0
SCALE
  5
392
102
{ACAD_REACTORS
330
379
102
}
330
379
100
AcDbScale
 70
     0
300
1/4" = 1'-0"
140
0.25
141
12.0
290
     0
  0
SCALE
  5
393
102
{ACAD_REACTORS
330
379
102
}
330
379
100
AcDbScale
 70
     0
300
3/8" = 1'-0"
140
0.375
141
12.0
290
     0
  0
SCALE
  5
394
102
{ACAD_REACTORS
330
379
102
}
330
379
100
AcDbScale
 70
     0
300
1/2" = 1'-0"
140
0.5
141
12.0
290
     0
  0
SCALE
  5
395
102
{ACAD_REACTORS
330
379
102
}
330
379
100
AcDbScale
 70
     0
300
3/4" = 1'-0"
140
0.75
141
12.0
290
     0
  0
SCALE
  5
396
102
{ACAD_REACTORS
330
379
102
}
330
379
100
AcDbScale
 70
     0
300
1" = 1'-0"
140
1.0
141
12.0
290
     0
  0
SCALE
  5
397
102
{ACAD_REACTORS
330
379
102
}
330
379
100
AcDbScale
 70
     0
300
1-1/2" = 1'-0"
140
1.5
141
12.0
290
     0
  0
SCALE
  5
398
102
{ACAD_REACTORS
330
379
102
}
330
379
100
AcDbScale
 70
     0
300
3" = 1'-0"
140
3.0
141
12.0
290
     0
  0
SCALE
  5
399
102
{ACAD_REACTORS
330
379
102
}
330
379
100
AcDbScale
 70
     0
300
6" = 1'-0"
140
6.0
141
12.0
290
     0
  0
SCALE
  5
39A
102
{ACAD_REACTORS
330
379
102
}
330
379
100
AcDbScale
 70
     0
300
1'-0" = 1'-0"
140
12.0
141
12.0
290
     0
  0
TABLESTYLE
  5
1B5
102
{ACAD_REACTORS
330
1B4
102
}
102
{ACAD_XDICTIONARY
360
3C7
102
}
330
1B4
100
AcDbTableStyle
  3

 70
     0
 71
     0
 40
1.5
 41
1.5
280
     0
281
     0
  7
Standard
140
4.5
170
     2
 62
     0
 63
   257
283
     1
274
    -2
284
     1
 64
     0
275
    -2
285
     1
 65
     0
276
    -2
286
     1
 66
     0
277
    -2
287
     1
 67
     0
278
    -2
288
     1
 68
     0
279
    -2
289
     1
 69
     0
  7
Standard
140
6.0
170
     5
 62
     0
 63
   257
283
     1
274
    -2
284
     1
 64
     0
275
    -2
285
     1
 65
     0
276
    -2
286
     1
 66
     0
277
    -2
287
     1
 67
     0
278
    -2
288
     1
 68
     0
279
    -2
289
     1
 69
     0
  7
Standard
140
4.5
170
     5
 62
     0
 63
   257
283
     1
274
    -2
284
     1
 64
     0
275
    -2
285
     1
 65
     0
276
    -2
286
     1
 66
     0
277
    -2
287
     1
 67
     0
278
    -2
288
     1
 68
     0
279
    -2
289
     1
 69
     0
  0
VISUALSTYLE
  5
2F
102
{ACAD_REACTORS
330
2A
102
}
102
{ACAD_XDICTIONARY
360
3A9
102
}
330
2A
100
AcDbVisualStyle
  2
2dWireframe
 70
     4
 71
     0
 72
     2
 73
     0
 90
        0
 40
-0.6
 41
-30.0
 62
     5
 63
     7
421
 16777215
 74
     1
 91
        4
 64
     7
 65
   257
 75
     1
175
     1
 42
1.0
 92
        0
 66
   257
 43
1.0
 76
     1
 77
     6
 78
     2
 67
     7
 79
     5
170
     0
171
     0
290
     0
174
     0
 93
        1
 44
0.0
173
     0
291
     0
 45
0.0
1001
ACAD
1000
AcDbSavedByObjectVersion
1070
     0
  0
VISUALSTYLE
  5
31
102
{ACAD_REACTORS
330
2A
102
}
102
{ACAD_XDICTIONARY
360
3AD
102
}
330
2A
100
AcDbVisualStyle
  2
3D Hidden
 70
     6
 71
     1
 72
     2
 73
     2
 90
        0
 40
-0.6
 41
-30.0
 62
     5
 63
     7
421
 16777215
 74
     2
 91
        2
 64
     7
 65
   257
 75
     2
175
     1
 42
40.0
 92
        0
 66
   257
 43
1.0
 76
     1
 77
     6
 78
     2
 67
     7
 79
     3
170
     0
171
     0
290
     0
174
     0
 93
        1
 44
0.0
173
     0
291
     0
 45
0.0
1001
ACAD
1000
AcDbSavedByObjectVersion
1070
     0
  0
VISUALSTYLE
  5
30
102
{ACAD_REACTORS
330
2A
102
}
102
{ACAD_XDICTIONARY
360
3AB
102
}
330
2A
100
AcDbVisualStyle
  2
3dWireframe
 70
     5
 71
     0
 72
     2
 73
     0
 90
        0
 40
-0.6
 41
-30.0
 62
     5
 63
     7
421
 16777215
 74
     1
 91
        4
 64
     7
 65
   257
 75
     1
175
     1
 42
1.0
 92
        0
 66
   257
 43
1.0
 76
     1
 77
     6
 78
     2
 67
     7
 79
     5
170
     0
171
     0
290
     0
174
     0
 93
        1
 44
0.0
173
     0
291
     0
 45
0.0
1001
ACAD
1000
AcDbSavedByObjectVersion
1070
     0
  0
VISUALSTYLE
  5
32
102
{ACAD_REACTORS
330
2A
102
}
102
{ACAD_XDICTIONARY
360
3AF
102
}
330
2A
100
AcDbVisualStyle
  2
Basic
 70
     7
 71
     1
 72
     0
 73
     1
 90
        0
 40
-0.6
 41
-30.0
 62
     5
 63
     7
421
 16777215
 74
     0
 91
        4
 64
     7
 65
   257
 75
     1
175
     1
 42
1.0
 92
        8
 66
     7
 43
1.0
 76
     1
 77
     6
 78
     2
 67
     7
 79
     5
170
     0
171
     0
290
     0
174
     0
 93
        1
 44
0.0
173
     0
291
     1
 45
0.0
1001
ACAD
1000
AcDbSavedByObjectVersion
1070
     0
  0
VISUALSTYLE
  5
36
102
{ACAD_REACTORS
330
2A
102
}
102
{ACAD_XDICTIONARY
360
3B7
102
}
330
2A
100
AcDbVisualStyle
  2
Brighten
 70
    12
 71
     2
 72
     2
 73
     0
 90
        0
 40
-0.6
 41
-30.0
 62
     5
 63
     7
421
 16777215
 74
     1
 91
        4
 64
     7
 65
   257
 75
     1
175
     1
 42
1.0
 92
        8
 66
     7
 43
1.0
 76
     1
 77
     6
 78
     2
 67
     7
 79
     5
170
     0
171
     0
290
     0
174
     0
 93
        1
 44
50.0
173
     0
291
     1
 45
0.0
1001
ACAD
1000
AcDbSavedByObjectVersion
1070
     0
  0
VISUALSTYLE
  5
3A
102
{ACAD_REACTORS
330
2A
102
}
102
{ACAD_XDICTIONARY
360
3BF
102
}
330
2A
100
AcDbVisualStyle
  2
ColorChange
 70
    16
 71
     2
 72
     2
 73
     3
 90
        0
 40
-0.6
 41
-30.0
 62
     5
 63
     8
421
  8421504
 74
     1
 91
        4
 64
     7
 65
   257
 75
     1
175
     1
 42
1.0
 92
        8
 66
     8
424
  8421504
 43
1.0
 76
     1
 77
     6
 78
     2
 67
     7
 79
     5
170
     0
171
     0
290
     0
174
     0
 93
        1
 44
0.0
173
     0
291
     1
 45
0.0
1001
ACAD
1000
AcDbSavedByObjectVersion
1070
     0
  0
VISUALSTYLE
  5
34
102
{ACAD_REACTORS
330
2A
102
}
102
{ACAD_XDICTIONARY
360
3B3
102
}
330
2A
100
AcDbVisualStyle
  2
Conceptual
 70
     9
 71
     3
 72
     2
 73
     0
 90
        0
 40
-0.6
 41
-30.0
 62
     5
 63
     7
421
 16777215
 74
     2
 91
        2
 64
     7
 65
   257
 75
     1
175
     1
 42
40.0
 92
        8
 66
     7
 43
1.0
 76
     1
 77
     6
 78
     2
 67
     7
 79
     3
170
     0
171
     0
290
     0
174
     0
 93
        1
 44
0.0
173
     0
291
     0
 45
0.0
1001
ACAD
1000
AcDbSavedByObjectVersion
1070
     0
  0
VISUALSTYLE
  5
35
102
{ACAD_REACTORS
330
2A
102
}
102
{ACAD_XDICTIONARY
360
3B5
102
}
330
2A
100
AcDbVisualStyle
  2
Dim
 70
    11
 71
     2
 72
     2
 73
     0
 90
        0
 40
-0.6
 41
-30.0
 62
     5
 63
     7
421
 16777215
 74
     1
 91
        4
 64
     7
 65
   257
 75
     1
175
     1
 42
1.0
 92
        8
 66
     7
 43
1.0
 76
     1
 77
     6
 78
     2
 67
     7
 79
     5
170
     0
171
     0
290
     0
174
     0
 93
        1
 44
-50.0
173
     0
291
     1
 45
0.0
1001
ACAD
1000
AcDbSavedByObjectVersion
1070
     0
  0
VISUALSTYLE
  5
39
102
{ACAD_REACTORS
330
2A
102
}
102
{ACAD_XDICTIONARY
360
3BD
102
}
330
2A
100
AcDbVisualStyle
  2
Facepattern
 70
    15
 71
     2
 72
     2
 73
     0
 90
        0
 40
-0.6
 41
-30.0
 62
     5
 63
     7
421
 16777215
 74
     1
 91
        4
 64
     7
 65
   257
 75
     1
175
     1
 42
1.0
 92
        8
 66
     7
 43
1.0
 76
     1
 77
     6
 78
     2
 67
     7
 79
     5
170
     0
171
     0
290
     0
174
     0
 93
        1
 44
0.0
173
     0
291
     1
 45
0.0
1001
ACAD
1000
AcDbSavedByObjectVersion
1070
     0
  0
VISUALSTYLE
  5
2B
102
{ACAD_REACTORS
330
2A
102
}
102
{ACAD_XDICTIONARY
360
3A1
102
}
330
2A
100
AcDbVisualStyle
  2
Flat
 70
     0
 71
     2
 72
     1
 73
     1
 90
        2
 40
-0.6
 41
30.0
 62
     5
 63
     7
421
 16777215
 74
     0
 91
        4
 64
     7
 65
   257
 75
     1
175
     1
 42
1.0
 92
        8
 66
     7
 43
1.0
 76
     1
 77
     6
 78
     2
 67
     7
 79
     5
170
     0
171
     0
290
     0
174
     0
 93
       13
 44
0.0
173
     0
291
     1
 45
0.0
1001
ACAD
1000
AcDbSavedByObjectVersion
1070
     0
  0
VISUALSTYLE
  5
2C
102
{ACAD_REACTORS
330
2A
102
}
102
{ACAD_XDICTIONARY
360
3A3
102
}
330
2A
100
AcDbVisualStyle
  2
FlatWithEdges
 70
     1
 71
     2
 72
     1
 73
     1
 90
        2
 40
-0.6
 41
30.0
 62
     5
 63
     7
421
 16777215
 74
     1
 91
        4
 64
     7
 65
   257
 75
     1
175
     1
 42
1.0
 92
        0
 66
   257
 43
1.0
 76
     1
 77
     6
 78
     2
 67
     7
 79
     5
170
     0
171
     0
290
     0
174
     0
 93
       13
 44
0.0
173
     0
291
     1
 45
0.0
1001
ACAD
1000
AcDbSavedByObjectVersion
1070
     0
  0
VISUALSTYLE
  5
2D
102
{ACAD_REACTORS
330
2A
102
}
102
{ACAD_XDICTIONARY
360
3A5
102
}
330
2A
100
AcDbVisualStyle
  2
Gouraud
 70
     2
 71
     2
 72
     2
 73
     1
 90
        2
 40
-0.6
 41
30.0
 62
     5
 63
     7
421
 16777215
 74
     0
 91
        4
 64
     7
 65
   257
 75
     1
175
     1
 42
1.0
 92
        0
 66
     7
 43
1.0
 76
     1
 77
     6
 78
     2
 67
     7
 79
     5
170
     0
171
     0
290
     0
174
     0
 93
       13
 44
0.0
173
     0
291
     1
 45
0.0
1001
ACAD
1000
AcDbSavedByObjectVersion
1070
     0
  0
VISUALSTYLE
  5
2E
102
{ACAD_REACTORS
330
2A
102
}
102
{ACAD_XDICTIONARY
360
3A7
102
}
330
2A
100
AcDbVisualStyle
  2
GouraudWithEdges
 70
     3
 71
     2
 72
     2
 73
     1
 90
        2
 40
-0.6
 41
30.0
 62
     5
 63
     7
421
 16777215
 74
     1
 91
        4
 64
     7
 65
   257
 75
     1
175
     1
 42
1.0
 92
        0
 66
   257
 43
1.0
 76
     1
 77
     6
 78
     2
 67
     7
 79
     5
170
     0
171
     0
290
     0
174
     0
 93
       13
 44
0.0
173
     0
291
     1
 45
0.0
1001
ACAD
1000
AcDbSavedByObjectVersion
1070
     0
  0
VISUALSTYLE
  5
38
102
{ACAD_REACTORS
330
2A
102
}
102
{ACAD_XDICTIONARY
360
3BB
102
}
330
2A
100
AcDbVisualStyle
  2
Linepattern
 70
    14
 71
     2
 72
     2
 73
     0
 90
        0
 40
-0.6
 41
-30.0
 62
     5
 63
     7
421
 16777215
 74
     1
 91
        4
 64
     7
 65
   257
 75
     7
175
     7
 42
1.0
 92
        8
 66
     7
 43
1.0
 76
     1
 77
     6
 78
     2
 67
     7
 79
     5
170
     0
171
     0
290
     0
174
     0
 93
        1
 44
0.0
173
     0
291
     1
 45
0.0
1001
ACAD
1000
AcDbSavedByObjectVersion
1070
     0
  0
VISUALSTYLE
  5
33
102
{ACAD_REACTORS
330
2A
102
}
102
{ACAD_XDICTIONARY
360
3B1
102
}
330
2A
100
AcDbVisualStyle
  2
Realistic
 70
     8
 71
     2
 72
     2
 73
     0
 90
        0
 40
-0.6
 41
-30.0
 62
     5
 63
     7
421
 16777215
 74
     1
 91
        0
 64
     7
 65
   257
 75
     1
175
     1
 42
1.0
 92
        8
 66
     8
424
  7895160
 43
1.0
 76
     1
 77
     6
 78
     2
 67
     7
 79
     5
170
     0
171
     0
290
     0
174
     0
 93
       13
 44
0.0
173
     0
291
     0
 45
0.0
1001
ACAD
1000
AcDbSavedByObjectVersion
1070
     0
  0
VISUALSTYLE
  5
37
102
{ACAD_REACTORS
330
2A
102
}
102
{ACAD_XDICTIONARY
360
3B9
102
}
330
2A
100
AcDbVisualStyle
  2
Thicken
 70
    13
 71
     2
 72
     2
 73
     0
 90
        0
 40
-0.6
 41
-30.0
 62
     5
 63
     7
421
 16777215
 74
     1
 91
        4
 64
     7
 65
   257
 75
     1
175
     1
 42
1.0
 92
       12
 66
     7
 43
1.0
 76
     1
 77
     6
 78
     2
 67
     7
 79
     5
170
     0
171
     0
290
     0
174
     0
 93
        1
 44
0.0
173
     0
291
     1
 45
0.0
1001
ACAD
1000
AcDbSavedByObjectVersion
1070
     0
  0
DICTIONARYVAR
  5
3A0
102
{ACAD_REACTORS
330
39F
102
}
330
39F
100
DictionaryVariables
280
     0
  1
1:1
  0
DICTIONARY
  5
3C3
330
3D
100
AcDbDictionary
280
     1
281
     1
  3
ACAD_XREC_ROUNDTRIP
360
3C4
  0
DICTIONARY
  5
3C1
330
3C
100
AcDbDictionary
280
     1
281
     1
  3
ACAD_XREC_ROUNDTRIP
360
3C2
  0
DICTIONARY
  5
3C5
330
3E
100
AcDbDictionary
280
     1
281
     1
  3
ACAD_XREC_ROUNDTRIP
360
3C6
  0
DICTIONARY
  5
3C7
330
1B5
100
AcDbDictionary
280
     1
281
     1
  3
ACAD_ROUNDTRIP_2008_TABLESTYLE_CELLSTYLEMAP
360
3C9
  3
ACAD_XREC_ROUNDTRIP
360
3C8
  0
DICTIONARY
  5
3A9
330
2F
100
AcDbDictionary
280
     1
281
     1
  3
ACAD_XREC_ROUNDTRIP
360
3AA
  0
DICTIONARY
  5
3AD
330
31
100
AcDbDictionary
280
     1
281
     1
  3
ACAD_XREC_ROUNDTRIP
360
3AE
  0
DICTIONARY
  5
3AB
330
30
100
AcDbDictionary
280
     1
281
     1
  3
ACAD_XREC_ROUNDTRIP
360
3AC
  0
DICTIONARY
  5
3AF
330
32
100
AcDbDictionary
280
     1
281
     1
  3
ACAD_XREC_ROUNDTRIP
360
3B0
  0
DICTIONARY
  5
3B7
330
36
100
AcDbDictionary
280
     1
281
     1
  3
ACAD_XREC_ROUNDTRIP
360
3B8
  0
DICTIONARY
  5
3BF
330
3A
100
AcDbDictionary
280
     1
281
     1
  3
ACAD_XREC_ROUNDTRIP
360
3C0
  0
DICTIONARY
  5
3B3
330
34
100
AcDbDictionary
280
     1
281
     1
  3
ACAD_XREC_ROUNDTRIP
360
3B4
  0
DICTIONARY
  5
3B5
330
35
100
AcDbDictionary
280
     1
281
     1
  3
ACAD_XREC_ROUNDTRIP
360
3B6
  0
DICTIONARY
  5
3BD
330
39
100
AcDbDictionary
280
     1
281
     1
  3
ACAD_XREC_ROUNDTRIP
360
3BE
  0
DICTIONARY
  5
3A1
330
2B
100
AcDbDictionary
280
     1
281
     1
  3
ACAD_XREC_ROUNDTRIP
360
3A2
  0
DICTIONARY
  5
3A3
330
2C
100
AcDbDictionary
280
     1
281
     1
  3
ACAD_XREC_ROUNDTRIP
360
3A4
  0
DICTIONARY
  5
3A5
330
2D
100
AcDbDictionary
280
     1
281
     1
  3
ACAD_XREC_ROUNDTRIP
360
3A6
  0
DICTIONARY
  5
3A7
330
2E
100
AcDbDictionary
280
     1
281
     1
  3
ACAD_XREC_ROUNDTRIP
360
3A8
  0
DICTIONARY
  5
3BB
330
38
100
AcDbDictionary
280
     1
281
     1
  3
ACAD_XREC_ROUNDTRIP
360
3BC
  0
DICTIONARY
  5
3B1
330
33
100
AcDbDictionary
280
     1
281
     1
  3
ACAD_XREC_ROUNDTRIP
360
3B2
  0
DICTIONARY
  5
3B9
330
37
100
AcDbDictionary
280
     1
281
     1
  3
ACAD_XREC_ROUNDTRIP
360
3BA
  0
XRECORD
  5
3C4
102
{ACAD_REACTORS
330
3C3
102
}
330
3C3
100
AcDbXrecord
280
     1
102
MATERIAL
148
0.0
149
0.0
149
0.0
 93
        0
 94
      127
282
     0
 72
     1
 77
     1
171
     1
175
     1
179
     1
273
     0
  0
XRECORD
  5
3C2
102
{ACAD_REACTORS
330
3C1
102
}
330
3C1
100
AcDbXrecord
280
     1
102
MATERIAL
148
0.0
149
0.0
149
0.0
 93
        0
 94
      127
282
     0
 72
     1
 77
     1
171
     1
175
     1
179
     1
273
     0
  0
XRECORD
  5
3C6
102
{ACAD_REACTORS
330
3C5
102
}
330
3C5
100
AcDbXrecord
280
     1
102
MATERIAL
148
0.0
149
0.0
149
0.0
 93
        0
 94
      127
282
     0
 72
     1
 77
     1
171
     1
175
     1
179
     1
273
     0
  0
CELLSTYLEMAP
  5
3C9
102
{ACAD_REACTORS
330
3C7
102
}
330
3C7
100
AcDbCellStyleMap
 90
        3
300
CELLSTYLE
  1
TABLEFORMAT_BEGIN
 90
        5
170
     1
 91
        0
 92
        0
 62
   257
 93
        1
300
CONTENTFORMAT
  1
CONTENTFORMAT_BEGIN
 90
        0
 91
        0
 92
        4
 93
        0
300

 40
0.0
140
1.0
 94
        5
 62
     0
340
11
144
6.0
309
CONTENTFORMAT_END
171
     0
 94
        6
 95
        1
302
GRIDFORMAT
  1
GRIDFORMAT_BEGIN
 90
        0
 91
        1
 62
     0
 92
       -2
340
0
 93
        0
 40
0.045
309
GRIDFORMAT_END
 95
        2
302
GRIDFORMAT
  1
GRIDFORMAT_BEGIN
 90
        0
 91
        1
 62
     0
 92
       -2
340
0
 93
        0
 40
0.045
309
GRIDFORMAT_END
 95
        4
302
GRIDFORMAT
  1
GRIDFORMAT_BEGIN
 90
        0
 91
        1
 62
     0
 92
       -2
340
0
 93
        0
 40
0.045
309
GRIDFORMAT_END
 95
        8
302
GRIDFORMAT
  1
GRIDFORMAT_BEGIN
 90
        0
 91
        1
 62
     0
 92
       -2
340
0
 93
        0
 40
0.045
309
GRIDFORMAT_END
 95
       16
302
GRIDFORMAT
  1
GRIDFORMAT_BEGIN
 90
        0
 91
        1
 62
     0
 92
       -2
340
0
 93
        0
 40
0.045
309
GRIDFORMAT_END
 95
       32
302
GRIDFORMAT
  1
GRIDFORMAT_BEGIN
 90
        0
 91
        1
 62
     0
 92
       -2
340
0
 93
        0
 40
0.045
309
GRIDFORMAT_END
309
TABLEFORMAT_END
  1
CELLSTYLE_BEGIN
 90
        1
 91
        1
300
_TITLE
309
CELLSTYLE_END
300
CELLSTYLE
  1
TABLEFORMAT_BEGIN
 90
        5
170
     1
 91
        0
 92
        0
 62
   257
 93
        1
300
CONTENTFORMAT
  1
CONTENTFORMAT_BEGIN
 90
        0
 91
        0
 92
        4
 93
        0
300

 40
0.0
140
1.0
 94
        5
 62
     0
340
11
144
4.5
309
CONTENTFORMAT_END
171
     0
 94
        6
 95
        1
302
GRIDFORMAT
  1
GRIDFORMAT_BEGIN
 90
        0
 91
        1
 62
     0
 92
       -2
340
0
 93
        0
 40
0.045
309
GRIDFORMAT_END
 95
        2
302
GRIDFORMAT
  1
GRIDFORMAT_BEGIN
 90
        0
 91
        1
 62
     0
 92
       -2
340
0
 93
        0
 40
0.045
309
GRIDFORMAT_END
 95
        4
302
GRIDFORMAT
  1
GRIDFORMAT_BEGIN
 90
        0
 91
        1
 62
     0
 92
       -2
340
0
 93
        0
 40
0.045
309
GRIDFORMAT_END
 95
        8
302
GRIDFORMAT
  1
GRIDFORMAT_BEGIN
 90
        0
 91
        1
 62
     0
 92
       -2
340
0
 93
        0
 40
0.045
309
GRIDFORMAT_END
 95
       16
302
GRIDFORMAT
  1
GRIDFORMAT_BEGIN
 90
        0
 91
        1
 62
     0
 92
       -2
340
0
 93
        0
 40
0.045
309
GRIDFORMAT_END
 95
       32
302
GRIDFORMAT
  1
GRIDFORMAT_BEGIN
 90
        0
 91
        1
 62
     0
 92
       -2
340
0
 93
        0
 40
0.045
309
GRIDFORMAT_END
309
TABLEFORMAT_END
  1
CELLSTYLE_BEGIN
 90
        2
 91
        1
300
_HEADER
309
CELLSTYLE_END
300
CELLSTYLE
  1
TABLEFORMAT_BEGIN
 90
        5
170
     1
 91
        0
 92
        0
 62
   257
 93
        1
300
CONTENTFORMAT
  1
CONTENTFORMAT_BEGIN
 90
        0
 91
        0
 92
        4
 93
        0
300

 40
0.0
140
1.0
 94
        2
 62
     0
340
11
144
4.5
309
CONTENTFORMAT_END
171
     0
 94
        6
 95
        1
302
GRIDFORMAT
  1
GRIDFORMAT_BEGIN
 90
        0
 91
        1
 62
     0
 92
       -2
340
0
 93
        0
 40
0.045
309
GRIDFORMAT_END
 95
        2
302
GRIDFORMAT
  1
GRIDFORMAT_BEGIN
 90
        0
 91
        1
 62
     0
 92
       -2
340
0
 93
        0
 40
0.045
309
GRIDFORMAT_END
 95
        4
302
GRIDFORMAT
  1
GRIDFORMAT_BEGIN
 90
        0
 91
        1
 62
     0
 92
       -2
340
0
 93
        0
 40
0.045
309
GRIDFORMAT_END
 95
        8
302
GRIDFORMAT
  1
GRIDFORMAT_BEGIN
 90
        0
 91
        1
 62
     0
 92
       -2
340
0
 93
        0
 40
0.045
309
GRIDFORMAT_END
 95
       16
302
GRIDFORMAT
  1
GRIDFORMAT_BEGIN
 90
        0
 91
        1
 62
     0
 92
       -2
340
0
 93
        0
 40
0.045
309
GRIDFORMAT_END
 95
       32
302
GRIDFORMAT
  1
GRIDFORMAT_BEGIN
 90
        0
 91
        1
 62
     0
 92
       -2
340
0
 93
        0
 40
0.045
309
GRIDFORMAT_END
309
TABLEFORMAT_END
  1
CELLSTYLE_BEGIN
 90
        3
 91
        2
300
_DATA
309
CELLSTYLE_END
  0
XRECORD
  5
3C8
102
{ACAD_REACTORS
330
3C7
102
}
330
3C7
100
AcDbXrecord
280
     1
102
ACAD_ROUNDTRIP_PRE2007_TABLESTYLE
 90
        4
 91
        0
  1

 92
        4
 93
        0
  2

 94
        4
 95
        0
  3

  0
XRECORD
  5
3AA
102
{ACAD_REACTORS
330
3A9
102
}
330
3A9
100
AcDbXrecord
280
     1
102
RTVSPropertyOp0
 70
     1
102
RTVSPropertyOp1
 70
     1
102
RTVSPropertyOp2
 70
     1
102
RTVSPropertyOp3
 70
     1
102
RTVSPropertyOp4
 70
     1
102
RTVSPropertyOp5
 70
     1
102
RTVSPropertyOp6
 70
     1
102
RTVSPropertyOp7
 70
     1
102
RTVSPropertyOp8
 70
     1
102
RTVSPropertyOp9
 70
     1
102
RTVSPropertyOp10
 70
     1
102
RTVSPropertyOp11
 70
     1
102
RTVSPropertyOp12
 70
     1
102
RTVSPropertyOp13
 70
     1
102
RTVSPropertyOp14
 70
     1
102
RTVSPropertyOp15
 70
     1
102
RTVSPropertyOp16
 70
     1
102
RTVSPropertyOp17
 70
     1
102
RTVSPropertyOp18
 70
     1
102
RTVSPropertyOp19
 70
     1
102
RTVSPropertyOp20
 70
     1
102
RTVSPropertyOp21
 70
     1
102
RTVSPropertyOp22
 70
     1
102
RTVSPropertyOp23
 70
     1
102
RTVSPropertyOp24
 70
     1
102
RTVSPropertyOp25
 70
     1
102
RTVSPropertyOp26
 70
     1
102
RTVSPropertyOp27
 70
     1
  0
XRECORD
  5
3AE
102
{ACAD_REACTORS
330
3AD
102
}
330
3AD
100
AcDbXrecord
280
     1
102
RTVSPropertyOp0
 70
     1
102
RTVSPropertyOp1
 70
     1
102
RTVSPropertyOp2
 70
     1
102
RTVSPropertyOp3
 70
     1
102
RTVSPropertyOp4
 70
     1
102
RTVSPropertyOp5
 70
     1
102
RTVSPropertyOp6
 70
     1
102
RTVSPropertyOp7
 70
     1
102
RTVSPropertyOp8
 70
     1
102
RTVSPropertyOp9
 70
     1
102
RTVSPropertyOp10
 70
     1
102
RTVSPropertyOp11
 70
     1
102
RTVSPropertyOp12
 70
     1
102
RTVSPropertyOp13
 70
     1
102
RTVSPropertyOp14
 70
     1
102
RTVSPropertyOp15
 70
     1
102
RTVSPropertyOp16
 70
     1
102
RTVSPropertyOp17
 70
     1
102
RTVSPropertyOp18
 70
     1
102
RTVSPropertyOp19
 70
     1
102
RTVSPropertyOp20
 70
     1
102
RTVSPropertyOp21
 70
     1
102
RTVSPropertyOp22
 70
     1
102
RTVSPropertyOp23
 70
     1
102
RTVSPropertyOp24
 70
     1
102
RTVSPropertyOp25
 70
     1
102
RTVSPropertyOp26
 70
     1
102
RTVSPropertyOp27
 70
     1
  0
XRECORD
  5
3AC
102
{ACAD_REACTORS
330
3AB
102
}
330
3AB
100
AcDbXrecord
280
     1
102
RTVSPropertyOp0
 70
     1
102
RTVSPropertyOp1
 70
     1
102
RTVSPropertyOp2
 70
     1
102
RTVSPropertyOp3
 70
     1
102
RTVSPropertyOp4
 70
     1
102
RTVSPropertyOp5
 70
     1
102
RTVSPropertyOp6
 70
     1
102
RTVSPropertyOp7
 70
     1
102
RTVSPropertyOp8
 70
     1
102
RTVSPropertyOp9
 70
     1
102
RTVSPropertyOp10
 70
     1
102
RTVSPropertyOp11
 70
     1
102
RTVSPropertyOp12
 70
     1
102
RTVSPropertyOp13
 70
     1
102
RTVSPropertyOp14
 70
     1
102
RTVSPropertyOp15
 70
     1
102
RTVSPropertyOp16
 70
     1
102
RTVSPropertyOp17
 70
     1
102
RTVSPropertyOp18
 70
     1
102
RTVSPropertyOp19
 70
     1
102
RTVSPropertyOp20
 70
     1
102
RTVSPropertyOp21
 70
     1
102
RTVSPropertyOp22
 70
     1
102
RTVSPropertyOp23
 70
     1
102
RTVSPropertyOp24
 70
     1
102
RTVSPropertyOp25
 70
     1
102
RTVSPropertyOp26
 70
     1
102
RTVSPropertyOp27
 70
     1
  0
XRECORD
  5
3B0
102
{ACAD_REACTORS
330
3AF
102
}
330
3AF
100
AcDbXrecord
280
     1
102
RTVSPropertyOp0
 70
     1
102
RTVSPropertyOp1
 70
     1
102
RTVSPropertyOp2
 70
     1
102
RTVSPropertyOp3
 70
     1
102
RTVSPropertyOp4
 70
     1
102
RTVSPropertyOp5
 70
     1
102
RTVSPropertyOp6
 70
     1
102
RTVSPropertyOp7
 70
     1
102
RTVSPropertyOp8
 70
     1
102
RTVSPropertyOp9
 70
     1
102
RTVSPropertyOp10
 70
     1
102
RTVSPropertyOp11
 70
     1
102
RTVSPropertyOp12
 70
     1
102
RTVSPropertyOp13
 70
     1
102
RTVSPropertyOp14
 70
     1
102
RTVSPropertyOp15
 70
     1
102
RTVSPropertyOp16
 70
     1
102
RTVSPropertyOp17
 70
     1
102
RTVSPropertyOp18
 70
     1
102
RTVSPropertyOp19
 70
     1
102
RTVSPropertyOp20
 70
     1
102
RTVSPropertyOp21
 70
     1
102
RTVSPropertyOp22
 70
     1
102
RTVSPropertyOp23
 70
     1
102
RTVSPropertyOp24
 70
     1
102
RTVSPropertyOp25
 70
     1
102
RTVSPropertyOp26
 70
     1
102
RTVSPropertyOp27
 70
     1
  0
XRECORD
  5
3B8
102
{ACAD_REACTORS
330
3B7
102
}
330
3B7
100
AcDbXrecord
280
     1
102
RTVSPropertyOp0
 70
     1
102
RTVSPropertyOp1
 70
     1
102
RTVSPropertyOp2
 70
     1
102
RTVSPropertyOp3
 70
     1
102
RTVSPropertyOp4
 70
     1
102
RTVSPropertyOp5
 70
     1
102
RTVSPropertyOp6
 70
     1
102
RTVSPropertyOp7
 70
     1
102
RTVSPropertyOp8
 70
     1
102
RTVSPropertyOp9
 70
     1
102
RTVSPropertyOp10
 70
     1
102
RTVSPropertyOp11
 70
     1
102
RTVSPropertyOp12
 70
     1
102
RTVSPropertyOp13
 70
     1
102
RTVSPropertyOp14
 70
     1
102
RTVSPropertyOp15
 70
     1
102
RTVSPropertyOp16
 70
     1
102
RTVSPropertyOp17
 70
     1
102
RTVSPropertyOp18
 70
     1
102
RTVSPropertyOp19
 70
     1
102
RTVSPropertyOp20
 70
     1
102
RTVSPropertyOp21
 70
     1
102
RTVSPropertyOp22
 70
     1
102
RTVSPropertyOp23
 70
     1
102
RTVSPropertyOp24
 70
     1
102
RTVSPropertyOp25
 70
     1
102
RTVSPropertyOp26
 70
     1
102
RTVSPropertyOp27
 70
     1
  0
XRECORD
  5
3C0
102
{ACAD_REACTORS
330
3BF
102
}
330
3BF
100
AcDbXrecord
280
     1
102
RTVSPropertyOp0
 70
     1
102
RTVSPropertyOp1
 70
     1
102
RTVSPropertyOp2
 70
     1
102
RTVSPropertyOp3
 70
     1
102
RTVSPropertyOp4
 70
     1
102
RTVSPropertyOp5
 70
     1
102
RTVSPropertyOp6
 70
     1
102
RTVSPropertyOp7
 70
     1
102
RTVSPropertyOp8
 70
     1
102
RTVSPropertyOp9
 70
     1
102
RTVSPropertyOp10
 70
     1
102
RTVSPropertyOp11
 70
     1
102
RTVSPropertyOp12
 70
     1
102
RTVSPropertyOp13
 70
     1
102
RTVSPropertyOp14
 70
     1
102
RTVSPropertyOp15
 70
     1
102
RTVSPropertyOp16
 70
     1
102
RTVSPropertyOp17
 70
     1
102
RTVSPropertyOp18
 70
     1
102
RTVSPropertyOp19
 70
     1
102
RTVSPropertyOp20
 70
     1
102
RTVSPropertyOp21
 70
     1
102
RTVSPropertyOp22
 70
     1
102
RTVSPropertyOp23
 70
     1
102
RTVSPropertyOp24
 70
     1
102
RTVSPropertyOp25
 70
     1
102
RTVSPropertyOp26
 70
     1
102
RTVSPropertyOp27
 70
     1
  0
XRECORD
  5
3B4
102
{ACAD_REACTORS
330
3B3
102
}
330
3B3
100
AcDbXrecord
280
     1
102
RTVSPropertyOp0
 70
     1
102
RTVSPropertyOp1
 70
     1
102
RTVSPropertyOp2
 70
     1
102
RTVSPropertyOp3
 70
     1
102
RTVSPropertyOp4
 70
     1
102
RTVSPropertyOp5
 70
     1
102
RTVSPropertyOp6
 70
     1
102
RTVSPropertyOp7
 70
     1
102
RTVSPropertyOp8
 70
     1
102
RTVSPropertyOp9
 70
     1
102
RTVSPropertyOp10
 70
     1
102
RTVSPropertyOp11
 70
     1
102
RTVSPropertyOp12
 70
     1
102
RTVSPropertyOp13
 70
     1
102
RTVSPropertyOp14
 70
     1
102
RTVSPropertyOp15
 70
     1
102
RTVSPropertyOp16
 70
     1
102
RTVSPropertyOp17
 70
     1
102
RTVSPropertyOp18
 70
     1
102
RTVSPropertyOp19
 70
     1
102
RTVSPropertyOp20
 70
     1
102
RTVSPropertyOp21
 70
     1
102
RTVSPropertyOp22
 70
     1
102
RTVSPropertyOp23
 70
     1
102
RTVSPropertyOp24
 70
     1
102
RTVSPropertyOp25
 70
     1
102
RTVSPropertyOp26
 70
     1
102
RTVSPropertyOp27
 70
     1
  0
XRECORD
  5
3B6
102
{ACAD_REACTORS
330
3B5
102
}
330
3B5
100
AcDbXrecord
280
     1
102
RTVSPropertyOp0
 70
     1
102
RTVSPropertyOp1
 70
     1
102
RTVSPropertyOp2
 70
     1
102
RTVSPropertyOp3
 70
     1
102
RTVSPropertyOp4
 70
     1
102
RTVSPropertyOp5
 70
     1
102
RTVSPropertyOp6
 70
     1
102
RTVSPropertyOp7
 70
     1
102
RTVSPropertyOp8
 70
     1
102
RTVSPropertyOp9
 70
     1
102
RTVSPropertyOp10
 70
     1
102
RTVSPropertyOp11
 70
     1
102
RTVSPropertyOp12
 70
     1
102
RTVSPropertyOp13
 70
     1
102
RTVSPropertyOp14
 70
     1
102
RTVSPropertyOp15
 70
     1
102
RTVSPropertyOp16
 70
     1
102
RTVSPropertyOp17
 70
     1
102
RTVSPropertyOp18
 70
     1
102
RTVSPropertyOp19
 70
     1
102
RTVSPropertyOp20
 70
     1
102
RTVSPropertyOp21
 70
     1
102
RTVSPropertyOp22
 70
     1
102
RTVSPropertyOp23
 70
     1
102
RTVSPropertyOp24
 70
     1
102
RTVSPropertyOp25
 70
     1
102
RTVSPropertyOp26
 70
     1
102
RTVSPropertyOp27
 70
     1
  0
XRECORD
  5
3BE
102
{ACAD_REACTORS
330
3BD
102
}
330
3BD
100
AcDbXrecord
280
     1
102
RTVSPropertyOp0
 70
     1
102
RTVSPropertyOp1
 70
     1
102
RTVSPropertyOp2
 70
     1
102
RTVSPropertyOp3
 70
     1
102
RTVSPropertyOp4
 70
     1
102
RTVSPropertyOp5
 70
     1
102
RTVSPropertyOp6
 70
     1
102
RTVSPropertyOp7
 70
     1
102
RTVSPropertyOp8
 70
     1
102
RTVSPropertyOp9
 70
     1
102
RTVSPropertyOp10
 70
     1
102
RTVSPropertyOp11
 70
     1
102
RTVSPropertyOp12
 70
     1
102
RTVSPropertyOp13
 70
     1
102
RTVSPropertyOp14
 70
     1
102
RTVSPropertyOp15
 70
     1
102
RTVSPropertyOp16
 70
     1
102
RTVSPropertyOp17
 70
     1
102
RTVSPropertyOp18
 70
     1
102
RTVSPropertyOp19
 70
     1
102
RTVSPropertyOp20
 70
     1
102
RTVSPropertyOp21
 70
     1
102
RTVSPropertyOp22
 70
     1
102
RTVSPropertyOp23
 70
     1
102
RTVSPropertyOp24
 70
     1
102
RTVSPropertyOp25
 70
     1
102
RTVSPropertyOp26
 70
     1
102
RTVSPropertyOp27
 70
     1
  0
XRECORD
  5
3A2
102
{ACAD_REACTORS
330
3A1
102
}
330
3A1
100
AcDbXrecord
280
     1
102
RTVSPropertyOp0
 70
     1
102
RTVSPropertyOp1
 70
     1
102
RTVSPropertyOp2
 70
     1
102
RTVSPropertyOp3
 70
     1
102
RTVSPropertyOp4
 70
     1
102
RTVSPropertyOp5
 70
     1
102
RTVSPropertyOp6
 70
     1
102
RTVSPropertyOp7
 70
     1
102
RTVSPropertyOp8
 70
     1
102
RTVSPropertyOp9
 70
     1
102
RTVSPropertyOp10
 70
     1
102
RTVSPropertyOp11
 70
     1
102
RTVSPropertyOp12
 70
     1
102
RTVSPropertyOp13
 70
     1
102
RTVSPropertyOp14
 70
     1
102
RTVSPropertyOp15
 70
     1
102
RTVSPropertyOp16
 70
     1
102
RTVSPropertyOp17
 70
     1
102
RTVSPropertyOp18
 70
     1
102
RTVSPropertyOp19
 70
     1
102
RTVSPropertyOp20
 70
     1
102
RTVSPropertyOp21
 70
     1
102
RTVSPropertyOp22
 70
     1
102
RTVSPropertyOp23
 70
     1
102
RTVSPropertyOp24
 70
     1
102
RTVSPropertyOp25
 70
     1
102
RTVSPropertyOp26
 70
     1
102
RTVSPropertyOp27
 70
     1
  0
XRECORD
  5
3A4
102
{ACAD_REACTORS
330
3A3
102
}
330
3A3
100
AcDbXrecord
280
     1
102
RTVSPropertyOp0
 70
     1
102
RTVSPropertyOp1
 70
     1
102
RTVSPropertyOp2
 70
     1
102
RTVSPropertyOp3
 70
     1
102
RTVSPropertyOp4
 70
     1
102
RTVSPropertyOp5
 70
     1
102
RTVSPropertyOp6
 70
     1
102
RTVSPropertyOp7
 70
     1
102
RTVSPropertyOp8
 70
     1
102
RTVSPropertyOp9
 70
     1
102
RTVSPropertyOp10
 70
     1
102
RTVSPropertyOp11
 70
     1
102
RTVSPropertyOp12
 70
     1
102
RTVSPropertyOp13
 70
     1
102
RTVSPropertyOp14
 70
     1
102
RTVSPropertyOp15
 70
     1
102
RTVSPropertyOp16
 70
     1
102
RTVSPropertyOp17
 70
     1
102
RTVSPropertyOp18
 70
     1
102
RTVSPropertyOp19
 70
     1
102
RTVSPropertyOp20
 70
     1
102
RTVSPropertyOp21
 70
     1
102
RTVSPropertyOp22
 70
     1
102
RTVSPropertyOp23
 70
     1
102
RTVSPropertyOp24
 70
     1
102
RTVSPropertyOp25
 70
     1
102
RTVSPropertyOp26
 70
     1
102
RTVSPropertyOp27
 70
     1
  0
XRECORD
  5
3A6
102
{ACAD_REACTORS
330
3A5
102
}
330
3A5
100
AcDbXrecord
280
     1
102
RTVSPropertyOp0
 70
     1
102
RTVSPropertyOp1
 70
     1
102
RTVSPropertyOp2
 70
     1
102
RTVSPropertyOp3
 70
     1
102
RTVSPropertyOp4
 70
     1
102
RTVSPropertyOp5
 70
     1
102
RTVSPropertyOp6
 70
     1
102
RTVSPropertyOp7
 70
     1
102
RTVSPropertyOp8
 70
     1
102
RTVSPropertyOp9
 70
     1
102
RTVSPropertyOp10
 70
     1
102
RTVSPropertyOp11
 70
     1
102
RTVSPropertyOp12
 70
     1
102
RTVSPropertyOp13
 70
     1
102
RTVSPropertyOp14
 70
     1
102
RTVSPropertyOp15
 70
     1
102
RTVSPropertyOp16
 70
     1
102
RTVSPropertyOp17
 70
     1
102
RTVSPropertyOp18
 70
     1
102
RTVSPropertyOp19
 70
     1
102
RTVSPropertyOp20
 70
     1
102
RTVSPropertyOp21
 70
     1
102
RTVSPropertyOp22
 70
     1
102
RTVSPropertyOp23
 70
     1
102
RTVSPropertyOp24
 70
     1
102
RTVSPropertyOp25
 70
     1
102
RTVSPropertyOp26
 70
     1
102
RTVSPropertyOp27
 70
     1
  0
XRECORD
  5
3A8
102
{ACAD_REACTORS
330
3A7
102
}
330
3A7
100
AcDbXrecord
280
     1
102
RTVSPropertyOp0
 70
     1
102
RTVSPropertyOp1
 70
     1
102
RTVSPropertyOp2
 70
     1
102
RTVSPropertyOp3
 70
     1
102
RTVSPropertyOp4
 70
     1
102
RTVSPropertyOp5
 70
     1
102
RTVSPropertyOp6
 70
     1
102
RTVSPropertyOp7
 70
     1
102
RTVSPropertyOp8
 70
     1
102
RTVSPropertyOp9
 70
     1
102
RTVSPropertyOp10
 70
     1
102
RTVSPropertyOp11
 70
     1
102
RTVSPropertyOp12
 70
     1
102
RTVSPropertyOp13
 70
     1
102
RTVSPropertyOp14
 70
     1
102
RTVSPropertyOp15
 70
     1
102
RTVSPropertyOp16
 70
     1
102
RTVSPropertyOp17
 70
     1
102
RTVSPropertyOp18
 70
     1
102
RTVSPropertyOp19
 70
     1
102
RTVSPropertyOp20
 70
     1
102
RTVSPropertyOp21
 70
     1
102
RTVSPropertyOp22
 70
     1
102
RTVSPropertyOp23
 70
     1
102
RTVSPropertyOp24
 70
     1
102
RTVSPropertyOp25
 70
     1
102
RTVSPropertyOp26
 70
     1
102
RTVSPropertyOp27
 70
     1
  0
XRECORD
  5
3BC
102
{ACAD_REACTORS
330
3BB
102
}
330
3BB
100
AcDbXrecord
280
     1
102
RTVSPropertyOp0
 70
     1
102
RTVSPropertyOp1
 70
     1
102
RTVSPropertyOp2
 70
     1
102
RTVSPropertyOp3
 70
     1
102
RTVSPropertyOp4
 70
     1
102
RTVSPropertyOp5
 70
     1
102
RTVSPropertyOp6
 70
     1
102
RTVSPropertyOp7
 70
     1
102
RTVSPropertyOp8
 70
     1
102
RTVSPropertyOp9
 70
     1
102
RTVSPropertyOp10
 70
     1
102
RTVSPropertyOp11
 70
     1
102
RTVSPropertyOp12
 70
     1
102
RTVSPropertyOp13
 70
     1
102
RTVSPropertyOp14
 70
     1
102
RTVSPropertyOp15
 70
     1
102
RTVSPropertyOp16
 70
     1
102
RTVSPropertyOp17
 70
     1
102
RTVSPropertyOp18
 70
     1
102
RTVSPropertyOp19
 70
     1
102
RTVSPropertyOp20
 70
     1
102
RTVSPropertyOp21
 70
     1
102
RTVSPropertyOp22
 70
     1
102
RTVSPropertyOp23
 70
     1
102
RTVSPropertyOp24
 70
     1
102
RTVSPropertyOp25
 70
     1
102
RTVSPropertyOp26
 70
     1
102
RTVSPropertyOp27
 70
     1
  0
XRECORD
  5
3B2
102
{ACAD_REACTORS
330
3B1
102
}
330
3B1
100
AcDbXrecord
280
     1
102
RTVSPropertyOp0
 70
     1
102
RTVSPropertyOp1
 70
     1
102
RTVSPropertyOp2
 70
     1
102
RTVSPropertyOp3
 70
     1
102
RTVSPropertyOp4
 70
     1
102
RTVSPropertyOp5
 70
     1
102
RTVSPropertyOp6
 70
     1
102
RTVSPropertyOp7
 70
     1
102
RTVSPropertyOp8
 70
     1
102
RTVSPropertyOp9
 70
     1
102
RTVSPropertyOp10
 70
     1
102
RTVSPropertyOp11
 70
     1
102
RTVSPropertyOp12
 70
     1
102
RTVSPropertyOp13
 70
     1
102
RTVSPropertyOp14
 70
     1
102
RTVSPropertyOp15
 70
     1
102
RTVSPropertyOp16
 70
     1
102
RTVSPropertyOp17
 70
     1
102
RTVSPropertyOp18
 70
     1
102
RTVSPropertyOp19
 70
     1
102
RTVSPropertyOp20
 70
     1
102
RTVSPropertyOp21
 70
     1
102
RTVSPropertyOp22
 70
     1
102
RTVSPropertyOp23
 70
     1
102
RTVSPropertyOp24
 70
     1
102
RTVSPropertyOp25
 70
     1
102
RTVSPropertyOp26
 70
     1
102
RTVSPropertyOp27
 70
     1
  0
XRECORD
  5
3BA
102
{ACAD_REACTORS
330
3B9
102
}
330
3B9
100
AcDbXrecord
280
     1
102
RTVSPropertyOp0
 70
     1
102
RTVSPropertyOp1
 70
     1
102
RTVSPropertyOp2
 70
     1
102
RTVSPropertyOp3
 70
     1
102
RTVSPropertyOp4
 70
     1
102
RTVSPropertyOp5
 70
     1
102
RTVSPropertyOp6
 70
     1
102
RTVSPropertyOp7
 70
     1
102
RTVSPropertyOp8
 70
     1
102
RTVSPropertyOp9
 70
     1
102
RTVSPropertyOp10
 70
     1
102
RTVSPropertyOp11
 70
     1
102
RTVSPropertyOp12
 70
     1
102
RTVSPropertyOp13
 70
     1
102
RTVSPropertyOp14
 70
     1
102
RTVSPropertyOp15
 70
     1
102
RTVSPropertyOp16
 70
     1
102
RTVSPropertyOp17
 70
     1
102
RTVSPropertyOp18
 70
     1
102
RTVSPropertyOp19
 70
     1
102
RTVSPropertyOp20
 70
     1
102
RTVSPropertyOp21
 70
     1
102
RTVSPropertyOp22
 70
     1
102
RTVSPropertyOp23
 70
     1
102
RTVSPropertyOp24
 70
     1
102
RTVSPropertyOp25
 70
     1
102
RTVSPropertyOp26
 70
     1
102
RTVSPropertyOp27
 70
     1
  0
ENDSEC
  0
EOF
