  0
SECTION
  2
HEADER
  9
$ACADVER
  1
AC1015
  9
$ACADMAINTVER
 70
    20
  9
$DWGCODEPAGE
  3
ANSI_1252
  9
$INSBASE
 10
0.0
 20
0.0
 30
0.0
  9
$EXTMIN
 10
-61.733976541243
 20
-65.77773903005027
 30
-0.0015258207003583
  9
$EXTMAX
 10
162.041733976735
 20
96.34384252636687
 30
0.0000000349246037
  9
$LIMMIN
 10
-170.0
 20
-170.0
  9
$LIMMAX
 10
519.0
 20
260.0
  9
$ORTHOMODE
 70
     0
  9
$REGENMODE
 70
     1
  9
$FILLMODE
 70
     1
  9
$QTEXTMODE
 70
     0
  9
$MIRRTEXT
 70
     0
  9
$LTSCALE
 40
1.0
  9
$ATTMODE
 70
     1
  9
$TEXTSIZE
 40
5.0
  9
$TRACEWID
 40
1.0
  9
$TEXTSTYLE
  7
STANDARD
  9
$CLAYER
  8
INFTOTAL
  9
$CELTYPE
  6
BYLAYER
  9
$CECOLOR
 62
   256
  9
$CELTSCALE
 40
1.0
  9
$DISPSILH
 70
     0
  9
$DIMSCALE
 40
1.0
  9
$DIMASZ
 40
2.5
  9
$DIMEXO
 40
0.0
  9
$DIMDLI
 40
3.75
  9
$DIMRND
 40
0.0
  9
$DIMDLE
 40
0.0
  9
$DIMEXE
 40
1.25
  9
$DIMTP
 40
0.0
  9
$DIMTM
 40
0.0
  9
$DIMTXT
 40
3.5
  9
$DIMCEN
 40
0.0
  9
$DIMTSZ
 40
0.0
  9
$DIMTOL
 70
     0
  9
$DIMLIM
 70
     0
  9
$DIMTIH
 70
     0
  9
$DIMTOH
 70
     0
  9
$DIMSE1
 70
     0
  9
$DIMSE2
 70
     0
  9
$DIMTAD
 70
     1
  9
$DIMZIN
 70
     8
  9
$DIMBLK
  1

  9
$DIMASO
 70
     1
  9
$DIMSHO
 70
     1
  9
$DIMPOST
  1

  9
$DIMAPOST
  1

  9
$DIMALT
 70
     0
  9
$DIMALTD
 70
     3
  9
$DIMALTF
 40
0.039370078
  9
$DIMLFAC
 40
1.0
  9
$DIMTOFL
 70
     0
  9
$DIMTVP
 40
0.0
  9
$DIMTIX
 70
     0
  9
$DIMSOXD
 70
     0
  9
$DIMSAH
 70
     0
  9
$DIMBLK1
  1

  9
$DIMBLK2
  1

  9
$DIMSTYLE
  2
STANDARD
  9
$DIMCLRD
 70
     0
  9
$DIMCLRE
 70
     0
  9
$DIMCLRT
 70
     0
  9
$DIMTFAC
 40
1.0
  9
$DIMGAP
 40
0.625
  9
$DIMJUST
 70
     0
  9
$DIMSD1
 70
     0
  9
$DIMSD2
 70
     0
  9
$DIMTOLJ
 70
     0
  9
$DIMTZIN
 70
     8
  9
$DIMALTZ
 70
     0
  9
$DIMALTTZ
 70
     0
  9
$DIMUPT
 70
     0
  9
$DIMDEC
 70
     2
  9
$DIMTDEC
 70
     2
  9
$DIMALTU
 70
     2
  9
$DIMALTTD
 70
     3
  9
$DIMTXSTY
  7
SIMPLEX
  9
$DIMAUNIT
 70
     0
  9
$DIMADEC
 70
     2
  9
$DIMALTRND
 40
0.0
  9
$DIMAZIN
 70
     2
  9
$DIMDSEP
 70
    46
  9
$DIMATFIT
 70
     3
  9
$DIMFRAC
 70
     0
  9
$DIMLDRBLK
  1

  9
$DIMLUNIT
 70
     2
  9
$DIMLWD
 70
    -2
  9
$DIMLWE
 70
    -2
  9
$DIMTMOVE
 70
     0
  9
$LUNITS
 70
     2
  9
$LUPREC
 70
     4
  9
$SKETCHINC
 40
1.0
  9
$FILLETRAD
 40
0.0
  9
$AUNITS
 70
     0
  9
$AUPREC
 70
     0
  9
$MENU
  1
c:\tdm21\cad\caduti13\tdm13
  9
$ELEVATION
 40
0.0
  9
$PELEVATION
 40
0.0
  9
$THICKNESS
 40
0.0
  9
$LIMCHECK
 70
     0
  9
$CHAMFERA
 40
0.0
  9
$CHAMFERB
 40
0.0
  9
$CHAMFERC
 40
0.0
  9
$CHAMFERD
 40
0.0
  9
$SKPOLY
 70
     0
  9
$TDCREATE
 40
2455677.425115197
  9
$TDUCREATE
 40
2455677.341781864
  9
$TDUPDATE
 40
2455677.425942373
  9
$TDUUPDATE
 40
2455677.342609039
  9
$TDINDWG
 40
0.0008277199
  9
$TDUSRTIMER
 40
0.0008277199
  9
$USRTIMER
 70
     1
  9
$ANGBASE
 50
0.0
  9
$ANGDIR
 70
     0
  9
$PDMODE
 70
     1
  9
$PDSIZE
 40
0.0
  9
$PLINEWID
 40
0.0
  9
$SPLFRAME
 70
     0
  9
$SPLINETYPE
 70
     6
  9
$SPLINESEGS
 70
     8
  9
$HANDSEED
  5
1884
  9
$SURFTAB1
 70
     6
  9
$SURFTAB2
 70
     6
  9
$SURFTYPE
 70
     6
  9
$SURFU
 70
     6
  9
$SURFV
 70
     6
  9
$UCSBASE
  2

  9
$UCSNAME
  2

  9
$UCSORG
 10
0.0
 20
0.0
 30
0.0
  9
$UCSXDIR
 10
1.0
 20
0.0
 30
0.0
  9
$UCSYDIR
 10
0.0
 20
1.0
 30
0.0
  9
$UCSORTHOREF
  2

  9
$UCSORTHOVIEW
 70
     0
  9
$UCSORGTOP
 10
0.0
 20
0.0
 30
0.0
  9
$UCSORGBOTTOM
 10
0.0
 20
0.0
 30
0.0
  9
$UCSORGLEFT
 10
0.0
 20
0.0
 30
0.0
  9
$UCSORGRIGHT
 10
0.0
 20
0.0
 30
0.0
  9
$UCSORGFRONT
 10
0.0
 20
0.0
 30
0.0
  9
$UCSORGBACK
 10
0.0
 20
0.0
 30
0.0
  9
$PUCSBASE
  2

  9
$PUCSNAME
  2

  9
$PUCSORG
 10
0.0
 20
0.0
 30
0.0
  9
$PUCSXDIR
 10
1.0
 20
0.0
 30
0.0
  9
$PUCSYDIR
 10
0.0
 20
1.0
 30
0.0
  9
$PUCSORTHOREF
  2

  9
$PUCSORTHOVIEW
 70
     0
  9
$PUCSORGTOP
 10
0.0
 20
0.0
 30
0.0
  9
$PUCSORGBOTTOM
 10
0.0
 20
0.0
 30
0.0
  9
$PUCSORGLEFT
 10
0.0
 20
0.0
 30
0.0
  9
$PUCSORGRIGHT
 10
0.0
 20
0.0
 30
0.0
  9
$PUCSORGFRONT
 10
0.0
 20
0.0
 30
0.0
  9
$PUCSORGBACK
 10
0.0
 20
0.0
 30
0.0
  9
$USERI1
 70
     0
  9
$USERI2
 70
     0
  9
$USERI3
 70
     0
  9
$USERI4
 70
     0
  9
$USERI5
 70
     0
  9
$USERR1
 40
0.0
  9
$USERR2
 40
0.0
  9
$USERR3
 40
0.0
  9
$USERR4
 40
0.0
  9
$USERR5
 40
0.0
  9
$WORLDVIEW
 70
     1
  9
$SHADEDGE
 70
     3
  9
$SHADEDIF
 70
    70
  9
$TILEMODE
 70
     1
  9
$MAXACTVP
 70
    64
  9
$PINSBASE
 10
0.0
 20
0.0
 30
0.0
  9
$PLIMCHECK
 70
     0
  9
$PEXTMIN
 10
0.0
 20
0.0
 30
0.0
  9
$PEXTMAX
 10
0.0
 20
0.0
 30
0.0
  9
$PLIMMIN
 10
0.0
 20
0.0
  9
$PLIMMAX
 10
12.0
 20
9.0
  9
$UNITMODE
 70
     0
  9
$VISRETAIN
 70
     0
  9
$PLINEGEN
 70
     0
  9
$PSLTSCALE
 70
     1
  9
$TREEDEPTH
 70
  3020
  9
$CMLSTYLE
  2
STANDARD
  9
$CMLJUST
 70
     0
  9
$CMLSCALE
 40
20.0
  9
$PROXYGRAPHICS
 70
     1
  9
$MEASUREMENT
 70
     1
  9
$CELWEIGHT
370
    -1
  9
$ENDCAPS
280
     0
  9
$JOINSTYLE
280
     0
  9
$LWDISPLAY
290
     0
  9
$INSUNITS
 70
     4
  9
$HYPERLINKBASE
  1

  9
$STYLESHEET
  1
MONOCHROME.CTB
  9
$XEDIT
290
     1
  9
$CEPSNTYPE
380
     0
  9
$PSTYLEMODE
290
     1
  9
$FINGERPRINTGUID
  2
{F9B886BF-E650-4058-B2B2-A6E2CD2021EF}
  9
$VERSIONGUID
  2
{386F8D43-C8FF-4F79-8EF7-A4B7BB8EDD96}
  9
$EXTNAMES
290
     1
  9
$PSVPSCALE
 40
0.0
  9
$OLESTARTUP
290
     0
  0
ENDSEC
  0
SECTION
  2
CLASSES
  0
CLASS
  1
ACDBDICTIONARYWDFLT
  2
AcDbDictionaryWithDefault
  3
ObjectDBX Classes
 90
        0
280
     0
281
     0
  0
CLASS
  1
ACDBPLACEHOLDER
  2
AcDbPlaceHolder
  3
ObjectDBX Classes
 90
        0
280
     0
281
     0
  0
CLASS
  1
LAYOUT
  2
AcDbLayout
  3
ObjectDBX Classes
 90
        0
280
     0
281
     0
  0
CLASS
  1
DICTIONARYVAR
  2
AcDbDictionaryVar
  3
ObjectDBX Classes
 90
        0
280
     0
281
     0
  0
CLASS
  1
TABLESTYLE
  2
AcDbTableStyle
  3
ObjectDBX Classes
 90
     2047
280
     0
281
     0
  0
CLASS
  1
DIMASSOC
  2
AcDbDimAssoc
  3
"AcDbDimAssoc|Product Desc:     AcDim ARX App For Dimension|Company:          Autodesk, Inc.|WEB Address:      www.autodesk.com"
 90
        0
280
     0
281
     0
  0
CLASS
  1
SORTENTSTABLE
  2
AcDbSortentsTable
  3
ObjectDBX Classes
 90
        0
280
     0
281
     0
  0
ENDSEC
  0
SECTION
  2
TABLES
  0
TABLE
  2
VPORT
  5
8
330
0
100
AcDbSymbolTable
 70
     2
  0
VPORT
  5
187E
330
8
100
AcDbSymbolTableRecord
100
AcDbViewportTableRecord
  2
*Active
 70
     0
 10
0.0
 20
0.0
 11
1.0
 21
1.0
 12
50.15387871774603
 22
15.2830517481583
 13
0.0
 23
0.0
 14
5.0
 24
5.0
 15
5.0
 25
5.0
 16
0.0
 26
0.0
 36
1.0
 17
0.0
 27
0.0
 37
0.0
 40
167.1963438231624
 41
2.210338680926916
 42
50.0
 43
0.0
 44
0.0
 50
0.0
 51
0.0
 71
     0
 72
  5000
 73
     1
 74
     1
 75
     0
 76
     0
 77
     0
 78
     0
281
     0
 65
     1
110
0.0
120
0.0
130
0.0
111
1.0
121
0.0
131
0.0
112
0.0
122
1.0
132
0.0
 79
     0
146
0.0
  0
ENDTAB
  0
TABLE
  2
LTYPE
  5
5
330
0
100
AcDbSymbolTable
 70
     5
  0
LTYPE
  5
12
330
5
100
AcDbSymbolTableRecord
100
AcDbLinetypeTableRecord
  2
BYBLOCK
 70
     0
  3

 72
    65
 73
     0
 40
0.0
  0
LTYPE
  5
13
330
5
100
AcDbSymbolTableRecord
100
AcDbLinetypeTableRecord
  2
BYLAYER
 70
     0
  3

 72
    65
 73
     0
 40
0.0
  0
LTYPE
  5
14
330
5
100
AcDbSymbolTableRecord
100
AcDbLinetypeTableRecord
  2
CONTINUOUS
 70
     0
  3
Solid line
 72
    65
 73
     0
 40
0.0
  0
LTYPE
  5
20
330
5
100
AcDbSymbolTableRecord
100
AcDbLinetypeTableRecord
  2
HIDDEN
 70
     0
  3
Hidden __ __ __ __ __ __ __ __ __ __ __ __ __ _
 72
    65
 73
     2
 40
9.524999999999996
 49
6.349999999999998
 74
     0
 49
-3.174999999999998
 74
     0
  0
LTYPE
  5
351
330
5
100
AcDbSymbolTableRecord
100
AcDbLinetypeTableRecord
  2
CENTER
 70
     0
  3
Dash dot __ . __ . __ . __ . __ . __ . __ . __
 72
    65
 73
     4
 40
25.4
 49
12.7
 74
     0
 49
-6.349999999999998
 74
     0
 49
0.0
 74
     0
 49
-6.349999999999998
 74
     0
  0
LTYPE
  5
471
330
5
100
AcDbSymbolTableRecord
100
AcDbLinetypeTableRecord
  2
AM_DIN_G_W050x2
 70
     0
  3
__ . __ . __ . __ . __ . __
 72
    65
 73
     4
 40
6.875
 49
4.75
 74
     0
 49
-0.875
 74
     0
 49
0.375
 74
     0
 49
-0.875
 74
     0
  0
LTYPE
  5
1132
330
5
100
AcDbSymbolTableRecord
100
AcDbLinetypeTableRecord
  2
DASHED
 70
     0
  3
__ __ __ __ __
 72
    65
 73
     2
 40
4.0
 49
2.0
 74
     0
 49
-2.0
 74
     0
  0
ENDTAB
  0
TABLE
  2
LAYER
  5
2
102
{ACAD_XDICTIONARY
360
47B
102
}
330
0
100
AcDbSymbolTable
 70
    26
  0
LAYER
  5
F
330
2
100
AcDbSymbolTableRecord
100
AcDbLayerTableRecord
  2
0
 70
     0
 62
     7
  6
CONTINUOUS
370
    -3
390
300
  0
LAYER
  5
23
330
2
100
AcDbSymbolTableRecord
100
AcDbLayerTableRecord
  2
1
 70
     0
 62
     4
  6
CONTINUOUS
370
    50
390
300
  0
LAYER
  5
24
330
2
100
AcDbSymbolTableRecord
100
AcDbLayerTableRecord
  2
SK1
 70
     0
 62
     4
  6
CONTINUOUS
370
    50
390
300
  0
LAYER
  5
25
330
2
100
AcDbSymbolTableRecord
100
AcDbLayerTableRecord
  2
2
 70
     0
 62
     7
  6
CONTINUOUS
370
    25
390
300
  0
LAYER
  5
27
330
2
100
AcDbSymbolTableRecord
100
AcDbLayerTableRecord
  2
SK2
 70
     0
 62
     7
  6
CONTINUOUS
370
    25
390
300
  0
LAYER
  5
28
330
2
100
AcDbSymbolTableRecord
100
AcDbLayerTableRecord
  2
3
 70
     0
 62
     1
  6
HIDDEN
370
    35
390
300
  0
LAYER
  5
29
330
2
100
AcDbSymbolTableRecord
100
AcDbLayerTableRecord
  2
SK3
 70
     0
 62
     1
  6
HIDDEN
370
    35
390
300
  0
LAYER
  5
2A
330
2
100
AcDbSymbolTableRecord
100
AcDbLayerTableRecord
  2
4
 70
     0
 62
     2
  6
AM_DIN_G_W050x2
370
    25
390
300
  0
LAYER
  5
2B
330
2
100
AcDbSymbolTableRecord
100
AcDbLayerTableRecord
  2
SK4
 70
     0
 62
     2
  6
AM_DIN_G_W050x2
370
    25
390
300
  0
LAYER
  5
2D
330
2
100
AcDbSymbolTableRecord
100
AcDbLayerTableRecord
  2
6
 70
     0
 62
     5
  6
CONTINUOUS
370
    35
390
300
  0
LAYER
  5
2E
330
2
100
AcDbSymbolTableRecord
100
AcDbLayerTableRecord
  2
SK6
 70
     0
 62
     5
  6
CONTINUOUS
370
    35
390
300
  0
LAYER
  5
2F
330
2
100
AcDbSymbolTableRecord
100
AcDbLayerTableRecord
  2
DEFPOINTS
 70
     0
 62
     7
  6
CONTINUOUS
290
     0
370
    -3
390
300
  0
LAYER
  5
375
330
2
100
AcDbSymbolTableRecord
100
AcDbLayerTableRecord
  2
CUT
 70
     0
 62
     1
  6
CONTINUOUS
370
    25
390
300
  0
LAYER
  5
376
330
2
100
AcDbSymbolTableRecord
100
AcDbLayerTableRecord
  2
NOCUT
 70
     0
 62
     7
  6
CONTINUOUS
370
    25
390
300
  0
LAYER
  5
472
330
2
100
AcDbSymbolTableRecord
100
AcDbLayerTableRecord
  2
INFTOTAL
 70
     0
 62
     9
  6
CONTINUOUS
290
     0
370
    18
390
300
1001
AcAecLayerStandard
1000

1000

  0
LAYER
  5
473
330
2
100
AcDbSymbolTableRecord
100
AcDbLayerTableRecord
  2
INFTEXT63
 70
     0
 62
     5
  6
CONTINUOUS
370
    -3
390
300
1001
AcAecLayerStandard
1000

1000

  0
LAYER
  5
A89
330
2
100
AcDbSymbolTableRecord
100
AcDbLayerTableRecord
  2
7
 70
     0
 62
     5
  6
CONTINUOUS
370
    25
390
300
1001
AcAecLayerStandard
1000

1000

  0
LAYER
  5
A8C
330
2
100
AcDbSymbolTableRecord
100
AcDbLayerTableRecord
  2
SK7
 70
     0
 62
     5
  6
CONTINUOUS
370
    25
390
300
1001
AcAecLayerStandard
1000

1000

  0
LAYER
  5
1315
330
2
100
AcDbSymbolTableRecord
100
AcDbLayerTableRecord
  2
RECON63
 70
     0
 62
     5
  6
CONTINUOUS
370
    -3
390
300
1001
AcAecLayerStandard
1000

1000

  0
LAYER
  5
14B4
330
2
100
AcDbSymbolTableRecord
100
AcDbLayerTableRecord
  2
SKVIEW1
 70
     0
 62
     4
  6
CONTINUOUS
370
    50
390
300
1001
AcAecLayerStandard
1000

1000

  0
LAYER
  5
14B5
330
2
100
AcDbSymbolTableRecord
100
AcDbLayerTableRecord
  2
SKVIEW2
 70
     0
 62
     7
  6
CONTINUOUS
370
    25
390
300
1001
AcAecLayerStandard
1000

1000

  0
LAYER
  5
14B6
330
2
100
AcDbSymbolTableRecord
100
AcDbLayerTableRecord
  2
SKVIEW3
 70
     0
 62
     1
  6
HIDDEN
370
    35
390
300
1001
AcAecLayerStandard
1000

1000

  0
LAYER
  5
14B7
330
2
100
AcDbSymbolTableRecord
100
AcDbLayerTableRecord
  2
SKVIEW4
 70
     0
 62
     2
  6
AM_DIN_G_W050x2
370
    25
390
300
1001
AcAecLayerStandard
1000

1000

  0
LAYER
  5
14B8
330
2
100
AcDbSymbolTableRecord
100
AcDbLayerTableRecord
  2
SKVIEW6
 70
     0
 62
     5
  6
CONTINUOUS
370
    35
390
300
1001
AcAecLayerStandard
1000

1000

  0
LAYER
  5
14B9
330
2
100
AcDbSymbolTableRecord
100
AcDbLayerTableRecord
  2
SKVIEW7
 70
     0
 62
     5
  6
CONTINUOUS
370
    25
390
300
1001
AcAecLayerStandard
1000

1000

  0
LAYER
  5
14E6
330
2
100
AcDbSymbolTableRecord
100
AcDbLayerTableRecord
  2
INFTEXT61
 70
     0
 62
     5
  6
CONTINUOUS
370
    -3
390
300
1001
AcAecLayerStandard
1000

1000

  0
ENDTAB
  0
TABLE
  2
STYLE
  5
3
330
0
100
AcDbSymbolTable
 70
     6
  0
STYLE
  5
10
330
3
100
AcDbSymbolTableRecord
100
AcDbTextStyleTableRecord
  2
STANDARD
 70
     0
 40
3.5
 41
1.0
 50
0.0
 71
     0
 42
5.0
  3
monos.ttf
  4

1001
ACAD
1000
Monospac821 BT
1071
       49
  0
STYLE
  5
1D
330
3
100
AcDbSymbolTableRecord
100
AcDbTextStyleTableRecord
  2
TXT
 70
     0
 40
8.0
 41
1.0
 50
0.0
 71
     0
 42
8.0
  3
txt
  4

  0
STYLE
  5
1E
330
3
100
AcDbSymbolTableRecord
100
AcDbTextStyleTableRecord
  2
SIMPLEX
 70
     0
 40
0.0
 41
1.0
 50
0.0
 71
     0
 42
3.5
  3
simplex
  4

  0
STYLE
  5
34C
330
3
100
AcDbSymbolTableRecord
100
AcDbTextStyleTableRecord
  2

 70
     1
 40
0.0
 41
1.0
 50
0.0
 71
     0
 42
2.5
  3
ltypeshp.shx
  4

  0
STYLE
  5
394
330
3
100
AcDbSymbolTableRecord
100
AcDbTextStyleTableRecord
  2
Arial
 70
     0
 40
0.0
 41
1.0
 50
0.0
 71
     0
 42
3.5
  3
ARIAL.TTF
  4

1001
ACAD
1000
Arial
1071
       34
  0
STYLE
  5
14F3
330
3
100
AcDbSymbolTableRecord
100
AcDbTextStyleTableRecord
  2
BMG_Text
 70
     0
 40
3.5
 41
1.0
 50
0.0
 71
     0
 42
0.2
  3
monos.ttf
  4

1001
ACAD
1000
Monospac821 BT
1071
       49
  0
ENDTAB
  0
TABLE
  2
VIEW
  5
6
330
0
100
AcDbSymbolTable
 70
     0
  0
ENDTAB
  0
TABLE
  2
UCS
  5
7
330
0
100
AcDbSymbolTable
 70
     0
  0
ENDTAB
  0
TABLE
  2
APPID
  5
9
330
0
100
AcDbSymbolTable
 70
    13
  0
APPID
  5
11
330
9
100
AcDbSymbolTableRecord
100
AcDbRegAppTableRecord
  2
ACAD
 70
     0
  0
APPID
  5
3A6
330
9
100
AcDbSymbolTableRecord
100
AcDbRegAppTableRecord
  2
ACAD_PSEXT
 70
     0
  0
APPID
  5
3A8
330
9
100
AcDbSymbolTableRecord
100
AcDbRegAppTableRecord
  2
ACAD_EXEMPT_FROM_CAD_STANDARDS
 70
     0
  0
APPID
  5
476
330
9
100
AcDbSymbolTableRecord
100
AcDbRegAppTableRecord
  2
AcAecLayerStandard
 70
     0
  0
APPID
  5
477
330
9
100
AcDbSymbolTableRecord
100
AcDbRegAppTableRecord
  2
ACAD_DSTYLE_DIMEXT_LENGTH
 70
     0
  0
APPID
  5
478
330
9
100
AcDbSymbolTableRecord
100
AcDbRegAppTableRecord
  2
ACAD_DSTYLE_DIMEXT_ENABLED
 70
     0
  0
APPID
  5
479
330
9
100
AcDbSymbolTableRecord
100
AcDbRegAppTableRecord
  2
ACAD_DSTYLE_DIMJOGGED_JOGANGLE_SYMBOL
 70
     0
  0
APPID
  5
47A
330
9
100
AcDbSymbolTableRecord
100
AcDbRegAppTableRecord
  2
ACAD_DSTYLE_DIMARC_LENGTH_SYMBOL
 70
     0
  0
APPID
  5
631
330
9
100
AcDbSymbolTableRecord
100
AcDbRegAppTableRecord
  2
ACAD_DSTYLE_DIMTEXT_FILL
 70
     0
  0
APPID
  5
634
330
9
100
AcDbSymbolTableRecord
100
AcDbRegAppTableRecord
  2
ACAD_DSTYLE_DIM_LINETYPE
 70
     0
  0
APPID
  5
635
330
9
100
AcDbSymbolTableRecord
100
AcDbRegAppTableRecord
  2
ACAD_DSTYLE_DIM_EXT1_LINETYPE
 70
     0
  0
APPID
  5
636
330
9
100
AcDbSymbolTableRecord
100
AcDbRegAppTableRecord
  2
ACAD_DSTYLE_DIM_EXT2_LINETYPE
 70
     0
  0
APPID
  5
10B9
330
9
100
AcDbSymbolTableRecord
100
AcDbRegAppTableRecord
  2
DCO15
 70
     0
  0
ENDTAB
  0
TABLE
  2
DIMSTYLE
  5
A
330
0
100
AcDbSymbolTable
 70
     5
100
AcDbDimStyleTable
 71
     2
340
475
340
3F
  0
DIMSTYLE
105
3F
330
A
100
AcDbSymbolTableRecord
100
AcDbDimStyleTableRecord
  2
STANDARD
 70
     0
 41
2.5
 42
0.0
 43
3.75
 44
1.25
 73
     0
 74
     0
 77
     1
 78
     8
 79
     2
140
3.5
141
0.0
143
0.039370078
147
0.625
171
     3
179
     2
271
     2
272
     2
274
     3
283
     0
284
     8
340
1E
  0
DIMSTYLE
105
474
330
A
100
AcDbSymbolTableRecord
100
AcDbDimStyleTableRecord
  2
ISO-25
 70
     0
 41
2.5
 42
0.625
 43
3.75
 44
1.25
 73
     0
 74
     0
 77
     1
 78
     8
140
3.5
141
2.5
143
0.03937007874016
147
0.625
171
     3
172
     1
271
     2
272
     2
274
     3
278
    44
283
     0
284
     8
340
10
  0
DIMSTYLE
105
475
102
{ACAD_REACTORS
330
1701
330
1703
330
170A
330
16C8
330
16CB
330
16CC
330
16CD
330
16D7
330
16DA
330
16DB
102
}
330
A
100
AcDbSymbolTableRecord
100
AcDbDimStyleTableRecord
  2
BMG
 70
     0
 41
4.57
 42
0.0
 43
2.379999999999999
 44
5.0
 47
0.3
 48
0.3
 73
     0
 74
     0
 78
     9
 79
     2
140
3.5
141
0.0
147
1.0
178
     7
271
     2
272
     2
284
     8
340
10
341
412
342
412
1001
ACAD_DSTYLE_DIMEXT_LENGTH
1070
   378
1040
0.18
1001
ACAD_DSTYLE_DIMEXT_ENABLED
1070
   383
1070
     0
1001
ACAD_DSTYLE_DIMARC_LENGTH_SYMBOL
1070
   379
1070
     0
1001
ACAD_DSTYLE_DIMJOGGED_JOGANGLE_SYMBOL
1070
   384
1040
1.570796326794896
  0
DIMSTYLE
105
10B7
330
A
100
AcDbSymbolTableRecord
100
AcDbDimStyleTableRecord
  2
OLYAMM
 70
     0
 41
2.0
 42
0.625
 43
5.0
 44
1.0
 73
     0
 74
     0
 77
     1
 78
     8
140
2.0
141
0.0
143
0.03937007874016
147
0.625
171
     3
172
     1
176
   256
177
   256
178
   256
274
     3
279
     2
284
     8
285
     8
286
     8
340
10
  0
DIMSTYLE
105
10B8
330
A
100
AcDbSymbolTableRecord
100
AcDbDimStyleTableRecord
  2
NC2
 70
     0
 41
2.5
 42
0.0
 43
8.0
 44
1.25
 46
0.1
 73
     0
 74
     0
 77
     1
 78
     8
140
2.5
141
0.0
146
0.7143000000000001
147
1.0
172
     1
174
     1
178
     3
273
     8
274
     4
277
     6
340
10
343
10AF
344
10B3
  0
ENDTAB
  0
TABLE
  2
BLOCK_RECORD
  5
1
330
0
100
AcDbSymbolTable
 70
    24
  0
BLOCK_RECORD
  5
18
330
1
100
AcDbSymbolTableRecord
100
AcDbBlockTableRecord
  2
*MODEL_SPACE
340
303
  0
BLOCK_RECORD
  5
338
330
1
100
AcDbSymbolTableRecord
100
AcDbBlockTableRecord
  2
*Paper_Space
340
33B
  0
BLOCK_RECORD
  5
412
330
1
100
AcDbSymbolTableRecord
100
AcDbBlockTableRecord
  2
_ARROW_FILLED
340
0
102
{BLKREFS
331
1566
331
1567
331
1573
331
1574
331
1580
331
1581
331
158D
331
158E
331
159A
331
159B
331
15A7
331
15A8
331
15B4
331
15B5
331
15C1
331
15C2
331
15CE
331
15CF
331
15DB
331
15DC
331
1814
331
1815
331
181E
331
181F
331
1828
331
1829
331
183C
331
183D
331
1846
331
1847
331
1850
331
1851
331
185A
331
185B
331
1864
331
1865
331
186E
331
186F
331
1878
331
1879
102
}
  0
BLOCK_RECORD
  5
10AF
330
1
100
AcDbSymbolTableRecord
100
AcDbBlockTableRecord
  2
BLK1
340
0
  0
BLOCK_RECORD
  5
10B3
330
1
100
AcDbSymbolTableRecord
100
AcDbBlockTableRecord
  2
BLK2
340
0
  0
BLOCK_RECORD
  5
1560
330
1
100
AcDbSymbolTableRecord
100
AcDbBlockTableRecord
  2
*D3
340
0
  0
BLOCK_RECORD
  5
156D
330
1
100
AcDbSymbolTableRecord
100
AcDbBlockTableRecord
  2
*D4
340
0
  0
BLOCK_RECORD
  5
157A
330
1
100
AcDbSymbolTableRecord
100
AcDbBlockTableRecord
  2
*D5
340
0
  0
BLOCK_RECORD
  5
1587
330
1
100
AcDbSymbolTableRecord
100
AcDbBlockTableRecord
  2
*D6
340
0
  0
BLOCK_RECORD
  5
1594
330
1
100
AcDbSymbolTableRecord
100
AcDbBlockTableRecord
  2
*D7
340
0
  0
BLOCK_RECORD
  5
15A1
330
1
100
AcDbSymbolTableRecord
100
AcDbBlockTableRecord
  2
*D8
340
0
  0
BLOCK_RECORD
  5
15AE
330
1
100
AcDbSymbolTableRecord
100
AcDbBlockTableRecord
  2
*D9
340
0
  0
BLOCK_RECORD
  5
15BB
330
1
100
AcDbSymbolTableRecord
100
AcDbBlockTableRecord
  2
*D10
340
0
  0
BLOCK_RECORD
  5
15C8
330
1
100
AcDbSymbolTableRecord
100
AcDbBlockTableRecord
  2
*D11
340
0
  0
BLOCK_RECORD
  5
15D5
330
1
100
AcDbSymbolTableRecord
100
AcDbBlockTableRecord
  2
*D12
340
0
  0
BLOCK_RECORD
  5
172A
330
1
100
AcDbSymbolTableRecord
100
AcDbBlockTableRecord
  2
*D14
340
0
  0
BLOCK_RECORD
  5
1737
330
1
100
AcDbSymbolTableRecord
100
AcDbBlockTableRecord
  2
*D15
340
0
  0
BLOCK_RECORD
  5
1744
330
1
100
AcDbSymbolTableRecord
100
AcDbBlockTableRecord
  2
*D16
340
0
  0
BLOCK_RECORD
  5
1751
330
1
100
AcDbSymbolTableRecord
100
AcDbBlockTableRecord
  2
*D17
340
0
  0
BLOCK_RECORD
  5
175E
330
1
100
AcDbSymbolTableRecord
100
AcDbBlockTableRecord
  2
*D18
340
0
  0
BLOCK_RECORD
  5
176B
330
1
100
AcDbSymbolTableRecord
100
AcDbBlockTableRecord
  2
*D19
340
0
  0
BLOCK_RECORD
  5
1778
330
1
100
AcDbSymbolTableRecord
100
AcDbBlockTableRecord
  2
*D20
340
0
  0
BLOCK_RECORD
  5
1785
330
1
100
AcDbSymbolTableRecord
100
AcDbBlockTableRecord
  2
*D21
340
0
  0
BLOCK_RECORD
  5
1792
330
1
100
AcDbSymbolTableRecord
100
AcDbBlockTableRecord
  2
*D22
340
0
  0
BLOCK_RECORD
  5
179F
330
1
100
AcDbSymbolTableRecord
100
AcDbBlockTableRecord
  2
*D23
340
0
  0
ENDTAB
  0
ENDSEC
  0
SECTION
  2
BLOCKS
  0
BLOCK
  5
32
330
18
100
AcDbEntity
  8
0
100
AcDbBlockBegin
  2
*MODEL_SPACE
 70
     0
 10
0.0
 20
0.0
 30
0.0
  3
*MODEL_SPACE
  1

  0
ENDBLK
  5
33
330
18
100
AcDbEntity
  8
0
100
AcDbBlockEnd
  0
BLOCK
  5
339
330
338
100
AcDbEntity
 67
     1
  8
0
100
AcDbBlockBegin
  2
*Paper_Space
 70
     0
 10
0.0
 20
0.0
 30
0.0
  3
*Paper_Space
  1

  0
ENDBLK
  5
33A
330
338
100
AcDbEntity
 67
     1
  8
0
100
AcDbBlockEnd
  0
BLOCK
  5
413
330
412
100
AcDbEntity
  8
0
100
AcDbBlockBegin
  2
_ARROW_FILLED
 70
     0
 10
0.0
 20
0.0
 30
0.0
  3
_ARROW_FILLED
  1

  0
SOLID
  5
414
330
412
100
AcDbEntity
  8
0
  6
ByBlock
 62
     0
100
AcDbTrace
 10
0.0
 20
0.0
 30
0.0
 11
-1.0
 21
0.1428571429
 31
0.0
 12
-1.0
 22
-0.1428571429
 32
0.0
 13
-1.0
 23
-0.1428571429
 33
0.0
  0
ENDBLK
  5
415
330
412
100
AcDbEntity
  8
0
  6
ByBlock
 62
     0
100
AcDbBlockEnd
  0
BLOCK
  5
10B0
330
10AF
100
AcDbEntity
  8
0
100
AcDbBlockBegin
  2
BLK1
 70
     0
 10
11.0
 20
10.0
 30
0.0
  3
BLK1
  1
BLK1
  0
LINE
  5
10B1
330
10AF
100
AcDbEntity
  8
0
 62
     0
100
AcDbLine
 10
10.0
 20
10.0
 30
0.0
 11
12.0
 21
10.0
 31
0.0
  0
ENDBLK
  5
10B2
330
10AF
100
AcDbEntity
  8
0
100
AcDbBlockEnd
  0
BLOCK
  5
10B4
330
10B3
100
AcDbEntity
  8
0
100
AcDbBlockBegin
  2
BLK2
 70
     0
 10
10.0
 20
10.0
 30
0.0
  3
BLK2
  1
BLK2
  0
SOLID
  5
10B5
330
10B3
100
AcDbEntity
  8
0
 62
     0
100
AcDbTrace
 10
10.0
 20
10.0
 30
0.0
 11
9.0
 21
10.1667
 31
0.0
 12
9.0
 22
9.83333
 32
0.0
 13
9.0
 23
9.83333
 33
0.0
  0
ENDBLK
  5
10B6
330
10B3
100
AcDbEntity
  8
0
100
AcDbBlockEnd
  0
BLOCK
  5
1561
330
1560
100
AcDbEntity
  8
0
100
AcDbBlockBegin
  2
*D3
 70
     1
 10
0.0
 20
0.0
 30
0.0
  3
*D3
  1

  0
LINE
  5
1562
330
1560
100
AcDbEntity
  8
SK2
 62
     0
370
    -2
100
AcDbLine
 10
1613.015535251966
 20
106.5811915028068
 30
0.0
 11
1559.015535251966
 21
106.5811915028068
 31
0.0
  0
LINE
  5
1563
330
1560
100
AcDbEntity
  8
SK2
 62
     0
370
    -2
100
AcDbLine
 10
1613.015535251966
 20
169.5811915028068
 30
0.0
 11
1559.015535251966
 21
169.5811915028069
 31
0.0
  0
LINE
  5
1564
330
1560
100
AcDbEntity
  8
SK2
 62
     0
370
    -2
100
AcDbLine
 10
1564.015535251966
 20
111.1511915028069
 30
0.0
 11
1564.015535251966
 21
132.7707558035799
 31
0.0
  0
LINE
  5
1565
330
1560
100
AcDbEntity
  8
SK2
 62
     0
370
    -2
100
AcDbLine
 10
1564.015535251966
 20
165.0111915028069
 30
0.0
 11
1564.015535251966
 21
143.3916272020338
 31
0.0
  0
INSERT
  5
1566
330
1560
100
AcDbEntity
  8
SK2
 62
     0
370
    -2
100
AcDbBlockReference
  2
_ARROW_FILLED
 10
1564.015535251966
 20
106.5811915028068
 30
0.0
 41
4.57
 42
4.57
 43
4.57
 50
270.0
  0
INSERT
  5
1567
330
1560
100
AcDbEntity
  8
SK2
 62
     0
370
    -2
100
AcDbBlockReference
  2
_ARROW_FILLED
 10
1564.015535251966
 20
169.5811915028069
 30
0.0
 41
4.57
 42
4.57
 43
4.57
 50
90.0
  0
MTEXT
  5
1568
330
1560
100
AcDbEntity
  8
SK2
 62
     7
100
AcDbMText
 10
1564.015535251966
 20
138.0811915028071
 30
0.0
 40
3.5
 41
0.0
 71
     5
 72
     1
  1
\A1;%%c63
 11
0.0000000000000001
 21
1.0
 31
0.0
 73
     1
 44
1.0
1001
ACAD
1000
MTEXTBEGIN
1070
    73
1070
     1
1070
    44
1040
1.0
1070
    74
1070
     0
1000
MTEXTEND
  0
POINT
  5
1569
330
1560
100
AcDbEntity
  8
DEFPOINTS
 62
     0
100
AcDbPoint
 10
1613.015535251966
 20
106.5811915028068
 30
0.0
  0
POINT
  5
156A
330
1560
100
AcDbEntity
  8
DEFPOINTS
 62
     0
100
AcDbPoint
 10
1613.015535251966
 20
169.5811915028068
 30
0.0
  0
POINT
  5
156B
330
1560
100
AcDbEntity
  8
DEFPOINTS
 62
     0
100
AcDbPoint
 10
1564.015535251966
 20
169.5811915028069
 30
0.0
  0
ENDBLK
  5
156C
330
1560
100
AcDbEntity
  8
0
100
AcDbBlockEnd
  0
BLOCK
  5
156E
330
156D
100
AcDbEntity
  8
0
100
AcDbBlockBegin
  2
*D4
 70
     1
 10
0.0
 20
0.0
 30
0.0
  3
*D4
  1

  0
LINE
  5
156F
330
156D
100
AcDbEntity
  8
SK2
 62
     0
370
    -2
100
AcDbLine
 10
1581.015535251966
 20
159.6546925028068
 30
0.0
 11
1581.015535251966
 21
185.0811915028068
 31
0.0
  0
LINE
  5
1570
330
156D
100
AcDbEntity
  8
SK2
 62
     0
370
    -2
100
AcDbLine
 10
1613.015535251966
 20
169.5811915028068
 30
0.0
 11
1613.015535251966
 21
185.0811915028068
 31
0.0
  0
LINE
  5
1571
330
156D
100
AcDbEntity
  8
SK2
 62
     0
370
    -2
100
AcDbLine
 10
1585.585535251966
 20
180.0811915028068
 30
0.0
 11
1593.276779102985
 21
180.0811915028068
 31
0.0
  0
LINE
  5
1572
330
156D
100
AcDbEntity
  8
SK2
 62
     0
370
    -2
100
AcDbLine
 10
1608.445535251966
 20
180.0811915028068
 30
0.0
 11
1600.754291400947
 21
180.0811915028068
 31
0.0
  0
INSERT
  5
1573
330
156D
100
AcDbEntity
  8
SK2
 62
     0
370
    -2
100
AcDbBlockReference
  2
_ARROW_FILLED
 10
1581.015535251966
 20
180.0811915028068
 30
0.0
 41
4.57
 42
4.57
 43
4.57
 50
180.0
  0
INSERT
  5
1574
330
156D
100
AcDbEntity
  8
SK2
 62
     0
370
    -2
100
AcDbBlockReference
  2
_ARROW_FILLED
 10
1613.015535251966
 20
180.0811915028068
 30
0.0
 41
4.57
 42
4.57
 43
4.57
  0
MTEXT
  5
1575
330
156D
100
AcDbEntity
  8
SK2
 62
     7
100
AcDbMText
 10
1597.015535251966
 20
180.0811915028068
 30
0.0
 40
3.5
 41
0.0
 71
     5
 72
     1
  1
\A1;32
 73
     1
 44
1.0
1001
ACAD
1000
MTEXTBEGIN
1070
    73
1070
     1
1070
    44
1040
1.0
1070
    74
1070
     0
1000
MTEXTEND
  0
POINT
  5
1576
330
156D
100
AcDbEntity
  8
DEFPOINTS
 62
     0
100
AcDbPoint
 10
1581.015535251966
 20
159.6546925028068
 30
0.0
  0
POINT
  5
1577
330
156D
100
AcDbEntity
  8
DEFPOINTS
 62
     0
100
AcDbPoint
 10
1613.015535251966
 20
169.5811915028068
 30
0.0
  0
POINT
  5
1578
330
156D
100
AcDbEntity
  8
DEFPOINTS
 62
     0
100
AcDbPoint
 10
1613.015535251966
 20
180.0811915028068
 30
0.0
  0
ENDBLK
  5
1579
330
156D
100
AcDbEntity
  8
0
100
AcDbBlockEnd
  0
BLOCK
  5
157B
330
157A
100
AcDbEntity
  8
0
100
AcDbBlockBegin
  2
*D5
 70
     1
 10
0.0
 20
0.0
 30
0.0
  3
*D5
  1

  0
LINE
  5
157C
330
157A
100
AcDbEntity
  8
SK2
 62
     0
370
    -2
100
AcDbLine
 10
1581.015535251966
 20
159.6546925028068
 30
0.0
 11
1581.015535251966
 21
232.164162634155
 31
0.0
  0
LINE
  5
157D
330
157A
100
AcDbEntity
  8
SK2
 62
     0
370
    -2
100
AcDbLine
 10
1733.015535251966
 20
161.0811915028068
 30
0.0
 11
1733.015535251966
 21
232.164162634155
 31
0.0
  0
LINE
  5
157E
330
157A
100
AcDbEntity
  8
SK2
 62
     0
370
    -2
100
AcDbLine
 10
1585.585535251966
 20
227.164162634155
 30
0.0
 11
1651.942450220342
 21
227.164162634155
 31
0.0
  0
LINE
  5
157F
330
157A
100
AcDbEntity
  8
SK2
 62
     0
370
    -2
100
AcDbLine
 10
1728.445535251966
 20
227.164162634155
 30
0.0
 11
1662.088620283589
 21
227.164162634155
 31
0.0
  0
INSERT
  5
1580
330
157A
100
AcDbEntity
  8
SK2
 62
     0
370
    -2
100
AcDbBlockReference
  2
_ARROW_FILLED
 10
1581.015535251966
 20
227.164162634155
 30
0.0
 41
4.57
 42
4.57
 43
4.57
 50
180.0
  0
INSERT
  5
1581
330
157A
100
AcDbEntity
  8
SK2
 62
     0
370
    -2
100
AcDbBlockReference
  2
_ARROW_FILLED
 10
1733.015535251966
 20
227.164162634155
 30
0.0
 41
4.57
 42
4.57
 43
4.57
  0
MTEXT
  5
1582
330
157A
100
AcDbEntity
  8
SK2
 62
     7
100
AcDbMText
 10
1657.015535251966
 20
227.164162634155
 30
0.0
 40
3.5
 41
0.0
 71
     5
 72
     1
  1
\A1;152
 73
     1
 44
1.0
1001
ACAD
1000
MTEXTBEGIN
1070
    73
1070
     1
1070
    44
1040
1.0
1070
    74
1070
     0
1000
MTEXTEND
  0
POINT
  5
1583
330
157A
100
AcDbEntity
  8
DEFPOINTS
 62
     0
100
AcDbPoint
 10
1581.015535251966
 20
159.6546925028068
 30
0.0
  0
POINT
  5
1584
330
157A
100
AcDbEntity
  8
DEFPOINTS
 62
     0
100
AcDbPoint
 10
1733.015535251966
 20
161.0811915028068
 30
0.0
  0
POINT
  5
1585
330
157A
100
AcDbEntity
  8
DEFPOINTS
 62
     0
100
AcDbPoint
 10
1733.015535251966
 20
227.164162634155
 30
0.0
  0
ENDBLK
  5
1586
330
157A
100
AcDbEntity
  8
0
100
AcDbBlockEnd
  0
BLOCK
  5
1588
330
1587
100
AcDbEntity
  8
0
100
AcDbBlockBegin
  2
*D6
 70
     1
 10
0.0
 20
0.0
 30
0.0
  3
*D6
  1

  0
LINE
  5
1589
330
1587
100
AcDbEntity
  8
2
 62
     0
370
    -2
100
AcDbLine
 10
1733.015535251966
 20
161.0811915028068
 30
0.0
 11
1733.015535251966
 21
216.879164812193
 31
0.0
  0
LINE
  5
158A
330
1587
100
AcDbEntity
  8
2
 62
     0
370
    -2
100
AcDbLine
 10
1613.015535251966
 20
169.5811915028068
 30
0.0
 11
1613.015535251966
 21
216.879164812193
 31
0.0
  0
LINE
  5
158B
330
1587
100
AcDbEntity
  8
2
 62
     0
370
    -2
100
AcDbLine
 10
1728.445535251966
 20
211.879164812193
 30
0.0
 11
1678.105837430462
 21
211.879164812193
 31
0.0
  0
LINE
  5
158C
330
1587
100
AcDbEntity
  8
2
 62
     0
370
    -2
100
AcDbLine
 10
1617.585535251966
 20
211.879164812193
 30
0.0
 11
1667.92523307347
 21
211.879164812193
 31
0.0
  0
INSERT
  5
158D
330
1587
100
AcDbEntity
  8
2
 62
     0
370
    -2
100
AcDbBlockReference
  2
_ARROW_FILLED
 10
1733.015535251966
 20
211.879164812193
 30
0.0
 41
4.57
 42
4.57
 43
4.57
  0
INSERT
  5
158E
330
1587
100
AcDbEntity
  8
2
 62
     0
370
    -2
100
AcDbBlockReference
  2
_ARROW_FILLED
 10
1613.015535251966
 20
211.879164812193
 30
0.0
 41
4.57
 42
4.57
 43
4.57
 50
180.0
  0
MTEXT
  5
158F
330
1587
100
AcDbEntity
  8
2
 62
     7
100
AcDbMText
 10
1673.015535251966
 20
211.879164812193
 30
0.0
 40
3.5
 41
0.0
 71
     5
 72
     1
  1
\A1;120
 73
     1
 44
1.0
1001
ACAD
1000
MTEXTBEGIN
1070
    73
1070
     1
1070
    44
1040
1.0
1070
    74
1070
     0
1000
MTEXTEND
  0
POINT
  5
1590
330
1587
100
AcDbEntity
  8
DEFPOINTS
 62
     0
100
AcDbPoint
 10
1733.015535251966
 20
161.0811915028068
 30
0.0
  0
POINT
  5
1591
330
1587
100
AcDbEntity
  8
DEFPOINTS
 62
     0
100
AcDbPoint
 10
1613.015535251966
 20
169.5811915028068
 30
0.0
  0
POINT
  5
1592
330
1587
100
AcDbEntity
  8
DEFPOINTS
 62
     0
100
AcDbPoint
 10
1613.015535251966
 20
211.879164812193
 30
0.0
  0
ENDBLK
  5
1593
330
1587
100
AcDbEntity
  8
0
100
AcDbBlockEnd
  0
BLOCK
  5
1595
330
1594
100
AcDbEntity
  8
0
100
AcDbBlockBegin
  2
*D7
 70
     1
 10
0.0
 20
0.0
 30
0.0
  3
*D7
  1

  0
LINE
  5
1596
330
1594
100
AcDbEntity
  8
2
 62
     0
370
    -2
100
AcDbLine
 10
1712.672971251966
 20
113.0811915028068
 30
0.0
 11
1663.026956790829
 21
113.0811915028068
 31
0.0
  0
LINE
  5
1597
330
1594
100
AcDbEntity
  8
2
 62
     0
370
    -2
100
AcDbLine
 10
1712.672971251966
 20
163.0811915028068
 30
0.0
 11
1663.026956790829
 21
163.0811915028068
 31
0.0
  0
LINE
  5
1598
330
1594
100
AcDbEntity
  8
2
 62
     0
370
    -2
100
AcDbLine
 10
1668.026956790829
 20
117.6511915028068
 30
0.0
 11
1668.026956790829
 21
158.5111915028068
 31
0.0
  0
LINE
  5
1599
330
1594
100
AcDbEntity
  8
2
 62
     0
370
    -2
100
AcDbLine
 10
1668.026956790829
 20
163.0811915028068
 30
0.0
 11
1668.026956790829
 21
170.4798195863526
 31
0.0
  0
INSERT
  5
159A
330
1594
100
AcDbEntity
  8
2
 62
     0
370
    -2
100
AcDbBlockReference
  2
_ARROW_FILLED
 10
1668.026956790829
 20
113.0811915028068
 30
0.0
 41
4.57
 42
4.57
 43
4.57
 50
270.0
  0
INSERT
  5
159B
330
1594
100
AcDbEntity
  8
2
 62
     0
370
    -2
100
AcDbBlockReference
  2
_ARROW_FILLED
 10
1668.026956790829
 20
163.0811915028068
 30
0.0
 41
4.57
 42
4.57
 43
4.57
 50
90.0
  0
MTEXT
  5
159C
330
1594
100
AcDbEntity
  8
2
 62
     7
100
AcDbMText
 10
1668.026956790829
 20
175.8074724324526
 30
0.0
 40
3.5
 41
0.0
 71
     5
 72
     1
  1
\A1;%%c50
 11
0.0000000000000001
 21
1.0
 31
0.0
 73
     1
 44
1.0
1001
ACAD
1000
MTEXTBEGIN
1070
    73
1070
     1
1070
    44
1040
1.0
1070
    74
1070
     0
1000
MTEXTEND
  0
POINT
  5
159D
330
1594
100
AcDbEntity
  8
DEFPOINTS
 62
     0
100
AcDbPoint
 10
1712.672971251966
 20
113.0811915028068
 30
0.0
  0
POINT
  5
159E
330
1594
100
AcDbEntity
  8
DEFPOINTS
 62
     0
100
AcDbPoint
 10
1712.672971251966
 20
163.0811915028068
 30
0.0
  0
POINT
  5
159F
330
1594
100
AcDbEntity
  8
DEFPOINTS
 62
     0
100
AcDbPoint
 10
1668.026956790829
 20
163.0811915028068
 30
0.0
  0
ENDBLK
  5
15A0
330
1594
100
AcDbEntity
  8
0
100
AcDbBlockEnd
  0
BLOCK
  5
15A2
330
15A1
100
AcDbEntity
  8
0
100
AcDbBlockBegin
  2
*D8
 70
     1
 10
0.0
 20
0.0
 30
0.0
  3
*D8
  1

  0
LINE
  5
15A3
330
15A1
100
AcDbEntity
  8
SK2
 62
     0
370
    -2
100
AcDbLine
 10
1727.015535251966
 20
125.5811915028068
 30
0.0
 11
1756.515535251966
 21
125.5811915028068
 31
0.0
  0
LINE
  5
15A4
330
15A1
100
AcDbEntity
  8
SK2
 62
     0
370
    -2
100
AcDbLine
 10
1727.015535251966
 20
150.5811915028068
 30
0.0
 11
1756.515535251966
 21
150.5811915028068
 31
0.0
  0
LINE
  5
15A5
330
15A1
100
AcDbEntity
  8
SK2
 62
     0
370
    -2
100
AcDbLine
 10
1751.515535251966
 20
130.1511915028068
 30
0.0
 11
1751.515535251966
 21
132.7633770263487
 31
0.0
  0
LINE
  5
15A6
330
15A1
100
AcDbEntity
  8
SK2
 62
     0
370
    -2
100
AcDbLine
 10
1751.515535251966
 20
146.0111915028068
 30
0.0
 11
1751.515535251966
 21
143.399005979265
 31
0.0
  0
INSERT
  5
15A7
330
15A1
100
AcDbEntity
  8
SK2
 62
     0
370
    -2
100
AcDbBlockReference
  2
_ARROW_FILLED
 10
1751.515535251966
 20
125.5811915028068
 30
0.0
 41
4.57
 42
4.57
 43
4.57
 50
270.0
  0
INSERT
  5
15A8
330
15A1
100
AcDbEntity
  8
SK2
 62
     0
370
    -2
100
AcDbBlockReference
  2
_ARROW_FILLED
 10
1751.515535251966
 20
150.5811915028068
 30
0.0
 41
4.57
 42
4.57
 43
4.57
 50
90.0
  0
MTEXT
  5
15A9
330
15A1
100
AcDbEntity
  8
SK2
 62
     7
100
AcDbMText
 10
1751.515535251966
 20
138.0811915028071
 30
0.0
 40
3.5
 41
0.0
 71
     5
 72
     1
  1
\A1;%%c25
 11
0.0000000000000001
 21
1.0
 31
0.0
 73
     1
 44
1.0
1001
ACAD
1000
MTEXTBEGIN
1070
    73
1070
     1
1070
    44
1040
1.0
1070
    74
1070
     0
1000
MTEXTEND
  0
POINT
  5
15AA
330
15A1
100
AcDbEntity
  8
DEFPOINTS
 62
     0
100
AcDbPoint
 10
1727.015535251966
 20
125.5811915028068
 30
0.0
  0
POINT
  5
15AB
330
15A1
100
AcDbEntity
  8
DEFPOINTS
 62
     0
100
AcDbPoint
 10
1727.015535251966
 20
150.5811915028068
 30
0.0
  0
POINT
  5
15AC
330
15A1
100
AcDbEntity
  8
DEFPOINTS
 62
     0
100
AcDbPoint
 10
1751.515535251966
 20
150.5811915028068
 30
0.0
  0
ENDBLK
  5
15AD
330
15A1
100
AcDbEntity
  8
0
100
AcDbBlockEnd
  0
BLOCK
  5
15AF
330
15AE
100
AcDbEntity
  8
0
100
AcDbBlockBegin
  2
*D9
 70
     1
 10
0.0
 20
0.0
 30
0.0
  3
*D9
  1

  0
LINE
  5
15B0
330
15AE
100
AcDbEntity
  8
SK2
 62
     0
370
    -2
100
AcDbLine
 10
1733.015535251966
 20
115.0811915028068
 30
0.0
 11
1770.515535251966
 21
115.0811915028068
 31
0.0
  0
LINE
  5
15B1
330
15AE
100
AcDbEntity
  8
SK2
 62
     0
370
    -2
100
AcDbLine
 10
1733.015535251966
 20
161.0811915028068
 30
0.0
 11
1770.515535251966
 21
161.0811915028068
 31
0.0
  0
LINE
  5
15B2
330
15AE
100
AcDbEntity
  8
SK2
 62
     0
370
    -2
100
AcDbLine
 10
1765.515535251966
 20
119.6511915028068
 30
0.0
 11
1765.515535251966
 21
132.7387811022447
 31
0.0
  0
LINE
  5
15B3
330
15AE
100
AcDbEntity
  8
SK2
 62
     0
370
    -2
100
AcDbLine
 10
1765.515535251966
 20
156.5111915028069
 30
0.0
 11
1765.515535251966
 21
143.423601903369
 31
0.0
  0
INSERT
  5
15B4
330
15AE
100
AcDbEntity
  8
SK2
 62
     0
370
    -2
100
AcDbBlockReference
  2
_ARROW_FILLED
 10
1765.515535251966
 20
115.0811915028068
 30
0.0
 41
4.57
 42
4.57
 43
4.57
 50
270.0
  0
INSERT
  5
15B5
330
15AE
100
AcDbEntity
  8
SK2
 62
     0
370
    -2
100
AcDbBlockReference
  2
_ARROW_FILLED
 10
1765.515535251966
 20
161.0811915028068
 30
0.0
 41
4.57
 42
4.57
 43
4.57
 50
90.0
  0
MTEXT
  5
15B6
330
15AE
100
AcDbEntity
  8
SK2
 62
     7
100
AcDbMText
 10
1765.515535251966
 20
138.0811915028071
 30
0.0
 40
3.5
 41
0.0
 71
     5
 72
     1
  1
\A1;%%c46
 11
0.0000000000000001
 21
1.0
 31
0.0
 73
     1
 44
1.0
1001
ACAD
1000
MTEXTBEGIN
1070
    73
1070
     1
1070
    44
1040
1.0
1070
    74
1070
     0
1000
MTEXTEND
  0
POINT
  5
15B7
330
15AE
100
AcDbEntity
  8
DEFPOINTS
 62
     0
100
AcDbPoint
 10
1733.015535251966
 20
115.0811915028068
 30
0.0
  0
POINT
  5
15B8
330
15AE
100
AcDbEntity
  8
DEFPOINTS
 62
     0
100
AcDbPoint
 10
1733.015535251966
 20
161.0811915028068
 30
0.0
  0
POINT
  5
15B9
330
15AE
100
AcDbEntity
  8
DEFPOINTS
 62
     0
100
AcDbPoint
 10
1765.515535251966
 20
161.0811915028068
 30
0.0
  0
ENDBLK
  5
15BA
330
15AE
100
AcDbEntity
  8
0
100
AcDbBlockEnd
  0
BLOCK
  5
15BC
330
15BB
100
AcDbEntity
  8
0
100
AcDbBlockBegin
  2
*D10
 70
     1
 10
0.0
 20
0.0
 30
0.0
  3
*D10
  1

  0
LINE
  5
15BD
330
15BB
100
AcDbEntity
  8
SK2
 62
     0
370
    -2
100
AcDbLine
 10
1733.015535251966
 20
161.0811915028068
 30
0.0
 11
1733.015535251966
 21
199.0811915028068
 31
0.0
  0
LINE
  5
15BE
330
15BB
100
AcDbEntity
  8
SK2
 62
     0
370
    -2
100
AcDbLine
 10
1639.015535251966
 20
169.5811915028068
 30
0.0
 11
1639.015535251966
 21
199.0811915028068
 31
0.0
  0
LINE
  5
15BF
330
15BB
100
AcDbEntity
  8
SK2
 62
     0
370
    -2
100
AcDbLine
 10
1728.445535251966
 20
194.0811915028069
 30
0.0
 11
1689.765359566793
 21
194.0811915028069
 31
0.0
  0
LINE
  5
15C0
330
15BB
100
AcDbEntity
  8
SK2
 62
     0
370
    -2
100
AcDbLine
 10
1643.585535251966
 20
194.0811915028069
 30
0.0
 11
1682.265710937138
 21
194.0811915028069
 31
0.0
  0
INSERT
  5
15C1
330
15BB
100
AcDbEntity
  8
SK2
 62
     0
370
    -2
100
AcDbBlockReference
  2
_ARROW_FILLED
 10
1733.015535251966
 20
194.0811915028069
 30
0.0
 41
4.57
 42
4.57
 43
4.57
  0
INSERT
  5
15C2
330
15BB
100
AcDbEntity
  8
SK2
 62
     0
370
    -2
100
AcDbBlockReference
  2
_ARROW_FILLED
 10
1639.015535251966
 20
194.0811915028069
 30
0.0
 41
4.57
 42
4.57
 43
4.57
 50
180.0
  0
MTEXT
  5
15C3
330
15BB
100
AcDbEntity
  8
SK2
 62
     7
100
AcDbMText
 10
1686.015535251966
 20
194.0811915028069
 30
0.0
 40
3.5
 41
0.0
 71
     5
 72
     1
  1
\A1;94
 73
     1
 44
1.0
1001
ACAD
1000
MTEXTBEGIN
1070
    73
1070
     1
1070
    44
1040
1.0
1070
    74
1070
     0
1000
MTEXTEND
  0
POINT
  5
15C4
330
15BB
100
AcDbEntity
  8
DEFPOINTS
 62
     0
100
AcDbPoint
 10
1733.015535251966
 20
161.0811915028068
 30
0.0
  0
POINT
  5
15C5
330
15BB
100
AcDbEntity
  8
DEFPOINTS
 62
     0
100
AcDbPoint
 10
1639.015535251966
 20
169.5811915028068
 30
0.0
  0
POINT
  5
15C6
330
15BB
100
AcDbEntity
  8
DEFPOINTS
 62
     0
100
AcDbPoint
 10
1639.015535251966
 20
194.0811915028069
 30
0.0
  0
ENDBLK
  5
15C7
330
15BB
100
AcDbEntity
  8
0
100
AcDbBlockEnd
  0
BLOCK
  5
15C9
330
15C8
100
AcDbEntity
  8
0
100
AcDbBlockBegin
  2
*D11
 70
     1
 10
0.0
 20
0.0
 30
0.0
  3
*D11
  1

  0
LINE
  5
15CA
330
15C8
100
AcDbEntity
  8
SK2
 62
     0
370
    -2
100
AcDbLine
 10
1733.015535251966
 20
161.0811915028068
 30
0.0
 11
1733.015535251966
 21
185.0811915028068
 31
0.0
  0
LINE
  5
15CB
330
15C8
100
AcDbEntity
  8
SK2
 62
     0
370
    -2
100
AcDbLine
 10
1675.015535251966
 20
152.1811915028068
 30
0.0
 11
1675.015535251966
 21
185.0811915028068
 31
0.0
  0
LINE
  5
15CC
330
15C8
100
AcDbEntity
  8
SK2
 62
     0
370
    -2
100
AcDbLine
 10
1728.445535251966
 20
180.0811915028068
 30
0.0
 11
1707.757980789563
 21
180.0811915028068
 31
0.0
  0
LINE
  5
15CD
330
15C8
100
AcDbEntity
  8
SK2
 62
     0
370
    -2
100
AcDbLine
 10
1679.585535251966
 20
180.0811915028068
 30
0.0
 11
1700.273089714369
 21
180.0811915028068
 31
0.0
  0
INSERT
  5
15CE
330
15C8
100
AcDbEntity
  8
SK2
 62
     0
370
    -2
100
AcDbBlockReference
  2
_ARROW_FILLED
 10
1733.015535251966
 20
180.0811915028068
 30
0.0
 41
4.57
 42
4.57
 43
4.57
  0
INSERT
  5
15CF
330
15C8
100
AcDbEntity
  8
SK2
 62
     0
370
    -2
100
AcDbBlockReference
  2
_ARROW_FILLED
 10
1675.015535251966
 20
180.0811915028068
 30
0.0
 41
4.57
 42
4.57
 43
4.57
 50
180.0
  0
MTEXT
  5
15D0
330
15C8
100
AcDbEntity
  8
SK2
 62
     7
100
AcDbMText
 10
1704.015535251966
 20
180.0811915028068
 30
0.0
 40
3.5
 41
0.0
 71
     5
 72
     1
  1
\A1;58
 73
     1
 44
1.0
1001
ACAD
1000
MTEXTBEGIN
1070
    73
1070
     1
1070
    44
1040
1.0
1070
    74
1070
     0
1000
MTEXTEND
  0
POINT
  5
15D1
330
15C8
100
AcDbEntity
  8
DEFPOINTS
 62
     0
100
AcDbPoint
 10
1733.015535251966
 20
161.0811915028068
 30
0.0
  0
POINT
  5
15D2
330
15C8
100
AcDbEntity
  8
DEFPOINTS
 62
     0
100
AcDbPoint
 10
1675.015535251966
 20
152.1811915028068
 30
0.0
  0
POINT
  5
15D3
330
15C8
100
AcDbEntity
  8
DEFPOINTS
 62
     0
100
AcDbPoint
 10
1675.015535251966
 20
180.0811915028068
 30
0.0
  0
ENDBLK
  5
15D4
330
15C8
100
AcDbEntity
  8
0
100
AcDbBlockEnd
  0
BLOCK
  5
15D6
330
15D5
100
AcDbEntity
  8
0
100
AcDbBlockBegin
  2
*D12
 70
     1
 10
0.0
 20
0.0
 30
0.0
  3
*D12
  1

  0
LINE
  5
15D7
330
15D5
100
AcDbEntity
  8
SK2
 62
     0
370
    -2
100
AcDbLine
 10
1653.015535251966
 20
130.0811915028068
 30
0.0
 11
1648.013276660586
 21
130.0811915028068
 31
0.0
  0
LINE
  5
15D8
330
15D5
100
AcDbEntity
  8
SK2
 62
     0
370
    -2
100
AcDbLine
 10
1653.015535251966
 20
146.0811915028068
 30
0.0
 11
1648.013276660586
 21
146.0811915028068
 31
0.0
  0
LINE
  5
15D9
330
15D5
100
AcDbEntity
  8
SK2
 62
     0
370
    -2
100
AcDbLine
 10
1653.013276660586
 20
134.6511915028068
 30
0.0
 11
1653.013276660586
 21
141.5111915028068
 31
0.0
  0
LINE
  5
15DA
330
15D5
100
AcDbEntity
  8
SK2
 62
     0
370
    -2
100
AcDbLine
 10
1653.013276660586
 20
146.0811915028068
 30
0.0
 11
1653.013276660586
 21
166.532732068942
 31
0.0
  0
INSERT
  5
15DB
330
15D5
100
AcDbEntity
  8
SK2
 62
     0
370
    -2
100
AcDbBlockReference
  2
_ARROW_FILLED
 10
1653.013276660586
 20
130.0811915028068
 30
0.0
 41
4.57
 42
4.57
 43
4.57
 50
270.0
  0
INSERT
  5
15DC
330
15D5
100
AcDbEntity
  8
SK2
 62
     0
370
    -2
100
AcDbBlockReference
  2
_ARROW_FILLED
 10
1653.013276660586
 20
146.0811915028068
 30
0.0
 41
4.57
 42
4.57
 43
4.57
 50
90.0
  0
MTEXT
  5
15DD
330
15D5
100
AcDbEntity
  8
SK2
 62
     7
100
AcDbMText
 10
1653.013276660586
 20
174.4122120408326
 30
0.0
 40
3.5
 41
0.0
 71
     5
 72
     1
  1
\A1;M16x1
 11
0.0000000000000001
 21
1.0
 31
0.0
 73
     1
 44
1.0
1001
ACAD
1000
MTEXTBEGIN
1070
    73
1070
     1
1070
    44
1040
1.0
1070
    74
1070
     0
1000
MTEXTEND
  0
POINT
  5
15DE
330
15D5
100
AcDbEntity
  8
DEFPOINTS
 62
     0
100
AcDbPoint
 10
1653.015535251966
 20
130.0811915028068
 30
0.0
  0
POINT
  5
15DF
330
15D5
100
AcDbEntity
  8
DEFPOINTS
 62
     0
100
AcDbPoint
 10
1653.015535251966
 20
146.0811915028068
 30
0.0
  0
POINT
  5
15E0
330
15D5
100
AcDbEntity
  8
DEFPOINTS
 62
     0
100
AcDbPoint
 10
1653.013276660586
 20
146.0811915028068
 30
0.0
  0
ENDBLK
  5
15E1
330
15D5
100
AcDbEntity
  8
0
100
AcDbBlockEnd
  0
BLOCK
  5
1735
330
172A
100
AcDbEntity
  8
0
100
AcDbBlockBegin
  2
*D14
 70
     1
 10
0.0
 20
0.0
 30
0.0
  3
*D14
  1

  0
LINE
  5
1856
330
172A
100
AcDbEntity
  8
SK2
 62
     0
370
    -2
100
AcDbLine
 10
120.0
 20
23.0
 30
0.0
 11
120.0
 21
61.0
 31
0.0
  0
LINE
  5
1857
330
172A
100
AcDbEntity
  8
SK2
 62
     0
370
    -2
100
AcDbLine
 10
26.0
 20
31.5
 30
0.0
 11
26.0
 21
61.0
 31
0.0
  0
LINE
  5
1858
330
172A
100
AcDbEntity
  8
SK2
 62
     0
370
    -2
100
AcDbLine
 10
115.43
 20
56.0
 30
0.0
 11
76.74982431482783
 21
56.0
 31
0.0
  0
LINE
  5
1859
330
172A
100
AcDbEntity
  8
SK2
 62
     0
370
    -2
100
AcDbLine
 10
30.57
 20
56.0
 30
0.0
 11
69.25017568517216
 21
56.0
 31
0.0
  0
INSERT
  5
185A
330
172A
100
AcDbEntity
  8
SK2
 62
     0
370
    -2
100
AcDbBlockReference
  2
_ARROW_FILLED
 10
120.0
 20
56.0
 30
0.0
 41
4.57
 42
4.57
 43
4.57
  0
INSERT
  5
185B
330
172A
100
AcDbEntity
  8
SK2
 62
     0
370
    -2
100
AcDbBlockReference
  2
_ARROW_FILLED
 10
26.0
 20
56.0
 30
0.0
 41
4.57
 42
4.57
 43
4.57
 50
180.0
  0
MTEXT
  5
185C
330
172A
100
AcDbEntity
  8
SK2
 62
     7
100
AcDbMText
 10
73.0
 20
56.0
 30
0.0
 40
3.5
 41
0.0
 71
     5
 72
     1
  1
\A1;94
 73
     1
 44
1.0
1001
ACAD
1000
MTEXTBEGIN
1070
    73
1070
     1
1070
    44
1040
1.0
1070
    74
1070
     0
1000
MTEXTEND
  0
POINT
  5
185D
330
172A
100
AcDbEntity
  8
DEFPOINTS
 62
     0
100
AcDbPoint
 10
120.0
 20
23.0
 30
0.0
  0
POINT
  5
185E
330
172A
100
AcDbEntity
  8
DEFPOINTS
 62
     0
100
AcDbPoint
 10
26.0
 20
31.5
 30
0.0
  0
POINT
  5
185F
330
172A
100
AcDbEntity
  8
DEFPOINTS
 62
     0
100
AcDbPoint
 10
26.0
 20
56.0
 30
0.0
  0
ENDBLK
  5
1736
330
172A
100
AcDbEntity
  8
0
100
AcDbBlockEnd
  0
BLOCK
  5
1742
330
1737
100
AcDbEntity
  8
0
100
AcDbBlockBegin
  2
*D15
 70
     1
 10
0.0
 20
0.0
 30
0.0
  3
*D15
  1

  0
LINE
  5
1860
330
1737
100
AcDbEntity
  8
SK2
 62
     0
370
    -2
100
AcDbLine
 10
120.0
 20
23.0
 30
0.0
 11
120.0
 21
47.0
 31
0.0
  0
LINE
  5
1861
330
1737
100
AcDbEntity
  8
SK2
 62
     0
370
    -2
100
AcDbLine
 10
62.0
 20
14.09999999999999
 30
0.0
 11
62.0
 21
47.0
 31
0.0
  0
LINE
  5
1862
330
1737
100
AcDbEntity
  8
SK2
 62
     0
370
    -2
100
AcDbLine
 10
115.43
 20
42.0
 30
0.0
 11
94.74244553759662
 21
42.0
 31
0.0
  0
LINE
  5
1863
330
1737
100
AcDbEntity
  8
SK2
 62
     0
370
    -2
100
AcDbLine
 10
66.57
 20
42.0
 30
0.0
 11
87.25755446240338
 21
42.0
 31
0.0
  0
INSERT
  5
1864
330
1737
100
AcDbEntity
  8
SK2
 62
     0
370
    -2
100
AcDbBlockReference
  2
_ARROW_FILLED
 10
120.0
 20
42.0
 30
0.0
 41
4.57
 42
4.57
 43
4.57
  0
INSERT
  5
1865
330
1737
100
AcDbEntity
  8
SK2
 62
     0
370
    -2
100
AcDbBlockReference
  2
_ARROW_FILLED
 10
62.0
 20
42.0
 30
0.0
 41
4.57
 42
4.57
 43
4.57
 50
180.0
  0
MTEXT
  5
1866
330
1737
100
AcDbEntity
  8
SK2
 62
     7
100
AcDbMText
 10
91.0
 20
42.0
 30
0.0
 40
3.5
 41
0.0
 71
     5
 72
     1
  1
\A1;58
 73
     1
 44
1.0
1001
ACAD
1000
MTEXTBEGIN
1070
    73
1070
     1
1070
    44
1040
1.0
1070
    74
1070
     0
1000
MTEXTEND
  0
POINT
  5
1867
330
1737
100
AcDbEntity
  8
DEFPOINTS
 62
     0
100
AcDbPoint
 10
120.0
 20
23.0
 30
0.0
  0
POINT
  5
1868
330
1737
100
AcDbEntity
  8
DEFPOINTS
 62
     0
100
AcDbPoint
 10
62.0
 20
14.09999999999999
 30
0.0
  0
POINT
  5
1869
330
1737
100
AcDbEntity
  8
DEFPOINTS
 62
     0
100
AcDbPoint
 10
62.0
 20
42.0
 30
0.0
  0
ENDBLK
  5
1743
330
1737
100
AcDbEntity
  8
0
100
AcDbBlockEnd
  0
BLOCK
  5
174F
330
1744
100
AcDbEntity
  8
0
100
AcDbBlockBegin
  2
*D16
 70
     1
 10
0.0
 20
0.0
 30
0.0
  3
*D16
  1

  0
LINE
  5
186A
330
1744
100
AcDbEntity
  8
SK2
 62
     0
370
    -2
100
AcDbLine
 10
40.0
 20
-8.0
 30
0.0
 11
34.99774140862064
 21
-7.999999999999999
 31
0.0
  0
LINE
  5
186B
330
1744
100
AcDbEntity
  8
SK2
 62
     0
370
    -2
100
AcDbLine
 10
40.0
 20
8.0
 30
0.0
 11
34.99774140862064
 21
8.000000000000001
 31
0.0
  0
LINE
  5
186C
330
1744
100
AcDbEntity
  8
SK2
 62
     0
370
    -2
100
AcDbLine
 10
39.99774140862064
 20
-3.429999999999999
 30
0.0
 11
39.99774140862064
 21
3.429999999999999
 31
0.0
  0
LINE
  5
186D
330
1744
100
AcDbEntity
  8
SK2
 62
     0
370
    -2
100
AcDbLine
 10
39.99774140862064
 20
8.0
 30
0.0
 11
39.99774140862065
 21
28.45154056613539
 31
0.0
  0
INSERT
  5
186E
330
1744
100
AcDbEntity
  8
SK2
 62
     0
370
    -2
100
AcDbBlockReference
  2
_ARROW_FILLED
 10
39.99774140862064
 20
-8.0
 30
0.0
 41
4.57
 42
4.57
 43
4.57
 50
270.0
  0
INSERT
  5
186F
330
1744
100
AcDbEntity
  8
SK2
 62
     0
370
    -2
100
AcDbBlockReference
  2
_ARROW_FILLED
 10
39.99774140862064
 20
8.0
 30
0.0
 41
4.57
 42
4.57
 43
4.57
 50
90.0
  0
MTEXT
  5
1870
330
1744
100
AcDbEntity
  8
SK2
 62
     7
100
AcDbMText
 10
39.99774140862064
 20
36.33102053802577
 30
0.0
 40
3.5
 41
0.0
 71
     5
 72
     1
  1
\A1;M16x1
 11
0.0000000000000001
 21
1.0
 31
0.0
 73
     1
 44
1.0
1001
ACAD
1000
MTEXTBEGIN
1070
    73
1070
     1
1070
    44
1040
1.0
1070
    74
1070
     0
1000
MTEXTEND
  0
POINT
  5
1871
330
1744
100
AcDbEntity
  8
DEFPOINTS
 62
     0
100
AcDbPoint
 10
40.0
 20
-8.0
 30
0.0
  0
POINT
  5
1872
330
1744
100
AcDbEntity
  8
DEFPOINTS
 62
     0
100
AcDbPoint
 10
40.0
 20
8.0
 30
0.0
  0
POINT
  5
1873
330
1744
100
AcDbEntity
  8
DEFPOINTS
 62
     0
100
AcDbPoint
 10
39.99774140862064
 20
8.0
 30
0.0
  0
ENDBLK
  5
1750
330
1744
100
AcDbEntity
  8
0
100
AcDbBlockEnd
  0
BLOCK
  5
175C
330
1751
100
AcDbEntity
  8
0
100
AcDbBlockBegin
  2
*D17
 70
     1
 10
0.0
 20
0.0
 30
0.0
  3
*D17
  1

  0
LINE
  5
1810
330
1751
100
AcDbEntity
  8
SK2
 62
     0
370
    -2
100
AcDbLine
 10
0.0
 20
-31.5
 30
0.0
 11
-54.00000000000002
 21
-31.49999999999999
 31
0.0
  0
LINE
  5
1811
330
1751
100
AcDbEntity
  8
SK2
 62
     0
370
    -2
100
AcDbLine
 10
0.0
 20
31.5
 30
0.0
 11
-54.0
 21
31.50000000000002
 31
0.0
  0
LINE
  5
1812
330
1751
100
AcDbEntity
  8
SK2
 62
     0
370
    -2
100
AcDbLine
 10
-49.00000000000002
 20
-26.92999999999999
 30
0.0
 11
-49.00000000000001
 21
-5.31043569922697
 31
0.0
  0
LINE
  5
1813
330
1751
100
AcDbEntity
  8
SK2
 62
     0
370
    -2
100
AcDbLine
 10
-49.0
 20
26.93000000000001
 30
0.0
 11
-49.00000000000001
 21
5.310435699226998
 31
0.0
  0
INSERT
  5
1814
330
1751
100
AcDbEntity
  8
SK2
 62
     0
370
    -2
100
AcDbBlockReference
  2
_ARROW_FILLED
 10
-49.00000000000002
 20
-31.49999999999999
 30
0.0
 41
4.57
 42
4.57
 43
4.57
 50
270.0
  0
INSERT
  5
1815
330
1751
100
AcDbEntity
  8
SK2
 62
     0
370
    -2
100
AcDbBlockReference
  2
_ARROW_FILLED
 10
-49.0
 20
31.50000000000002
 30
0.0
 41
4.57
 42
4.57
 43
4.57
 50
90.0
  0
MTEXT
  5
1816
330
1751
100
AcDbEntity
  8
SK2
 62
     7
100
AcDbMText
 10
-49.00000000000001
 20
0.0000000000000066
 30
0.0
 40
3.5
 41
0.0
 71
     5
 72
     1
  1
\A1;%%c63
 11
0.0000000000000001
 21
1.0
 31
0.0
 73
     1
 44
1.0
1001
ACAD
1000
MTEXTBEGIN
1070
    73
1070
     1
1070
    44
1040
1.0
1070
    74
1070
     0
1000
MTEXTEND
  0
POINT
  5
1817
330
1751
100
AcDbEntity
  8
DEFPOINTS
 62
     0
100
AcDbPoint
 10
0.0
 20
-31.5
 30
0.0
  0
POINT
  5
1818
330
1751
100
AcDbEntity
  8
DEFPOINTS
 62
     0
100
AcDbPoint
 10
0.0
 20
31.5
 30
0.0
  0
POINT
  5
1819
330
1751
100
AcDbEntity
  8
DEFPOINTS
 62
     0
100
AcDbPoint
 10
-49.0
 20
31.50000000000002
 30
0.0
  0
ENDBLK
  5
175D
330
1751
100
AcDbEntity
  8
0
100
AcDbBlockEnd
  0
BLOCK
  5
1769
330
175E
100
AcDbEntity
  8
0
100
AcDbBlockBegin
  2
*D18
 70
     1
 10
0.0
 20
0.0
 30
0.0
  3
*D18
  1

  0
LINE
  5
181A
330
175E
100
AcDbEntity
  8
SK2
 62
     0
370
    -2
100
AcDbLine
 10
-32.0
 20
21.57350099999999
 30
0.0
 11
-32.0
 21
47.0
 31
0.0
  0
LINE
  5
181B
330
175E
100
AcDbEntity
  8
SK2
 62
     0
370
    -2
100
AcDbLine
 10
0.0
 20
31.5
 30
0.0
 11
0.0000000000000009
 21
47.0
 31
0.0
  0
LINE
  5
181C
330
175E
100
AcDbEntity
  8
SK2
 62
     0
370
    -2
100
AcDbLine
 10
-27.43
 20
42.0
 30
0.0
 11
-19.73875614898102
 21
42.0
 31
0.0
  0
LINE
  5
181D
330
175E
100
AcDbEntity
  8
SK2
 62
     0
370
    -2
100
AcDbLine
 10
-4.569999999999999
 20
42.0
 30
0.0
 11
-12.26124385101897
 21
42.0
 31
0.0
  0
INSERT
  5
181E
330
175E
100
AcDbEntity
  8
SK2
 62
     0
370
    -2
100
AcDbBlockReference
  2
_ARROW_FILLED
 10
-32.0
 20
42.0
 30
0.0
 41
4.57
 42
4.57
 43
4.57
 50
180.0
  0
INSERT
  5
181F
330
175E
100
AcDbEntity
  8
SK2
 62
     0
370
    -2
100
AcDbBlockReference
  2
_ARROW_FILLED
 10
0.0000000000000006
 20
42.0
 30
0.0
 41
4.57
 42
4.57
 43
4.57
  0
MTEXT
  5
1820
330
175E
100
AcDbEntity
  8
SK2
 62
     7
100
AcDbMText
 10
-16.0
 20
42.0
 30
0.0
 40
3.5
 41
0.0
 71
     5
 72
     1
  1
\A1;32
 73
     1
 44
1.0
1001
ACAD
1000
MTEXTBEGIN
1070
    73
1070
     1
1070
    44
1040
1.0
1070
    74
1070
     0
1000
MTEXTEND
  0
POINT
  5
1821
330
175E
100
AcDbEntity
  8
DEFPOINTS
 62
     0
100
AcDbPoint
 10
-32.0
 20
21.57350099999999
 30
0.0
  0
POINT
  5
1822
330
175E
100
AcDbEntity
  8
DEFPOINTS
 62
     0
100
AcDbPoint
 10
0.0
 20
31.5
 30
0.0
  0
POINT
  5
1823
330
175E
100
AcDbEntity
  8
DEFPOINTS
 62
     0
100
AcDbPoint
 10
0.0000000000000006
 20
42.0
 30
0.0
  0
ENDBLK
  5
176A
330
175E
100
AcDbEntity
  8
0
100
AcDbBlockEnd
  0
BLOCK
  5
1776
330
176B
100
AcDbEntity
  8
0
100
AcDbBlockBegin
  2
*D19
 70
     1
 10
0.0
 20
0.0
 30
0.0
  3
*D19
  1

  0
LINE
  5
1824
330
176B
100
AcDbEntity
  8
SK2
 62
     0
370
    -2
100
AcDbLine
 10
-32.0
 20
21.57350099999999
 30
0.0
 11
-32.0
 21
94.08297113134812
 31
0.0
  0
LINE
  5
1825
330
176B
100
AcDbEntity
  8
SK2
 62
     0
370
    -2
100
AcDbLine
 10
120.0
 20
23.0
 30
0.0
 11
120.0
 21
94.08297113134812
 31
0.0
  0
LINE
  5
1826
330
176B
100
AcDbEntity
  8
SK2
 62
     0
370
    -2
100
AcDbLine
 10
-27.43
 20
89.08297113134812
 30
0.0
 11
38.92691496837667
 21
89.08297113134812
 31
0.0
  0
LINE
  5
1827
330
176B
100
AcDbEntity
  8
SK2
 62
     0
370
    -2
100
AcDbLine
 10
115.43
 20
89.08297113134812
 30
0.0
 11
49.07308503162333
 21
89.08297113134812
 31
0.0
  0
INSERT
  5
1828
330
176B
100
AcDbEntity
  8
SK2
 62
     0
370
    -2
100
AcDbBlockReference
  2
_ARROW_FILLED
 10
-32.0
 20
89.08297113134812
 30
0.0
 41
4.57
 42
4.57
 43
4.57
 50
180.0
  0
INSERT
  5
1829
330
176B
100
AcDbEntity
  8
SK2
 62
     0
370
    -2
100
AcDbBlockReference
  2
_ARROW_FILLED
 10
120.0
 20
89.08297113134812
 30
0.0
 41
4.57
 42
4.57
 43
4.57
  0
MTEXT
  5
182A
330
176B
100
AcDbEntity
  8
SK2
 62
     7
100
AcDbMText
 10
44.0
 20
89.08297113134812
 30
0.0
 40
3.5
 41
0.0
 71
     5
 72
     1
  1
\A1;152
 73
     1
 44
1.0
1001
ACAD
1000
MTEXTBEGIN
1070
    73
1070
     1
1070
    44
1040
1.0
1070
    74
1070
     0
1000
MTEXTEND
  0
POINT
  5
182B
330
176B
100
AcDbEntity
  8
DEFPOINTS
 62
     0
100
AcDbPoint
 10
-32.0
 20
21.57350099999999
 30
0.0
  0
POINT
  5
182C
330
176B
100
AcDbEntity
  8
DEFPOINTS
 62
     0
100
AcDbPoint
 10
120.0
 20
23.0
 30
0.0
  0
POINT
  5
182D
330
176B
100
AcDbEntity
  8
DEFPOINTS
 62
     0
100
AcDbPoint
 10
120.0
 20
89.08297113134812
 30
0.0
  0
ENDBLK
  5
1777
330
176B
100
AcDbEntity
  8
0
100
AcDbBlockEnd
  0
BLOCK
  5
1783
330
1778
100
AcDbEntity
  8
0
100
AcDbBlockBegin
  2
*D20
 70
     1
 10
0.0
 20
0.0
 30
0.0
  3
*D20
  1

  0
LINE
  5
1874
330
1778
100
AcDbEntity
  8
2
 62
     0
370
    -2
100
AcDbLine
 10
120.0
 20
23.0
 30
0.0
 11
120.0
 21
80.0
 31
0.0
  0
LINE
  5
1875
330
1778
100
AcDbEntity
  8
2
 62
     0
370
    -2
100
AcDbLine
 10
0.0
 20
31.5
 30
0.0
 11
0.000000000000003
 21
80.0
 31
0.0
  0
LINE
  5
1876
330
1778
100
AcDbEntity
  8
2
 62
     0
370
    -2
100
AcDbLine
 10
115.43
 20
75.0
 30
0.0
 11
65.09030217849613
 21
75.0
 31
0.0
  0
LINE
  5
1877
330
1778
100
AcDbEntity
  8
2
 62
     0
370
    -2
100
AcDbLine
 10
4.570000000000002
 20
75.0
 30
0.0
 11
54.90969782150386
 21
75.0
 31
0.0
  0
INSERT
  5
1878
330
1778
100
AcDbEntity
  8
2
 62
     0
370
    -2
100
AcDbBlockReference
  2
_ARROW_FILLED
 10
120.0
 20
75.0
 30
0.0
 41
4.57
 42
4.57
 43
4.57
  0
INSERT
  5
1879
330
1778
100
AcDbEntity
  8
2
 62
     0
370
    -2
100
AcDbBlockReference
  2
_ARROW_FILLED
 10
0.0000000000000027
 20
75.0
 30
0.0
 41
4.57
 42
4.57
 43
4.57
 50
180.0
  0
MTEXT
  5
187A
330
1778
100
AcDbEntity
  8
2
 62
     7
100
AcDbMText
 10
60.0
 20
75.0
 30
0.0
 40
3.5
 41
0.0
 71
     5
 72
     1
  1
\A1;120
 73
     1
 44
1.0
1001
ACAD
1000
MTEXTBEGIN
1070
    73
1070
     1
1070
    44
1040
1.0
1070
    74
1070
     0
1000
MTEXTEND
  0
POINT
  5
187B
330
1778
100
AcDbEntity
  8
DEFPOINTS
 62
     0
100
AcDbPoint
 10
120.0
 20
23.0
 30
0.0
  0
POINT
  5
187C
330
1778
100
AcDbEntity
  8
DEFPOINTS
 62
     0
100
AcDbPoint
 10
0.0
 20
31.5
 30
0.0
  0
POINT
  5
187D
330
1778
100
AcDbEntity
  8
DEFPOINTS
 62
     0
100
AcDbPoint
 10
0.0000000000000027
 20
75.0
 30
0.0
  0
ENDBLK
  5
1784
330
1778
100
AcDbEntity
  8
0
100
AcDbBlockEnd
  0
BLOCK
  5
1790
330
1785
100
AcDbEntity
  8
0
100
AcDbBlockBegin
  2
*D21
 70
     1
 10
0.0
 20
0.0
 30
0.0
  3
*D21
  1

  0
LINE
  5
1838
330
1785
100
AcDbEntity
  8
2
 62
     0
370
    -2
100
AcDbLine
 10
99.65743599999996
 20
-25.0
 30
0.0
 11
50.01142153886302
 21
-24.99999999999999
 31
0.0
  0
LINE
  5
1839
330
1785
100
AcDbEntity
  8
2
 62
     0
370
    -2
100
AcDbLine
 10
99.65743599999996
 20
25.0
 30
0.0
 11
50.01142153886304
 21
25.00000000000002
 31
0.0
  0
LINE
  5
183A
330
1785
100
AcDbEntity
  8
2
 62
     0
370
    -2
100
AcDbLine
 10
55.01142153886302
 20
-20.42999999999999
 30
0.0
 11
55.01142153886304
 21
20.43000000000001
 31
0.0
  0
LINE
  5
183B
330
1785
100
AcDbEntity
  8
2
 62
     0
370
    -2
100
AcDbLine
 10
55.01142153886304
 20
25.00000000000002
 30
0.0
 11
55.01142153886304
 21
32.39862808354598
 31
0.0
  0
INSERT
  5
183C
330
1785
100
AcDbEntity
  8
2
 62
     0
370
    -2
100
AcDbBlockReference
  2
_ARROW_FILLED
 10
55.01142153886302
 20
-24.99999999999999
 30
0.0
 41
4.57
 42
4.57
 43
4.57
 50
270.0
  0
INSERT
  5
183D
330
1785
100
AcDbEntity
  8
2
 62
     0
370
    -2
100
AcDbBlockReference
  2
_ARROW_FILLED
 10
55.01142153886304
 20
25.00000000000002
 30
0.0
 41
4.57
 42
4.57
 43
4.57
 50
90.0
  0
MTEXT
  5
183E
330
1785
100
AcDbEntity
  8
2
 62
     7
100
AcDbMText
 10
55.01142153886303
 20
37.72628092964578
 30
0.0
 40
3.5
 41
0.0
 71
     5
 72
     1
  1
\A1;%%c50
 11
0.0000000000000001
 21
1.0
 31
0.0
 73
     1
 44
1.0
1001
ACAD
1000
MTEXTBEGIN
1070
    73
1070
     1
1070
    44
1040
1.0
1070
    74
1070
     0
1000
MTEXTEND
  0
POINT
  5
183F
330
1785
100
AcDbEntity
  8
DEFPOINTS
 62
     0
100
AcDbPoint
 10
99.65743599999996
 20
-25.0
 30
0.0
  0
POINT
  5
1840
330
1785
100
AcDbEntity
  8
DEFPOINTS
 62
     0
100
AcDbPoint
 10
99.65743599999996
 20
25.0
 30
0.0
  0
POINT
  5
1841
330
1785
100
AcDbEntity
  8
DEFPOINTS
 62
     0
100
AcDbPoint
 10
55.01142153886304
 20
25.00000000000002
 30
0.0
  0
ENDBLK
  5
1791
330
1785
100
AcDbEntity
  8
0
100
AcDbBlockEnd
  0
BLOCK
  5
179D
330
1792
100
AcDbEntity
  8
0
100
AcDbBlockBegin
  2
*D22
 70
     1
 10
0.0
 20
0.0
 30
0.0
  3
*D22
  1

  0
LINE
  5
1842
330
1792
100
AcDbEntity
  8
SK2
 62
     0
370
    -2
100
AcDbLine
 10
114.0
 20
-12.5
 30
0.0
 11
143.5
 21
-12.50000000000001
 31
0.0
  0
LINE
  5
1843
330
1792
100
AcDbEntity
  8
SK2
 62
     0
370
    -2
100
AcDbLine
 10
114.0
 20
12.5
 30
0.0
 11
143.5
 21
12.49999999999999
 31
0.0
  0
LINE
  5
1844
330
1792
100
AcDbEntity
  8
SK2
 62
     0
370
    -2
100
AcDbLine
 10
138.5
 20
-7.930000000000007
 30
0.0
 11
138.5
 21
-5.317814476458194
 31
0.0
  0
LINE
  5
1845
330
1792
100
AcDbEntity
  8
SK2
 62
     0
370
    -2
100
AcDbLine
 10
138.5
 20
7.929999999999991
 30
0.0
 11
138.5
 21
5.317814476458178
 31
0.0
  0
INSERT
  5
1846
330
1792
100
AcDbEntity
  8
SK2
 62
     0
370
    -2
100
AcDbBlockReference
  2
_ARROW_FILLED
 10
138.5
 20
-12.50000000000001
 30
0.0
 41
4.57
 42
4.57
 43
4.57
 50
270.0
  0
INSERT
  5
1847
330
1792
100
AcDbEntity
  8
SK2
 62
     0
370
    -2
100
AcDbBlockReference
  2
_ARROW_FILLED
 10
138.5
 20
12.49999999999999
 30
0.0
 41
4.57
 42
4.57
 43
4.57
 50
90.0
  0
MTEXT
  5
1848
330
1792
100
AcDbEntity
  8
SK2
 62
     7
100
AcDbMText
 10
138.5
 20
0.0000000000000146
 30
0.0
 40
3.5
 41
0.0
 71
     5
 72
     1
  1
\A1;%%c25
 11
0.0000000000000001
 21
1.0
 31
0.0
 73
     1
 44
1.0
1001
ACAD
1000
MTEXTBEGIN
1070
    73
1070
     1
1070
    44
1040
1.0
1070
    74
1070
     0
1000
MTEXTEND
  0
POINT
  5
1849
330
1792
100
AcDbEntity
  8
DEFPOINTS
 62
     0
100
AcDbPoint
 10
114.0
 20
-12.5
 30
0.0
  0
POINT
  5
184A
330
1792
100
AcDbEntity
  8
DEFPOINTS
 62
     0
100
AcDbPoint
 10
114.0
 20
12.5
 30
0.0
  0
POINT
  5
184B
330
1792
100
AcDbEntity
  8
DEFPOINTS
 62
     0
100
AcDbPoint
 10
138.5
 20
12.49999999999999
 30
0.0
  0
ENDBLK
  5
179E
330
1792
100
AcDbEntity
  8
0
100
AcDbBlockEnd
  0
BLOCK
  5
17AA
330
179F
100
AcDbEntity
  8
0
100
AcDbBlockBegin
  2
*D23
 70
     1
 10
0.0
 20
0.0
 30
0.0
  3
*D23
  1

  0
LINE
  5
184C
330
179F
100
AcDbEntity
  8
SK2
 62
     0
370
    -2
100
AcDbLine
 10
120.0
 20
-23.0
 30
0.0
 11
157.5
 21
-23.00000000000001
 31
0.0
  0
LINE
  5
184D
330
179F
100
AcDbEntity
  8
SK2
 62
     0
370
    -2
100
AcDbLine
 10
120.0
 20
23.0
 30
0.0
 11
157.5
 21
22.99999999999999
 31
0.0
  0
LINE
  5
184E
330
179F
100
AcDbEntity
  8
SK2
 62
     0
370
    -2
100
AcDbLine
 10
152.5
 20
-18.43000000000001
 30
0.0
 11
152.5
 21
-5.342410400562201
 31
0.0
  0
LINE
  5
184F
330
179F
100
AcDbEntity
  8
SK2
 62
     0
370
    -2
100
AcDbLine
 10
152.5
 20
18.42999999999999
 30
0.0
 11
152.5
 21
5.342410400562183
 31
0.0
  0
INSERT
  5
1850
330
179F
100
AcDbEntity
  8
SK2
 62
     0
370
    -2
100
AcDbBlockReference
  2
_ARROW_FILLED
 10
152.5
 20
-23.00000000000001
 30
0.0
 41
4.57
 42
4.57
 43
4.57
 50
270.0
  0
INSERT
  5
1851
330
179F
100
AcDbEntity
  8
SK2
 62
     0
370
    -2
100
AcDbBlockReference
  2
_ARROW_FILLED
 10
152.5
 20
22.99999999999999
 30
0.0
 41
4.57
 42
4.57
 43
4.57
 50
90.0
  0
MTEXT
  5
1852
330
179F
100
AcDbEntity
  8
SK2
 62
     7
100
AcDbMText
 10
152.5
 20
0.0000000000000155
 30
0.0
 40
3.5
 41
0.0
 71
     5
 72
     1
  1
\A1;%%c46
 11
0.0000000000000001
 21
1.0
 31
0.0
 73
     1
 44
1.0
1001
ACAD
1000
MTEXTBEGIN
1070
    73
1070
     1
1070
    44
1040
1.0
1070
    74
1070
     0
1000
MTEXTEND
  0
POINT
  5
1853
330
179F
100
AcDbEntity
  8
DEFPOINTS
 62
     0
100
AcDbPoint
 10
120.0
 20
-23.0
 30
0.0
  0
POINT
  5
1854
330
179F
100
AcDbEntity
  8
DEFPOINTS
 62
     0
100
AcDbPoint
 10
120.0
 20
23.0
 30
0.0
  0
POINT
  5
1855
330
179F
100
AcDbEntity
  8
DEFPOINTS
 62
     0
100
AcDbPoint
 10
152.5
 20
22.99999999999999
 30
0.0
  0
ENDBLK
  5
17AB
330
179F
100
AcDbEntity
  8
0
100
AcDbBlockEnd
  0
ENDSEC
  0
SECTION
  2
ENTITIES
  0
LINE
  5
14DA
330
18
100
AcDbEntity
  8
INFTOTAL
100
AcDbLine
 10
-61.68933486169999
 20
-56.76527469323059
 30
0.0
 11
-61.68933486169999
 21
96.33423205878807
 31
0.0
  0
LINE
  5
14DB
330
18
100
AcDbEntity
  8
INFTOTAL
100
AcDbLine
 10
-61.68933486169999
 20
96.33423205878807
 30
0.0
 11
162.0014286640585
 21
96.33423205878807
 31
0.0
  0
LINE
  5
14DC
330
18
100
AcDbEntity
  8
INFTOTAL
100
AcDbLine
 10
162.0014286640585
 20
96.33423205878807
 30
0.0
 11
162.0014286640585
 21
-56.76527469323059
 31
0.0
  0
LINE
  5
14DD
330
18
100
AcDbEntity
  8
INFTOTAL
100
AcDbLine
 10
162.0014286640585
 20
-56.76527469323059
 30
0.0
 11
-61.68933486169999
 21
-56.76527469323059
 31
0.0
  0
TEXT
  5
154C
330
18
100
AcDbEntity
  8
INFTEXT63
100
AcDbText
 10
27.37283035433075
 20
-46.88614461114525
 30
0.0
 40
3.5
  1
Allgemeintoleranzen nach DIN ISO 2768 m
  7
BMG_Text
100
AcDbText
  0
LINE
  5
1689
330
18
100
AcDbEntity
  8
1
100
AcDbLine
 10
0.0
 20
31.5
 30
0.0
 11
14.46372999999994
 21
31.5
 31
0.0
  0
LINE
  5
168A
330
18
100
AcDbEntity
  8
1
100
AcDbLine
 10
0.0
 20
-31.5
 30
0.0
 11
14.46372999999994
 21
-31.5
 31
0.0
  0
LINE
  5
168B
330
18
100
AcDbEntity
  8
1
100
AcDbLine
 10
14.46372999999994
 20
31.5
 30
0.0
 11
16.125
 21
28.62259499999999
 31
0.0
  0
LINE
  5
168C
330
18
100
AcDbEntity
  8
1
100
AcDbLine
 10
21.53627000000006
 20
31.5
 30
0.0
 11
19.875
 21
28.62259499999999
 31
0.0
  0
LINE
  5
168D
330
18
100
AcDbEntity
  8
1
100
AcDbLine
 10
14.46372999999994
 20
-24.336187
 30
0.0
 11
16.125
 21
-21.458782
 31
0.0
  0
LINE
  5
168E
330
18
100
AcDbEntity
  8
1
100
AcDbLine
 10
16.125
 20
-27.85
 30
0.0
 11
19.875
 21
-27.85
 31
0.0
  0
LINE
  5
168F
330
18
100
AcDbEntity
  8
1
100
AcDbLine
 10
19.875
 20
28.62259499999999
 30
0.0
 11
19.875
 21
8.050000000000011
 31
0.0
  0
LINE
  5
1690
330
18
100
AcDbEntity
  8
1
100
AcDbLine
 10
16.125
 20
28.62259499999999
 30
0.0
 11
16.125
 21
8.050000000000011
 31
0.0
  0
LINE
  5
1691
330
18
100
AcDbEntity
  8
1
100
AcDbLine
 10
-0.5999999999999091
 20
23.69999999999999
 30
0.0
 11
0.0
 21
23.69999999999999
 31
0.0
  0
LINE
  5
1692
330
18
100
AcDbEntity
  8
1
100
AcDbLine
 10
-0.5999999999999091
 20
-23.7
 30
0.0
 11
0.0
 21
-23.7
 31
0.0
  0
LINE
  5
1693
330
18
100
AcDbEntity
  8
1
100
AcDbLine
 10
19.875
 20
-28.622595
 30
0.0
 11
19.875
 21
-21.458782
 31
0.0
  0
LINE
  5
1694
330
18
100
AcDbEntity
  8
1
100
AcDbLine
 10
21.53627000000006
 20
-31.5
 30
0.0
 11
21.53627000000006
 21
-24.336187
 31
0.0
  0
LINE
  5
1695
330
18
100
AcDbEntity
  8
1
100
AcDbLine
 10
14.46372999999994
 20
-31.5
 30
0.0
 11
14.46372999999994
 21
-24.336187
 31
0.0
  0
LINE
  5
1696
330
18
100
AcDbEntity
  8
1
100
AcDbLine
 10
14.46372999999994
 20
8.0
 30
0.0
 11
14.46372999999994
 21
31.5
 31
0.0
  0
LINE
  5
1697
330
18
100
AcDbEntity
  8
1
100
AcDbLine
 10
21.53627000000006
 20
-8.0
 30
0.0
 11
21.53627000000006
 21
-20.0
 31
0.0
  0
LINE
  5
1698
330
18
100
AcDbEntity
  8
1
100
AcDbLine
 10
16.125
 20
-8.0
 30
0.0
 11
16.125
 21
-20.0
 31
0.0
  0
LINE
  5
1699
330
18
100
AcDbEntity
  8
1
100
AcDbLine
 10
-31.0
 20
5.0
 30
0.0
 11
-32.0
 21
5.577349999999995
 31
0.0
  0
LINE
  5
169A
330
18
100
AcDbEntity
  8
1
100
AcDbLine
 10
-31.0
 20
-5.0
 30
0.0
 11
-32.0
 21
-5.577349999999995
 31
0.0
  0
LINE
  5
169B
330
18
100
AcDbEntity
  8
1
100
AcDbLine
 10
0.0
 20
31.5
 30
0.0
 11
0.0
 21
-31.5
 31
0.0
  0
LINE
  5
169C
330
18
100
AcDbEntity
  8
1
100
AcDbLine
 10
19.875
 20
-8.0
 30
0.0
 11
19.875
 21
-20.0
 31
0.0
  0
LINE
  5
169D
330
18
100
AcDbEntity
  8
1
100
AcDbLine
 10
21.53627000000006
 20
31.5
 30
0.0
 11
21.53627000000006
 21
8.0
 31
0.0
  0
LINE
  5
169E
330
18
100
AcDbEntity
  8
1
100
AcDbLine
 10
-0.5999999999999091
 20
24.285
 30
0.0
 11
-0.5999999999999091
 21
-24.285
 31
0.0
  0
LINE
  5
169F
330
18
100
AcDbEntity
  8
1
100
AcDbLine
 10
26.0
 20
31.5
 30
0.0
 11
26.0
 21
2.412281000000007
 31
0.0
  0
LINE
  5
16A0
330
18
100
AcDbEntity
  8
1
100
AcDbLine
 10
13.0
 20
-8.0
 30
0.0
 11
26.0
 21
-8.0
 31
0.0
  0
LINE
  5
16A1
330
18
100
AcDbEntity
  8
1
100
AcDbLine
 10
13.0
 20
8.0
 30
0.0
 11
26.0
 21
8.0
 31
0.0
  0
LINE
  5
16A2
330
18
100
AcDbEntity
  8
1
100
AcDbLine
 10
16.125
 20
-28.622595
 30
0.0
 11
16.125
 21
-21.458782
 31
0.0
  0
LINE
  5
16A3
330
18
100
AcDbEntity
  8
1
100
AcDbLine
 10
26.0
 20
31.5
 30
0.0
 11
21.53627000000006
 21
31.5
 31
0.0
  0
LINE
  5
16A4
330
18
100
AcDbEntity
  8
1
100
AcDbLine
 10
16.125
 20
28.13647900000001
 30
0.0
 11
19.875
 21
28.13647900000001
 31
0.0
  0
ARC
  5
16A5
330
18
100
AcDbEntity
  8
1
100
AcDbCircle
 10
13.0
 20
0.0
 30
0.0
 40
8.0
100
AcDbArc
 50
90.0
 51
270.0
  0
LINE
  5
16A6
330
18
100
AcDbEntity
  8
1
100
AcDbLine
 10
21.53627000000006
 20
-24.336187
 30
0.0
 11
19.875
 21
-21.458782
 31
0.0
  0
LINE
  5
16A7
330
18
100
AcDbEntity
  8
1
100
AcDbLine
 10
21.53627000000006
 20
-31.5
 30
0.0
 11
26.0
 21
-31.5
 31
0.0
  0
ARC
  5
16A8
330
18
100
AcDbEntity
  8
1
100
AcDbCircle
 10
-30.79999999999996
 20
21.57350099999999
 30
0.0
 40
1.199999999999999
100
AcDbArc
 50
92.8624049999979
 51
180.0
  0
LINE
  5
16A9
330
18
100
AcDbEntity
  8
1
100
AcDbLine
 10
-32.0
 20
21.57350099999999
 30
0.0
 11
-32.00000000000023
 21
5.57735000000008
 31
0.0
  0
LINE
  5
16AA
330
18
100
AcDbEntity
  8
1
100
AcDbLine
 10
-32.0
 20
-5.577349999999995
 30
0.0
 11
-32.0
 21
-21.57350099999999
 31
0.0
  0
ARC
  5
16AB
330
18
100
AcDbEntity
  8
1
100
AcDbCircle
 10
-30.79999999999996
 20
-21.57350099999999
 30
0.0
 40
1.199999999999999
100
AcDbArc
 50
180.0
 51
267.1375950000021
  0
LINE
  5
16AC
330
18
100
AcDbEntity
  8
1
100
AcDbLine
 10
-30.85992499999998
 20
-22.77200400000001
 30
0.0
 11
-0.5999999999999091
 21
-24.285
 31
0.0
  0
LINE
  5
16AD
330
18
100
AcDbEntity
  8
1
100
AcDbLine
 10
26.0
 20
-20.0
 30
0.0
 11
12.11171399999989
 21
-20.0
 31
0.0
  0
ARC
  5
16AE
330
18
100
AcDbEntity
  8
1
100
AcDbCircle
 10
12.11171399999989
 20
-28.0
 30
0.0
 40
8.0
100
AcDbArc
 50
90.0
 51
152.7433809999966
  0
LINE
  5
16AF
330
18
100
AcDbEntity
  8
1
100
AcDbLine
 10
16.125
 20
-28.622595
 30
0.0
 11
14.46372999999994
 21
-31.5
 31
0.0
  0
LINE
  5
16B0
330
18
100
AcDbEntity
  8
1
100
AcDbLine
 10
19.875
 20
-28.622595
 30
0.0
 11
21.53627000000006
 21
-31.5
 31
0.0
  0
LINE
  5
16B1
330
18
100
AcDbEntity
  8
1
100
AcDbLine
 10
16.125
 20
-21.458782
 30
0.0
 11
19.875
 21
-21.458782
 31
0.0
  0
LINE
  5
16B2
330
18
100
AcDbEntity
  8
1
100
AcDbLine
 10
14.46372999999994
 20
-8.0
 30
0.0
 11
14.46372999999994
 21
-20.0
 31
0.0
  0
ARC
  5
16B3
330
18
100
AcDbEntity
  8
1
100
AcDbCircle
 10
-27.5
 20
3.5
 30
0.0
 40
1.5
100
AcDbArc
 50
0.0
 51
90.0
  0
LINE
  5
16B4
330
18
100
AcDbEntity
  8
1
100
AcDbLine
 10
-31.0
 20
5.0
 30
0.0
 11
-27.5
 21
5.0
 31
0.0
  0
LINE
  5
16B5
330
18
100
AcDbEntity
  8
1
100
AcDbLine
 10
-26.0
 20
3.5
 30
0.0
 11
-26.0
 21
-3.5
 31
0.0
  0
ARC
  5
16B6
330
18
100
AcDbEntity
  8
1
100
AcDbCircle
 10
-27.5
 20
-3.5
 30
0.0
 40
1.5
100
AcDbArc
 50
270.0
 51
0.0
  0
LINE
  5
16B7
330
18
100
AcDbEntity
  8
1
100
AcDbLine
 10
-31.0
 20
-5.0
 30
0.0
 11
-27.5
 21
-5.0
 31
0.0
  0
LINE
  5
16B8
330
18
100
AcDbEntity
  8
1
100
AcDbLine
 10
-30.85992499999998
 20
22.77200400000001
 30
0.0
 11
-0.5999999999999091
 21
24.285
 31
0.0
  0
LINE
  5
16B9
330
18
100
AcDbEntity
  8
1
100
AcDbLine
 10
14.46372999999994
 20
-24.336187
 30
0.0
 11
5.0
 21
-24.336187
 31
0.0
  0
LINE
  5
16BA
330
18
100
AcDbEntity
  8
1
100
AcDbLine
 10
26.0
 20
-24.336187
 30
0.0
 11
21.53627000000006
 21
-24.336187
 31
0.0
  0
LINE
  5
16BB
330
18
100
AcDbEntity
  8
SK3
100
AcDbLine
 10
12.0
 20
31.5
 30
0.0
 11
12.0
 21
26.90000000000001
 31
0.0
  0
LINE
  5
16BC
330
18
100
AcDbEntity
  8
SK3
100
AcDbLine
 10
9.804260999999996
 20
26.90000000000001
 30
0.0
 11
7.0
 21
25.454712
 31
0.0
  0
LINE
  5
16BD
330
18
100
AcDbEntity
  8
SK3
100
AcDbLine
 10
4.195739000000003
 20
26.90000000000001
 30
0.0
 11
7.0
 21
25.454712
 31
0.0
  0
LINE
  5
16BE
330
18
100
AcDbEntity
  8
SK3
100
AcDbLine
 10
2.0
 20
31.5
 30
0.0
 11
2.0
 21
26.90000000000001
 31
0.0
  0
LINE
  5
16BF
330
18
100
AcDbEntity
  8
SK3
100
AcDbLine
 10
2.0
 20
26.90000000000001
 30
0.0
 11
12.0
 21
26.90000000000001
 31
0.0
  0
LINE
  5
16C0
330
18
100
AcDbEntity
  8
1
100
AcDbLine
 10
-31.0
 20
5.0
 30
0.0
 11
-31.0
 21
9.131664999999998
 31
0.0
  0
LINE
  5
16C1
330
18
100
AcDbEntity
  8
1
100
AcDbLine
 10
-31.0
 20
9.131664999999998
 30
0.0
 11
-32.0
 21
9.709015999999991
 31
0.0
  0
LINE
  5
16C2
330
18
100
AcDbEntity
  8
1
100
AcDbLine
 10
-26.0
 20
3.5
 30
0.0
 11
-26.0
 21
11.66874999999999
 31
0.0
  0
LINE
  5
16C3
330
18
100
AcDbEntity
  8
1
100
AcDbLine
 10
-31.0
 20
9.131664999999998
 30
0.0
 11
-26.0
 21
11.66874999999999
 31
0.0
  0
LINE
  5
16C4
330
18
100
AcDbEntity
  8
1
100
AcDbLine
 10
-31.0
 20
-5.0
 30
0.0
 11
-31.0
 21
-9.131664999999998
 31
0.0
  0
LINE
  5
16C5
330
18
100
AcDbEntity
  8
1
100
AcDbLine
 10
-31.0
 20
-9.131664999999998
 30
0.0
 11
-32.0
 21
-9.709015999999991
 31
0.0
  0
LINE
  5
16C6
330
18
100
AcDbEntity
  8
1
100
AcDbLine
 10
-31.0
 20
-9.131664999999998
 30
0.0
 11
-26.0
 21
-11.66875
 31
0.0
  0
LINE
  5
16C7
330
18
100
AcDbEntity
  8
1
100
AcDbLine
 10
-26.0
 20
-3.5
 30
0.0
 11
-26.0
 21
-11.66875
 31
0.0
  0
DIMENSION
  5
16C8
330
18
100
AcDbEntity
  8
SK2
100
AcDbDimension
  2
*D17
 10
-49.0
 20
31.50000000000002
 30
0.0
 11
-49.00000000000001
 21
0.0000000000000066
 31
0.0
 70
    32
  1
%%c<>
 71
     5
 42
63.0
  3
BMG
100
AcDbAlignedDimension
 13
0.0
 23
-31.5
 33
0.0
 14
0.0
 24
31.5
 34
0.0
 50
90.0
100
AcDbRotatedDimension
1001
ACAD
1000
DSTYLE
1002
{
1070
   340
1005
10
1002
}
  0
CIRCLE
  5
16C9
330
18
100
AcDbEntity
  8
1
100
AcDbCircle
 10
-9.0
 20
0.0
 30
0.0
 40
3.75
  0
LINE
  5
16CA
330
18
100
AcDbEntity
  8
4
100
AcDbLine
 10
120.0
 20
0.0
 30
0.0
 11
-32.00000000000023
 21
0.0
 31
0.0
  0
DIMENSION
  5
16CB
330
18
100
AcDbEntity
  8
SK2
100
AcDbDimension
  2
*D18
 10
0.0000000000000006
 20
42.0
 30
0.0
 11
-16.0
 21
42.0
 31
0.0
 70
    32
 71
     5
 42
32.0
  3
BMG
100
AcDbAlignedDimension
 13
-32.0
 23
21.57350099999999
 33
0.0
 14
0.0
 24
31.5
 34
0.0
100
AcDbRotatedDimension
1001
ACAD
1000
DSTYLE
1002
{
1070
   340
1005
10
1002
}
  0
DIMENSION
  5
16CC
330
18
100
AcDbEntity
  8
SK2
100
AcDbDimension
  2
*D19
 10
120.0
 20
89.08297113134812
 30
0.0
 11
44.0
 21
89.08297113134812
 31
0.0
 70
   160
 71
     5
 42
152.0
  3
BMG
100
AcDbAlignedDimension
 13
-32.0
 23
21.57350099999999
 33
0.0
 14
120.0
 24
23.0
 34
0.0
100
AcDbRotatedDimension
1001
ACAD
1000
DSTYLE
1002
{
1070
   340
1005
10
1002
}
  0
DIMENSION
  5
16CD
330
18
100
AcDbEntity
  8
2
100
AcDbDimension
  2
*D20
 10
0.0000000000000027
 20
75.0
 30
0.0
 11
60.0
 21
75.0
 31
0.0
 70
   160
 71
     5
 42
120.0
  3
BMG
100
AcDbAlignedDimension
 13
120.0
 23
23.0
 33
0.0
 14
0.0
 24
31.5
 34
0.0
100
AcDbRotatedDimension
1001
ACAD
1000
DSTYLE
1002
{
1070
   340
1005
10
1002
}
  0
TEXT
  5
16CE
330
18
100
AcDbEntity
  8
INFTEXT63
100
AcDbText
 10
-59.05945314241581
 20
-64.57696883954077
 30
0.0
 40
3.5
  1
93.05.036.109
100
AcDbText
  0
LINE
  5
16CF
330
18
100
AcDbEntity
  8
SK3
100
AcDbLine
 10
60.0
 20
8.25
 30
0.0
 11
62.0
 21
8.25
 31
0.0
  0
LINE
  5
16D0
330
18
100
AcDbEntity
  8
SK3
100
AcDbLine
 10
60.0
 20
-8.25
 30
0.0
 11
62.0
 21
-8.25
 31
0.0
  0
LINE
  5
16D1
330
18
100
AcDbEntity
  8
SK3
100
AcDbLine
 10
60.0
 20
8.25
 30
0.0
 11
60.0
 21
-8.25
 31
0.0
  0
LINE
  5
16D2
330
18
100
AcDbEntity
  8
1
100
AcDbLine
 10
108.6574359999999
 20
25.0
 30
0.0
 11
108.6574359999999
 21
-25.0
 31
0.0
  0
LINE
  5
16D3
330
18
100
AcDbEntity
  8
1
100
AcDbLine
 10
120.0
 20
23.0
 30
0.0
 11
120.0
 21
-23.0
 31
0.0
  0
LINE
  5
16D4
330
18
100
AcDbEntity
  8
1
100
AcDbLine
 10
108.6574359999999
 20
25.0
 30
0.0
 11
102.0
 21
25.0
 31
0.0
  0
LINE
  5
16D5
330
18
100
AcDbEntity
  8
SK3
100
AcDbLine
 10
62.0
 20
12.5
 30
0.0
 11
114.0
 21
12.5
 31
0.0
  0
LINE
  5
16D6
330
18
100
AcDbEntity
  8
SK3
100
AcDbLine
 10
62.0
 20
-12.5
 30
0.0
 11
114.0
 21
-12.5
 31
0.0
  0
DIMENSION
  5
16D7
330
18
100
AcDbEntity
  8
2
100
AcDbDimension
  2
*D21
 10
55.01142153886304
 20
25.00000000000002
 30
0.0
 11
55.01142153886303
 21
37.72628092964578
 31
0.0
 70
   160
  1
%%c<>
 71
     5
 42
50.0
  3
BMG
100
AcDbAlignedDimension
 13
99.65743599999996
 23
-25.0
 33
0.0
 14
99.65743599999996
 24
25.0
 34
0.0
 50
90.0
100
AcDbRotatedDimension
1001
ACAD
1000
DSTYLE
1002
{
1070
   340
1005
10
1002
}
  0
LINE
  5
16D8
330
18
100
AcDbEntity
  8
1
100
AcDbLine
 10
108.6574359999999
 20
-25.0
 30
0.0
 11
102.0
 21
-25.0
 31
0.0
  0
LINE
  5
16D9
330
18
100
AcDbEntity
  8
1
100
AcDbLine
 10
102.0
 20
25.0
 30
0.0
 11
102.0
 21
-25.0
 31
0.0
  0
DIMENSION
  5
16DA
330
18
100
AcDbEntity
  8
SK2
100
AcDbDimension
  2
*D22
 10
138.5
 20
12.49999999999999
 30
0.0
 11
138.5
 21
0.0000000000000146
 31
0.0
 70
    32
  1
%%c<>
 71
     5
 42
25.0
  3
BMG
100
AcDbAlignedDimension
 13
114.0
 23
-12.5
 33
0.0
 14
114.0
 24
12.5
 34
0.0
 50
90.0
100
AcDbRotatedDimension
1001
ACAD
1000
DSTYLE
1002
{
1070
   340
1005
10
1002
}
  0
DIMENSION
  5
16DB
330
18
100
AcDbEntity
  8
SK2
100
AcDbDimension
  2
*D23
 10
152.5
 20
22.99999999999999
 30
0.0
 11
152.5
 21
0.0000000000000155
 31
0.0
 70
    32
  1
%%c<>
 71
     5
 42
46.0
  3
BMG
100
AcDbAlignedDimension
 13
120.0
 23
-23.0
 33
0.0
 14
120.0
 24
23.0
 34
0.0
 50
90.0
100
AcDbRotatedDimension
1001
ACAD
1000
DSTYLE
1002
{
1070
   340
1005
10
1002
}
  0
LINE
  5
16DC
330
18
100
AcDbEntity
  8
1
100
AcDbLine
 10
101.0
 20
25.0
 30
0.0
 11
101.0
 21
-25.0
 31
0.0
  0
LINE
  5
16DD
330
18
100
AcDbEntity
  8
SK3
100
AcDbLine
 10
114.0
 20
20.09999999999999
 30
0.0
 11
114.0
 21
-20.09999999999999
 31
0.0
  0
LINE
  5
16DE
330
18
100
AcDbEntity
  8
SK3
100
AcDbLine
 10
62.0
 20
14.09999999999999
 30
0.0
 11
62.0
 21
-14.09999999999999
 31
0.0
  0
LINE
  5
16DF
330
18
100
AcDbEntity
  8
SK3
100
AcDbLine
 10
114.4000000000001
 20
20.5
 30
0.0
 11
120.0
 21
20.5
 31
0.0
  0
LINE
  5
16E0
330
18
100
AcDbEntity
  8
SK3
100
AcDbLine
 10
114.4000000000001
 20
-20.5
 30
0.0
 11
120.0
 21
-20.5
 31
0.0
  0
LINE
  5
16E1
330
18
100
AcDbEntity
  8
SK3
100
AcDbLine
 10
62.40000000000009
 20
14.5
 30
0.0
 11
113.2
 21
14.5
 31
0.0
  0
LINE
  5
16E2
330
18
100
AcDbEntity
  8
SK3
100
AcDbLine
 10
62.40000000000009
 20
-14.5
 30
0.0
 11
113.2
 21
-14.5
 31
0.0
  0
LINE
  5
16E3
330
18
100
AcDbEntity
  8
SK3
100
AcDbLine
 10
113.2
 20
14.5
 30
0.0
 11
113.2
 21
-14.5
 31
0.0
  0
LINE
  5
16E4
330
18
100
AcDbEntity
  8
SK3
100
AcDbLine
 10
113.2
 20
14.5
 30
0.0
 11
114.0
 21
15.30000000000001
 31
0.0
  0
LINE
  5
16E5
330
18
100
AcDbEntity
  8
SK3
100
AcDbLine
 10
113.2
 20
-14.5
 30
0.0
 11
114.0
 21
-15.3
 31
0.0
  0
LINE
  5
16E6
330
18
100
AcDbEntity
  8
1
100
AcDbLine
 10
120.0
 20
23.0
 30
0.0
 11
108.6574359999999
 21
25.0
 31
0.0
  0
LINE
  5
16E7
330
18
100
AcDbEntity
  8
1
100
AcDbLine
 10
120.0
 20
-23.0
 30
0.0
 11
108.6574359999999
 21
-25.0
 31
0.0
  0
LINE
  5
16E8
330
18
100
AcDbEntity
  8
1
100
AcDbLine
 10
99.0
 20
25.0
 30
0.0
 11
99.0
 21
-25.0
 31
0.0
  0
LINE
  5
16E9
330
18
100
AcDbEntity
  8
1
100
AcDbLine
 10
98.0
 20
25.0
 30
0.0
 11
98.0
 21
-25.0
 31
0.0
  0
LINE
  5
16EA
330
18
100
AcDbEntity
  8
1
100
AcDbLine
 10
96.0
 20
25.0
 30
0.0
 11
96.0
 21
-25.0
 31
0.0
  0
LINE
  5
16EB
330
18
100
AcDbEntity
  8
1
100
AcDbLine
 10
95.0
 20
25.0
 30
0.0
 11
95.0
 21
-25.0
 31
0.0
  0
LINE
  5
16EC
330
18
100
AcDbEntity
  8
1
100
AcDbLine
 10
102.0
 20
24.5
 30
0.0
 11
101.0
 21
24.5
 31
0.0
  0
LINE
  5
16ED
330
18
100
AcDbEntity
  8
1
100
AcDbLine
 10
102.0
 20
-24.5
 30
0.0
 11
101.0
 21
-24.5
 31
0.0
  0
LINE
  5
16EE
330
18
100
AcDbEntity
  8
1
100
AcDbLine
 10
95.0
 20
25.0
 30
0.0
 11
90.0
 21
25.0
 31
0.0
  0
LINE
  5
16EF
330
18
100
AcDbEntity
  8
1
100
AcDbLine
 10
96.0
 20
24.5
 30
0.0
 11
95.0
 21
24.5
 31
0.0
  0
LINE
  5
16F0
330
18
100
AcDbEntity
  8
1
100
AcDbLine
 10
98.0
 20
25.0
 30
0.0
 11
96.0
 21
25.0
 31
0.0
  0
LINE
  5
16F1
330
18
100
AcDbEntity
  8
1
100
AcDbLine
 10
99.0
 20
24.5
 30
0.0
 11
98.0
 21
24.5
 31
0.0
  0
LINE
  5
16F2
330
18
100
AcDbEntity
  8
1
100
AcDbLine
 10
101.0
 20
25.0
 30
0.0
 11
99.0
 21
25.0
 31
0.0
  0
LINE
  5
16F3
330
18
100
AcDbEntity
  8
1
100
AcDbLine
 10
95.0
 20
-25.0
 30
0.0
 11
90.0
 21
-25.0
 31
0.0
  0
LINE
  5
16F4
330
18
100
AcDbEntity
  8
1
100
AcDbLine
 10
96.0
 20
-24.5
 30
0.0
 11
95.0
 21
-24.5
 31
0.0
  0
LINE
  5
16F5
330
18
100
AcDbEntity
  8
1
100
AcDbLine
 10
98.0
 20
-25.0
 30
0.0
 11
96.0
 21
-25.0
 31
0.0
  0
LINE
  5
16F6
330
18
100
AcDbEntity
  8
1
100
AcDbLine
 10
99.0
 20
-24.5
 30
0.0
 11
98.0
 21
-24.5
 31
0.0
  0
ARC
  5
16F7
330
18
100
AcDbEntity
  8
SK3
100
AcDbCircle
 10
62.40000000000009
 20
14.09999999999999
 30
0.0
 40
0.4
100
AcDbArc
 50
90.0
 51
180.0
  0
ARC
  5
16F8
330
18
100
AcDbEntity
  8
SK3
100
AcDbCircle
 10
62.40000000000009
 20
-14.09999999999999
 30
0.0
 40
0.4
100
AcDbArc
 50
180.0
 51
270.0
  0
ARC
  5
16F9
330
18
100
AcDbEntity
  8
SK3
100
AcDbCircle
 10
114.4000000000001
 20
20.09999999999999
 30
0.0
 40
0.4
100
AcDbArc
 50
90.0
 51
180.0
  0
LINE
  5
16FA
330
18
100
AcDbEntity
  8
1
100
AcDbLine
 10
101.0
 20
-25.0
 30
0.0
 11
99.0
 21
-25.0
 31
0.0
  0
LINE
  5
16FB
330
18
100
AcDbEntity
  8
1
100
AcDbLine
 10
89.0
 20
25.0
 30
0.0
 11
89.0
 21
-25.0
 31
0.0
  0
LINE
  5
16FC
330
18
100
AcDbEntity
  8
1
100
AcDbLine
 10
90.0
 20
25.0
 30
0.0
 11
90.0
 21
-25.0
 31
0.0
  0
LINE
  5
16FD
330
18
100
AcDbEntity
  8
1
100
AcDbLine
 10
90.0
 20
24.5
 30
0.0
 11
89.0
 21
24.5
 31
0.0
  0
LINE
  5
16FE
330
18
100
AcDbEntity
  8
1
100
AcDbLine
 10
90.0
 20
-24.5
 30
0.0
 11
89.0
 21
-24.5
 31
0.0
  0
LINE
  5
16FF
330
18
100
AcDbEntity
  8
1
100
AcDbLine
 10
89.0
 20
-25.0
 30
0.0
 11
26.0
 21
-25.0
 31
0.0
  0
LINE
  5
1700
330
18
100
AcDbEntity
  8
1
100
AcDbLine
 10
89.0
 20
25.0
 30
0.0
 11
26.0
 21
25.0
 31
0.0
  0
DIMENSION
  5
1701
330
18
100
AcDbEntity
  8
SK2
100
AcDbDimension
  2
*D14
 10
26.0
 20
56.0
 30
0.0
 11
73.0
 21
56.0
 31
0.0
 70
    32
 71
     5
 42
94.0
  3
BMG
100
AcDbAlignedDimension
 13
120.0
 23
23.0
 33
0.0
 14
26.0
 24
31.5
 34
0.0
100
AcDbRotatedDimension
1001
ACAD
1000
DSTYLE
1002
{
1070
   340
1005
10
1002
}
  0
ARC
  5
1702
330
18
100
AcDbEntity
  8
SK3
100
AcDbCircle
 10
114.4000000000001
 20
-20.09999999999999
 30
0.0
 40
0.4
100
AcDbArc
 50
180.0
 51
270.0
  0
DIMENSION
  5
1703
330
18
100
AcDbEntity
  8
SK2
100
AcDbDimension
  2
*D15
 10
62.0
 20
42.0
 30
0.0
 11
91.0
 21
42.0
 31
0.0
 70
    32
 71
     5
 42
58.0
  3
BMG
100
AcDbAlignedDimension
 13
120.0
 23
23.0
 33
0.0
 14
62.0
 24
14.09999999999999
 34
0.0
100
AcDbRotatedDimension
1001
ACAD
1000
DSTYLE
1002
{
1070
   340
1005
10
1002
}
  0
LINE
  5
1704
330
18
100
AcDbEntity
  8
1
100
AcDbLine
 10
26.0
 20
-2.412281000000007
 30
0.0
 11
26.0
 21
-31.5
 31
0.0
  0
LINE
  5
1705
330
18
100
AcDbEntity
  8
SK3
100
AcDbLine
 10
40.0
 20
8.0
 30
0.0
 11
60.0
 21
8.0
 31
0.0
  0
LINE
  5
1706
330
18
100
AcDbEntity
  8
SK3
100
AcDbLine
 10
40.0
 20
-8.0
 30
0.0
 11
60.0
 21
-8.0
 31
0.0
  0
LINE
  5
1707
330
18
100
AcDbEntity
  8
SK3
100
AcDbLine
 10
35.17570000000001
 20
7.0
 30
0.0
 11
60.0
 21
7.0
 31
0.0
  0
LINE
  5
1708
330
18
100
AcDbEntity
  8
SK3
100
AcDbLine
 10
33.94864000000007
 20
-7.0
 30
0.0
 11
60.0
 21
-7.0
 31
0.0
  0
LINE
  5
1709
330
18
100
AcDbEntity
  8
SK3
100
AcDbLine
 10
40.0
 20
-8.0
 30
0.0
 11
40.0
 21
8.0
 31
0.0
  0
DIMENSION
  5
170A
330
18
100
AcDbEntity
  8
SK2
100
AcDbDimension
  2
*D16
 10
39.99774140862064
 20
8.0
 30
0.0
 11
39.99774140862064
 21
36.33102053802577
 31
0.0
 70
   160
  1
M<>x1
 71
     5
 42
16.0
  3
BMG
100
AcDbAlignedDimension
 13
40.0
 23
-8.0
 33
0.0
 14
40.0
 24
8.0
 34
0.0
 50
90.0
100
AcDbRotatedDimension
1001
ACAD
1000
DSTYLE
1002
{
1070
   340
1005
10
1002
}
  0
TEXT
  5
170B
330
18
100
AcDbEntity
  8
SK6
100
AcDbText
 10
-25.57542650975757
 20
17.63741180230357
 30
0.0
 40
3.5
  1
HSK-A63
100
AcDbText
  0
TEXT
  5
170C
330
18
100
AcDbEntity
  8
SK6
100
AcDbText
 10
-25.13848350975763
 20
13.02137780230359
 30
0.0
 40
3.5
  1
Gewefa
100
AcDbText
  0
LINE
  5
170D
330
18
100
AcDbEntity
  8
NOCUT
100
AcDbLine
 10
0.0
 20
0.0
 30
0.0
 11
0.0
 21
31.5
 31
0.0
  0
LINE
  5
170E
330
18
100
AcDbEntity
  8
NOCUT
100
AcDbLine
 10
0.0
 20
31.5
 30
0.0
 11
14.46372999999994
 21
31.5
 31
0.0
  0
LINE
  5
170F
330
18
100
AcDbEntity
  8
NOCUT
100
AcDbLine
 10
14.46372999999994
 20
31.5
 30
0.0
 11
16.125
 21
28.62259499999999
 31
0.0
  0
LINE
  5
1710
330
18
100
AcDbEntity
  8
NOCUT
100
AcDbLine
 10
16.125
 20
28.62259499999999
 30
0.0
 11
16.125
 21
28.13647900000001
 31
0.0
  0
LINE
  5
1711
330
18
100
AcDbEntity
  8
NOCUT
100
AcDbLine
 10
16.125
 20
28.13647900000001
 30
0.0
 11
19.875
 21
28.13647900000001
 31
0.0
  0
LINE
  5
1712
330
18
100
AcDbEntity
  8
NOCUT
100
AcDbLine
 10
19.875
 20
28.13647900000001
 30
0.0
 11
19.875
 21
28.62259499999999
 31
0.0
  0
LINE
  5
1713
330
18
100
AcDbEntity
  8
NOCUT
100
AcDbLine
 10
19.875
 20
28.62259499999999
 30
0.0
 11
21.53627000000006
 21
31.5
 31
0.0
  0
LINE
  5
1714
330
18
100
AcDbEntity
  8
NOCUT
100
AcDbLine
 10
21.53627000000006
 20
31.5
 30
0.0
 11
26.0
 21
31.5
 31
0.0
  0
LINE
  5
1715
330
18
100
AcDbEntity
  8
NOCUT
100
AcDbLine
 10
26.0
 20
31.5
 30
0.0
 11
26.0
 21
25.0
 31
0.0
  0
LINE
  5
1716
330
18
100
AcDbEntity
  8
NOCUT
100
AcDbLine
 10
26.0
 20
25.0
 30
0.0
 11
89.0
 21
25.0
 31
0.0
  0
LINE
  5
1717
330
18
100
AcDbEntity
  8
NOCUT
100
AcDbLine
 10
89.0
 20
25.0
 30
0.0
 11
89.0
 21
24.5
 31
0.0
  0
LINE
  5
1718
330
18
100
AcDbEntity
  8
NOCUT
100
AcDbLine
 10
89.0
 20
24.5
 30
0.0
 11
90.0
 21
24.5
 31
0.0
  0
LINE
  5
1719
330
18
100
AcDbEntity
  8
NOCUT
100
AcDbLine
 10
90.0
 20
24.5
 30
0.0
 11
90.0
 21
25.0
 31
0.0
  0
LINE
  5
171A
330
18
100
AcDbEntity
  8
NOCUT
100
AcDbLine
 10
90.0
 20
25.0
 30
0.0
 11
95.0
 21
25.0
 31
0.0
  0
LINE
  5
171B
330
18
100
AcDbEntity
  8
NOCUT
100
AcDbLine
 10
95.0
 20
25.0
 30
0.0
 11
95.0
 21
24.5
 31
0.0
  0
LINE
  5
171C
330
18
100
AcDbEntity
  8
NOCUT
100
AcDbLine
 10
95.0
 20
24.5
 30
0.0
 11
96.0
 21
24.5
 31
0.0
  0
LINE
  5
171D
330
18
100
AcDbEntity
  8
NOCUT
100
AcDbLine
 10
96.0
 20
24.5
 30
0.0
 11
96.0
 21
25.0
 31
0.0
  0
LINE
  5
171E
330
18
100
AcDbEntity
  8
NOCUT
100
AcDbLine
 10
96.0
 20
25.0
 30
0.0
 11
98.0
 21
25.0
 31
0.0
  0
LINE
  5
171F
330
18
100
AcDbEntity
  8
NOCUT
100
AcDbLine
 10
98.0
 20
25.0
 30
0.0
 11
98.0
 21
24.5
 31
0.0
  0
LINE
  5
1720
330
18
100
AcDbEntity
  8
NOCUT
100
AcDbLine
 10
98.0
 20
24.5
 30
0.0
 11
99.0
 21
24.5
 31
0.0
  0
LINE
  5
1721
330
18
100
AcDbEntity
  8
NOCUT
100
AcDbLine
 10
99.0
 20
24.5
 30
0.0
 11
99.0
 21
25.0
 31
0.0
  0
LINE
  5
1722
330
18
100
AcDbEntity
  8
NOCUT
100
AcDbLine
 10
99.0
 20
25.0
 30
0.0
 11
101.0
 21
25.0
 31
0.0
  0
LINE
  5
1723
330
18
100
AcDbEntity
  8
NOCUT
100
AcDbLine
 10
101.0
 20
25.0
 30
0.0
 11
101.0
 21
24.5
 31
0.0
  0
LINE
  5
1724
330
18
100
AcDbEntity
  8
NOCUT
100
AcDbLine
 10
101.0
 20
24.5
 30
0.0
 11
102.0
 21
24.5
 31
0.0
  0
LINE
  5
1725
330
18
100
AcDbEntity
  8
NOCUT
100
AcDbLine
 10
102.0
 20
24.5
 30
0.0
 11
102.0
 21
25.0
 31
0.0
  0
LINE
  5
1726
330
18
100
AcDbEntity
  8
NOCUT
100
AcDbLine
 10
102.0
 20
25.0
 30
0.0
 11
108.6574359999999
 21
25.0
 31
0.0
  0
LINE
  5
1727
330
18
100
AcDbEntity
  8
NOCUT
100
AcDbLine
 10
108.6574359999999
 20
25.0
 30
0.0
 11
120.0
 21
23.0
 31
0.0
  0
LINE
  5
1728
330
18
100
AcDbEntity
  8
NOCUT
100
AcDbLine
 10
120.0
 20
23.0
 30
0.0
 11
120.0
 21
0.0
 31
0.0
  0
LINE
  5
1729
330
18
100
AcDbEntity
  8
NOCUT
100
AcDbLine
 10
120.0
 20
0.0
 30
0.0
 11
0.0
 21
0.0
 31
0.0
  0
ENDSEC
  0
SECTION
  2
OBJECTS
  0
DICTIONARY
  5
C
330
0
100
AcDbDictionary
281
     1
  3
ACAD_COLOR
350
387
  3
ACAD_GROUP
350
D
  3
ACAD_LAYOUT
350
301
  3
ACAD_MATERIAL
350
386
  3
ACAD_MLINESTYLE
350
E
  3
ACAD_PLOTSETTINGS
350
302
  3
ACAD_PLOTSTYLENAME
350
2FF
  3
ACAD_TABLESTYLE
350
388
  3
ACDBHEADERROUNDTRIPXREC
350
187F
  3
AcDbVariableDictionary
350
357
  3
ASE_INDEX_DICTIONARY
350
14E9
  0
DICTIONARY
  5
47B
330
2
100
AcDbDictionary
280
     1
281
     1
  3
ACAD_LAYERFILTERS
360
14E8
  3
ACAD_LAYERSTATES
360
47C
  3
ACLYDICTIONARY
360
14E7
  0
DICTIONARY
  5
387
102
{ACAD_REACTORS
330
C
102
}
330
C
100
AcDbDictionary
281
     1
  0
DICTIONARY
  5
D
102
{ACAD_REACTORS
330
C
102
}
330
C
100
AcDbDictionary
281
     1
  0
DICTIONARY
  5
301
102
{ACAD_REACTORS
330
C
102
}
330
C
100
AcDbDictionary
281
     1
  3
Layout1
350
33B
  3
Model
350
303
  0
DICTIONARY
  5
386
102
{ACAD_REACTORS
330
C
102
}
330
C
100
AcDbDictionary
281
     1
  0
DICTIONARY
  5
E
102
{ACAD_REACTORS
330
C
102
}
330
C
100
AcDbDictionary
281
     1
  3
STANDARD
350
1B
  0
DICTIONARY
  5
302
102
{ACAD_REACTORS
330
C
102
}
330
C
100
AcDbDictionary
281
     1
  0
ACDBDICTIONARYWDFLT
  5
2FF
102
{ACAD_REACTORS
330
C
102
}
330
C
100
AcDbDictionary
281
     1
  3
Normal
350
300
100
AcDbDictionaryWithDefault
340
300
  0
DICTIONARY
  5
388
102
{ACAD_REACTORS
330
C
102
}
330
C
100
AcDbDictionary
281
     1
  3
Standard
350
389
  0
DICTIONARY
  5
187F
102
{ACAD_REACTORS
330
C
102
}
330
C
100
AcDbDictionary
281
     1
  0
DICTIONARY
  5
357
102
{ACAD_REACTORS
330
C
102
}
330
C
100
AcDbDictionary
281
     1
  3
CTABLESTYLE
350
38E
  3
DIMASSOC
350
359
  3
HIDETEXT
350
358
  3
PROJECTNAME
350
5A9
  0
DICTIONARY
  5
14E9
102
{ACAD_REACTORS
330
C
102
}
330
C
100
AcDbDictionary
281
     1
  3
ASEBlockHierarchyIndexRecord
350
14EA
1001
DCO15
1040
1708866881.644
  0
DICTIONARY
  5
14E8
102
{ACAD_REACTORS
330
47B
102
}
330
47B
100
AcDbDictionary
281
     1
  0
DICTIONARY
  5
47C
102
{ACAD_REACTORS
330
47B
102
}
330
47B
100
AcDbDictionary
281
     1
  0
DICTIONARY
  5
14E7
102
{ACAD_REACTORS
330
47B
102
}
330
47B
100
AcDbDictionary
281
     1
1001
ACAD
1000
<All
  0
LAYOUT
  5
33B
102
{ACAD_XDICTIONARY
360
1882
102
}
102
{ACAD_REACTORS
330
301
102
}
330
301
100
AcDbPlotSettings
  1

  2
Lexmark Optra PS2
  4

  6

 40
0.0
 41
0.0
 42
0.0
 43
0.0
 44
0.0
 45
0.0
 46
0.0
 47
0.0
 48
0.0
 49
0.0
140
0.0
141
0.0
142
1.0
143
1.0
 70
   688
 72
     0
 73
     0
 74
     5
  7
monochrome.ctb
 75
    16
147
1.0
148
0.0
149
0.0
100
AcDbLayout
  1
Layout1
 70
     1
 71
     1
 10
0.0
 20
0.0
 11
12.0
 21
9.0
 12
0.0
 22
0.0
 32
0.0
 14
0.0
 24
0.0
 34
0.0
 15
0.0
 25
0.0
 35
0.0
146
0.0
 13
0.0
 23
0.0
 33
0.0
 16
1.0
 26
0.0
 36
0.0
 17
0.0
 27
1.0
 37
0.0
 76
     0
330
338
  0
LAYOUT
  5
303
102
{ACAD_XDICTIONARY
360
1880
102
}
102
{ACAD_REACTORS
330
301
102
}
330
301
100
AcDbPlotSettings
  1

  2
Default Windows System Printer.pc3
  4
A4
  6

 40
6.805083274841307
 41
5.535083293914794
 42
6.974411010742187
 43
7.14373779296875
 44
209.9733276367186
 45
296.9259948730469
 46
37.97916717313226
 47
0.0
 48
0.0
 49
0.0
140
0.0
141
0.0
142
1.0
143
0.133151366567524
 70
  3764
 72
     1
 73
     1
 74
     1
  7
monochrome.ctb
 75
     0
147
7.510249618751587
148
-84.03300666067867
149
15.85586429789646
100
AcDbLayout
  1
Model
 70
     1
 71
     0
 10
0.0
 20
0.0
 11
12.0
 21
9.0
 12
0.0
 22
0.0
 32
0.0
 14
0.0
 24
0.0
 34
0.0
 15
0.0
 25
0.0
 35
0.0
146
0.0
 13
0.0
 23
0.0
 33
0.0
 16
1.0
 26
0.0
 36
0.0
 17
0.0
 27
1.0
 37
0.0
 76
     0
330
18
1001
ACAD_PSEXT
1000
Default Windows System Printer.pc3
1000
Lexmark Optra Rx
1000
Lexmark Rx
1000
Erstellt von Lexmark Benutzerdefinierte Installation,Nov 13,2005,10:03
1070
     0
  0
MLINESTYLE
  5
1B
102
{ACAD_REACTORS
330
E
102
}
330
E
100
AcDbMlineStyle
  2
STANDARD
 70
     0
  3

 62
     0
 51
90.0
 52
90.0
 71
     2
 49
0.5
 62
   256
  6
BYLAYER
 49
-0.5
 62
   256
  6
BYLAYER
  0
ACDBPLACEHOLDER
  5
300
102
{ACAD_REACTORS
330
2FF
102
}
330
2FF
  0
TABLESTYLE
  5
389
102
{ACAD_REACTORS
330
388
102
}
330
388
100
AcDbTableStyle
  3
Standard
 70
     0
 71
     0
 40
1.5
 41
1.5
280
     0
281
     0
  7
STANDARD
140
4.5
170
     2
 62
     0
 63
     7
283
     0
274
    -2
284
     1
 64
     0
275
    -2
285
     1
 65
     0
276
    -2
286
     1
 66
     0
277
    -2
287
     1
 67
     0
278
    -2
288
     1
 68
     0
279
    -2
289
     1
 69
     0
  7
STANDARD
140
6.0
170
     5
 62
     0
 63
     7
283
     0
274
    -2
284
     1
 64
     0
275
    -2
285
     1
 65
     0
276
    -2
286
     1
 66
     0
277
    -2
287
     1
 67
     0
278
    -2
288
     1
 68
     0
279
    -2
289
     1
 69
     0
  7
STANDARD
140
4.5
170
     5
 62
     0
 63
     7
283
     0
274
    -2
284
     1
 64
     0
275
    -2
285
     1
 65
     0
276
    -2
286
     1
 66
     0
277
    -2
287
     1
 67
     0
278
    -2
288
     1
 68
     0
279
    -2
289
     1
 69
     0
  0
DICTIONARYVAR
  5
38E
102
{ACAD_REACTORS
330
357
102
}
330
357
100
DictionaryVariables
280
     0
  1
STANDARD
  0
DICTIONARYVAR
  5
359
102
{ACAD_REACTORS
330
357
102
}
330
357
100
DictionaryVariables
280
     0
  1
2
  0
DICTIONARYVAR
  5
358
102
{ACAD_REACTORS
330
357
102
}
330
357
100
DictionaryVariables
280
     0
  1
1
  0
DICTIONARYVAR
  5
5A9
102
{ACAD_REACTORS
330
357
102
}
330
357
100
DictionaryVariables
280
     0
  1

  0
XRECORD
  5
14EA
102
{ACAD_REACTORS
330
14E9
102
}
330
14E9
100
AcDbXrecord
280
     1
  0
DICTIONARY
  5
1882
330
33B
100
AcDbDictionary
280
     1
281
     1
  3
ACAD_XREC_ROUNDTRIP
360
1883
  0
DICTIONARY
  5
1880
330
303
100
AcDbDictionary
280
     1
281
     1
  3
ACAD_XREC_ROUNDTRIP
360
1881
  0
XRECORD
  5
1883
102
{ACAD_REACTORS
330
1882
102
}
330
1882
100
AcDbXrecord
280
     1
102
SHADEPLOT
 70
     0
102
SHADEPLOTRESLEVEL
 70
     2
102
SHADEPLOTCUSTOMDPI
 70
   300
  0
XRECORD
  5
1881
102
{ACAD_REACTORS
330
1880
102
}
330
1880
100
AcDbXrecord
280
     1
102
SHADEPLOT
 70
     1
102
SHADEPLOTRESLEVEL
 70
     2
102
SHADEPLOTCUSTOMDPI
 70
   300
  0
ENDSEC
  0
EOF
