  0
SECTION
  2
HEADER
  9
$ACADVER
  1
AC1015
  9
$ACADMAINTVER
 70
     6
  9
$DWGCODEPAGE
  3
DOS850
  9
$INSBASE
 10
0.000118
 20
0.001
 30
0.0
  9
$EXTMIN
 10
-79.516771
 20
-138.850679
 30
0.0
  9
$EXTMAX
 10
340.483229
 20
158.149321
 30
0.0
  9
$LIMMIN
 10
-79.516771
 20
-138.850679
  9
$LIMMAX
 10
340.483229
 20
158.149321
  9
$ORTHOMODE
 70
     1
  9
$REGENMODE
 70
     1
  9
$FILLMODE
 70
     1
  9
$QTEXTMODE
 70
     0
  9
$MIRRTEXT
 70
     1
  9
$LTSCALE
 40
1.0
  9
$ATTMODE
 70
     1
  9
$TEXTSIZE
 40
0.0
  9
$TRACEWID
 40
0.05
  9
$TEXTSTYLE
  7
Standard
  9
$CLAYER
  8
NOCUT
  9
$CELTYPE
  6
ByLayer
  9
$CECOLOR
 62
   256
  9
$CELTSCALE
 40
1.0
  9
$DISPSILH
 70
     0
  9
$DIMSCALE
 40
1.0
  9
$DIMASZ
 40
3.5
  9
$DIMEXO
 40
0.0625
  9
$DIMDLI
 40
0.38
  9
$DIMRND
 40
0.0
  9
$DIMDLE
 40
0.0
  9
$DIMEXE
 40
0.18
  9
$DIMTP
 40
0.0
  9
$DIMTM
 40
0.0
  9
$DIMTXT
 40
3.5
  9
$DIMCEN
 40
0.09
  9
$DIMTSZ
 40
0.0
  9
$DIMTOL
 70
     0
  9
$DIMLIM
 70
     0
  9
$DIMTIH
 70
     1
  9
$DIMTOH
 70
     1
  9
$DIMSE1
 70
     0
  9
$DIMSE2
 70
     0
  9
$DIMTAD
 70
     1
  9
$DIMZIN
 70
     0
  9
$DIMBLK
  1

  9
$DIMASO
 70
     1
  9
$DIMSHO
 70
     1
  9
$DIMPOST
  1

  9
$DIMAPOST
  1

  9
$DIMALT
 70
     0
  9
$DIMALTD
 70
     2
  9
$DIMALTF
 40
25.4
  9
$DIMLFAC
 40
1.0
  9
$DIMTOFL
 70
     0
  9
$DIMTVP
 40
0.0
  9
$DIMTIX
 70
     0
  9
$DIMSOXD
 70
     0
  9
$DIMSAH
 70
     0
  9
$DIMBLK1
  1

  9
$DIMBLK2
  1

  9
$DIMSTYLE
  2
Standard
  9
$DIMCLRD
 70
     0
  9
$DIMCLRE
 70
     0
  9
$DIMCLRT
 70
     0
  9
$DIMTFAC
 40
1.0
  9
$DIMGAP
 40
0.09
  9
$DIMJUST
 70
     0
  9
$DIMSD1
 70
     0
  9
$DIMSD2
 70
     0
  9
$DIMTOLJ
 70
     1
  9
$DIMTZIN
 70
     0
  9
$DIMALTZ
 70
     0
  9
$DIMALTTZ
 70
     0
  9
$DIMUPT
 70
     0
  9
$DIMDEC
 70
     4
  9
$DIMTDEC
 70
     4
  9
$DIMALTU
 70
     2
  9
$DIMALTTD
 70
     2
  9
$DIMTXSTY
  7
Standard
  9
$DIMAUNIT
 70
     0
  9
$DIMADEC
 70
     0
  9
$DIMALTRND
 40
0.0
  9
$DIMAZIN
 70
     0
  9
$DIMDSEP
 70
    46
  9
$DIMATFIT
 70
     3
  9
$DIMFRAC
 70
     0
  9
$DIMLDRBLK
  1

  9
$DIMLUNIT
 70
     2
  9
$DIMLWD
 70
     0
  9
$DIMLWE
 70
     0
  9
$DIMTMOVE
 70
     0
  9
$LUNITS
 70
     2
  9
$LUPREC
 70
     2
  9
$SKETCHINC
 40
0.1
  9
$FILLETRAD
 40
0.0
  9
$AUNITS
 70
     0
  9
$AUPREC
 70
     0
  9
$MENU
  1
acad
  9
$ELEVATION
 40
0.0
  9
$PELEVATION
 40
0.0
  9
$THICKNESS
 40
0.0
  9
$LIMCHECK
 70
     0
  9
$CHAMFERA
 40
0.0
  9
$CHAMFERB
 40
0.0
  9
$CHAMFERC
 40
0.0
  9
$CHAMFERD
 40
0.0
  9
$SKPOLY
 70
     0
  9
$TDCREATE
 40
2447893.041666667
  9
$TDUCREATE
 40
0.0
  9
$TDUPDATE
 40
2456643.452311447
  9
$TDUUPDATE
 40
2456643.41064478
  9
$TDINDWG
 40
0.0
  9
$TDUSRTIMER
 40
2456643.409339236
  9
$USRTIMER
 70
     1
  9
$ANGBASE
 50
0.0
  9
$ANGDIR
 70
     0
  9
$PDMODE
 70
     0
  9
$PDSIZE
 40
0.0
  9
$PLINEWID
 40
0.0
  9
$SPLFRAME
 70
     0
  9
$SPLINETYPE
 70
     6
  9
$SPLINESEGS
 70
     8
  9
$HANDSEED
  5
F75
  9
$SURFTAB1
 70
     6
  9
$SURFTAB2
 70
     6
  9
$SURFTYPE
 70
     6
  9
$SURFU
 70
     6
  9
$SURFV
 70
     6
  9
$UCSBASE
  2

  9
$UCSNAME
  2

  9
$UCSORG
 10
0.0
 20
0.0
 30
0.0
  9
$UCSXDIR
 10
1.0
 20
0.0
 30
0.0
  9
$UCSYDIR
 10
0.0
 20
1.0
 30
0.0
  9
$UCSORTHOREF
  2

  9
$UCSORTHOVIEW
 70
     0
  9
$UCSORGTOP
 10
0.0
 20
0.0
 30
0.0
  9
$UCSORGBOTTOM
 10
0.0
 20
0.0
 30
0.0
  9
$UCSORGLEFT
 10
0.0
 20
0.0
 30
0.0
  9
$UCSORGRIGHT
 10
0.0
 20
0.0
 30
0.0
  9
$UCSORGFRONT
 10
0.0
 20
0.0
 30
0.0
  9
$UCSORGBACK
 10
0.0
 20
0.0
 30
0.0
  9
$PUCSBASE
  2

  9
$PUCSNAME
  2

  9
$PUCSORG
 10
0.0
 20
0.0
 30
0.0
  9
$PUCSXDIR
 10
1.0
 20
0.0
 30
0.0
  9
$PUCSYDIR
 10
0.0
 20
1.0
 30
0.0
  9
$PUCSORTHOREF
  2

  9
$PUCSORTHOVIEW
 70
     0
  9
$PUCSORGTOP
 10
0.0
 20
0.0
 30
0.0
  9
$PUCSORGBOTTOM
 10
0.0
 20
0.0
 30
0.0
  9
$PUCSORGLEFT
 10
0.0
 20
0.0
 30
0.0
  9
$PUCSORGRIGHT
 10
0.0
 20
0.0
 30
0.0
  9
$PUCSORGFRONT
 10
0.0
 20
0.0
 30
0.0
  9
$PUCSORGBACK
 10
0.0
 20
0.0
 30
0.0
  9
$USERI1
 70
     0
  9
$USERI2
 70
     0
  9
$USERI3
 70
     0
  9
$USERI4
 70
     0
  9
$USERI5
 70
     0
  9
$USERR1
 40
0.0
  9
$USERR2
 40
0.0
  9
$USERR3
 40
0.0
  9
$USERR4
 40
0.0
  9
$USERR5
 40
0.0
  9
$WORLDVIEW
 70
     1
  9
$SHADEDGE
 70
     3
  9
$SHADEDIF
 70
    70
  9
$TILEMODE
 70
     1
  9
$MAXACTVP
 70
    16
  9
$PINSBASE
 10
0.0
 20
0.0
 30
0.0
  9
$PLIMCHECK
 70
     0
  9
$PEXTMIN
 10
1.000000000000000E+20
 20
1.000000000000000E+20
 30
1.000000000000000E+20
  9
$PEXTMAX
 10
-1.000000000000000E+20
 20
-1.000000000000000E+20
 30
-1.000000000000000E+20
  9
$PLIMMIN
 10
0.0
 20
0.0
  9
$PLIMMAX
 10
0.0
 20
0.0
  9
$UNITMODE
 70
     0
  9
$VISRETAIN
 70
     0
  9
$PLINEGEN
 70
     1
  9
$PSLTSCALE
 70
     0
  9
$TREEDEPTH
 70
  3020
  9
$CMLSTYLE
  2
Standard
  9
$CMLJUST
 70
     0
  9
$CMLSCALE
 40
1.0
  9
$PROXYGRAPHICS
 70
     0
  9
$MEASUREMENT
 70
     0
  9
$CELWEIGHT
370
     0
  9
$ENDCAPS
280
     0
  9
$JOINSTYLE
280
     0
  9
$LWDISPLAY
290
     0
  9
$INSUNITS
 70
     0
  9
$HYPERLINKBASE
  1

  9
$STYLESHEET
  1

  9
$XEDIT
290
     1
  9
$CEPSNTYPE
380
     0
  9
$PSTYLEMODE
290
     1
  9
$FINGERPRINTGUID
  2

  9
$VERSIONGUID
  2

  9
$EXTNAMES
290
     1
  9
$PSVPSCALE
 40
0.0
  9
$OLESTARTUP
290
     0
  0
ENDSEC
  0
SECTION
  2
CLASSES
  0
CLASS
  1
LWPOLYLINE
  2
AcDbPolyline
  3
AutoCAD 2000
 90
        0
280
     0
281
     1
  0
CLASS
  1
IMAGE
  2
AcDbRasterImage
  3
ISM
 90
      127
280
     0
281
     1
  0
CLASS
  1
OLE2FRAME
  2
AcDbOle2Frame
  3
AutoCAD 2000
 90
        0
280
     0
281
     1
  0
CLASS
  1
HATCH
  2
AcDbHatch
  3
AutoCAD 2000
 90
        0
280
     0
281
     1
  0
CLASS
  1
DICTIONARYVAR
  2
AcDbDictionaryVar
  3
ObjectDBX Classes
 90
        0
280
     0
281
     0
  0
CLASS
  1
RASTERVARIABLES
  2
AcDbRasterVariables
  3
ISM
 90
        0
280
     0
281
     0
  0
CLASS
  1
IMAGEDEF
  2
AcDbRasterImageDef
  3
ISM
 90
        0
280
     0
281
     0
  0
CLASS
  1
IMAGEDEF_REACTOR
  2
AcDbRasterImageDefReactor
  3
ISM
 90
        1
280
     0
281
     0
  0
CLASS
  1
IDBUFFER
  2
AcDbIdBuffer
  3
ObjectDBX Classes
 90
        0
280
     0
281
     0
  0
CLASS
  1
SPATIAL_FILTER
  2
AcDbSpatialFilter
  3
ObjectDBX Classes
 90
        0
280
     0
281
     0
  0
CLASS
  1
XRECORD
  2
AcDbXrecord
  3
AutoCAD 2000
 90
        0
280
     0
281
     0
  0
CLASS
  1
SORTENTSTABLE
  2
AcDbSortentsTable
  3
ObjectDBX Classes
 90
        0
280
     0
281
     0
  0
CLASS
  1
LAYER_INDEX
  2
AcDbLayerIndex
  3
ObjectDBX Classes
 90
        0
280
     0
281
     0
  0
CLASS
  1
SPATIAL_INDEX
  2
AcDbSpatialIndex
  3
AutoCAD 2000
 90
        0
280
     0
281
     0
  0
CLASS
  1
OBJECT_PTR
  2
CAseDLPNTableRecord
  3
ASE-LPNTableRecord
 90
        1
280
     0
281
     0
  0
CLASS
  1
LAYOUT
  2
AcDbLayout
  3
ObjectDBX Classes
 90
        0
280
     0
281
     0
  0
CLASS
  1
PLOTSETTINGS
  2
AcDbPlotSettings
  3
ObjectDBX Classes
 90
        0
280
     0
281
     0
  0
CLASS
  1
ACDBDICTIONARYWDFLT
  2
AcDbDictionaryWithDefault
  3
ObjectDBX Classes
 90
        0
280
     0
281
     0
  0
CLASS
  1
ACDBPLACEHOLDER
  2
AcDbPlaceHolder
  3
ObjectDBX Classes
 90
        0
280
     0
281
     0
  0
CLASS
  1
SCALE
  2
AcDbScale
  3
ObjectDBX Classes
 90
     1153
280
     0
281
     0
  0
CLASS
  1
MATERIAL
  2
AcDbMaterial
  3
ObjectDBX Classes
 90
     1153
280
     0
281
     0
  0
CLASS
  1
VISUALSTYLE
  2
AcDbVisualStyle
  3
ObjectDBX Classes
 90
     4095
280
     0
281
     0
  0
CLASS
  1
TABLESTYLE
  2
AcDbTableStyle
  3
ObjectDBX Classes
 90
     4095
280
     0
281
     0
  0
ENDSEC
  0
SECTION
  2
TABLES
  0
TABLE
  2
VPORT
  5
7
330
0
100
AcDbSymbolTable
 70
     1
  0
VPORT
  5
15
330
7
100
AcDbSymbolTableRecord
100
AcDbViewportTableRecord
  2
*ACTIVE
 70
     0
 10
0.0
 20
0.0
 11
1.0
 21
1.0
 12
118.4804781616083
 22
141.754134271305
 13
0.0
 23
0.0
 14
1.0
 24
1.0
 15
0.0
 25
0.0
 16
0.0
 26
0.0
 36
1.0
 17
-79.5167709999998
 27
-138.850679
 37
0.0
 40
195.6898220314762
 41
1.422316384180791
 42
50.0
 43
0.0
 44
0.0
 50
0.0
 51
0.0
 71
    16
 72
   100
 73
     1
 74
     1
 75
     0
 76
     0
 77
     0
 78
     0
281
     0
 65
     0
110
0.0
120
0.0
130
0.0
111
1.0
121
0.0
131
0.0
112
0.0
122
1.0
132
0.0
 79
     0
146
0.0
  0
ENDTAB
  0
TABLE
  2
LTYPE
  5
4
330
0
100
AcDbSymbolTable
 70
     7
  0
LTYPE
  5
11
330
4
100
AcDbSymbolTableRecord
100
AcDbLinetypeTableRecord
  2
ByBlock
 70
     0
  3

 72
    65
 73
     0
 40
0.0
  0
LTYPE
  5
12
330
4
100
AcDbSymbolTableRecord
100
AcDbLinetypeTableRecord
  2
ByLayer
 70
     0
  3

 72
    65
 73
     0
 40
0.0
  0
LTYPE
  5
13
330
4
100
AcDbSymbolTableRecord
100
AcDbLinetypeTableRecord
  2
Continuous
 70
     0
  3
Solid line
 72
    65
 73
     0
 40
0.0
  0
LTYPE
  5
29
330
4
100
AcDbSymbolTableRecord
100
AcDbLinetypeTableRecord
  2
HIDDEN
 70
     0
  3
_ _ _ _ _ _ _ _ _ _ _ _ _ _ _ _ _ _ _ _ _ _ _
 72
    65
 73
     2
 40
0.375
 49
0.25
 74
     0
 49
-0.125
 74
     0
  0
LTYPE
  5
80
330
4
100
AcDbSymbolTableRecord
100
AcDbLinetypeTableRecord
  2
DASHED
 70
     0
  3
__ __ __ __ __
 72
    65
 73
     2
 40
4.0
 49
2.0
 74
     0
 49
-2.0
 74
     0
  0
LTYPE
  5
AE
330
4
100
AcDbSymbolTableRecord
100
AcDbLinetypeTableRecord
  2
DASHDOT
 70
     0
  3
__ . __ . __ . __ . __
 72
    65
 73
     4
 40
4.0
 49
2.0
 74
     0
 49
-0.9
 74
     0
 49
0.2
 74
     0
 49
-0.9
 74
     0
  0
LTYPE
  5
B5
330
4
100
AcDbSymbolTableRecord
100
AcDbLinetypeTableRecord
  2
SK-CENTER
 70
     0
  3
Solid line
 72
    65
 73
     0
 40
0.0
  0
LTYPE
  5
B7
330
4
100
AcDbSymbolTableRecord
100
AcDbLinetypeTableRecord
  2
CENTER
 70
     0
  3
__ . __ . __ . __ . __
 72
    65
 73
     4
 40
4.0
 49
2.0
 74
     0
 49
-0.9
 74
     0
 49
0.2
 74
     0
 49
-0.9
 74
     0
  0
LTYPE
  5
2D3
330
4
100
AcDbSymbolTableRecord
100
AcDbLinetypeTableRecord
  2
AM_DIN_G_W050x2
 70
     0
  3
__ . __ . __ . __ . __ . __
 72
    65
 73
     4
 40
6.875
 49
4.75
 74
     0
 49
-0.875
 74
     0
 49
0.375
 74
     0
 49
-0.875
 74
     0
  0
ENDTAB
  0
TABLE
  2
LAYER
  5
2
102
{ACAD_XDICTIONARY
360
238
102
}
330
0
100
AcDbSymbolTable
 70
    18
  0
LAYER
  5
14
330
2
100
AcDbSymbolTableRecord
100
AcDbLayerTableRecord
  2
0
 70
     0
 62
     7
  6
Continuous
370
    -3
390
1D
  0
LAYER
  5
2A
330
2
100
AcDbSymbolTableRecord
100
AcDbLayerTableRecord
  2
LC-INFO-1-1-mm-A3-0
 70
     1
 62
    -1
  6
HIDDEN
370
    -3
390
1F
  0
LAYER
  5
3A
330
2
100
AcDbSymbolTableRecord
100
AcDbLayerTableRecord
  2
SK1
 70
     0
 62
     4
  6
Continuous
370
    -3
390
1F
  0
LAYER
  5
44
330
2
100
AcDbSymbolTableRecord
100
AcDbLayerTableRecord
  2
1
 70
     0
 62
     4
  6
Continuous
370
    -3
390
1F
  0
LAYER
  5
81
330
2
100
AcDbSymbolTableRecord
100
AcDbLayerTableRecord
  2
SK3
 70
     0
 62
     1
  6
DASHED
370
    -3
390
1F
  0
LAYER
  5
8B
330
2
100
AcDbSymbolTableRecord
100
AcDbLayerTableRecord
  2
SK6
 70
     0
 62
     5
  6
Continuous
370
    -3
390
1F
  0
LAYER
  5
8F
330
2
100
AcDbSymbolTableRecord
100
AcDbLayerTableRecord
  2
SK2
 70
     0
 62
     7
  6
Continuous
370
    -3
390
1F
  0
LAYER
  5
AF
330
2
100
AcDbSymbolTableRecord
100
AcDbLayerTableRecord
  2
LC-010-006-MLN-0
 70
     0
 62
     2
  6
DASHDOT
370
    -3
390
1F
  0
LAYER
  5
D9
330
2
100
AcDbSymbolTableRecord
100
AcDbLayerTableRecord
  2
2
 70
     0
 62
     7
  6
Continuous
370
    -3
390
1F
  0
LAYER
  5
1CB
330
2
100
AcDbSymbolTableRecord
100
AcDbLayerTableRecord
  2
LC-000
 70
     0
 62
     7
  6
HIDDEN
370
    -3
390
1F
  0
LAYER
  5
218
330
2
100
AcDbSymbolTableRecord
100
AcDbLayerTableRecord
  2
INFTOTAL
 70
     0
 62
     9
  6
Continuous
290
     0
370
    18
390
1D
1001
AcAecLayerStandard
1000

1000

  0
LAYER
  5
23E
330
2
100
AcDbSymbolTableRecord
100
AcDbLayerTableRecord
  2
Defpoints
 70
     0
 62
     7
  6
Continuous
290
     0
370
    -3
390
1D
  0
LAYER
  5
29C
330
2
100
AcDbSymbolTableRecord
100
AcDbLayerTableRecord
  2
NOCUT
 70
     0
 62
     7
  6
Continuous
370
    25
390
1D
  0
LAYER
  5
2D2
330
2
100
AcDbSymbolTableRecord
100
AcDbLayerTableRecord
  2
4
 70
     0
 62
     2
  6
AM_DIN_G_W050x2
370
    25
390
1D
  0
LAYER
  5
6E0
330
2
100
AcDbSymbolTableRecord
100
AcDbLayerTableRecord
  2
LC-011-006-MLN-0
 70
     0
 62
     2
  6
CENTER
370
    -3
390
1F
  0
ENDTAB
  0
TABLE
  2
STYLE
  5
3
330
0
100
AcDbSymbolTable
 70
     8
  0
STYLE
  5
17
330
3
100
AcDbSymbolTableRecord
100
AcDbTextStyleTableRecord
  2
Standard
 70
     0
 40
0.0
 41
1.0
 50
0.0
 71
     0
 42
0.0
  3
txt
  4

  0
STYLE
  5
26
330
3
100
AcDbSymbolTableRecord
100
AcDbTextStyleTableRecord
  2
LC-TXTSTYLE-150-400-0-0-DIN-Schrift
 70
     0
 40
0.0
 41
1.0
 50
15.0
 71
     0
 42
3.5
  3
MONOTXT
  4

  0
STYLE
  5
28
330
3
100
AcDbSymbolTableRecord
100
AcDbTextStyleTableRecord
  2
LC-TXTSTYLE-150-400-0-0-Normschrift nach DIN 6776
 70
     0
 40
0.0
 41
1.0
 50
15.0
 71
     0
 42
3.5
  3
MONOTXT
  4

  0
STYLE
  5
2B
330
3
100
AcDbSymbolTableRecord
100
AcDbTextStyleTableRecord
  2
LC-STANDARD
 70
     0
 40
0.0
 41
1.0
 50
0.0
 71
     0
 42
3.5
  3
MONOTXT
  4

  0
STYLE
  5
2C
330
3
100
AcDbSymbolTableRecord
100
AcDbTextStyleTableRecord
  2
SIMPLEX
 70
     0
 40
0.0
 41
1.0
 50
0.0
 71
     0
 42
8.0
  3
simplex
  4

  0
STYLE
  5
2D
330
3
100
AcDbSymbolTableRecord
100
AcDbTextStyleTableRecord
  2
LC-TXTSTYLE-0-400-0-0-DIN-Schrift
 70
     0
 40
0.0
 41
1.0
 50
0.0
 71
     0
 42
3.5
  3
MONOTXT
  4

  0
STYLE
  5
2E
330
3
100
AcDbSymbolTableRecord
100
AcDbTextStyleTableRecord
  2
LC-TXTSTYLE-0-400-0-0-Normschrift nach DIN 6776
 70
     0
 40
0.0
 41
1.0
 50
0.0
 71
     0
 42
3.5
  3
MONOTXT
  4

  0
STYLE
  5
24B
330
3
100
AcDbSymbolTableRecord
100
AcDbTextStyleTableRecord
  2
BMG_Text
 70
     0
 40
3.5
 41
1.0
 50
0.0
 71
     0
 42
0.2
  3
monos.ttf
  4

1001
ACAD
1000
Monospac821 BT
1071
       49
  0
ENDTAB
  0
TABLE
  2
VIEW
  5
5
330
0
100
AcDbSymbolTable
 70
     0
  0
ENDTAB
  0
TABLE
  2
UCS
  5
6
330
0
100
AcDbSymbolTable
 70
     0
  0
ENDTAB
  0
TABLE
  2
APPID
  5
8
330
0
100
AcDbSymbolTable
 70
     2
  0
APPID
  5
16
330
8
100
AcDbSymbolTableRecord
100
AcDbRegAppTableRecord
  2
ACAD
 70
     0
  0
APPID
  5
21A
330
8
100
AcDbSymbolTableRecord
100
AcDbRegAppTableRecord
  2
AcAecLayerStandard
 70
     0
  0
ENDTAB
  0
TABLE
  2
DIMSTYLE
  5
9
330
0
100
AcDbSymbolTable
 70
     5
100
AcDbDimStyleTable
  0
DIMSTYLE
105
18
330
9
100
AcDbSymbolTableRecord
100
AcDbDimStyleTableRecord
  2
Standard
 70
     0
178
     0
340
17
  0
DIMSTYLE
105
24
330
9
100
AcDbSymbolTableRecord
100
AcDbDimStyleTableRecord
  2
LC-STANDARD
 70
     0
 41
3.5
 42
0.0
 43
7.5
 44
1.8
 73
     0
 74
     0
 77
     1
 78
     8
140
3.5
141
0.0
146
0.71
147
1.5
172
     1
178
     3
340
0
  0
DIMSTYLE
105
25
102
{ACAD_REACTORS
330
745
330
BF4
102
}
330
9
100
AcDbSymbolTableRecord
100
AcDbDimStyleTableRecord
  2
LC-DIM-L-0035-03-02
 70
     0
 41
3.5
 42
0.0
 43
7.5
 44
1.8
 73
     0
 74
     0
 77
     1
 78
     8
140
3.5
141
0.0
146
0.71
147
1.5
176
     2
177
     2
271
     3
178
     3
271
     3
340
26
  0
DIMSTYLE
105
27
102
{ACAD_REACTORS
330
754
330
761
330
77B
330
79E
330
7BA
330
7D4
330
813
330
82E
330
84E
330
86A
330
C03
330
C10
330
C2A
330
C53
330
CA0
102
}
330
9
100
AcDbSymbolTableRecord
100
AcDbDimStyleTableRecord
  2
LC-DIM-L-0035-02-02
 70
     0
 41
3.5
 42
0.0
 43
7.5
 44
1.8
 73
     0
 74
     0
 77
     1
 78
     8
140
3.5
141
0.0
146
0.71
147
1.5
176
     2
177
     2
271
     2
178
     3
271
     2
340
28
  0
DIMSTYLE
105
246
102
{ACAD_REACTORS
330
261
330
26F
330
27D
330
364
330
375
330
383
330
391
330
39F
330
3AD
330
3BB
330
3C9
330
3FB
330
9E4
330
9F4
330
A02
330
A10
330
A26
330
A36
330
A44
330
A77
330
A86
330
A9A
330
AAA
330
DCB
330
DDB
330
DE9
330
DF7
330
E0D
330
E1D
330
E2B
330
E5E
330
E6D
330
E81
330
E91
330
F06
330
F09
330
F0A
330
F0B
330
F14
330
F17
330
F18
330
F3E
330
F40
330
F47
330
F4A
102
}
330
9
100
AcDbSymbolTableRecord
100
AcDbDimStyleTableRecord
  2
BMG
 70
     0
 41
4.57
 42
0.0
 43
2.379999999999999
 44
5.0
 47
0.3
 48
0.3
 73
     0
 74
     0
 78
     9
 79
     2
140
3.5
141
0.0
147
1.0
271
     2
178
     7
271
     2
272
     2
284
     8
340
17
341
247
342
247
  0
ENDTAB
  0
TABLE
  2
BLOCK_RECORD
  5
1
330
0
100
AcDbSymbolTable
 70
    86
  0
BLOCK_RECORD
  5
A
330
1
100
AcDbSymbolTableRecord
100
AcDbBlockTableRecord
  2
*MODEL_SPACE
340
20
  0
BLOCK_RECORD
  5
B
330
1
100
AcDbSymbolTableRecord
100
AcDbBlockTableRecord
  2
*PAPER_SPACE
340
21
  0
BLOCK_RECORD
  5
2F
330
1
100
AcDbSymbolTableRecord
100
AcDbBlockTableRecord
  2
BLK1
340
0
102
{BLKREFS
331
32
102
}
  0
BLOCK_RECORD
  5
33
330
1
100
AcDbSymbolTableRecord
100
AcDbBlockTableRecord
  2
BLK2
340
0
102
{BLKREFS
331
36
102
}
  0
BLOCK_RECORD
  5
37
330
1
100
AcDbSymbolTableRecord
100
AcDbBlockTableRecord
  2
BLK3
340
0
102
{BLKREFS
331
3B
102
}
  0
BLOCK_RECORD
  5
3C
330
1
100
AcDbSymbolTableRecord
100
AcDbBlockTableRecord
  2
BLK4
340
0
102
{BLKREFS
331
3F
102
}
  0
BLOCK_RECORD
  5
40
330
1
100
AcDbSymbolTableRecord
100
AcDbBlockTableRecord
  2
BLK5
340
0
102
{BLKREFS
331
43
102
}
  0
BLOCK_RECORD
  5
87
330
1
100
AcDbSymbolTableRecord
100
AcDbBlockTableRecord
  2
BLK6
340
0
102
{BLKREFS
331
8A
102
}
  0
BLOCK_RECORD
  5
8D
330
1
100
AcDbSymbolTableRecord
100
AcDbBlockTableRecord
  2
*D6
340
0
  0
BLOCK_RECORD
  5
AA
330
1
100
AcDbSymbolTableRecord
100
AcDbBlockTableRecord
  2
BLK7
340
0
102
{BLKREFS
331
AD
102
}
  0
BLOCK_RECORD
  5
B1
330
1
100
AcDbSymbolTableRecord
100
AcDbBlockTableRecord
  2
BLK8
340
0
102
{BLKREFS
331
B4
102
}
  0
BLOCK_RECORD
  5
B9
330
1
100
AcDbSymbolTableRecord
100
AcDbBlockTableRecord
  2
*D9
340
0
  0
BLOCK_RECORD
  5
D3
330
1
100
AcDbSymbolTableRecord
100
AcDbBlockTableRecord
  2
BLK9
340
0
102
{BLKREFS
331
D6
102
}
  0
BLOCK_RECORD
  5
D7
330
1
100
AcDbSymbolTableRecord
100
AcDbBlockTableRecord
  2
*D11
340
0
  0
BLOCK_RECORD
  5
F2
330
1
100
AcDbSymbolTableRecord
100
AcDbBlockTableRecord
  2
*D12
340
0
  0
BLOCK_RECORD
  5
10D
330
1
100
AcDbSymbolTableRecord
100
AcDbBlockTableRecord
  2
BLK10
340
0
102
{BLKREFS
331
110
102
}
  0
BLOCK_RECORD
  5
111
330
1
100
AcDbSymbolTableRecord
100
AcDbBlockTableRecord
  2
BLK11
340
0
102
{BLKREFS
331
114
331
C45
331
D07
102
}
  0
BLOCK_RECORD
  5
115
330
1
100
AcDbSymbolTableRecord
100
AcDbBlockTableRecord
  2
*D15
340
0
  0
BLOCK_RECORD
  5
12F
330
1
100
AcDbSymbolTableRecord
100
AcDbBlockTableRecord
  2
BLK12
340
0
102
{BLKREFS
331
132
331
C4F
331
D0E
102
}
  0
BLOCK_RECORD
  5
133
330
1
100
AcDbSymbolTableRecord
100
AcDbBlockTableRecord
  2
*D17
340
0
  0
BLOCK_RECORD
  5
14D
330
1
100
AcDbSymbolTableRecord
100
AcDbBlockTableRecord
  2
*D18
340
0
  0
BLOCK_RECORD
  5
167
330
1
100
AcDbSymbolTableRecord
100
AcDbBlockTableRecord
  2
*D19
340
0
  0
BLOCK_RECORD
  5
181
330
1
100
AcDbSymbolTableRecord
100
AcDbBlockTableRecord
  2
BLK13
340
0
102
{BLKREFS
331
184
331
C73
331
D16
102
}
  0
BLOCK_RECORD
  5
186
330
1
100
AcDbSymbolTableRecord
100
AcDbBlockTableRecord
  2
BLK14
340
0
102
{BLKREFS
331
189
102
}
  0
BLOCK_RECORD
  5
194
330
1
100
AcDbSymbolTableRecord
100
AcDbBlockTableRecord
  2
BLK15
340
0
102
{BLKREFS
331
197
102
}
  0
BLOCK_RECORD
  5
1B1
330
1
100
AcDbSymbolTableRecord
100
AcDbBlockTableRecord
  2
*D23
340
0
  0
BLOCK_RECORD
  5
247
330
1
100
AcDbSymbolTableRecord
100
AcDbBlockTableRecord
  2
_ARROW_FILLED
340
0
102
{BLKREFS
331
268
331
269
331
276
331
277
331
284
331
285
331
11C
331
11B
331
0
331
0
331
154
331
153
331
16E
331
16D
331
1B8
331
1B7
331
DF
331
DE
331
95
331
94
331
C0
331
BF
331
F9
331
F8
331
0
331
0
331
0
331
0
331
0
331
0
331
13A
331
139
331
769
331
768
331
75C
331
75B
331
74D
331
74C
331
872
331
871
331
783
331
782
331
7C2
331
7C1
331
7DC
331
7DB
331
7A6
331
7A5
331
856
331
855
331
81B
331
81A
331
836
331
835
331
C18
331
C17
331
C0B
331
C0A
331
BFC
331
BFB
331
CA8
331
CA7
331
C5B
331
C5A
331
C32
331
C31
102
}
  0
BLOCK_RECORD
  5
262
330
1
100
AcDbSymbolTableRecord
100
AcDbBlockTableRecord
  2
*D27
340
0
  0
BLOCK_RECORD
  5
270
330
1
100
AcDbSymbolTableRecord
100
AcDbBlockTableRecord
  2
*D28
340
0
  0
BLOCK_RECORD
  5
27E
330
1
100
AcDbSymbolTableRecord
100
AcDbBlockTableRecord
  2
*D29
340
0
  0
BLOCK_RECORD
  5
365
330
1
100
AcDbSymbolTableRecord
100
AcDbBlockTableRecord
  2
*D33
340
0
  0
BLOCK_RECORD
  5
376
330
1
100
AcDbSymbolTableRecord
100
AcDbBlockTableRecord
  2
*D34
340
0
  0
BLOCK_RECORD
  5
384
330
1
100
AcDbSymbolTableRecord
100
AcDbBlockTableRecord
  2
*D35
340
0
  0
BLOCK_RECORD
  5
392
330
1
100
AcDbSymbolTableRecord
100
AcDbBlockTableRecord
  2
*D36
340
0
  0
BLOCK_RECORD
  5
3A0
330
1
100
AcDbSymbolTableRecord
100
AcDbBlockTableRecord
  2
*D37
340
0
  0
BLOCK_RECORD
  5
3AE
330
1
100
AcDbSymbolTableRecord
100
AcDbBlockTableRecord
  2
*D38
340
0
  0
BLOCK_RECORD
  5
3BC
330
1
100
AcDbSymbolTableRecord
100
AcDbBlockTableRecord
  2
*D39
340
0
  0
BLOCK_RECORD
  5
3CA
330
1
100
AcDbSymbolTableRecord
100
AcDbBlockTableRecord
  2
*D40
340
0
  0
BLOCK_RECORD
  5
3FC
330
1
100
AcDbSymbolTableRecord
100
AcDbBlockTableRecord
  2
*D41
340
0
  0
BLOCK_RECORD
  5
746
330
1
100
AcDbSymbolTableRecord
100
AcDbBlockTableRecord
  2
*D43
340
0
  0
BLOCK_RECORD
  5
755
330
1
100
AcDbSymbolTableRecord
100
AcDbBlockTableRecord
  2
*D44
340
0
  0
BLOCK_RECORD
  5
762
330
1
100
AcDbSymbolTableRecord
100
AcDbBlockTableRecord
  2
*D45
340
0
  0
BLOCK_RECORD
  5
77C
330
1
100
AcDbSymbolTableRecord
100
AcDbBlockTableRecord
  2
*D46
340
0
  0
BLOCK_RECORD
  5
79F
330
1
100
AcDbSymbolTableRecord
100
AcDbBlockTableRecord
  2
*D47
340
0
  0
BLOCK_RECORD
  5
7BB
330
1
100
AcDbSymbolTableRecord
100
AcDbBlockTableRecord
  2
*D48
340
0
  0
BLOCK_RECORD
  5
7D5
330
1
100
AcDbSymbolTableRecord
100
AcDbBlockTableRecord
  2
*D49
340
0
  0
BLOCK_RECORD
  5
814
330
1
100
AcDbSymbolTableRecord
100
AcDbBlockTableRecord
  2
*D50
340
0
  0
BLOCK_RECORD
  5
82F
330
1
100
AcDbSymbolTableRecord
100
AcDbBlockTableRecord
  2
*D51
340
0
  0
BLOCK_RECORD
  5
84F
330
1
100
AcDbSymbolTableRecord
100
AcDbBlockTableRecord
  2
*D52
340
0
  0
BLOCK_RECORD
  5
86B
330
1
100
AcDbSymbolTableRecord
100
AcDbBlockTableRecord
  2
*D53
340
0
  0
BLOCK_RECORD
  5
9E5
330
1
100
AcDbSymbolTableRecord
100
AcDbBlockTableRecord
  2
*D56
340
0
  0
BLOCK_RECORD
  5
9F5
330
1
100
AcDbSymbolTableRecord
100
AcDbBlockTableRecord
  2
*D57
340
0
  0
BLOCK_RECORD
  5
A03
330
1
100
AcDbSymbolTableRecord
100
AcDbBlockTableRecord
  2
*D58
340
0
  0
BLOCK_RECORD
  5
A11
330
1
100
AcDbSymbolTableRecord
100
AcDbBlockTableRecord
  2
*D59
340
0
  0
BLOCK_RECORD
  5
A27
330
1
100
AcDbSymbolTableRecord
100
AcDbBlockTableRecord
  2
*D60
340
0
  0
BLOCK_RECORD
  5
A37
330
1
100
AcDbSymbolTableRecord
100
AcDbBlockTableRecord
  2
*D61
340
0
  0
BLOCK_RECORD
  5
A45
330
1
100
AcDbSymbolTableRecord
100
AcDbBlockTableRecord
  2
*D62
340
0
  0
BLOCK_RECORD
  5
A78
330
1
100
AcDbSymbolTableRecord
100
AcDbBlockTableRecord
  2
*D63
340
0
  0
BLOCK_RECORD
  5
A87
330
1
100
AcDbSymbolTableRecord
100
AcDbBlockTableRecord
  2
*D64
340
0
  0
BLOCK_RECORD
  5
A9B
330
1
100
AcDbSymbolTableRecord
100
AcDbBlockTableRecord
  2
*D65
340
0
  0
BLOCK_RECORD
  5
AAB
330
1
100
AcDbSymbolTableRecord
100
AcDbBlockTableRecord
  2
*D66
340
0
  0
BLOCK_RECORD
  5
BF5
330
1
100
AcDbSymbolTableRecord
100
AcDbBlockTableRecord
  2
*D68
340
0
  0
BLOCK_RECORD
  5
C04
330
1
100
AcDbSymbolTableRecord
100
AcDbBlockTableRecord
  2
*D69
340
0
  0
BLOCK_RECORD
  5
C11
330
1
100
AcDbSymbolTableRecord
100
AcDbBlockTableRecord
  2
*D70
340
0
  0
BLOCK_RECORD
  5
C2B
330
1
100
AcDbSymbolTableRecord
100
AcDbBlockTableRecord
  2
*D71
340
0
  0
BLOCK_RECORD
  5
C54
330
1
100
AcDbSymbolTableRecord
100
AcDbBlockTableRecord
  2
*D72
340
0
  0
BLOCK_RECORD
  5
CA1
330
1
100
AcDbSymbolTableRecord
100
AcDbBlockTableRecord
  2
*D73
340
0
  0
BLOCK_RECORD
  5
DCC
330
1
100
AcDbSymbolTableRecord
100
AcDbBlockTableRecord
  2
*D75
340
0
  0
BLOCK_RECORD
  5
DDC
330
1
100
AcDbSymbolTableRecord
100
AcDbBlockTableRecord
  2
*D76
340
0
  0
BLOCK_RECORD
  5
DEA
330
1
100
AcDbSymbolTableRecord
100
AcDbBlockTableRecord
  2
*D77
340
0
  0
BLOCK_RECORD
  5
DF8
330
1
100
AcDbSymbolTableRecord
100
AcDbBlockTableRecord
  2
*D78
340
0
  0
BLOCK_RECORD
  5
E0E
330
1
100
AcDbSymbolTableRecord
100
AcDbBlockTableRecord
  2
*D79
340
0
  0
BLOCK_RECORD
  5
E1E
330
1
100
AcDbSymbolTableRecord
100
AcDbBlockTableRecord
  2
*D80
340
0
  0
BLOCK_RECORD
  5
E2C
330
1
100
AcDbSymbolTableRecord
100
AcDbBlockTableRecord
  2
*D81
340
0
  0
BLOCK_RECORD
  5
E5F
330
1
100
AcDbSymbolTableRecord
100
AcDbBlockTableRecord
  2
*D82
340
0
  0
BLOCK_RECORD
  5
E6E
330
1
100
AcDbSymbolTableRecord
100
AcDbBlockTableRecord
  2
*D83
340
0
  0
BLOCK_RECORD
  5
E82
330
1
100
AcDbSymbolTableRecord
100
AcDbBlockTableRecord
  2
*D84
340
0
  0
BLOCK_RECORD
  5
E92
330
1
100
AcDbSymbolTableRecord
100
AcDbBlockTableRecord
  2
*D85
340
0
  0
ENDTAB
  0
ENDSEC
  0
SECTION
  2
BLOCKS
  0
BLOCK
  5
D
330
A
100
AcDbEntity
  8
0
100
AcDbBlockBegin
  2
*MODEL_SPACE
 70
     0
 10
0.0
 20
0.0
 30
0.0
  3
*MODEL_SPACE
  1

  0
ENDBLK
  5
E
330
A
100
AcDbEntity
  8
0
100
AcDbBlockEnd
  0
BLOCK
  5
F
330
B
100
AcDbEntity
 67
     1
  8
0
100
AcDbBlockBegin
  2
*PAPER_SPACE
 70
     0
 10
0.0
 20
0.0
 30
0.0
  3
*PAPER_SPACE
  1

  0
ENDBLK
  5
10
330
B
100
AcDbEntity
 67
     1
  8
0
100
AcDbBlockEnd
  0
BLOCK
  5
30
330
2F
100
AcDbEntity
  8
0
100
AcDbBlockBegin
  2
BLK1
 70
     0
 10
0.0
 20
0.0
 30
0.0
  3
BLK1
  1

  0
ENDBLK
  5
31
330
2F
100
AcDbEntity
  8
0
100
AcDbBlockEnd
  0
BLOCK
  5
34
330
33
100
AcDbEntity
  8
0
100
AcDbBlockBegin
  2
BLK2
 70
     0
 10
0.0
 20
0.0
 30
0.0
  3
BLK2
  1

  0
ENDBLK
  5
35
330
33
100
AcDbEntity
  8
0
100
AcDbBlockEnd
  0
BLOCK
  5
38
330
37
100
AcDbEntity
  8
0
100
AcDbBlockBegin
  2
BLK3
 70
     0
 10
0.0
 20
0.0
 30
0.0
  3
BLK3
  1

  0
ENDBLK
  5
39
330
37
100
AcDbEntity
  8
0
100
AcDbBlockEnd
  0
BLOCK
  5
3D
330
3C
100
AcDbEntity
  8
0
100
AcDbBlockBegin
  2
BLK4
 70
     0
 10
0.0
 20
0.0
 30
0.0
  3
BLK4
  1

  0
ENDBLK
  5
3E
330
3C
100
AcDbEntity
  8
0
100
AcDbBlockEnd
  0
BLOCK
  5
41
330
40
100
AcDbEntity
  8
0
100
AcDbBlockBegin
  2
BLK5
 70
     0
 10
0.0
 20
0.0
 30
0.0
  3
BLK5
  1

  0
ENDBLK
  5
42
330
40
100
AcDbEntity
  8
0
100
AcDbBlockEnd
  0
BLOCK
  5
88
330
87
100
AcDbEntity
  8
0
100
AcDbBlockBegin
  2
BLK6
 70
     0
 10
0.0
 20
0.0
 30
0.0
  3
BLK6
  1

  0
ENDBLK
  5
89
330
87
100
AcDbEntity
  8
0
100
AcDbBlockEnd
  0
BLOCK
  5
8E
330
8D
100
AcDbEntity
  8
0
100
AcDbBlockBegin
  2
*D6
 70
     1
 10
0.0
 20
0.0
 30
0.0
  3
*D6
  1

  0
LINE
  5
90
330
8D
100
AcDbEntity
  8
SK2
  6
Continuous
 62
     0
370
    -2
100
AcDbLine
 10
0.000118
 20
50.001
 30
0.0
 11
-70.343882
 21
50.001
 31
0.0
  0
LINE
  5
91
330
8D
100
AcDbEntity
  8
SK2
  6
Continuous
 62
     0
370
    -2
100
AcDbLine
 10
0.000118
 20
-49.999
 30
0.0
 11
-70.343882
 21
-49.999
 31
0.0
  0
LINE
  5
92
330
8D
100
AcDbEntity
  8
SK2
  6
Continuous
 62
     0
370
    -2
100
AcDbLine
 10
-65.343882
 20
45.431
 30
0.0
 11
-65.343882
 21
6.751000000000005
 31
0.0
  0
LINE
  5
93
330
8D
100
AcDbEntity
  8
SK2
  6
Continuous
 62
     0
370
    -2
100
AcDbLine
 10
-65.343882
 20
-45.42899999999999
 30
0.0
 11
-65.343882
 21
-6.748999999999995
 31
0.0
  0
INSERT
  5
94
330
8D
100
AcDbEntity
  8
SK2
 62
     0
370
    -2
100
AcDbBlockReference
  2
_ARROW_FILLED
 10
-65.343882
 20
50.001
 30
0.0
 41
4.57
 42
4.57
 43
4.57
 50
90.0
  0
INSERT
  5
95
330
8D
100
AcDbEntity
  8
SK2
 62
     0
370
    -2
100
AcDbBlockReference
  2
_ARROW_FILLED
 10
-65.343882
 20
-49.999
 30
0.0
 41
4.57
 42
4.57
 43
4.57
 50
270.0
  0
MTEXT
  5
96
330
8D
100
AcDbEntity
  8
SK2
 62
     7
100
AcDbMText
 10
-65.343882
 20
0.0010000000000048
 30
0.0
 40
3.5
 41
0.0
 71
     5
 72
     1
  1
\A1;%%c100
  7
BMG_Text
 11
0.0
 21
1.0
 31
0.0
 73
     1
 44
1.0
  0
POINT
  5
97
330
8D
100
AcDbEntity
  8
Defpoints
 62
     0
100
AcDbPoint
 10
0.000118
 20
50.001
 30
0.0
  0
POINT
  5
98
330
8D
100
AcDbEntity
  8
Defpoints
 62
     0
100
AcDbPoint
 10
0.000118
 20
-49.999
 30
0.0
  0
POINT
  5
99
330
8D
100
AcDbEntity
  8
Defpoints
 62
     0
100
AcDbPoint
 10
-65.343882
 20
-49.999
 30
0.0
  0
ENDBLK
  5
A6
330
8D
100
AcDbEntity
  8
0
100
AcDbBlockEnd
  0
BLOCK
  5
AB
330
AA
100
AcDbEntity
  8
0
100
AcDbBlockBegin
  2
BLK7
 70
     0
 10
0.0
 20
0.0
 30
0.0
  3
BLK7
  1

  0
ENDBLK
  5
AC
330
AA
100
AcDbEntity
  8
0
100
AcDbBlockEnd
  0
BLOCK
  5
B2
330
B1
100
AcDbEntity
  8
0
100
AcDbBlockBegin
  2
BLK8
 70
     0
 10
0.0
 20
0.0
 30
0.0
  3
BLK8
  1

  0
ENDBLK
  5
B3
330
B1
100
AcDbEntity
  8
0
100
AcDbBlockEnd
  0
BLOCK
  5
BA
330
B9
100
AcDbEntity
  8
0
100
AcDbBlockBegin
  2
*D9
 70
     1
 10
0.0
 20
0.0
 30
0.0
  3
*D9
  1

  0
LINE
  5
BB
330
B9
100
AcDbEntity
  8
SK2
  6
Continuous
 62
     0
370
    -2
100
AcDbLine
 10
-49.999882
 20
33.598502
 30
0.0
 11
-49.99988200000001
 21
82.001
 31
0.0
  0
LINE
  5
BC
330
B9
100
AcDbEntity
  8
SK2
  6
Continuous
 62
     0
370
    -2
100
AcDbLine
 10
271.000118
 20
12.501
 30
0.0
 11
271.000118
 21
82.001
 31
0.0
  0
LINE
  5
BD
330
B9
100
AcDbEntity
  8
SK2
  6
Continuous
 62
     0
370
    -2
100
AcDbLine
 10
-45.42988200000001
 20
77.001
 30
0.0
 11
105.7475138333333
 21
77.001
 31
0.0
  0
LINE
  5
BE
330
B9
100
AcDbEntity
  8
SK2
  6
Continuous
 62
     0
370
    -2
100
AcDbLine
 10
266.430118
 20
77.001
 30
0.0
 11
115.2527221666667
 21
77.001
 31
0.0
  0
INSERT
  5
BF
330
B9
100
AcDbEntity
  8
SK2
 62
     0
370
    -2
100
AcDbBlockReference
  2
_ARROW_FILLED
 10
-49.99988200000001
 20
77.001
 30
0.0
 41
4.57
 42
4.57
 43
4.57
 50
180.0
  0
INSERT
  5
C0
330
B9
100
AcDbEntity
  8
SK2
 62
     0
370
    -2
100
AcDbBlockReference
  2
_ARROW_FILLED
 10
271.000118
 20
77.001
 30
0.0
 41
4.57
 42
4.57
 43
4.57
  0
MTEXT
  5
C1
330
B9
100
AcDbEntity
  8
SK2
 62
     7
100
AcDbMText
 10
110.500118
 20
77.001
 30
0.0
 40
3.5
 41
0.0
 71
     5
 72
     1
  1
\A1;321
  7
BMG_Text
 73
     1
 44
1.0
  0
POINT
  5
C2
330
B9
100
AcDbEntity
  8
Defpoints
 62
     0
100
AcDbPoint
 10
-49.999882
 20
33.598502
 30
0.0
  0
POINT
  5
C3
330
B9
100
AcDbEntity
  8
Defpoints
 62
     0
100
AcDbPoint
 10
271.000118
 20
12.501
 30
0.0
  0
POINT
  5
C4
330
B9
100
AcDbEntity
  8
Defpoints
 62
     0
100
AcDbPoint
 10
271.000118
 20
77.001
 30
0.0
  0
ENDBLK
  5
D1
330
B9
100
AcDbEntity
  8
0
100
AcDbBlockEnd
  0
BLOCK
  5
D4
330
D3
100
AcDbEntity
  8
0
100
AcDbBlockBegin
  2
BLK9
 70
     0
 10
0.0
 20
0.0
 30
0.0
  3
BLK9
  1

  0
ENDBLK
  5
D5
330
D3
100
AcDbEntity
  8
0
100
AcDbBlockEnd
  0
BLOCK
  5
D8
330
D7
100
AcDbEntity
  8
0
100
AcDbBlockBegin
  2
*D11
 70
     1
 10
0.0
 20
0.0
 30
0.0
  3
*D11
  1

  0
LINE
  5
DA
330
D7
100
AcDbEntity
  8
2
  6
Continuous
 62
     0
370
    -2
100
AcDbLine
 10
0.000118
 20
-49.999
 30
0.0
 11
0.0001179999999829
 21
-74.999
 31
0.0
  0
LINE
  5
DB
330
D7
100
AcDbEntity
  8
2
  6
Continuous
 62
     0
370
    -2
100
AcDbLine
 10
250.000118
 20
-29.999
 30
0.0
 11
250.000118
 21
-74.999
 31
0.0
  0
LINE
  5
DC
330
D7
100
AcDbEntity
  8
2
  6
Continuous
 62
     0
370
    -2
100
AcDbLine
 10
4.570117999999987
 20
-69.999
 30
0.0
 11
119.500118
 21
-69.999
 31
0.0
  0
LINE
  5
DD
330
D7
100
AcDbEntity
  8
2
  6
Continuous
 62
     0
370
    -2
100
AcDbLine
 10
245.430118
 20
-69.999
 30
0.0
 11
130.500118
 21
-69.999
 31
0.0
  0
INSERT
  5
DE
330
D7
100
AcDbEntity
  8
2
 62
     0
370
    -2
100
AcDbBlockReference
  2
_ARROW_FILLED
 10
0.0001179999999863
 20
-69.999
 30
0.0
 41
4.57
 42
4.57
 43
4.57
 50
180.0
  0
INSERT
  5
DF
330
D7
100
AcDbEntity
  8
2
 62
     0
370
    -2
100
AcDbBlockReference
  2
_ARROW_FILLED
 10
250.000118
 20
-69.999
 30
0.0
 41
4.57
 42
4.57
 43
4.57
  0
MTEXT
  5
E0
330
D7
100
AcDbEntity
  8
2
 62
     7
100
AcDbMText
 10
125.000118
 20
-69.999
 30
0.0
 40
3.5
 41
0.0
 71
     5
 72
     1
  1
\A1;250
  7
BMG_Text
 73
     1
 44
1.0
  0
POINT
  5
E1
330
D7
100
AcDbEntity
  8
Defpoints
 62
     0
100
AcDbPoint
 10
0.000118
 20
-49.999
 30
0.0
  0
POINT
  5
E2
330
D7
100
AcDbEntity
  8
Defpoints
 62
     0
100
AcDbPoint
 10
250.000118
 20
-29.999
 30
0.0
  0
POINT
  5
E3
330
D7
100
AcDbEntity
  8
Defpoints
 62
     0
100
AcDbPoint
 10
250.000118
 20
-69.999
 30
0.0
  0
ENDBLK
  5
F0
330
D7
100
AcDbEntity
  8
0
100
AcDbBlockEnd
  0
BLOCK
  5
F3
330
F2
100
AcDbEntity
  8
0
100
AcDbBlockBegin
  2
*D12
 70
     1
 10
0.0
 20
0.0
 30
0.0
  3
*D12
  1

  0
LINE
  5
F4
330
F2
100
AcDbEntity
  8
SK2
  6
Continuous
 62
     0
370
    -2
100
AcDbLine
 10
-49.999882
 20
33.598502
 30
0.0
 11
-49.999882
 21
68.001
 31
0.0
  0
LINE
  5
F5
330
F2
100
AcDbEntity
  8
SK2
  6
Continuous
 62
     0
370
    -2
100
AcDbLine
 10
0.000118
 20
50.001
 30
0.0
 11
0.000118
 21
68.001
 31
0.0
  0
LINE
  5
F6
330
F2
100
AcDbEntity
  8
SK2
  6
Continuous
 62
     0
370
    -2
100
AcDbLine
 10
-45.429882
 20
63.001
 30
0.0
 11
-28.83321533333333
 21
63.001
 31
0.0
  0
LINE
  5
F7
330
F2
100
AcDbEntity
  8
SK2
  6
Continuous
 62
     0
370
    -2
100
AcDbLine
 10
-4.569882000000001
 20
63.001
 30
0.0
 11
-21.16654866666666
 21
63.001
 31
0.0
  0
INSERT
  5
F8
330
F2
100
AcDbEntity
  8
SK2
 62
     0
370
    -2
100
AcDbBlockReference
  2
_ARROW_FILLED
 10
-49.999882
 20
63.001
 30
0.0
 41
4.57
 42
4.57
 43
4.57
 50
180.0
  0
INSERT
  5
F9
330
F2
100
AcDbEntity
  8
SK2
 62
     0
370
    -2
100
AcDbBlockReference
  2
_ARROW_FILLED
 10
0.000118
 20
63.001
 30
0.0
 41
4.57
 42
4.57
 43
4.57
  0
MTEXT
  5
FA
330
F2
100
AcDbEntity
  8
SK2
 62
     7
100
AcDbMText
 10
-24.999882
 20
63.001
 30
0.0
 40
3.5
 41
0.0
 71
     5
 72
     1
  1
\A1;50
  7
BMG_Text
 73
     1
 44
1.0
  0
POINT
  5
FB
330
F2
100
AcDbEntity
  8
Defpoints
 62
     0
100
AcDbPoint
 10
-49.999882
 20
33.598502
 30
0.0
  0
POINT
  5
FC
330
F2
100
AcDbEntity
  8
Defpoints
 62
     0
100
AcDbPoint
 10
0.000118
 20
50.001
 30
0.0
  0
POINT
  5
FD
330
F2
100
AcDbEntity
  8
Defpoints
 62
     0
100
AcDbPoint
 10
0.000118
 20
63.001
 30
0.0
  0
ENDBLK
  5
10A
330
F2
100
AcDbEntity
  8
0
100
AcDbBlockEnd
  0
BLOCK
  5
10E
330
10D
100
AcDbEntity
  8
0
100
AcDbBlockBegin
  2
BLK10
 70
     0
 10
0.0
 20
0.0
 30
0.0
  3
BLK10
  1

  0
ENDBLK
  5
10F
330
10D
100
AcDbEntity
  8
0
100
AcDbBlockEnd
  0
BLOCK
  5
112
330
111
100
AcDbEntity
  8
0
100
AcDbBlockBegin
  2
BLK11
 70
     0
 10
0.0
 20
0.0
 30
0.0
  3
BLK11
  1

  0
ENDBLK
  5
113
330
111
100
AcDbEntity
  8
0
100
AcDbBlockEnd
  0
BLOCK
  5
116
330
115
100
AcDbEntity
  8
0
100
AcDbBlockBegin
  2
*D15
 70
     1
 10
0.0
 20
0.0
 30
0.0
  3
*D15
  1

  0
LINE
  5
117
330
115
100
AcDbEntity
  8
SK2
  6
Continuous
 62
     0
370
    -2
100
AcDbLine
 10
271.000118
 20
12.501
 30
0.0
 11
271.000118
 21
68.001
 31
0.0
  0
LINE
  5
118
330
115
100
AcDbEntity
  8
SK2
  6
Continuous
 62
     0
370
    -2
100
AcDbLine
 10
29.000118
 20
50.001
 30
0.0
 11
29.000118
 21
68.001
 31
0.0
  0
LINE
  5
119
330
115
100
AcDbEntity
  8
SK2
  6
Continuous
 62
     0
370
    -2
100
AcDbLine
 10
266.430118
 20
63.001
 30
0.0
 11
155.500118
 21
63.001
 31
0.0
  0
LINE
  5
11A
330
115
100
AcDbEntity
  8
SK2
  6
Continuous
 62
     0
370
    -2
100
AcDbLine
 10
33.570118
 20
63.001
 30
0.0
 11
144.500118
 21
63.001
 31
0.0
  0
INSERT
  5
11B
330
115
100
AcDbEntity
  8
SK2
 62
     0
370
    -2
100
AcDbBlockReference
  2
_ARROW_FILLED
 10
271.000118
 20
63.001
 30
0.0
 41
4.57
 42
4.57
 43
4.57
  0
INSERT
  5
11C
330
115
100
AcDbEntity
  8
SK2
 62
     0
370
    -2
100
AcDbBlockReference
  2
_ARROW_FILLED
 10
29.000118
 20
63.001
 30
0.0
 41
4.57
 42
4.57
 43
4.57
 50
180.0
  0
MTEXT
  5
11D
330
115
100
AcDbEntity
  8
SK2
 62
     7
100
AcDbMText
 10
150.000118
 20
63.001
 30
0.0
 40
3.5
 41
0.0
 71
     5
 72
     1
  1
\A1;242
  7
BMG_Text
 73
     1
 44
1.0
  0
POINT
  5
11E
330
115
100
AcDbEntity
  8
Defpoints
 62
     0
100
AcDbPoint
 10
271.000118
 20
12.501
 30
0.0
  0
POINT
  5
11F
330
115
100
AcDbEntity
  8
Defpoints
 62
     0
100
AcDbPoint
 10
29.000118
 20
50.001
 30
0.0
  0
POINT
  5
120
330
115
100
AcDbEntity
  8
Defpoints
 62
     0
100
AcDbPoint
 10
29.000118
 20
63.001
 30
0.0
  0
ENDBLK
  5
12D
330
115
100
AcDbEntity
  8
0
100
AcDbBlockEnd
  0
BLOCK
  5
130
330
12F
100
AcDbEntity
  8
0
100
AcDbBlockBegin
  2
BLK12
 70
     0
 10
0.0
 20
0.0
 30
0.0
  3
BLK12
  1

  0
ENDBLK
  5
131
330
12F
100
AcDbEntity
  8
0
100
AcDbBlockEnd
  0
BLOCK
  5
134
330
133
100
AcDbEntity
  8
0
100
AcDbBlockBegin
  2
*D17
 70
     1
 10
0.0
 20
0.0
 30
0.0
  3
*D17
  1

  0
LINE
  5
135
330
133
100
AcDbEntity
  8
2
  6
Continuous
 62
     0
370
    -2
100
AcDbLine
 10
270.000118
 20
13.501
 30
0.0
 11
306.3788288460599
 21
13.50099999999999
 31
0.0
  0
LINE
  5
136
330
133
100
AcDbEntity
  8
2
  6
Continuous
 62
     0
370
    -2
100
AcDbLine
 10
270.000118
 20
-13.499
 30
0.0
 11
306.3788288460599
 21
-13.49900000000001
 31
0.0
  0
LINE
  5
137
330
133
100
AcDbEntity
  8
2
  6
Continuous
 62
     0
370
    -2
100
AcDbLine
 10
301.3788288460599
 20
8.930999999999994
 30
0.0
 11
301.3788288460599
 21
5.417666666666662
 31
0.0
  0
LINE
  5
138
330
133
100
AcDbEntity
  8
2
  6
Continuous
 62
     0
370
    -2
100
AcDbLine
 10
301.3788288460599
 20
-8.929000000000006
 30
0.0
 11
301.3788288460599
 21
-5.415666666666709
 31
0.0
  0
INSERT
  5
139
330
133
100
AcDbEntity
  8
2
 62
     0
370
    -2
100
AcDbBlockReference
  2
_ARROW_FILLED
 10
301.3788288460599
 20
13.50099999999999
 30
0.0
 41
4.57
 42
4.57
 43
4.57
 50
90.0
  0
INSERT
  5
13A
330
133
100
AcDbEntity
  8
2
 62
     0
370
    -2
100
AcDbBlockReference
  2
_ARROW_FILLED
 10
301.3788288460599
 20
-13.49900000000001
 30
0.0
 41
4.57
 42
4.57
 43
4.57
 50
270.0
  0
MTEXT
  5
13B
330
133
100
AcDbEntity
  8
2
 62
     7
100
AcDbMText
 10
301.3788288460599
 20
0.0009999999999977
 30
0.0
 40
3.5
 41
0.0
 71
     5
 72
     1
  1
\A1;%%c27
  7
BMG_Text
 11
0.0
 21
1.0
 31
0.0
 73
     1
 44
1.0
  0
POINT
  5
13C
330
133
100
AcDbEntity
  8
Defpoints
 62
     0
100
AcDbPoint
 10
270.000118
 20
13.501
 30
0.0
  0
POINT
  5
13D
330
133
100
AcDbEntity
  8
Defpoints
 62
     0
100
AcDbPoint
 10
270.000118
 20
-13.499
 30
0.0
  0
POINT
  5
13E
330
133
100
AcDbEntity
  8
Defpoints
 62
     0
100
AcDbPoint
 10
301.3788288460599
 20
-13.499
 30
0.0
  0
ENDBLK
  5
14B
330
133
100
AcDbEntity
  8
0
100
AcDbBlockEnd
  0
BLOCK
  5
14E
330
14D
100
AcDbEntity
  8
0
100
AcDbBlockBegin
  2
*D18
 70
     1
 10
0.0
 20
0.0
 30
0.0
  3
*D18
  1

  0
LINE
  5
14F
330
14D
100
AcDbEntity
  8
2
  6
Continuous
 62
     0
370
    -2
100
AcDbLine
 10
250.000118
 20
30.001
 30
0.0
 11
321.1076124630259
 21
30.00099999999999
 31
0.0
  0
LINE
  5
150
330
14D
100
AcDbEntity
  8
2
  6
Continuous
 62
     0
370
    -2
100
AcDbLine
 10
250.000118
 20
-29.999
 30
0.0
 11
321.1076124630259
 21
-29.99900000000001
 31
0.0
  0
LINE
  5
151
330
14D
100
AcDbEntity
  8
2
  6
Continuous
 62
     0
370
    -2
100
AcDbLine
 10
316.1076124630259
 20
25.43099999999999
 30
0.0
 11
316.1076124630259
 21
5.417666666666662
 31
0.0
  0
LINE
  5
152
330
14D
100
AcDbEntity
  8
2
  6
Continuous
 62
     0
370
    -2
100
AcDbLine
 10
316.1076124630259
 20
-25.42900000000001
 30
0.0
 11
316.1076124630259
 21
-5.415666666666702
 31
0.0
  0
INSERT
  5
153
330
14D
100
AcDbEntity
  8
2
 62
     0
370
    -2
100
AcDbBlockReference
  2
_ARROW_FILLED
 10
316.1076124630259
 20
30.00099999999999
 30
0.0
 41
4.57
 42
4.57
 43
4.57
 50
90.0
  0
INSERT
  5
154
330
14D
100
AcDbEntity
  8
2
 62
     0
370
    -2
100
AcDbBlockReference
  2
_ARROW_FILLED
 10
316.1076124630259
 20
-29.99900000000001
 30
0.0
 41
4.57
 42
4.57
 43
4.57
 50
270.0
  0
MTEXT
  5
155
330
14D
100
AcDbEntity
  8
2
 62
     7
100
AcDbMText
 10
316.1076124630259
 20
0.0009999999999977
 30
0.0
 40
3.5
 41
0.0
 71
     5
 72
     1
  1
\A1;%%c60
  7
BMG_Text
 11
0.0
 21
1.0
 31
0.0
 73
     1
 44
1.0
  0
POINT
  5
156
330
14D
100
AcDbEntity
  8
Defpoints
 62
     0
100
AcDbPoint
 10
250.000118
 20
30.001
 30
0.0
  0
POINT
  5
157
330
14D
100
AcDbEntity
  8
Defpoints
 62
     0
100
AcDbPoint
 10
250.000118
 20
-29.999
 30
0.0
  0
POINT
  5
158
330
14D
100
AcDbEntity
  8
Defpoints
 62
     0
100
AcDbPoint
 10
316.1076124630259
 20
-29.999
 30
0.0
  0
ENDBLK
  5
165
330
14D
100
AcDbEntity
  8
0
100
AcDbBlockEnd
  0
BLOCK
  5
168
330
167
100
AcDbEntity
  8
0
100
AcDbBlockBegin
  2
*D19
 70
     1
 10
0.0
 20
0.0
 30
0.0
  3
*D19
  1

  0
LINE
  5
169
330
167
100
AcDbEntity
  8
2
  6
Continuous
 62
     0
370
    -2
100
AcDbLine
 10
265.000118
 20
6.001
 30
0.0
 11
287.644967
 21
6.000999999999997
 31
0.0
  0
LINE
  5
16A
330
167
100
AcDbEntity
  8
2
  6
Continuous
 62
     0
370
    -2
100
AcDbLine
 10
265.000118
 20
-5.999
 30
0.0
 11
287.644967
 21
-5.999000000000003
 31
0.0
  0
LINE
  5
16B
330
167
100
AcDbEntity
  8
2
  6
Continuous
 62
     0
370
    -2
100
AcDbLine
 10
282.644967
 20
6.000999999999998
 30
0.0
 11
282.644967
 21
16.67311672316918
 31
0.0
  0
LINE
  5
16C
330
167
100
AcDbEntity
  8
2
  6
Continuous
 62
     0
370
    -2
100
AcDbLine
 10
282.644967
 20
1.430999999999997
 30
0.0
 11
282.644967
 21
-1.429000000000002
 31
0.0
  0
INSERT
  5
16D
330
167
100
AcDbEntity
  8
2
 62
     0
370
    -2
100
AcDbBlockReference
  2
_ARROW_FILLED
 10
282.644967
 20
6.000999999999998
 30
0.0
 41
4.57
 42
4.57
 43
4.57
 50
90.0
  0
INSERT
  5
16E
330
167
100
AcDbEntity
  8
2
 62
     0
370
    -2
100
AcDbBlockReference
  2
_ARROW_FILLED
 10
282.644967
 20
-5.999000000000002
 30
0.0
 41
4.57
 42
4.57
 43
4.57
 50
270.0
  0
MTEXT
  5
16F
330
167
100
AcDbEntity
  8
2
 62
     7
100
AcDbMText
 10
282.644967
 20
22.17311672316918
 30
0.0
 40
3.5
 41
0.0
 71
     5
 72
     1
  1
\A1;M12
  7
BMG_Text
 11
0.0
 21
1.0
 31
0.0
 73
     1
 44
1.0
  0
POINT
  5
170
330
167
100
AcDbEntity
  8
Defpoints
 62
     0
100
AcDbPoint
 10
265.000118
 20
6.001
 30
0.0
  0
POINT
  5
171
330
167
100
AcDbEntity
  8
Defpoints
 62
     0
100
AcDbPoint
 10
265.000118
 20
-5.999
 30
0.0
  0
POINT
  5
172
330
167
100
AcDbEntity
  8
Defpoints
 62
     0
100
AcDbPoint
 10
282.644967
 20
-5.999000000000001
 30
0.0
  0
ENDBLK
  5
17F
330
167
100
AcDbEntity
  8
0
100
AcDbBlockEnd
  0
BLOCK
  5
182
330
181
100
AcDbEntity
  8
0
100
AcDbBlockBegin
  2
BLK13
 70
     0
 10
0.0
 20
0.0
 30
0.0
  3
BLK13
  1

  0
ENDBLK
  5
183
330
181
100
AcDbEntity
  8
0
100
AcDbBlockEnd
  0
BLOCK
  5
187
330
186
100
AcDbEntity
  8
0
100
AcDbBlockBegin
  2
BLK14
 70
     0
 10
0.0
 20
0.0
 30
0.0
  3
BLK14
  1

  0
ENDBLK
  5
188
330
186
100
AcDbEntity
  8
0
100
AcDbBlockEnd
  0
BLOCK
  5
195
330
194
100
AcDbEntity
  8
0
100
AcDbBlockBegin
  2
BLK15
 70
     0
 10
0.0
 20
0.0
 30
0.0
  3
BLK15
  1

  0
ENDBLK
  5
196
330
194
100
AcDbEntity
  8
0
100
AcDbBlockEnd
  0
BLOCK
  5
1B2
330
1B1
100
AcDbEntity
  8
0
100
AcDbBlockBegin
  2
*D23
 70
     1
 10
0.0
 20
0.0
 30
0.0
  3
*D23
  1

  0
LINE
  5
1B3
330
1B1
100
AcDbEntity
  8
2
  6
Continuous
 62
     0
370
    -2
100
AcDbLine
 10
250.000118
 20
30.001
 30
0.0
 11
250.000118
 21
47.0
 31
0.0
  0
LINE
  5
1B4
330
1B1
100
AcDbEntity
  8
2
  6
Continuous
 62
     0
370
    -2
100
AcDbLine
 10
271.000118
 20
12.501
 30
0.0
 11
271.000118
 21
47.0
 31
0.0
  0
LINE
  5
1B5
330
1B1
100
AcDbEntity
  8
2
  6
Continuous
 62
     0
370
    -2
100
AcDbLine
 10
254.570118
 20
42.0
 30
0.0
 11
257.4141805
 21
42.0
 31
0.0
  0
LINE
  5
1B6
330
1B1
100
AcDbEntity
  8
2
  6
Continuous
 62
     0
370
    -2
100
AcDbLine
 10
266.430118
 20
42.0
 30
0.0
 11
263.5860555
 21
42.0
 31
0.0
  0
INSERT
  5
1B7
330
1B1
100
AcDbEntity
  8
2
 62
     0
370
    -2
100
AcDbBlockReference
  2
_ARROW_FILLED
 10
250.000118
 20
42.0
 30
0.0
 41
4.57
 42
4.57
 43
4.57
 50
180.0
  0
INSERT
  5
1B8
330
1B1
100
AcDbEntity
  8
2
 62
     0
370
    -2
100
AcDbBlockReference
  2
_ARROW_FILLED
 10
271.000118
 20
42.0
 30
0.0
 41
4.57
 42
4.57
 43
4.57
  0
MTEXT
  5
1B9
330
1B1
100
AcDbEntity
  8
2
 62
     7
100
AcDbMText
 10
260.500118
 20
42.0
 30
0.0
 40
3.5
 41
0.0
 71
     5
 72
     1
  1
\A1;21
  7
BMG_Text
 73
     1
 44
1.0
  0
POINT
  5
1BA
330
1B1
100
AcDbEntity
  8
Defpoints
 62
     0
100
AcDbPoint
 10
250.000118
 20
30.001
 30
0.0
  0
POINT
  5
1BB
330
1B1
100
AcDbEntity
  8
Defpoints
 62
     0
100
AcDbPoint
 10
271.000118
 20
12.501
 30
0.0
  0
POINT
  5
1BC
330
1B1
100
AcDbEntity
  8
Defpoints
 62
     0
100
AcDbPoint
 10
271.000118
 20
42.0
 30
0.0
  0
ENDBLK
  5
1C9
330
1B1
100
AcDbEntity
  8
0
100
AcDbBlockEnd
  0
BLOCK
  5
248
330
247
100
AcDbEntity
  8
0
100
AcDbBlockBegin
  2
_ARROW_FILLED
 70
     0
 10
0.0
 20
0.0
 30
0.0
  3
_ARROW_FILLED
  1

  0
SOLID
  5
249
330
247
100
AcDbEntity
  8
0
  6
ByBlock
 62
     0
100
AcDbTrace
 10
0.0
 20
0.0
 30
0.0
 11
-1.0
 21
0.1428571429
 31
0.0
 12
-1.0
 22
-0.1428571429
 32
0.0
 13
-1.0
 23
-0.1428571429
 33
0.0
  0
ENDBLK
  5
24A
330
247
100
AcDbEntity
  8
0
  6
ByBlock
 62
     0
100
AcDbBlockEnd
  0
BLOCK
  5
263
330
262
100
AcDbEntity
  8
0
100
AcDbBlockBegin
  2
*D27
 70
     1
 10
0.0
 20
0.0
 30
0.0
  3
*D27
  1

  0
LINE
  5
264
330
262
100
AcDbEntity
  8
SK2
  6
Continuous
 62
     0
370
    -2
100
AcDbLine
 10
384.3825558959211
 20
-36.55102436919971
 30
0.0
 11
419.3825558959211
 21
-36.55102436919971
 31
0.0
  0
LINE
  5
265
330
262
100
AcDbEntity
  8
SK2
  6
Continuous
 62
     0
370
    -2
100
AcDbLine
 10
384.3825558959211
 20
13.44897563080029
 30
0.0
 11
419.3825558959211
 21
13.44897563080029
 31
0.0
  0
LINE
  5
266
330
262
100
AcDbEntity
  8
SK2
  6
Continuous
 62
     0
370
    -2
100
AcDbLine
 10
414.3825558959211
 20
-31.98102436919971
 30
0.0
 11
414.3825558959211
 21
-16.96769103586638
 31
0.0
  0
LINE
  5
267
330
262
100
AcDbEntity
  8
SK2
  6
Continuous
 62
     0
370
    -2
100
AcDbLine
 10
414.3825558959211
 20
8.878975630800289
 30
0.0
 11
414.3825558959211
 21
-6.134357702533006
 31
0.0
  0
INSERT
  5
268
330
262
100
AcDbEntity
  8
SK2
 62
     0
370
    -2
100
AcDbBlockReference
  2
_ARROW_FILLED
 10
414.3825558959211
 20
-36.55102436919971
 30
0.0
 41
4.57
 42
4.57
 43
4.57
 50
270.0
  0
INSERT
  5
269
330
262
100
AcDbEntity
  8
SK2
 62
     0
370
    -2
100
AcDbBlockReference
  2
_ARROW_FILLED
 10
414.3825558959211
 20
13.44897563080029
 30
0.0
 41
4.57
 42
4.57
 43
4.57
 50
90.0
  0
MTEXT
  5
26A
330
262
100
AcDbEntity
  8
SK2
 62
     7
100
AcDbMText
 10
414.3825558959211
 20
-11.55102436919971
 30
0.0
 40
3.5
 41
0.0
 71
     5
 72
     1
  1
\A1;%%c50
  7
BMG_Text
 11
0.0
 21
1.0
 31
0.0
 73
     1
 44
1.0
  0
POINT
  5
26B
330
262
100
AcDbEntity
  8
Defpoints
 62
     0
100
AcDbPoint
 10
384.3825558959211
 20
-36.55102436919971
 30
0.0
  0
POINT
  5
26C
330
262
100
AcDbEntity
  8
Defpoints
 62
     0
100
AcDbPoint
 10
384.3825558959211
 20
13.44897563080029
 30
0.0
  0
POINT
  5
26D
330
262
100
AcDbEntity
  8
Defpoints
 62
     0
100
AcDbPoint
 10
414.3825558959211
 20
13.44897563080029
 30
0.0
  0
ENDBLK
  5
26E
330
262
100
AcDbEntity
  8
0
100
AcDbBlockEnd
  0
BLOCK
  5
271
330
270
100
AcDbEntity
  8
0
100
AcDbBlockBegin
  2
*D28
 70
     1
 10
0.0
 20
0.0
 30
0.0
  3
*D28
  1

  0
LINE
  5
272
330
270
100
AcDbEntity
  8
SK2
  6
Continuous
 62
     0
370
    -2
100
AcDbLine
 10
386.3825558959211
 20
-27.05102436919971
 30
0.0
 11
405.3825558959211
 21
-27.05102436919971
 31
0.0
  0
LINE
  5
273
330
270
100
AcDbEntity
  8
SK2
  6
Continuous
 62
     0
370
    -2
100
AcDbLine
 10
386.3825558959211
 20
3.948975630800291
 30
0.0
 11
405.3825558959211
 21
3.94897563080029
 31
0.0
  0
LINE
  5
274
330
270
100
AcDbEntity
  8
SK2
  6
Continuous
 62
     0
370
    -2
100
AcDbLine
 10
400.3825558959211
 20
-22.48102436919971
 30
0.0
 11
400.3825558959211
 21
-16.22029520253301
 31
0.0
  0
LINE
  5
275
330
270
100
AcDbEntity
  8
SK2
  6
Continuous
 62
     0
370
    -2
100
AcDbLine
 10
400.3825558959211
 20
-0.6210243691997102
 30
0.0
 11
400.3825558959211
 21
-6.88175353586638
 31
0.0
  0
INSERT
  5
276
330
270
100
AcDbEntity
  8
SK2
 62
     0
370
    -2
100
AcDbBlockReference
  2
_ARROW_FILLED
 10
400.3825558959211
 20
-27.05102436919971
 30
0.0
 41
4.57
 42
4.57
 43
4.57
 50
270.0
  0
INSERT
  5
277
330
270
100
AcDbEntity
  8
SK2
 62
     0
370
    -2
100
AcDbBlockReference
  2
_ARROW_FILLED
 10
400.3825558959211
 20
3.94897563080029
 30
0.0
 41
4.57
 42
4.57
 43
4.57
 50
90.0
  0
MTEXT
  5
278
330
270
100
AcDbEntity
  8
SK2
 62
     7
100
AcDbMText
 10
400.3825558959211
 20
-11.55102436919971
 30
0.0
 40
3.5
 41
0.0
 71
     5
 72
     1
  1
\A1;%%c31
  7
BMG_Text
 11
0.0
 21
1.0
 31
0.0
 73
     1
 44
1.0
  0
POINT
  5
279
330
270
100
AcDbEntity
  8
Defpoints
 62
     0
100
AcDbPoint
 10
386.3825558959211
 20
-27.05102436919971
 30
0.0
  0
POINT
  5
27A
330
270
100
AcDbEntity
  8
Defpoints
 62
     0
100
AcDbPoint
 10
386.3825558959211
 20
3.948975630800291
 30
0.0
  0
POINT
  5
27B
330
270
100
AcDbEntity
  8
Defpoints
 62
     0
100
AcDbPoint
 10
400.3825558959211
 20
3.94897563080029
 30
0.0
  0
ENDBLK
  5
27C
330
270
100
AcDbEntity
  8
0
100
AcDbBlockEnd
  0
BLOCK
  5
27F
330
27E
100
AcDbEntity
  8
0
100
AcDbBlockBegin
  2
*D29
 70
     1
 10
0.0
 20
0.0
 30
0.0
  3
*D29
  1

  0
LINE
  5
280
330
27E
100
AcDbEntity
  8
SK2
  6
Continuous
 62
     0
370
    -2
100
AcDbLine
 10
386.3825558959211
 20
11.44897563080029
 30
0.0
 11
386.3825558959211
 21
54.14092963080029
 31
0.0
  0
LINE
  5
281
330
27E
100
AcDbEntity
  8
SK2
  6
Continuous
 62
     0
370
    -2
100
AcDbLine
 10
321.3825558959211
 20
38.44897563080029
 30
0.0
 11
321.3825558959211
 21
54.14092963080029
 31
0.0
  0
LINE
  5
282
330
27E
100
AcDbEntity
  8
SK2
  6
Continuous
 62
     0
370
    -2
100
AcDbLine
 10
381.8125558959212
 20
49.14092963080029
 30
0.0
 11
357.7158892292545
 21
49.14092963080029
 31
0.0
  0
LINE
  5
283
330
27E
100
AcDbEntity
  8
SK2
  6
Continuous
 62
     0
370
    -2
100
AcDbLine
 10
325.9525558959211
 20
49.14092963080029
 30
0.0
 11
350.0492225625878
 21
49.14092963080029
 31
0.0
  0
INSERT
  5
284
330
27E
100
AcDbEntity
  8
SK2
 62
     0
370
    -2
100
AcDbBlockReference
  2
_ARROW_FILLED
 10
386.3825558959211
 20
49.14092963080029
 30
0.0
 41
4.57
 42
4.57
 43
4.57
  0
INSERT
  5
285
330
27E
100
AcDbEntity
  8
SK2
 62
     0
370
    -2
100
AcDbBlockReference
  2
_ARROW_FILLED
 10
321.3825558959211
 20
49.14092963080029
 30
0.0
 41
4.57
 42
4.57
 43
4.57
 50
180.0
  0
MTEXT
  5
286
330
27E
100
AcDbEntity
  8
SK2
 62
     7
100
AcDbMText
 10
353.8825558959211
 20
49.14092963080029
 30
0.0
 40
3.5
 41
0.0
 71
     5
 72
     1
  1
\A1;65
  7
BMG_Text
 73
     1
 44
1.0
  0
POINT
  5
287
330
27E
100
AcDbEntity
  8
Defpoints
 62
     0
100
AcDbPoint
 10
386.3825558959211
 20
11.44897563080029
 30
0.0
  0
POINT
  5
288
330
27E
100
AcDbEntity
  8
Defpoints
 62
     0
100
AcDbPoint
 10
321.3825558959211
 20
38.44897563080029
 30
0.0
  0
POINT
  5
289
330
27E
100
AcDbEntity
  8
Defpoints
 62
     0
100
AcDbPoint
 10
321.3825558959211
 20
49.14092963080029
 30
0.0
  0
ENDBLK
  5
28A
330
27E
100
AcDbEntity
  8
0
100
AcDbBlockEnd
  0
BLOCK
  5
366
330
365
100
AcDbEntity
  8
0
100
AcDbBlockBegin
  2
*D33
 70
     1
 10
0.0
 20
0.0
 30
0.0
  3
*D33
  1

  0
LINE
  5
367
330
365
100
AcDbEntity
  8
SK2
  6
Continuous
 62
     0
370
    -2
100
AcDbLine
 10
2.23783140088284
 20
232.8683973563511
 30
0.0
 11
-68.10616859911715
 21
232.8683973563511
 31
0.0
  0
LINE
  5
368
330
365
100
AcDbEntity
  8
SK2
  6
Continuous
 62
     0
370
    -2
100
AcDbLine
 10
2.23783140088284
 20
132.8683973563511
 30
0.0
 11
-68.10616859911715
 21
132.8683973563511
 31
0.0
  0
LINE
  5
369
330
365
100
AcDbEntity
  8
SK2
  6
Continuous
 62
     0
370
    -2
100
AcDbLine
 10
-63.10616859911715
 20
228.2983973563511
 30
0.0
 11
-63.10616859911715
 21
189.6183973563511
 31
0.0
  0
LINE
  5
36A
330
365
100
AcDbEntity
  8
SK2
  6
Continuous
 62
     0
370
    -2
100
AcDbLine
 10
-63.10616859911715
 20
137.4383973563511
 30
0.0
 11
-63.10616859911715
 21
176.1183973563511
 31
0.0
  0
INSERT
  5
36B
330
365
100
AcDbEntity
  8
SK2
 62
     0
370
    -2
100
AcDbBlockReference
  2
_ARROW_FILLED
 10
-63.10616859911715
 20
232.8683973563511
 30
0.0
 41
4.57
 42
4.57
 43
4.57
 50
90.0
  0
INSERT
  5
36C
330
365
100
AcDbEntity
  8
SK2
 62
     0
370
    -2
100
AcDbBlockReference
  2
_ARROW_FILLED
 10
-63.10616859911715
 20
132.8683973563511
 30
0.0
 41
4.57
 42
4.57
 43
4.57
 50
270.0
  0
MTEXT
  5
36D
330
365
100
AcDbEntity
  8
SK2
 62
     7
100
AcDbMText
 10
-63.10616859911715
 20
182.8683973563511
 30
0.0
 40
3.5
 41
0.0
 71
     5
 72
     1
  1
\A1;%%c100
  7
BMG_Text
 11
7.105427357601002E-17
 21
1.0
 31
0.0
 73
     1
 44
1.0
  0
POINT
  5
36E
330
365
100
AcDbEntity
  8
Defpoints
 62
     0
100
AcDbPoint
 10
2.23783140088284
 20
232.8683973563511
 30
0.0
  0
POINT
  5
36F
330
365
100
AcDbEntity
  8
Defpoints
 62
     0
100
AcDbPoint
 10
2.23783140088284
 20
132.8683973563511
 30
0.0
  0
POINT
  5
370
330
365
100
AcDbEntity
  8
Defpoints
 62
     0
100
AcDbPoint
 10
-63.10616859911715
 20
132.8683973563511
 30
0.0
  0
ENDBLK
  5
371
330
365
100
AcDbEntity
  8
0
100
AcDbBlockEnd
  0
BLOCK
  5
377
330
376
100
AcDbEntity
  8
0
100
AcDbBlockBegin
  2
*D34
 70
     1
 10
0.0
 20
0.0
 30
0.0
  3
*D34
  1

  0
LINE
  5
378
330
376
100
AcDbEntity
  8
SK2
  6
Continuous
 62
     0
370
    -2
100
AcDbLine
 10
-47.76216859911716
 20
216.4658993563511
 30
0.0
 11
-47.76216859911716
 21
264.8683973563511
 31
0.0
  0
LINE
  5
379
330
376
100
AcDbEntity
  8
SK2
  6
Continuous
 62
     0
370
    -2
100
AcDbLine
 10
273.2378314008828
 20
195.3683973563511
 30
0.0
 11
273.2378314008828
 21
264.8683973563511
 31
0.0
  0
LINE
  5
37A
330
376
100
AcDbEntity
  8
SK2
  6
Continuous
 62
     0
370
    -2
100
AcDbLine
 10
-43.19216859911716
 20
259.8683973563511
 30
0.0
 11
107.9852272342162
 21
259.8683973563511
 31
0.0
  0
LINE
  5
37B
330
376
100
AcDbEntity
  8
SK2
  6
Continuous
 62
     0
370
    -2
100
AcDbLine
 10
268.6678314008828
 20
259.8683973563511
 30
0.0
 11
117.4904355675495
 21
259.8683973563511
 31
0.0
  0
INSERT
  5
37C
330
376
100
AcDbEntity
  8
SK2
 62
     0
370
    -2
100
AcDbBlockReference
  2
_ARROW_FILLED
 10
-47.76216859911716
 20
259.8683973563511
 30
0.0
 41
4.57
 42
4.57
 43
4.57
 50
180.0
  0
INSERT
  5
37D
330
376
100
AcDbEntity
  8
SK2
 62
     0
370
    -2
100
AcDbBlockReference
  2
_ARROW_FILLED
 10
273.2378314008828
 20
259.8683973563511
 30
0.0
 41
4.57
 42
4.57
 43
4.57
  0
MTEXT
  5
37E
330
376
100
AcDbEntity
  8
SK2
 62
     7
100
AcDbMText
 10
112.7378314008828
 20
259.8683973563511
 30
0.0
 40
3.5
 41
0.0
 71
     5
 72
     1
  1
\A1;321
  7
BMG_Text
 73
     1
 44
1.0
  0
POINT
  5
37F
330
376
100
AcDbEntity
  8
Defpoints
 62
     0
100
AcDbPoint
 10
-47.76216859911716
 20
216.4658993563511
 30
0.0
  0
POINT
  5
380
330
376
100
AcDbEntity
  8
Defpoints
 62
     0
100
AcDbPoint
 10
273.2378314008828
 20
195.3683973563511
 30
0.0
  0
POINT
  5
381
330
376
100
AcDbEntity
  8
Defpoints
 62
     0
100
AcDbPoint
 10
273.2378314008828
 20
259.8683973563511
 30
0.0
  0
ENDBLK
  5
382
330
376
100
AcDbEntity
  8
0
100
AcDbBlockEnd
  0
BLOCK
  5
385
330
384
100
AcDbEntity
  8
0
100
AcDbBlockBegin
  2
*D35
 70
     1
 10
0.0
 20
0.0
 30
0.0
  3
*D35
  1

  0
LINE
  5
386
330
384
100
AcDbEntity
  8
2
  6
Continuous
 62
     0
370
    -2
100
AcDbLine
 10
2.23783140088284
 20
132.8683973563511
 30
0.0
 11
2.23783140088284
 21
107.8683973563511
 31
0.0
  0
LINE
  5
387
330
384
100
AcDbEntity
  8
2
  6
Continuous
 62
     0
370
    -2
100
AcDbLine
 10
252.2378314008828
 20
152.8683973563511
 30
0.0
 11
252.2378314008828
 21
107.8683973563511
 31
0.0
  0
LINE
  5
388
330
384
100
AcDbEntity
  8
2
  6
Continuous
 62
     0
370
    -2
100
AcDbLine
 10
6.80783140088284
 20
112.8683973563511
 30
0.0
 11
121.7378314008828
 21
112.8683973563511
 31
0.0
  0
LINE
  5
389
330
384
100
AcDbEntity
  8
2
  6
Continuous
 62
     0
370
    -2
100
AcDbLine
 10
247.6678314008828
 20
112.8683973563511
 30
0.0
 11
132.7378314008829
 21
112.8683973563511
 31
0.0
  0
INSERT
  5
38A
330
384
100
AcDbEntity
  8
2
 62
     0
370
    -2
100
AcDbBlockReference
  2
_ARROW_FILLED
 10
2.23783140088284
 20
112.8683973563511
 30
0.0
 41
4.57
 42
4.57
 43
4.57
 50
180.0
  0
INSERT
  5
38B
330
384
100
AcDbEntity
  8
2
 62
     0
370
    -2
100
AcDbBlockReference
  2
_ARROW_FILLED
 10
252.2378314008828
 20
112.8683973563511
 30
0.0
 41
4.57
 42
4.57
 43
4.57
  0
MTEXT
  5
38C
330
384
100
AcDbEntity
  8
2
 62
     7
100
AcDbMText
 10
127.2378314008828
 20
112.8683973563511
 30
0.0
 40
3.5
 41
0.0
 71
     5
 72
     1
  1
\A1;250
  7
BMG_Text
 73
     1
 44
1.0
  0
POINT
  5
38D
330
384
100
AcDbEntity
  8
Defpoints
 62
     0
100
AcDbPoint
 10
2.23783140088284
 20
132.8683973563511
 30
0.0
  0
POINT
  5
38E
330
384
100
AcDbEntity
  8
Defpoints
 62
     0
100
AcDbPoint
 10
252.2378314008828
 20
152.8683973563511
 30
0.0
  0
POINT
  5
38F
330
384
100
AcDbEntity
  8
Defpoints
 62
     0
100
AcDbPoint
 10
252.2378314008828
 20
112.8683973563511
 30
0.0
  0
ENDBLK
  5
390
330
384
100
AcDbEntity
  8
0
100
AcDbBlockEnd
  0
BLOCK
  5
393
330
392
100
AcDbEntity
  8
0
100
AcDbBlockBegin
  2
*D36
 70
     1
 10
0.0
 20
0.0
 30
0.0
  3
*D36
  1

  0
LINE
  5
394
330
392
100
AcDbEntity
  8
SK2
  6
Continuous
 62
     0
370
    -2
100
AcDbLine
 10
-47.76216859911716
 20
216.4658993563511
 30
0.0
 11
-47.76216859911716
 21
250.8683973563511
 31
0.0
  0
LINE
  5
395
330
392
100
AcDbEntity
  8
SK2
  6
Continuous
 62
     0
370
    -2
100
AcDbLine
 10
2.23783140088284
 20
232.8683973563511
 30
0.0
 11
2.23783140088284
 21
250.8683973563511
 31
0.0
  0
LINE
  5
396
330
392
100
AcDbEntity
  8
SK2
  6
Continuous
 62
     0
370
    -2
100
AcDbLine
 10
-43.19216859911716
 20
245.8683973563511
 30
0.0
 11
-26.59550193245049
 21
245.8683973563511
 31
0.0
  0
LINE
  5
397
330
392
100
AcDbEntity
  8
SK2
  6
Continuous
 62
     0
370
    -2
100
AcDbLine
 10
-2.332168599117161
 20
245.8683973563511
 30
0.0
 11
-18.92883526578383
 21
245.8683973563511
 31
0.0
  0
INSERT
  5
398
330
392
100
AcDbEntity
  8
SK2
 62
     0
370
    -2
100
AcDbBlockReference
  2
_ARROW_FILLED
 10
-47.76216859911716
 20
245.8683973563511
 30
0.0
 41
4.57
 42
4.57
 43
4.57
 50
180.0
  0
INSERT
  5
399
330
392
100
AcDbEntity
  8
SK2
 62
     0
370
    -2
100
AcDbBlockReference
  2
_ARROW_FILLED
 10
2.23783140088284
 20
245.8683973563511
 30
0.0
 41
4.57
 42
4.57
 43
4.57
  0
MTEXT
  5
39A
330
392
100
AcDbEntity
  8
SK2
 62
     7
100
AcDbMText
 10
-22.76216859911716
 20
245.8683973563511
 30
0.0
 40
3.5
 41
0.0
 71
     5
 72
     1
  1
\A1;50
  7
BMG_Text
 73
     1
 44
1.0
  0
POINT
  5
39B
330
392
100
AcDbEntity
  8
Defpoints
 62
     0
100
AcDbPoint
 10
-47.76216859911716
 20
216.4658993563511
 30
0.0
  0
POINT
  5
39C
330
392
100
AcDbEntity
  8
Defpoints
 62
     0
100
AcDbPoint
 10
2.23783140088284
 20
232.8683973563511
 30
0.0
  0
POINT
  5
39D
330
392
100
AcDbEntity
  8
Defpoints
 62
     0
100
AcDbPoint
 10
2.23783140088284
 20
245.8683973563511
 30
0.0
  0
ENDBLK
  5
39E
330
392
100
AcDbEntity
  8
0
100
AcDbBlockEnd
  0
BLOCK
  5
3A1
330
3A0
100
AcDbEntity
  8
0
100
AcDbBlockBegin
  2
*D37
 70
     1
 10
0.0
 20
0.0
 30
0.0
  3
*D37
  1

  0
LINE
  5
3A2
330
3A0
100
AcDbEntity
  8
SK2
  6
Continuous
 62
     0
370
    -2
100
AcDbLine
 10
273.2378314008828
 20
195.3683973563511
 30
0.0
 11
273.2378314008828
 21
250.8683973563511
 31
0.0
  0
LINE
  5
3A3
330
3A0
100
AcDbEntity
  8
SK2
  6
Continuous
 62
     0
370
    -2
100
AcDbLine
 10
31.23783140088284
 20
232.8683973563511
 30
0.0
 11
31.23783140088284
 21
250.8683973563511
 31
0.0
  0
LINE
  5
3A4
330
3A0
100
AcDbEntity
  8
SK2
  6
Continuous
 62
     0
370
    -2
100
AcDbLine
 10
268.6678314008828
 20
245.8683973563511
 30
0.0
 11
157.7378314008828
 21
245.8683973563511
 31
0.0
  0
LINE
  5
3A5
330
3A0
100
AcDbEntity
  8
SK2
  6
Continuous
 62
     0
370
    -2
100
AcDbLine
 10
35.80783140088284
 20
245.8683973563511
 30
0.0
 11
146.7378314008828
 21
245.8683973563511
 31
0.0
  0
INSERT
  5
3A6
330
3A0
100
AcDbEntity
  8
SK2
 62
     0
370
    -2
100
AcDbBlockReference
  2
_ARROW_FILLED
 10
273.2378314008828
 20
245.8683973563511
 30
0.0
 41
4.57
 42
4.57
 43
4.57
  0
INSERT
  5
3A7
330
3A0
100
AcDbEntity
  8
SK2
 62
     0
370
    -2
100
AcDbBlockReference
  2
_ARROW_FILLED
 10
31.23783140088284
 20
245.8683973563511
 30
0.0
 41
4.57
 42
4.57
 43
4.57
 50
180.0
  0
MTEXT
  5
3A8
330
3A0
100
AcDbEntity
  8
SK2
 62
     7
100
AcDbMText
 10
152.2378314008828
 20
245.8683973563511
 30
0.0
 40
3.5
 41
0.0
 71
     5
 72
     1
  1
\A1;242
  7
BMG_Text
 73
     1
 44
1.0
  0
POINT
  5
3A9
330
3A0
100
AcDbEntity
  8
Defpoints
 62
     0
100
AcDbPoint
 10
273.2378314008828
 20
195.3683973563511
 30
0.0
  0
POINT
  5
3AA
330
3A0
100
AcDbEntity
  8
Defpoints
 62
     0
100
AcDbPoint
 10
31.23783140088284
 20
232.8683973563511
 30
0.0
  0
POINT
  5
3AB
330
3A0
100
AcDbEntity
  8
Defpoints
 62
     0
100
AcDbPoint
 10
31.23783140088284
 20
245.8683973563511
 30
0.0
  0
ENDBLK
  5
3AC
330
3A0
100
AcDbEntity
  8
0
100
AcDbBlockEnd
  0
BLOCK
  5
3AF
330
3AE
100
AcDbEntity
  8
0
100
AcDbBlockBegin
  2
*D38
 70
     1
 10
0.0
 20
0.0
 30
0.0
  3
*D38
  1

  0
LINE
  5
3B0
330
3AE
100
AcDbEntity
  8
2
  6
Continuous
 62
     0
370
    -2
100
AcDbLine
 10
272.2378314008828
 20
196.3683973563511
 30
0.0
 11
308.6165422469427
 21
196.3683973563511
 31
0.0
  0
LINE
  5
3B1
330
3AE
100
AcDbEntity
  8
2
  6
Continuous
 62
     0
370
    -2
100
AcDbLine
 10
272.2378314008828
 20
169.3683973563511
 30
0.0
 11
308.6165422469427
 21
169.3683973563511
 31
0.0
  0
LINE
  5
3B2
330
3AE
100
AcDbEntity
  8
2
  6
Continuous
 62
     0
370
    -2
100
AcDbLine
 10
303.6165422469427
 20
191.7983973563511
 30
0.0
 11
303.6165422469427
 21
188.2850640230178
 31
0.0
  0
LINE
  5
3B3
330
3AE
100
AcDbEntity
  8
2
  6
Continuous
 62
     0
370
    -2
100
AcDbLine
 10
303.6165422469427
 20
173.9383973563511
 30
0.0
 11
303.6165422469427
 21
177.4517306896844
 31
0.0
  0
INSERT
  5
3B4
330
3AE
100
AcDbEntity
  8
2
 62
     0
370
    -2
100
AcDbBlockReference
  2
_ARROW_FILLED
 10
303.6165422469427
 20
196.3683973563511
 30
0.0
 41
4.57
 42
4.57
 43
4.57
 50
90.0
  0
INSERT
  5
3B5
330
3AE
100
AcDbEntity
  8
2
 62
     0
370
    -2
100
AcDbBlockReference
  2
_ARROW_FILLED
 10
303.6165422469427
 20
169.3683973563511
 30
0.0
 41
4.57
 42
4.57
 43
4.57
 50
270.0
  0
MTEXT
  5
3B6
330
3AE
100
AcDbEntity
  8
2
 62
     7
100
AcDbMText
 10
303.6165422469427
 20
182.8683973563511
 30
0.0
 40
3.5
 41
0.0
 71
     5
 72
     1
  1
\A1;%%c27
  7
BMG_Text
 11
0.0
 21
1.0
 31
0.0
 73
     1
 44
1.0
  0
POINT
  5
3B7
330
3AE
100
AcDbEntity
  8
Defpoints
 62
     0
100
AcDbPoint
 10
272.2378314008828
 20
196.3683973563511
 30
0.0
  0
POINT
  5
3B8
330
3AE
100
AcDbEntity
  8
Defpoints
 62
     0
100
AcDbPoint
 10
272.2378314008828
 20
169.3683973563511
 30
0.0
  0
POINT
  5
3B9
330
3AE
100
AcDbEntity
  8
Defpoints
 62
     0
100
AcDbPoint
 10
303.6165422469427
 20
169.3683973563511
 30
0.0
  0
ENDBLK
  5
3BA
330
3AE
100
AcDbEntity
  8
0
100
AcDbBlockEnd
  0
BLOCK
  5
3BD
330
3BC
100
AcDbEntity
  8
0
100
AcDbBlockBegin
  2
*D39
 70
     1
 10
0.0
 20
0.0
 30
0.0
  3
*D39
  1

  0
LINE
  5
3BE
330
3BC
100
AcDbEntity
  8
2
  6
Continuous
 62
     0
370
    -2
100
AcDbLine
 10
252.2378314008828
 20
212.8683973563511
 30
0.0
 11
323.3453258639088
 21
212.8683973563511
 31
0.0
  0
LINE
  5
3BF
330
3BC
100
AcDbEntity
  8
2
  6
Continuous
 62
     0
370
    -2
100
AcDbLine
 10
252.2378314008828
 20
152.8683973563511
 30
0.0
 11
323.3453258639088
 21
152.8683973563511
 31
0.0
  0
LINE
  5
3C0
330
3BC
100
AcDbEntity
  8
2
  6
Continuous
 62
     0
370
    -2
100
AcDbLine
 10
318.3453258639088
 20
208.2983973563511
 30
0.0
 11
318.3453258639088
 21
188.2850640230178
 31
0.0
  0
LINE
  5
3C1
330
3BC
100
AcDbEntity
  8
2
  6
Continuous
 62
     0
370
    -2
100
AcDbLine
 10
318.3453258639088
 20
157.4383973563511
 30
0.0
 11
318.3453258639088
 21
177.4517306896844
 31
0.0
  0
INSERT
  5
3C2
330
3BC
100
AcDbEntity
  8
2
 62
     0
370
    -2
100
AcDbBlockReference
  2
_ARROW_FILLED
 10
318.3453258639088
 20
212.8683973563511
 30
0.0
 41
4.57
 42
4.57
 43
4.57
 50
90.0
  0
INSERT
  5
3C3
330
3BC
100
AcDbEntity
  8
2
 62
     0
370
    -2
100
AcDbBlockReference
  2
_ARROW_FILLED
 10
318.3453258639088
 20
152.8683973563511
 30
0.0
 41
4.57
 42
4.57
 43
4.57
 50
270.0
  0
MTEXT
  5
3C4
330
3BC
100
AcDbEntity
  8
2
 62
     7
100
AcDbMText
 10
318.3453258639088
 20
182.8683973563511
 30
0.0
 40
3.5
 41
0.0
 71
     5
 72
     1
  1
\A1;%%c60
  7
BMG_Text
 11
0.0
 21
1.0
 31
0.0
 73
     1
 44
1.0
  0
POINT
  5
3C5
330
3BC
100
AcDbEntity
  8
Defpoints
 62
     0
100
AcDbPoint
 10
252.2378314008828
 20
212.8683973563511
 30
0.0
  0
POINT
  5
3C6
330
3BC
100
AcDbEntity
  8
Defpoints
 62
     0
100
AcDbPoint
 10
252.2378314008828
 20
152.8683973563511
 30
0.0
  0
POINT
  5
3C7
330
3BC
100
AcDbEntity
  8
Defpoints
 62
     0
100
AcDbPoint
 10
318.3453258639088
 20
152.8683973563511
 30
0.0
  0
ENDBLK
  5
3C8
330
3BC
100
AcDbEntity
  8
0
100
AcDbBlockEnd
  0
BLOCK
  5
3CB
330
3CA
100
AcDbEntity
  8
0
100
AcDbBlockBegin
  2
*D40
 70
     1
 10
0.0
 20
0.0
 30
0.0
  3
*D40
  1

  0
LINE
  5
3CC
330
3CA
100
AcDbEntity
  8
2
  6
Continuous
 62
     0
370
    -2
100
AcDbLine
 10
267.2378314008828
 20
188.8683973563511
 30
0.0
 11
289.8826804008828
 21
188.8683973563511
 31
0.0
  0
LINE
  5
3CD
330
3CA
100
AcDbEntity
  8
2
  6
Continuous
 62
     0
370
    -2
100
AcDbLine
 10
267.2378314008828
 20
176.8683973563511
 30
0.0
 11
289.8826804008828
 21
176.8683973563511
 31
0.0
  0
LINE
  5
3CE
330
3CA
100
AcDbEntity
  8
2
  6
Continuous
 62
     0
370
    -2
100
AcDbLine
 10
284.8826804008828
 20
188.8683973563511
 30
0.0
 11
284.8826804008828
 21
199.5405140795202
 31
0.0
  0
LINE
  5
3CF
330
3CA
100
AcDbEntity
  8
2
  6
Continuous
 62
     0
370
    -2
100
AcDbLine
 10
284.8826804008828
 20
184.2983973563511
 30
0.0
 11
284.8826804008828
 21
181.4383973563511
 31
0.0
  0
INSERT
  5
3D0
330
3CA
100
AcDbEntity
  8
2
 62
     0
370
    -2
100
AcDbBlockReference
  2
_ARROW_FILLED
 10
284.8826804008828
 20
188.8683973563511
 30
0.0
 41
4.57
 42
4.57
 43
4.57
 50
90.0
  0
INSERT
  5
3D1
330
3CA
100
AcDbEntity
  8
2
 62
     0
370
    -2
100
AcDbBlockReference
  2
_ARROW_FILLED
 10
284.8826804008828
 20
176.8683973563511
 30
0.0
 41
4.57
 42
4.57
 43
4.57
 50
270.0
  0
MTEXT
  5
3D2
330
3CA
100
AcDbEntity
  8
2
 62
     7
100
AcDbMText
 10
284.8826804008828
 20
205.0405140795202
 30
0.0
 40
3.5
 41
0.0
 71
     5
 72
     1
  1
\A1;M12
  7
BMG_Text
 11
0.0
 21
1.0
 31
0.0
 73
     1
 44
1.0
  0
POINT
  5
3D3
330
3CA
100
AcDbEntity
  8
Defpoints
 62
     0
100
AcDbPoint
 10
267.2378314008828
 20
188.8683973563511
 30
0.0
  0
POINT
  5
3D4
330
3CA
100
AcDbEntity
  8
Defpoints
 62
     0
100
AcDbPoint
 10
267.2378314008828
 20
176.8683973563511
 30
0.0
  0
POINT
  5
3D5
330
3CA
100
AcDbEntity
  8
Defpoints
 62
     0
100
AcDbPoint
 10
284.8826804008828
 20
176.8683973563511
 30
0.0
  0
ENDBLK
  5
3D6
330
3CA
100
AcDbEntity
  8
0
100
AcDbBlockEnd
  0
BLOCK
  5
3FD
330
3FC
100
AcDbEntity
  8
0
100
AcDbBlockBegin
  2
*D41
 70
     1
 10
0.0
 20
0.0
 30
0.0
  3
*D41
  1

  0
LINE
  5
3FE
330
3FC
100
AcDbEntity
  8
2
  6
Continuous
 62
     0
370
    -2
100
AcDbLine
 10
252.2378314008828
 20
212.8683973563511
 30
0.0
 11
252.2378314008828
 21
229.8673973563511
 31
0.0
  0
LINE
  5
3FF
330
3FC
100
AcDbEntity
  8
2
  6
Continuous
 62
     0
370
    -2
100
AcDbLine
 10
273.2378314008828
 20
195.3683973563511
 30
0.0
 11
273.2378314008828
 21
229.8673973563511
 31
0.0
  0
LINE
  5
400
330
3FC
100
AcDbEntity
  8
2
  6
Continuous
 62
     0
370
    -2
100
AcDbLine
 10
256.8078314008828
 20
224.8673973563511
 30
0.0
 11
259.6518939008828
 21
224.8673973563511
 31
0.0
  0
LINE
  5
401
330
3FC
100
AcDbEntity
  8
2
  6
Continuous
 62
     0
370
    -2
100
AcDbLine
 10
268.6678314008828
 20
224.8673973563511
 30
0.0
 11
265.8237689008828
 21
224.8673973563511
 31
0.0
  0
INSERT
  5
402
330
3FC
100
AcDbEntity
  8
2
 62
     0
370
    -2
100
AcDbBlockReference
  2
_ARROW_FILLED
 10
252.2378314008828
 20
224.8673973563511
 30
0.0
 41
4.57
 42
4.57
 43
4.57
 50
180.0
  0
INSERT
  5
403
330
3FC
100
AcDbEntity
  8
2
 62
     0
370
    -2
100
AcDbBlockReference
  2
_ARROW_FILLED
 10
273.2378314008828
 20
224.8673973563511
 30
0.0
 41
4.57
 42
4.57
 43
4.57
  0
MTEXT
  5
404
330
3FC
100
AcDbEntity
  8
2
 62
     7
100
AcDbMText
 10
262.7378314008828
 20
224.8673973563511
 30
0.0
 40
3.5
 41
0.0
 71
     5
 72
     1
  1
\A1;21
  7
BMG_Text
 73
     1
 44
1.0
  0
POINT
  5
405
330
3FC
100
AcDbEntity
  8
Defpoints
 62
     0
100
AcDbPoint
 10
252.2378314008828
 20
212.8683973563511
 30
0.0
  0
POINT
  5
406
330
3FC
100
AcDbEntity
  8
Defpoints
 62
     0
100
AcDbPoint
 10
273.2378314008828
 20
195.3683973563511
 30
0.0
  0
POINT
  5
407
330
3FC
100
AcDbEntity
  8
Defpoints
 62
     0
100
AcDbPoint
 10
273.2378314008828
 20
224.8673973563511
 30
0.0
  0
ENDBLK
  5
408
330
3FC
100
AcDbEntity
  8
0
100
AcDbBlockEnd
  0
BLOCK
  5
747
330
746
100
AcDbEntity
  8
0
100
AcDbBlockBegin
  2
*D43
 70
     1
 10
0.0
 20
0.0
 30
0.0
  3
*D43
  1

  0
LINE
  5
748
330
746
100
AcDbEntity
  8
SK2
  6
Continuous
 62
     0
370
    -2
100
AcDbLine
 10
0.0
 20
-31.5
 30
0.0
 11
-54.00000000000001
 21
-31.5
 31
0.0
  0
LINE
  5
749
330
746
100
AcDbEntity
  8
SK2
  6
Continuous
 62
     0
370
    -2
100
AcDbLine
 10
0.0
 20
31.5
 30
0.0
 11
-54.0
 21
31.5
 31
0.0
  0
LINE
  5
74A
330
746
100
AcDbEntity
  8
SK2
  6
Continuous
 62
     0
370
    -2
100
AcDbLine
 10
-49.00000000000001
 20
-26.93
 30
0.0
 11
-49.00000000000001
 21
-5.416666666666668
 31
0.0
  0
LINE
  5
74B
330
746
100
AcDbEntity
  8
SK2
  6
Continuous
 62
     0
370
    -2
100
AcDbLine
 10
-49.0
 20
26.93
 30
0.0
 11
-49.0
 21
5.416666666666661
 31
0.0
  0
INSERT
  5
74C
330
746
100
AcDbEntity
  8
SK2
 62
     0
370
    -2
100
AcDbBlockReference
  2
_ARROW_FILLED
 10
-49.00000000000001
 20
-31.5
 30
0.0
 41
4.57
 42
4.57
 43
4.57
 50
270.0
  0
INSERT
  5
74D
330
746
100
AcDbEntity
  8
SK2
 62
     0
370
    -2
100
AcDbBlockReference
  2
_ARROW_FILLED
 10
-49.0
 20
31.5
 30
0.0
 41
4.57
 42
4.57
 43
4.57
 50
90.0
  0
MTEXT
  5
74E
330
746
100
AcDbEntity
  8
SK2
 62
     7
100
AcDbMText
 10
-49.0
 20
0.0000000000000036
 30
0.0
 40
3.5
 41
0.0
 71
     5
 72
     1
  1
\A1;%%c63
  7
BMG_Text
 11
1.127845612317619E-16
 21
1.0
 31
0.0
 73
     1
 44
1.0
  0
POINT
  5
74F
330
746
100
AcDbEntity
  8
Defpoints
 62
     0
100
AcDbPoint
 10
0.0
 20
-31.5
 30
0.0
  0
POINT
  5
750
330
746
100
AcDbEntity
  8
Defpoints
 62
     0
100
AcDbPoint
 10
0.0
 20
31.5
 30
0.0
  0
POINT
  5
915
330
746
100
AcDbEntity
  8
Defpoints
 62
     0
100
AcDbPoint
 10
-49.0
 20
31.5
 30
0.0
  0
ENDBLK
  5
751
330
746
100
AcDbEntity
  8
0
100
AcDbBlockEnd
  0
BLOCK
  5
756
330
755
100
AcDbEntity
  8
0
100
AcDbBlockBegin
  2
*D44
 70
     1
 10
0.0
 20
0.0
 30
0.0
  3
*D44
  1

  0
LINE
  5
757
330
755
100
AcDbEntity
  8
SK2
  6
Continuous
 62
     0
370
    -2
100
AcDbLine
 10
-32.0
 20
21.573501
 30
0.0
 11
-32.0
 21
61.0
 31
0.0
  0
LINE
  5
758
330
755
100
AcDbEntity
  8
SK2
  6
Continuous
 62
     0
370
    -2
100
AcDbLine
 10
0.0
 20
31.5
 30
0.0
 11
0.0
 21
61.0
 31
0.0
  0
LINE
  5
759
330
755
100
AcDbEntity
  8
SK2
  6
Continuous
 62
     0
370
    -2
100
AcDbLine
 10
-27.43
 20
56.0
 30
0.0
 11
-19.83333333333333
 21
56.0
 31
0.0
  0
LINE
  5
75A
330
755
100
AcDbEntity
  8
SK2
  6
Continuous
 62
     0
370
    -2
100
AcDbLine
 10
-4.57
 20
56.0
 30
0.0
 11
-12.16666666666667
 21
56.0
 31
0.0
  0
INSERT
  5
75B
330
755
100
AcDbEntity
  8
SK2
 62
     0
370
    -2
100
AcDbBlockReference
  2
_ARROW_FILLED
 10
-32.0
 20
56.0
 30
0.0
 41
4.57
 42
4.57
 43
4.57
 50
180.0
  0
INSERT
  5
75C
330
755
100
AcDbEntity
  8
SK2
 62
     0
370
    -2
100
AcDbBlockReference
  2
_ARROW_FILLED
 10
0.0
 20
56.0
 30
0.0
 41
4.57
 42
4.57
 43
4.57
  0
MTEXT
  5
75D
330
755
100
AcDbEntity
  8
SK2
 62
     7
100
AcDbMText
 10
-16.0
 20
56.0
 30
0.0
 40
3.5
 41
0.0
 71
     5
 72
     1
  1
\A1;32
  7
BMG_Text
 73
     1
 44
1.0
  0
POINT
  5
75E
330
755
100
AcDbEntity
  8
Defpoints
 62
     0
100
AcDbPoint
 10
-32.0
 20
21.573501
 30
0.0
  0
POINT
  5
75F
330
755
100
AcDbEntity
  8
Defpoints
 62
     0
100
AcDbPoint
 10
0.0
 20
31.5
 30
0.0
  0
POINT
  5
914
330
755
100
AcDbEntity
  8
Defpoints
 62
     0
100
AcDbPoint
 10
0.0
 20
56.0
 30
0.0
  0
ENDBLK
  5
760
330
755
100
AcDbEntity
  8
0
100
AcDbBlockEnd
  0
BLOCK
  5
763
330
762
100
AcDbEntity
  8
0
100
AcDbBlockBegin
  2
*D45
 70
     1
 10
0.0
 20
0.0
 30
0.0
  3
*D45
  1

  0
LINE
  5
764
330
762
100
AcDbEntity
  8
SK2
  6
Continuous
 62
     0
370
    -2
100
AcDbLine
 10
-32.0
 20
21.573501
 30
0.0
 11
-32.0
 21
75.0
 31
0.0
  0
LINE
  5
765
330
762
100
AcDbEntity
  8
SK2
  6
Continuous
 62
     0
370
    -2
100
AcDbLine
 10
90.0
 20
18.0
 30
0.0
 11
90.0
 21
75.0
 31
0.0
  0
LINE
  5
766
330
762
100
AcDbEntity
  8
SK2
  6
Continuous
 62
     0
370
    -2
100
AcDbLine
 10
-27.43
 20
70.0
 30
0.0
 11
23.83333333333334
 21
70.0
 31
0.0
  0
LINE
  5
767
330
762
100
AcDbEntity
  8
SK2
  6
Continuous
 62
     0
370
    -2
100
AcDbLine
 10
85.43
 20
70.0
 30
0.0
 11
34.16666666666667
 21
70.0
 31
0.0
  0
INSERT
  5
768
330
762
100
AcDbEntity
  8
SK2
 62
     0
370
    -2
100
AcDbBlockReference
  2
_ARROW_FILLED
 10
-32.0
 20
70.0
 30
0.0
 41
4.57
 42
4.57
 43
4.57
 50
180.0
  0
INSERT
  5
769
330
762
100
AcDbEntity
  8
SK2
 62
     0
370
    -2
100
AcDbBlockReference
  2
_ARROW_FILLED
 10
90.0
 20
70.0
 30
0.0
 41
4.57
 42
4.57
 43
4.57
  0
MTEXT
  5
76A
330
762
100
AcDbEntity
  8
SK2
 62
     7
100
AcDbMText
 10
29.0
 20
70.0
 30
0.0
 40
3.5
 41
0.0
 71
     5
 72
     1
  1
\A1;122
  7
BMG_Text
 73
     1
 44
1.0
  0
POINT
  5
76B
330
762
100
AcDbEntity
  8
Defpoints
 62
     0
100
AcDbPoint
 10
-32.0
 20
21.573501
 30
0.0
  0
POINT
  5
76C
330
762
100
AcDbEntity
  8
Defpoints
 62
     0
100
AcDbPoint
 10
90.0
 20
18.0
 30
0.0
  0
POINT
  5
913
330
762
100
AcDbEntity
  8
Defpoints
 62
     0
100
AcDbPoint
 10
90.0
 20
70.0
 30
0.0
  0
ENDBLK
  5
77A
330
762
100
AcDbEntity
  8
0
100
AcDbBlockEnd
  0
BLOCK
  5
77D
330
77C
100
AcDbEntity
  8
0
100
AcDbBlockBegin
  2
*D46
 70
     1
 10
0.0
 20
0.0
 30
0.0
  3
*D46
  1

  0
LINE
  5
77E
330
77C
100
AcDbEntity
  8
2
  6
Continuous
 62
     0
370
    -2
100
AcDbLine
 10
90.0
 20
-18.0
 30
0.0
 11
90.0
 21
-54.0
 31
0.0
  0
LINE
  5
77F
330
77C
100
AcDbEntity
  8
2
  6
Continuous
 62
     0
370
    -2
100
AcDbLine
 10
0.0
 20
-31.5
 30
0.0
 11
0.0
 21
-54.0
 31
0.0
  0
LINE
  5
780
330
77C
100
AcDbEntity
  8
2
  6
Continuous
 62
     0
370
    -2
100
AcDbLine
 10
85.43
 20
-49.0
 30
0.0
 11
48.83333333333333
 21
-49.0
 31
0.0
  0
LINE
  5
781
330
77C
100
AcDbEntity
  8
2
  6
Continuous
 62
     0
370
    -2
100
AcDbLine
 10
4.57
 20
-49.0
 30
0.0
 11
41.16666666666666
 21
-49.0
 31
0.0
  0
INSERT
  5
782
330
77C
100
AcDbEntity
  8
2
 62
     0
370
    -2
100
AcDbBlockReference
  2
_ARROW_FILLED
 10
90.0
 20
-49.0
 30
0.0
 41
4.57
 42
4.57
 43
4.57
  0
INSERT
  5
783
330
77C
100
AcDbEntity
  8
2
 62
     0
370
    -2
100
AcDbBlockReference
  2
_ARROW_FILLED
 10
0.0
 20
-49.0
 30
0.0
 41
4.57
 42
4.57
 43
4.57
 50
180.0
  0
MTEXT
  5
784
330
77C
100
AcDbEntity
  8
2
 62
     7
100
AcDbMText
 10
45.0
 20
-49.0
 30
0.0
 40
3.5
 41
0.0
 71
     5
 72
     1
  1
\A1;90
  7
BMG_Text
 73
     1
 44
1.0
  0
POINT
  5
785
330
77C
100
AcDbEntity
  8
Defpoints
 62
     0
100
AcDbPoint
 10
90.0
 20
-18.0
 30
0.0
  0
POINT
  5
786
330
77C
100
AcDbEntity
  8
Defpoints
 62
     0
100
AcDbPoint
 10
0.0
 20
-31.5
 30
0.0
  0
POINT
  5
917
330
77C
100
AcDbEntity
  8
Defpoints
 62
     0
100
AcDbPoint
 10
0.0
 20
-49.0
 30
0.0
  0
ENDBLK
  5
794
330
77C
100
AcDbEntity
  8
0
100
AcDbBlockEnd
  0
BLOCK
  5
7A0
330
79F
100
AcDbEntity
  8
0
100
AcDbBlockBegin
  2
*D47
 70
     1
 10
0.0
 20
0.0
 30
0.0
  3
*D47
  1

  0
LINE
  5
7A1
330
79F
100
AcDbEntity
  8
SK2
  6
Continuous
 62
     0
370
    -2
100
AcDbLine
 10
70.657436
 20
-20.0
 30
0.0
 11
136.5
 21
-20.00000000000001
 31
0.0
  0
LINE
  5
7A2
330
79F
100
AcDbEntity
  8
SK2
  6
Continuous
 62
     0
370
    -2
100
AcDbLine
 10
70.657436
 20
20.0
 30
0.0
 11
136.5
 21
20.0
 31
0.0
  0
LINE
  5
7A3
330
79F
100
AcDbEntity
  8
SK2
  6
Continuous
 62
     0
370
    -2
100
AcDbLine
 10
131.5
 20
-15.43000000000001
 30
0.0
 11
131.5
 21
-5.416666666666657
 31
0.0
  0
LINE
  5
7A4
330
79F
100
AcDbEntity
  8
SK2
  6
Continuous
 62
     0
370
    -2
100
AcDbLine
 10
131.5
 20
15.43
 30
0.0
 11
131.5
 21
5.416666666666661
 31
0.0
  0
INSERT
  5
7A5
330
79F
100
AcDbEntity
  8
SK2
 62
     0
370
    -2
100
AcDbBlockReference
  2
_ARROW_FILLED
 10
131.5
 20
-20.00000000000001
 30
0.0
 41
4.57
 42
4.57
 43
4.57
 50
270.0
  0
INSERT
  5
7A6
330
79F
100
AcDbEntity
  8
SK2
 62
     0
370
    -2
100
AcDbBlockReference
  2
_ARROW_FILLED
 10
131.5
 20
20.0
 30
0.0
 41
4.57
 42
4.57
 43
4.57
 50
90.0
  0
MTEXT
  5
7A7
330
79F
100
AcDbEntity
  8
SK2
 62
     7
100
AcDbMText
 10
131.5
 20
-0.0000000000000071
 30
0.0
 40
3.5
 41
0.0
 71
     5
 72
     1
  1
\A1;%%c40
  7
BMG_Text
 11
0.0
 21
1.0
 31
0.0
 73
     1
 44
1.0
  0
POINT
  5
7A8
330
79F
100
AcDbEntity
  8
Defpoints
 62
     0
100
AcDbPoint
 10
70.657436
 20
-20.0
 30
0.0
  0
POINT
  5
7A9
330
79F
100
AcDbEntity
  8
Defpoints
 62
     0
100
AcDbPoint
 10
70.657436
 20
20.0
 30
0.0
  0
POINT
  5
91A
330
79F
100
AcDbEntity
  8
Defpoints
 62
     0
100
AcDbPoint
 10
131.5
 20
20.0
 30
0.0
  0
ENDBLK
  5
7B7
330
79F
100
AcDbEntity
  8
0
100
AcDbBlockEnd
  0
BLOCK
  5
7BC
330
7BB
100
AcDbEntity
  8
0
100
AcDbBlockBegin
  2
*D48
 70
     1
 10
0.0
 20
0.0
 30
0.0
  3
*D48
  1

  0
LINE
  5
7BD
330
7BB
100
AcDbEntity
  8
2
  6
Continuous
 62
     0
370
    -2
100
AcDbLine
 10
86.0
 20
-9.0
 30
0.0
 11
108.5
 21
-9.000000000000002
 31
0.0
  0
LINE
  5
7BE
330
7BB
100
AcDbEntity
  8
2
  6
Continuous
 62
     0
370
    -2
100
AcDbLine
 10
86.0
 20
9.0
 30
0.0
 11
108.5
 21
8.999999999999998
 31
0.0
  0
LINE
  5
7BF
330
7BB
100
AcDbEntity
  8
2
  6
Continuous
 62
     0
370
    -2
100
AcDbLine
 10
103.5
 20
8.999999999999998
 30
0.0
 11
103.5
 21
13.57
 31
0.0
  0
LINE
  5
7C0
330
7BB
100
AcDbEntity
  8
2
  6
Continuous
 62
     0
370
    -2
100
AcDbLine
 10
103.5
 20
-4.430000000000001
 30
0.0
 11
103.5
 21
4.429999999999998
 31
0.0
  0
INSERT
  5
7C1
330
7BB
100
AcDbEntity
  8
2
 62
     0
370
    -2
100
AcDbBlockReference
  2
_ARROW_FILLED
 10
103.5
 20
-9.000000000000002
 30
0.0
 41
4.57
 42
4.57
 43
4.57
 50
270.0
  0
INSERT
  5
7C2
330
7BB
100
AcDbEntity
  8
2
 62
     0
370
    -2
100
AcDbBlockReference
  2
_ARROW_FILLED
 10
103.5
 20
8.999999999999998
 30
0.0
 41
4.57
 42
4.57
 43
4.57
 50
90.0
  0
MTEXT
  5
7C3
330
7BB
100
AcDbEntity
  8
2
 62
     7
100
AcDbMText
 10
103.5
 20
18.65333333333333
 30
0.0
 40
3.5
 41
0.0
 71
     5
 72
     1
  1
\A1;%%c18
  7
BMG_Text
 11
0.0
 21
1.0
 31
0.0
 73
     1
 44
1.0
  0
POINT
  5
7C4
330
7BB
100
AcDbEntity
  8
Defpoints
 62
     0
100
AcDbPoint
 10
86.0
 20
-9.0
 30
0.0
  0
POINT
  5
7C5
330
7BB
100
AcDbEntity
  8
Defpoints
 62
     0
100
AcDbPoint
 10
86.0
 20
9.0
 30
0.0
  0
POINT
  5
918
330
7BB
100
AcDbEntity
  8
Defpoints
 62
     0
100
AcDbPoint
 10
103.5
 20
8.999999999999998
 30
0.0
  0
ENDBLK
  5
7D3
330
7BB
100
AcDbEntity
  8
0
100
AcDbBlockEnd
  0
BLOCK
  5
7D6
330
7D5
100
AcDbEntity
  8
0
100
AcDbBlockBegin
  2
*D49
 70
     1
 10
0.0
 20
0.0
 30
0.0
  3
*D49
  1

  0
LINE
  5
7D7
330
7D5
100
AcDbEntity
  8
SK2
  6
Continuous
 62
     0
370
    -2
100
AcDbLine
 10
90.0
 20
-18.0
 30
0.0
 11
122.5
 21
-18.0
 31
0.0
  0
LINE
  5
7D8
330
7D5
100
AcDbEntity
  8
SK2
  6
Continuous
 62
     0
370
    -2
100
AcDbLine
 10
90.0
 20
18.0
 30
0.0
 11
122.5
 21
18.0
 31
0.0
  0
LINE
  5
7D9
330
7D5
100
AcDbEntity
  8
SK2
  6
Continuous
 62
     0
370
    -2
100
AcDbLine
 10
117.5
 20
-13.43
 30
0.0
 11
117.5
 21
-5.32552083333333
 31
0.0
  0
LINE
  5
7DA
330
7D5
100
AcDbEntity
  8
SK2
  6
Continuous
 62
     0
370
    -2
100
AcDbLine
 10
117.5
 20
13.43
 30
0.0
 11
117.5
 21
5.325520833333336
 31
0.0
  0
INSERT
  5
7DB
330
7D5
100
AcDbEntity
  8
SK2
 62
     0
370
    -2
100
AcDbBlockReference
  2
_ARROW_FILLED
 10
117.5
 20
-18.0
 30
0.0
 41
4.57
 42
4.57
 43
4.57
 50
270.0
  0
INSERT
  5
7DC
330
7D5
100
AcDbEntity
  8
SK2
 62
     0
370
    -2
100
AcDbBlockReference
  2
_ARROW_FILLED
 10
117.5
 20
18.0
 30
0.0
 41
4.57
 42
4.57
 43
4.57
 50
90.0
  0
MTEXT
  5
7DD
330
7D5
100
AcDbEntity
  8
SK2
 62
     7
100
AcDbMText
 10
117.5
 20
0.0
 30
0.0
 40
3.5
 41
0.0
 71
     5
 72
     1
  1
\A1;%%c36
  7
BMG_Text
 11
0.0
 21
1.0
 31
0.0
 73
     1
 44
1.0
  0
POINT
  5
7DE
330
7D5
100
AcDbEntity
  8
Defpoints
 62
     0
100
AcDbPoint
 10
90.0
 20
-18.0
 30
0.0
  0
POINT
  5
7DF
330
7D5
100
AcDbEntity
  8
Defpoints
 62
     0
100
AcDbPoint
 10
90.0
 20
18.0
 30
0.0
  0
POINT
  5
919
330
7D5
100
AcDbEntity
  8
Defpoints
 62
     0
100
AcDbPoint
 10
117.5
 20
18.0
 30
0.0
  0
ENDBLK
  5
7ED
330
7D5
100
AcDbEntity
  8
0
100
AcDbBlockEnd
  0
BLOCK
  5
815
330
814
100
AcDbEntity
  8
0
100
AcDbBlockBegin
  2
*D50
 70
     1
 10
0.0
 20
0.0
 30
0.0
  3
*D50
  1

  0
LINE
  5
816
330
814
100
AcDbEntity
  8
SK2
  6
Continuous
 62
     0
370
    -2
100
AcDbLine
 10
90.0
 20
18.0
 30
0.0
 11
90.0
 21
47.0
 31
0.0
  0
LINE
  5
817
330
814
100
AcDbEntity
  8
SK2
  6
Continuous
 62
     0
370
    -2
100
AcDbLine
 10
42.5
 20
18.0
 30
0.0
 11
42.5
 21
47.0
 31
0.0
  0
LINE
  5
818
330
814
100
AcDbEntity
  8
SK2
  6
Continuous
 62
     0
370
    -2
100
AcDbLine
 10
85.43
 20
42.0
 30
0.0
 11
72.58333333333333
 21
42.0
 31
0.0
  0
LINE
  5
819
330
814
100
AcDbEntity
  8
SK2
  6
Continuous
 62
     0
370
    -2
100
AcDbLine
 10
47.07
 20
42.0
 30
0.0
 11
59.91666666666667
 21
42.0
 31
0.0
  0
INSERT
  5
81A
330
814
100
AcDbEntity
  8
SK2
 62
     0
370
    -2
100
AcDbBlockReference
  2
_ARROW_FILLED
 10
90.0
 20
42.0
 30
0.0
 41
4.57
 42
4.57
 43
4.57
  0
INSERT
  5
81B
330
814
100
AcDbEntity
  8
SK2
 62
     0
370
    -2
100
AcDbBlockReference
  2
_ARROW_FILLED
 10
42.5
 20
42.0
 30
0.0
 41
4.57
 42
4.57
 43
4.57
 50
180.0
  0
MTEXT
  5
81C
330
814
100
AcDbEntity
  8
SK2
 62
     7
100
AcDbMText
 10
66.25
 20
42.0
 30
0.0
 40
3.5
 41
0.0
 71
     5
 72
     1
  1
\A1;47.5
  7
BMG_Text
 73
     1
 44
1.0
  0
POINT
  5
81D
330
814
100
AcDbEntity
  8
Defpoints
 62
     0
100
AcDbPoint
 10
90.0
 20
18.0
 30
0.0
  0
POINT
  5
81E
330
814
100
AcDbEntity
  8
Defpoints
 62
     0
100
AcDbPoint
 10
42.5
 20
18.0
 30
0.0
  0
POINT
  5
91C
330
814
100
AcDbEntity
  8
Defpoints
 62
     0
100
AcDbPoint
 10
42.5
 20
42.0
 30
0.0
  0
ENDBLK
  5
82C
330
814
100
AcDbEntity
  8
0
100
AcDbBlockEnd
  0
BLOCK
  5
830
330
82F
100
AcDbEntity
  8
0
100
AcDbBlockBegin
  2
*D51
 70
     1
 10
0.0
 20
0.0
 30
0.0
  3
*D51
  1

  0
LINE
  5
831
330
82F
100
AcDbEntity
  8
2
  6
Continuous
 62
     0
370
    -2
100
AcDbLine
 10
90.0
 20
18.0
 30
0.0
 11
90.0
 21
54.0
 31
0.0
  0
LINE
  5
832
330
82F
100
AcDbEntity
  8
2
  6
Continuous
 62
     0
370
    -2
100
AcDbLine
 10
38.0
 20
10.6
 30
0.0
 11
38.0
 21
54.0
 31
0.0
  0
LINE
  5
833
330
82F
100
AcDbEntity
  8
2
  6
Continuous
 62
     0
370
    -2
100
AcDbLine
 10
85.43
 20
49.0
 30
0.0
 11
67.83333333333333
 21
49.0
 31
0.0
  0
LINE
  5
834
330
82F
100
AcDbEntity
  8
2
  6
Continuous
 62
     0
370
    -2
100
AcDbLine
 10
42.57
 20
49.0
 30
0.0
 11
60.16666666666667
 21
49.0
 31
0.0
  0
INSERT
  5
835
330
82F
100
AcDbEntity
  8
2
 62
     0
370
    -2
100
AcDbBlockReference
  2
_ARROW_FILLED
 10
90.0
 20
49.0
 30
0.0
 41
4.57
 42
4.57
 43
4.57
  0
INSERT
  5
836
330
82F
100
AcDbEntity
  8
2
 62
     0
370
    -2
100
AcDbBlockReference
  2
_ARROW_FILLED
 10
38.0
 20
49.0
 30
0.0
 41
4.57
 42
4.57
 43
4.57
 50
180.0
  0
MTEXT
  5
837
330
82F
100
AcDbEntity
  8
2
 62
     7
100
AcDbMText
 10
64.0
 20
49.0
 30
0.0
 40
3.5
 41
0.0
 71
     5
 72
     1
  1
\A1;52
  7
BMG_Text
 73
     1
 44
1.0
  0
POINT
  5
838
330
82F
100
AcDbEntity
  8
Defpoints
 62
     0
100
AcDbPoint
 10
90.0
 20
18.0
 30
0.0
  0
POINT
  5
839
330
82F
100
AcDbEntity
  8
Defpoints
 62
     0
100
AcDbPoint
 10
38.0
 20
10.6
 30
0.0
  0
POINT
  5
91D
330
82F
100
AcDbEntity
  8
Defpoints
 62
     0
100
AcDbPoint
 10
38.0
 20
49.0
 30
0.0
  0
ENDBLK
  5
847
330
82F
100
AcDbEntity
  8
0
100
AcDbBlockEnd
  0
BLOCK
  5
850
330
84F
100
AcDbEntity
  8
0
100
AcDbBlockBegin
  2
*D52
 70
     1
 10
0.0
 20
0.0
 30
0.0
  3
*D52
  1

  0
LINE
  5
851
330
84F
100
AcDbEntity
  8
SK2
  6
Continuous
 62
     0
370
    -2
100
AcDbLine
 10
39.613249
 20
-25.0
 30
0.0
 11
150.5
 21
-25.00000000000001
 31
0.0
  0
LINE
  5
852
330
84F
100
AcDbEntity
  8
SK2
  6
Continuous
 62
     0
370
    -2
100
AcDbLine
 10
39.613249
 20
25.0
 30
0.0
 11
150.5
 21
24.99999999999999
 31
0.0
  0
LINE
  5
853
330
84F
100
AcDbEntity
  8
SK2
  6
Continuous
 62
     0
370
    -2
100
AcDbLine
 10
145.5
 20
-20.43000000000001
 30
0.0
 11
145.5
 21
-5.416666666666657
 31
0.0
  0
LINE
  5
854
330
84F
100
AcDbEntity
  8
SK2
  6
Continuous
 62
     0
370
    -2
100
AcDbLine
 10
145.5
 20
20.42999999999999
 30
0.0
 11
145.5
 21
5.416666666666657
 31
0.0
  0
INSERT
  5
855
330
84F
100
AcDbEntity
  8
SK2
 62
     0
370
    -2
100
AcDbBlockReference
  2
_ARROW_FILLED
 10
145.5
 20
-25.00000000000001
 30
0.0
 41
4.57
 42
4.57
 43
4.57
 50
270.0
  0
INSERT
  5
856
330
84F
100
AcDbEntity
  8
SK2
 62
     0
370
    -2
100
AcDbBlockReference
  2
_ARROW_FILLED
 10
145.5
 20
24.99999999999999
 30
0.0
 41
4.57
 42
4.57
 43
4.57
 50
90.0
  0
MTEXT
  5
857
330
84F
100
AcDbEntity
  8
SK2
 62
     7
100
AcDbMText
 10
145.5
 20
-0.0000000000000071
 30
0.0
 40
3.5
 41
0.0
 71
     5
 72
     1
  1
\A1;%%c50
  7
BMG_Text
 11
0.0
 21
1.0
 31
0.0
 73
     1
 44
1.0
  0
POINT
  5
858
330
84F
100
AcDbEntity
  8
Defpoints
 62
     0
100
AcDbPoint
 10
39.613249
 20
-25.0
 30
0.0
  0
POINT
  5
859
330
84F
100
AcDbEntity
  8
Defpoints
 62
     0
100
AcDbPoint
 10
39.613249
 20
25.0
 30
0.0
  0
POINT
  5
91B
330
84F
100
AcDbEntity
  8
Defpoints
 62
     0
100
AcDbPoint
 10
145.5
 20
24.99999999999999
 30
0.0
  0
ENDBLK
  5
867
330
84F
100
AcDbEntity
  8
0
100
AcDbBlockEnd
  0
BLOCK
  5
86C
330
86B
100
AcDbEntity
  8
0
100
AcDbBlockBegin
  2
*D53
 70
     1
 10
0.0
 20
0.0
 30
0.0
  3
*D53
  1

  0
LINE
  5
86D
330
86B
100
AcDbEntity
  8
SK2
  6
Continuous
 62
     0
370
    -2
100
AcDbLine
 10
90.0
 20
18.0
 30
0.0
 11
90.0
 21
61.0
 31
0.0
  0
LINE
  5
86E
330
86B
100
AcDbEntity
  8
SK2
  6
Continuous
 62
     0
370
    -2
100
AcDbLine
 10
26.0
 20
31.5
 30
0.0
 11
26.0
 21
61.0
 31
0.0
  0
LINE
  5
86F
330
86B
100
AcDbEntity
  8
SK2
  6
Continuous
 62
     0
370
    -2
100
AcDbLine
 10
85.43
 20
56.0
 30
0.0
 11
61.92447916666666
 21
56.0
 31
0.0
  0
LINE
  5
870
330
86B
100
AcDbEntity
  8
SK2
  6
Continuous
 62
     0
370
    -2
100
AcDbLine
 10
30.57
 20
56.0
 30
0.0
 11
54.07552083333334
 21
56.0
 31
0.0
  0
INSERT
  5
871
330
86B
100
AcDbEntity
  8
SK2
 62
     0
370
    -2
100
AcDbBlockReference
  2
_ARROW_FILLED
 10
90.0
 20
56.0
 30
0.0
 41
4.57
 42
4.57
 43
4.57
  0
INSERT
  5
872
330
86B
100
AcDbEntity
  8
SK2
 62
     0
370
    -2
100
AcDbBlockReference
  2
_ARROW_FILLED
 10
26.0
 20
56.0
 30
0.0
 41
4.57
 42
4.57
 43
4.57
 50
180.0
  0
MTEXT
  5
873
330
86B
100
AcDbEntity
  8
SK2
 62
     7
100
AcDbMText
 10
58.0
 20
56.0
 30
0.0
 40
3.5
 41
0.0
 71
     5
 72
     1
  1
\A1;64
  7
BMG_Text
 73
     1
 44
1.0
  0
POINT
  5
874
330
86B
100
AcDbEntity
  8
Defpoints
 62
     0
100
AcDbPoint
 10
90.0
 20
18.0
 30
0.0
  0
POINT
  5
875
330
86B
100
AcDbEntity
  8
Defpoints
 62
     0
100
AcDbPoint
 10
26.0
 20
31.5
 30
0.0
  0
POINT
  5
916
330
86B
100
AcDbEntity
  8
Defpoints
 62
     0
100
AcDbPoint
 10
26.0
 20
56.0
 30
0.0
  0
ENDBLK
  5
883
330
86B
100
AcDbEntity
  8
0
100
AcDbBlockEnd
  0
BLOCK
  5
9E6
330
9E5
100
AcDbEntity
  8
0
100
AcDbBlockBegin
  2
*D56
 70
     1
 10
0.0
 20
0.0
 30
0.0
  3
*D56
  1

  0
LINE
  5
9E7
330
9E5
100
AcDbEntity
  8
SK2
  6
Continuous
 62
     0
370
    -2
100
AcDbLine
 10
-8.737820447396466
 20
163.0903393064264
 30
0.0
 11
-62.73782044739647
 21
163.0903393064264
 31
0.0
  0
LINE
  5
9E8
330
9E5
100
AcDbEntity
  8
SK2
  6
Continuous
 62
     0
370
    -2
100
AcDbLine
 10
-8.737820447396466
 20
226.0903393064264
 30
0.0
 11
-62.73782044739647
 21
226.0903393064264
 31
0.0
  0
LINE
  5
9E9
330
9E5
100
AcDbEntity
  8
SK2
  6
Continuous
 62
     0
370
    -2
100
AcDbLine
 10
-57.73782044739647
 20
167.6603393064264
 30
0.0
 11
-57.73782044739647
 21
189.1736726397598
 31
0.0
  0
LINE
  5
9EA
330
9E5
100
AcDbEntity
  8
SK2
  6
Continuous
 62
     0
370
    -2
100
AcDbLine
 10
-57.73782044739647
 20
221.5203393064264
 30
0.0
 11
-57.73782044739647
 21
200.0070059730931
 31
0.0
  0
INSERT
  5
9EB
330
9E5
100
AcDbEntity
  8
SK2
 62
     0
370
    -2
100
AcDbBlockReference
  2
_ARROW_FILLED
 10
-57.73782044739647
 20
163.0903393064264
 30
0.0
 41
4.57
 42
4.57
 43
4.57
 50
270.0
  0
INSERT
  5
9EC
330
9E5
100
AcDbEntity
  8
SK2
 62
     0
370
    -2
100
AcDbBlockReference
  2
_ARROW_FILLED
 10
-57.73782044739647
 20
226.0903393064264
 30
0.0
 41
4.57
 42
4.57
 43
4.57
 50
90.0
  0
MTEXT
  5
9ED
330
9E5
100
AcDbEntity
  8
SK2
 62
     7
100
AcDbMText
 10
-57.73782044739647
 20
194.5903393064264
 30
0.0
 40
3.5
 41
0.0
 71
     5
 72
     1
  1
\A1;%%c63
  7
BMG_Text
 11
1.127845612317619E-16
 21
1.0
 31
0.0
 73
     1
 44
1.0
  0
POINT
  5
9EE
330
9E5
100
AcDbEntity
  8
Defpoints
 62
     0
100
AcDbPoint
 10
-8.737820447396466
 20
163.0903393064264
 30
0.0
  0
POINT
  5
9EF
330
9E5
100
AcDbEntity
  8
Defpoints
 62
     0
100
AcDbPoint
 10
-8.737820447396466
 20
226.0903393064264
 30
0.0
  0
POINT
  5
9F0
330
9E5
100
AcDbEntity
  8
Defpoints
 62
     0
100
AcDbPoint
 10
-57.73782044739647
 20
226.0903393064264
 30
0.0
  0
ENDBLK
  5
9F1
330
9E5
100
AcDbEntity
  8
0
100
AcDbBlockEnd
  0
BLOCK
  5
9F6
330
9F5
100
AcDbEntity
  8
0
100
AcDbBlockBegin
  2
*D57
 70
     1
 10
0.0
 20
0.0
 30
0.0
  3
*D57
  1

  0
LINE
  5
9F7
330
9F5
100
AcDbEntity
  8
SK2
  6
Continuous
 62
     0
370
    -2
100
AcDbLine
 10
-40.73782044739647
 20
216.1638403064264
 30
0.0
 11
-40.73782044739647
 21
255.5903393064264
 31
0.0
  0
LINE
  5
9F8
330
9F5
100
AcDbEntity
  8
SK2
  6
Continuous
 62
     0
370
    -2
100
AcDbLine
 10
-8.737820447396466
 20
226.0903393064264
 30
0.0
 11
-8.737820447396466
 21
255.5903393064264
 31
0.0
  0
LINE
  5
9F9
330
9F5
100
AcDbEntity
  8
SK2
  6
Continuous
 62
     0
370
    -2
100
AcDbLine
 10
-36.16782044739647
 20
250.5903393064264
 30
0.0
 11
-28.5711537807298
 21
250.5903393064264
 31
0.0
  0
LINE
  5
9FA
330
9F5
100
AcDbEntity
  8
SK2
  6
Continuous
 62
     0
370
    -2
100
AcDbLine
 10
-13.30782044739647
 20
250.5903393064264
 30
0.0
 11
-20.90448711406313
 21
250.5903393064264
 31
0.0
  0
INSERT
  5
9FB
330
9F5
100
AcDbEntity
  8
SK2
 62
     0
370
    -2
100
AcDbBlockReference
  2
_ARROW_FILLED
 10
-40.73782044739647
 20
250.5903393064264
 30
0.0
 41
4.57
 42
4.57
 43
4.57
 50
180.0
  0
INSERT
  5
9FC
330
9F5
100
AcDbEntity
  8
SK2
 62
     0
370
    -2
100
AcDbBlockReference
  2
_ARROW_FILLED
 10
-8.737820447396466
 20
250.5903393064264
 30
0.0
 41
4.57
 42
4.57
 43
4.57
  0
MTEXT
  5
9FD
330
9F5
100
AcDbEntity
  8
SK2
 62
     7
100
AcDbMText
 10
-24.73782044739647
 20
250.5903393064264
 30
0.0
 40
3.5
 41
0.0
 71
     5
 72
     1
  1
\A1;32
  7
BMG_Text
 73
     1
 44
1.0
  0
POINT
  5
9FE
330
9F5
100
AcDbEntity
  8
Defpoints
 62
     0
100
AcDbPoint
 10
-40.73782044739647
 20
216.1638403064264
 30
0.0
  0
POINT
  5
9FF
330
9F5
100
AcDbEntity
  8
Defpoints
 62
     0
100
AcDbPoint
 10
-8.737820447396466
 20
226.0903393064264
 30
0.0
  0
POINT
  5
A00
330
9F5
100
AcDbEntity
  8
Defpoints
 62
     0
100
AcDbPoint
 10
-8.737820447396466
 20
250.5903393064264
 30
0.0
  0
ENDBLK
  5
A01
330
9F5
100
AcDbEntity
  8
0
100
AcDbBlockEnd
  0
BLOCK
  5
A04
330
A03
100
AcDbEntity
  8
0
100
AcDbBlockBegin
  2
*D58
 70
     1
 10
0.0
 20
0.0
 30
0.0
  3
*D58
  1

  0
LINE
  5
A05
330
A03
100
AcDbEntity
  8
SK2
  6
Continuous
 62
     0
370
    -2
100
AcDbLine
 10
-40.73782044739647
 20
216.1638403064264
 30
0.0
 11
-40.73782044739647
 21
269.5903393064264
 31
0.0
  0
LINE
  5
A06
330
A03
100
AcDbEntity
  8
SK2
  6
Continuous
 62
     0
370
    -2
100
AcDbLine
 10
81.26217955260353
 20
212.5903393064264
 30
0.0
 11
81.26217955260353
 21
269.5903393064264
 31
0.0
  0
LINE
  5
A07
330
A03
100
AcDbEntity
  8
SK2
  6
Continuous
 62
     0
370
    -2
100
AcDbLine
 10
-36.16782044739647
 20
264.5903393064264
 30
0.0
 11
15.09551288593686
 21
264.5903393064264
 31
0.0
  0
LINE
  5
A08
330
A03
100
AcDbEntity
  8
SK2
  6
Continuous
 62
     0
370
    -2
100
AcDbLine
 10
76.69217955260353
 20
264.5903393064264
 30
0.0
 11
25.4288462192702
 21
264.5903393064264
 31
0.0
  0
INSERT
  5
A09
330
A03
100
AcDbEntity
  8
SK2
 62
     0
370
    -2
100
AcDbBlockReference
  2
_ARROW_FILLED
 10
-40.73782044739647
 20
264.5903393064264
 30
0.0
 41
4.57
 42
4.57
 43
4.57
 50
180.0
  0
INSERT
  5
A0A
330
A03
100
AcDbEntity
  8
SK2
 62
     0
370
    -2
100
AcDbBlockReference
  2
_ARROW_FILLED
 10
81.26217955260353
 20
264.5903393064264
 30
0.0
 41
4.57
 42
4.57
 43
4.57
  0
MTEXT
  5
A0B
330
A03
100
AcDbEntity
  8
SK2
 62
     7
100
AcDbMText
 10
20.26217955260353
 20
264.5903393064264
 30
0.0
 40
3.5
 41
0.0
 71
     5
 72
     1
  1
\A1;122
  7
BMG_Text
 73
     1
 44
1.0
  0
POINT
  5
A0C
330
A03
100
AcDbEntity
  8
Defpoints
 62
     0
100
AcDbPoint
 10
-40.73782044739647
 20
216.1638403064264
 30
0.0
  0
POINT
  5
A0D
330
A03
100
AcDbEntity
  8
Defpoints
 62
     0
100
AcDbPoint
 10
81.26217955260353
 20
212.5903393064264
 30
0.0
  0
POINT
  5
A0E
330
A03
100
AcDbEntity
  8
Defpoints
 62
     0
100
AcDbPoint
 10
81.26217955260353
 20
264.5903393064264
 30
0.0
  0
ENDBLK
  5
A0F
330
A03
100
AcDbEntity
  8
0
100
AcDbBlockEnd
  0
BLOCK
  5
A12
330
A11
100
AcDbEntity
  8
0
100
AcDbBlockBegin
  2
*D59
 70
     1
 10
0.0
 20
0.0
 30
0.0
  3
*D59
  1

  0
LINE
  5
A13
330
A11
100
AcDbEntity
  8
2
  6
Continuous
 62
     0
370
    -2
100
AcDbLine
 10
81.26217955260353
 20
176.5903393064264
 30
0.0
 11
81.26217955260353
 21
140.5903393064264
 31
0.0
  0
LINE
  5
A14
330
A11
100
AcDbEntity
  8
2
  6
Continuous
 62
     0
370
    -2
100
AcDbLine
 10
-8.737820447396466
 20
163.0903393064264
 30
0.0
 11
-8.737820447396466
 21
140.5903393064264
 31
0.0
  0
LINE
  5
A15
330
A11
100
AcDbEntity
  8
2
  6
Continuous
 62
     0
370
    -2
100
AcDbLine
 10
76.69217955260353
 20
145.5903393064264
 30
0.0
 11
40.09551288593686
 21
145.5903393064264
 31
0.0
  0
LINE
  5
A16
330
A11
100
AcDbEntity
  8
2
  6
Continuous
 62
     0
370
    -2
100
AcDbLine
 10
-4.167820447396466
 20
145.5903393064264
 30
0.0
 11
32.42884621927019
 21
145.5903393064264
 31
0.0
  0
INSERT
  5
A17
330
A11
100
AcDbEntity
  8
2
 62
     0
370
    -2
100
AcDbBlockReference
  2
_ARROW_FILLED
 10
81.26217955260353
 20
145.5903393064264
 30
0.0
 41
4.57
 42
4.57
 43
4.57
  0
INSERT
  5
A18
330
A11
100
AcDbEntity
  8
2
 62
     0
370
    -2
100
AcDbBlockReference
  2
_ARROW_FILLED
 10
-8.737820447396466
 20
145.5903393064264
 30
0.0
 41
4.57
 42
4.57
 43
4.57
 50
180.0
  0
MTEXT
  5
A19
330
A11
100
AcDbEntity
  8
2
 62
     7
100
AcDbMText
 10
36.26217955260353
 20
145.5903393064264
 30
0.0
 40
3.5
 41
0.0
 71
     5
 72
     1
  1
\A1;90
  7
BMG_Text
 73
     1
 44
1.0
  0
POINT
  5
A1A
330
A11
100
AcDbEntity
  8
Defpoints
 62
     0
100
AcDbPoint
 10
81.26217955260353
 20
176.5903393064264
 30
0.0
  0
POINT
  5
A1B
330
A11
100
AcDbEntity
  8
Defpoints
 62
     0
100
AcDbPoint
 10
-8.737820447396466
 20
163.0903393064264
 30
0.0
  0
POINT
  5
A1C
330
A11
100
AcDbEntity
  8
Defpoints
 62
     0
100
AcDbPoint
 10
-8.737820447396466
 20
145.5903393064264
 30
0.0
  0
ENDBLK
  5
A1D
330
A11
100
AcDbEntity
  8
0
100
AcDbBlockEnd
  0
BLOCK
  5
A28
330
A27
100
AcDbEntity
  8
0
100
AcDbBlockBegin
  2
*D60
 70
     1
 10
0.0
 20
0.0
 30
0.0
  3
*D60
  1

  0
LINE
  5
A29
330
A27
100
AcDbEntity
  8
SK2
  6
Continuous
 62
     0
370
    -2
100
AcDbLine
 10
61.91961555260355
 20
174.5903393064264
 30
0.0
 11
127.7621795526035
 21
174.5903393064264
 31
0.0
  0
LINE
  5
A2A
330
A27
100
AcDbEntity
  8
SK2
  6
Continuous
 62
     0
370
    -2
100
AcDbLine
 10
61.91961555260355
 20
214.5903393064264
 30
0.0
 11
127.7621795526035
 21
214.5903393064264
 31
0.0
  0
LINE
  5
A2B
330
A27
100
AcDbEntity
  8
SK2
  6
Continuous
 62
     0
370
    -2
100
AcDbLine
 10
122.7621795526035
 20
179.1603393064264
 30
0.0
 11
122.7621795526035
 21
189.1736726397597
 31
0.0
  0
LINE
  5
A2C
330
A27
100
AcDbEntity
  8
SK2
  6
Continuous
 62
     0
370
    -2
100
AcDbLine
 10
122.7621795526035
 20
210.0203393064264
 30
0.0
 11
122.7621795526035
 21
200.0070059730931
 31
0.0
  0
INSERT
  5
A2D
330
A27
100
AcDbEntity
  8
SK2
 62
     0
370
    -2
100
AcDbBlockReference
  2
_ARROW_FILLED
 10
122.7621795526035
 20
174.5903393064264
 30
0.0
 41
4.57
 42
4.57
 43
4.57
 50
270.0
  0
INSERT
  5
A2E
330
A27
100
AcDbEntity
  8
SK2
 62
     0
370
    -2
100
AcDbBlockReference
  2
_ARROW_FILLED
 10
122.7621795526035
 20
214.5903393064264
 30
0.0
 41
4.57
 42
4.57
 43
4.57
 50
90.0
  0
MTEXT
  5
A2F
330
A27
100
AcDbEntity
  8
SK2
 62
     7
100
AcDbMText
 10
122.7621795526035
 20
194.5903393064264
 30
0.0
 40
3.5
 41
0.0
 71
     5
 72
     1
  1
\A1;%%c40
  7
BMG_Text
 11
0.0
 21
1.0
 31
0.0
 73
     1
 44
1.0
  0
POINT
  5
A30
330
A27
100
AcDbEntity
  8
Defpoints
 62
     0
100
AcDbPoint
 10
61.91961555260355
 20
174.5903393064264
 30
0.0
  0
POINT
  5
A31
330
A27
100
AcDbEntity
  8
Defpoints
 62
     0
100
AcDbPoint
 10
61.91961555260355
 20
214.5903393064264
 30
0.0
  0
POINT
  5
A32
330
A27
100
AcDbEntity
  8
Defpoints
 62
     0
100
AcDbPoint
 10
122.7621795526035
 20
214.5903393064264
 30
0.0
  0
ENDBLK
  5
A33
330
A27
100
AcDbEntity
  8
0
100
AcDbBlockEnd
  0
BLOCK
  5
A38
330
A37
100
AcDbEntity
  8
0
100
AcDbBlockBegin
  2
*D61
 70
     1
 10
0.0
 20
0.0
 30
0.0
  3
*D61
  1

  0
LINE
  5
A39
330
A37
100
AcDbEntity
  8
2
  6
Continuous
 62
     0
370
    -2
100
AcDbLine
 10
77.26217955260353
 20
185.5903393064264
 30
0.0
 11
99.76217955260353
 21
185.5903393064264
 31
0.0
  0
LINE
  5
A3A
330
A37
100
AcDbEntity
  8
2
  6
Continuous
 62
     0
370
    -2
100
AcDbLine
 10
77.26217955260353
 20
203.5903393064264
 30
0.0
 11
99.76217955260353
 21
203.5903393064264
 31
0.0
  0
LINE
  5
A3B
330
A37
100
AcDbEntity
  8
2
  6
Continuous
 62
     0
370
    -2
100
AcDbLine
 10
94.76217955260353
 20
203.5903393064264
 30
0.0
 11
94.76217955260353
 21
208.1603393064264
 31
0.0
  0
LINE
  5
A3C
330
A37
100
AcDbEntity
  8
2
  6
Continuous
 62
     0
370
    -2
100
AcDbLine
 10
94.76217955260353
 20
190.1603393064264
 30
0.0
 11
94.76217955260353
 21
199.0203393064264
 31
0.0
  0
INSERT
  5
A3D
330
A37
100
AcDbEntity
  8
2
 62
     0
370
    -2
100
AcDbBlockReference
  2
_ARROW_FILLED
 10
94.76217955260353
 20
185.5903393064264
 30
0.0
 41
4.57
 42
4.57
 43
4.57
 50
270.0
  0
INSERT
  5
A3E
330
A37
100
AcDbEntity
  8
2
 62
     0
370
    -2
100
AcDbBlockReference
  2
_ARROW_FILLED
 10
94.76217955260353
 20
203.5903393064264
 30
0.0
 41
4.57
 42
4.57
 43
4.57
 50
90.0
  0
MTEXT
  5
A3F
330
A37
100
AcDbEntity
  8
2
 62
     7
100
AcDbMText
 10
94.76217955260353
 20
213.2436726397598
 30
0.0
 40
3.5
 41
0.0
 71
     5
 72
     1
  1
\A1;%%c18
  7
BMG_Text
 11
0.0
 21
1.0
 31
0.0
 73
     1
 44
1.0
  0
POINT
  5
A40
330
A37
100
AcDbEntity
  8
Defpoints
 62
     0
100
AcDbPoint
 10
77.26217955260353
 20
185.5903393064264
 30
0.0
  0
POINT
  5
A41
330
A37
100
AcDbEntity
  8
Defpoints
 62
     0
100
AcDbPoint
 10
77.26217955260353
 20
203.5903393064264
 30
0.0
  0
POINT
  5
A42
330
A37
100
AcDbEntity
  8
Defpoints
 62
     0
100
AcDbPoint
 10
94.76217955260353
 20
203.5903393064264
 30
0.0
  0
ENDBLK
  5
A43
330
A37
100
AcDbEntity
  8
0
100
AcDbBlockEnd
  0
BLOCK
  5
A46
330
A45
100
AcDbEntity
  8
0
100
AcDbBlockBegin
  2
*D62
 70
     1
 10
0.0
 20
0.0
 30
0.0
  3
*D62
  1

  0
LINE
  5
A47
330
A45
100
AcDbEntity
  8
SK2
  6
Continuous
 62
     0
370
    -2
100
AcDbLine
 10
81.26217955260353
 20
176.5903393064264
 30
0.0
 11
113.7621795526035
 21
176.5903393064264
 31
0.0
  0
LINE
  5
A48
330
A45
100
AcDbEntity
  8
SK2
  6
Continuous
 62
     0
370
    -2
100
AcDbLine
 10
81.26217955260353
 20
212.5903393064264
 30
0.0
 11
113.7621795526035
 21
212.5903393064264
 31
0.0
  0
LINE
  5
A49
330
A45
100
AcDbEntity
  8
SK2
  6
Continuous
 62
     0
370
    -2
100
AcDbLine
 10
108.7621795526035
 20
181.1603393064264
 30
0.0
 11
108.7621795526035
 21
189.2648184730931
 31
0.0
  0
LINE
  5
A4A
330
A45
100
AcDbEntity
  8
SK2
  6
Continuous
 62
     0
370
    -2
100
AcDbLine
 10
108.7621795526035
 20
208.0203393064264
 30
0.0
 11
108.7621795526035
 21
199.9158601397597
 31
0.0
  0
INSERT
  5
A4B
330
A45
100
AcDbEntity
  8
SK2
 62
     0
370
    -2
100
AcDbBlockReference
  2
_ARROW_FILLED
 10
108.7621795526035
 20
176.5903393064264
 30
0.0
 41
4.57
 42
4.57
 43
4.57
 50
270.0
  0
INSERT
  5
A4C
330
A45
100
AcDbEntity
  8
SK2
 62
     0
370
    -2
100
AcDbBlockReference
  2
_ARROW_FILLED
 10
108.7621795526035
 20
212.5903393064264
 30
0.0
 41
4.57
 42
4.57
 43
4.57
 50
90.0
  0
MTEXT
  5
A4D
330
A45
100
AcDbEntity
  8
SK2
 62
     7
100
AcDbMText
 10
108.7621795526035
 20
194.5903393064264
 30
0.0
 40
3.5
 41
0.0
 71
     5
 72
     1
  1
\A1;%%c36
  7
BMG_Text
 11
0.0
 21
1.0
 31
0.0
 73
     1
 44
1.0
  0
POINT
  5
A4E
330
A45
100
AcDbEntity
  8
Defpoints
 62
     0
100
AcDbPoint
 10
81.26217955260353
 20
176.5903393064264
 30
0.0
  0
POINT
  5
A4F
330
A45
100
AcDbEntity
  8
Defpoints
 62
     0
100
AcDbPoint
 10
81.26217955260353
 20
212.5903393064264
 30
0.0
  0
POINT
  5
A50
330
A45
100
AcDbEntity
  8
Defpoints
 62
     0
100
AcDbPoint
 10
108.7621795526035
 20
212.5903393064264
 30
0.0
  0
ENDBLK
  5
A51
330
A45
100
AcDbEntity
  8
0
100
AcDbBlockEnd
  0
BLOCK
  5
A79
330
A78
100
AcDbEntity
  8
0
100
AcDbBlockBegin
  2
*D63
 70
     1
 10
0.0
 20
0.0
 30
0.0
  3
*D63
  1

  0
LINE
  5
A7A
330
A78
100
AcDbEntity
  8
SK2
  6
Continuous
 62
     0
370
    -2
100
AcDbLine
 10
81.26217955260353
 20
212.5903393064264
 30
0.0
 11
81.26217955260353
 21
241.5903393064264
 31
0.0
  0
LINE
  5
A7B
330
A78
100
AcDbEntity
  8
SK2
  6
Continuous
 62
     0
370
    -2
100
AcDbLine
 10
33.76217955260353
 20
212.5903393064264
 30
0.0
 11
33.76217955260353
 21
241.5903393064264
 31
0.0
  0
LINE
  5
A7C
330
A78
100
AcDbEntity
  8
SK2
  6
Continuous
 62
     0
370
    -2
100
AcDbLine
 10
76.69217955260353
 20
236.5903393064264
 30
0.0
 11
63.84551288593686
 21
236.5903393064264
 31
0.0
  0
LINE
  5
A7D
330
A78
100
AcDbEntity
  8
SK2
  6
Continuous
 62
     0
370
    -2
100
AcDbLine
 10
38.33217955260353
 20
236.5903393064264
 30
0.0
 11
51.17884621927019
 21
236.5903393064264
 31
0.0
  0
INSERT
  5
A7E
330
A78
100
AcDbEntity
  8
SK2
 62
     0
370
    -2
100
AcDbBlockReference
  2
_ARROW_FILLED
 10
81.26217955260353
 20
236.5903393064264
 30
0.0
 41
4.57
 42
4.57
 43
4.57
  0
INSERT
  5
A7F
330
A78
100
AcDbEntity
  8
SK2
 62
     0
370
    -2
100
AcDbBlockReference
  2
_ARROW_FILLED
 10
33.76217955260353
 20
236.5903393064264
 30
0.0
 41
4.57
 42
4.57
 43
4.57
 50
180.0
  0
MTEXT
  5
A80
330
A78
100
AcDbEntity
  8
SK2
 62
     7
100
AcDbMText
 10
57.51217955260353
 20
236.5903393064264
 30
0.0
 40
3.5
 41
0.0
 71
     5
 72
     1
  1
\A1;47.5
  7
BMG_Text
 73
     1
 44
1.0
  0
POINT
  5
A81
330
A78
100
AcDbEntity
  8
Defpoints
 62
     0
100
AcDbPoint
 10
81.26217955260353
 20
212.5903393064264
 30
0.0
  0
POINT
  5
A82
330
A78
100
AcDbEntity
  8
Defpoints
 62
     0
100
AcDbPoint
 10
33.76217955260353
 20
212.5903393064264
 30
0.0
  0
POINT
  5
A83
330
A78
100
AcDbEntity
  8
Defpoints
 62
     0
100
AcDbPoint
 10
33.76217955260353
 20
236.5903393064264
 30
0.0
  0
ENDBLK
  5
A84
330
A78
100
AcDbEntity
  8
0
100
AcDbBlockEnd
  0
BLOCK
  5
A88
330
A87
100
AcDbEntity
  8
0
100
AcDbBlockBegin
  2
*D64
 70
     1
 10
0.0
 20
0.0
 30
0.0
  3
*D64
  1

  0
LINE
  5
A89
330
A87
100
AcDbEntity
  8
2
  6
Continuous
 62
     0
370
    -2
100
AcDbLine
 10
81.26217955260353
 20
212.5903393064264
 30
0.0
 11
81.26217955260353
 21
248.5903393064264
 31
0.0
  0
LINE
  5
A8A
330
A87
100
AcDbEntity
  8
2
  6
Continuous
 62
     0
370
    -2
100
AcDbLine
 10
29.26217955260353
 20
205.1903393064264
 30
0.0
 11
29.26217955260353
 21
248.5903393064264
 31
0.0
  0
LINE
  5
A8B
330
A87
100
AcDbEntity
  8
2
  6
Continuous
 62
     0
370
    -2
100
AcDbLine
 10
76.69217955260353
 20
243.5903393064264
 30
0.0
 11
59.09551288593686
 21
243.5903393064264
 31
0.0
  0
LINE
  5
A8C
330
A87
100
AcDbEntity
  8
2
  6
Continuous
 62
     0
370
    -2
100
AcDbLine
 10
33.83217955260353
 20
243.5903393064264
 30
0.0
 11
51.42884621927019
 21
243.5903393064264
 31
0.0
  0
INSERT
  5
A8D
330
A87
100
AcDbEntity
  8
2
 62
     0
370
    -2
100
AcDbBlockReference
  2
_ARROW_FILLED
 10
81.26217955260353
 20
243.5903393064264
 30
0.0
 41
4.57
 42
4.57
 43
4.57
  0
INSERT
  5
A8E
330
A87
100
AcDbEntity
  8
2
 62
     0
370
    -2
100
AcDbBlockReference
  2
_ARROW_FILLED
 10
29.26217955260353
 20
243.5903393064264
 30
0.0
 41
4.57
 42
4.57
 43
4.57
 50
180.0
  0
MTEXT
  5
A8F
330
A87
100
AcDbEntity
  8
2
 62
     7
100
AcDbMText
 10
55.26217955260353
 20
243.5903393064264
 30
0.0
 40
3.5
 41
0.0
 71
     5
 72
     1
  1
\A1;52
  7
BMG_Text
 73
     1
 44
1.0
  0
POINT
  5
A90
330
A87
100
AcDbEntity
  8
Defpoints
 62
     0
100
AcDbPoint
 10
81.26217955260353
 20
212.5903393064264
 30
0.0
  0
POINT
  5
A91
330
A87
100
AcDbEntity
  8
Defpoints
 62
     0
100
AcDbPoint
 10
29.26217955260353
 20
205.1903393064264
 30
0.0
  0
POINT
  5
A92
330
A87
100
AcDbEntity
  8
Defpoints
 62
     0
100
AcDbPoint
 10
29.26217955260353
 20
243.5903393064264
 30
0.0
  0
ENDBLK
  5
A93
330
A87
100
AcDbEntity
  8
0
100
AcDbBlockEnd
  0
BLOCK
  5
A9C
330
A9B
100
AcDbEntity
  8
0
100
AcDbBlockBegin
  2
*D65
 70
     1
 10
0.0
 20
0.0
 30
0.0
  3
*D65
  1

  0
LINE
  5
A9D
330
A9B
100
AcDbEntity
  8
SK2
  6
Continuous
 62
     0
370
    -2
100
AcDbLine
 10
30.87542855260354
 20
169.5903393064264
 30
0.0
 11
141.7621795526035
 21
169.5903393064264
 31
0.0
  0
LINE
  5
A9E
330
A9B
100
AcDbEntity
  8
SK2
  6
Continuous
 62
     0
370
    -2
100
AcDbLine
 10
30.87542855260354
 20
219.5903393064264
 30
0.0
 11
141.7621795526035
 21
219.5903393064264
 31
0.0
  0
LINE
  5
A9F
330
A9B
100
AcDbEntity
  8
SK2
  6
Continuous
 62
     0
370
    -2
100
AcDbLine
 10
136.7621795526035
 20
174.1603393064264
 30
0.0
 11
136.7621795526035
 21
189.1736726397597
 31
0.0
  0
LINE
  5
AA0
330
A9B
100
AcDbEntity
  8
SK2
  6
Continuous
 62
     0
370
    -2
100
AcDbLine
 10
136.7621795526035
 20
215.0203393064264
 30
0.0
 11
136.7621795526035
 21
200.007005973093
 31
0.0
  0
INSERT
  5
AA1
330
A9B
100
AcDbEntity
  8
SK2
 62
     0
370
    -2
100
AcDbBlockReference
  2
_ARROW_FILLED
 10
136.7621795526035
 20
169.5903393064264
 30
0.0
 41
4.57
 42
4.57
 43
4.57
 50
270.0
  0
INSERT
  5
AA2
330
A9B
100
AcDbEntity
  8
SK2
 62
     0
370
    -2
100
AcDbBlockReference
  2
_ARROW_FILLED
 10
136.7621795526035
 20
219.5903393064264
 30
0.0
 41
4.57
 42
4.57
 43
4.57
 50
90.0
  0
MTEXT
  5
AA3
330
A9B
100
AcDbEntity
  8
SK2
 62
     7
100
AcDbMText
 10
136.7621795526035
 20
194.5903393064264
 30
0.0
 40
3.5
 41
0.0
 71
     5
 72
     1
  1
\A1;%%c50
  7
BMG_Text
 11
0.0
 21
1.0
 31
0.0
 73
     1
 44
1.0
  0
POINT
  5
AA4
330
A9B
100
AcDbEntity
  8
Defpoints
 62
     0
100
AcDbPoint
 10
30.87542855260354
 20
169.5903393064264
 30
0.0
  0
POINT
  5
AA5
330
A9B
100
AcDbEntity
  8
Defpoints
 62
     0
100
AcDbPoint
 10
30.87542855260354
 20
219.5903393064264
 30
0.0
  0
POINT
  5
AA6
330
A9B
100
AcDbEntity
  8
Defpoints
 62
     0
100
AcDbPoint
 10
136.7621795526035
 20
219.5903393064264
 30
0.0
  0
ENDBLK
  5
AA7
330
A9B
100
AcDbEntity
  8
0
100
AcDbBlockEnd
  0
BLOCK
  5
AAC
330
AAB
100
AcDbEntity
  8
0
100
AcDbBlockBegin
  2
*D66
 70
     1
 10
0.0
 20
0.0
 30
0.0
  3
*D66
  1

  0
LINE
  5
AAD
330
AAB
100
AcDbEntity
  8
SK2
  6
Continuous
 62
     0
370
    -2
100
AcDbLine
 10
81.26217955260353
 20
212.5903393064264
 30
0.0
 11
81.26217955260353
 21
255.5903393064264
 31
0.0
  0
LINE
  5
AAE
330
AAB
100
AcDbEntity
  8
SK2
  6
Continuous
 62
     0
370
    -2
100
AcDbLine
 10
17.26217955260353
 20
226.0903393064264
 30
0.0
 11
17.26217955260353
 21
255.5903393064264
 31
0.0
  0
LINE
  5
AAF
330
AAB
100
AcDbEntity
  8
SK2
  6
Continuous
 62
     0
370
    -2
100
AcDbLine
 10
76.69217955260353
 20
250.5903393064264
 30
0.0
 11
53.18665871927019
 21
250.5903393064264
 31
0.0
  0
LINE
  5
AB0
330
AAB
100
AcDbEntity
  8
SK2
  6
Continuous
 62
     0
370
    -2
100
AcDbLine
 10
21.83217955260353
 20
250.5903393064264
 30
0.0
 11
45.33770038593686
 21
250.5903393064264
 31
0.0
  0
INSERT
  5
AB1
330
AAB
100
AcDbEntity
  8
SK2
 62
     0
370
    -2
100
AcDbBlockReference
  2
_ARROW_FILLED
 10
81.26217955260353
 20
250.5903393064264
 30
0.0
 41
4.57
 42
4.57
 43
4.57
  0
INSERT
  5
AB2
330
AAB
100
AcDbEntity
  8
SK2
 62
     0
370
    -2
100
AcDbBlockReference
  2
_ARROW_FILLED
 10
17.26217955260353
 20
250.5903393064264
 30
0.0
 41
4.57
 42
4.57
 43
4.57
 50
180.0
  0
MTEXT
  5
AB3
330
AAB
100
AcDbEntity
  8
SK2
 62
     7
100
AcDbMText
 10
49.26217955260353
 20
250.5903393064264
 30
0.0
 40
3.5
 41
0.0
 71
     5
 72
     1
  1
\A1;64
  7
BMG_Text
 73
     1
 44
1.0
  0
POINT
  5
AB4
330
AAB
100
AcDbEntity
  8
Defpoints
 62
     0
100
AcDbPoint
 10
81.26217955260353
 20
212.5903393064264
 30
0.0
  0
POINT
  5
AB5
330
AAB
100
AcDbEntity
  8
Defpoints
 62
     0
100
AcDbPoint
 10
17.26217955260353
 20
226.0903393064264
 30
0.0
  0
POINT
  5
AB6
330
AAB
100
AcDbEntity
  8
Defpoints
 62
     0
100
AcDbPoint
 10
17.26217955260353
 20
250.5903393064264
 30
0.0
  0
ENDBLK
  5
AB7
330
AAB
100
AcDbEntity
  8
0
100
AcDbBlockEnd
  0
BLOCK
  5
BF6
330
BF5
100
AcDbEntity
  8
0
100
AcDbBlockBegin
  2
*D68
 70
     1
 10
0.0
 20
0.0
 30
0.0
  3
*D68
  1

  0
LINE
  5
BF7
330
BF5
100
AcDbEntity
  8
SK2
  6
Continuous
 62
     0
370
    -2
100
AcDbLine
 10
0.0
 20
-31.5
 30
0.0
 11
-51.23362000000001
 21
-31.5
 31
0.0
  0
LINE
  5
BF8
330
BF5
100
AcDbEntity
  8
SK2
  6
Continuous
 62
     0
370
    -2
100
AcDbLine
 10
0.0
 20
31.5
 30
0.0
 11
-51.23362
 21
31.5
 31
0.0
  0
LINE
  5
BF9
330
BF5
100
AcDbEntity
  8
SK2
  6
Continuous
 62
     0
370
    -2
100
AcDbLine
 10
-46.23362000000001
 20
-26.93
 30
0.0
 11
-46.23362000000001
 21
-5.416666666666668
 31
0.0
  0
LINE
  5
BFA
330
BF5
100
AcDbEntity
  8
SK2
  6
Continuous
 62
     0
370
    -2
100
AcDbLine
 10
-46.23362
 20
26.93
 30
0.0
 11
-46.23362
 21
5.416666666666661
 31
0.0
  0
INSERT
  5
BFB
330
BF5
100
AcDbEntity
  8
SK2
 62
     0
370
    -2
100
AcDbBlockReference
  2
_ARROW_FILLED
 10
-46.23362000000001
 20
-31.5
 30
0.0
 41
4.57
 42
4.57
 43
4.57
 50
270.0
  0
INSERT
  5
BFC
330
BF5
100
AcDbEntity
  8
SK2
 62
     0
370
    -2
100
AcDbBlockReference
  2
_ARROW_FILLED
 10
-46.23362
 20
31.5
 30
0.0
 41
4.57
 42
4.57
 43
4.57
 50
90.0
  0
MTEXT
  5
BFD
330
BF5
100
AcDbEntity
  8
SK2
 62
     7
100
AcDbMText
 10
-46.23362
 20
0.0000000000000036
 30
0.0
 40
3.5
 41
0.0
 71
     5
 72
     1
  1
\A1;%%c63
  7
BMG_Text
 11
1.127845612317619E-16
 21
1.0
 31
0.0
 73
     1
 44
1.0
  0
POINT
  5
BFE
330
BF5
100
AcDbEntity
  8
Defpoints
 62
     0
100
AcDbPoint
 10
0.0
 20
-31.5
 30
0.0
  0
POINT
  5
BFF
330
BF5
100
AcDbEntity
  8
Defpoints
 62
     0
100
AcDbPoint
 10
0.0
 20
31.5
 30
0.0
  0
POINT
  5
D43
330
BF5
100
AcDbEntity
  8
Defpoints
 62
     0
100
AcDbPoint
 10
-46.23362
 20
31.5
 30
0.0
  0
ENDBLK
  5
C00
330
BF5
100
AcDbEntity
  8
0
100
AcDbBlockEnd
  0
BLOCK
  5
C05
330
C04
100
AcDbEntity
  8
0
100
AcDbBlockBegin
  2
*D69
 70
     1
 10
0.0
 20
0.0
 30
0.0
  3
*D69
  1

  0
LINE
  5
C06
330
C04
100
AcDbEntity
  8
SK2
  6
Continuous
 62
     0
370
    -2
100
AcDbLine
 10
-32.0
 20
21.573501
 30
0.0
 11
-32.0
 21
46.969
 31
0.0
  0
LINE
  5
C07
330
C04
100
AcDbEntity
  8
SK2
  6
Continuous
 62
     0
370
    -2
100
AcDbLine
 10
0.0
 20
31.5
 30
0.0
 11
0.0
 21
46.969
 31
0.0
  0
LINE
  5
C08
330
C04
100
AcDbEntity
  8
SK2
  6
Continuous
 62
     0
370
    -2
100
AcDbLine
 10
-27.43
 20
41.969
 30
0.0
 11
-19.83333333333333
 21
41.969
 31
0.0
  0
LINE
  5
C09
330
C04
100
AcDbEntity
  8
SK2
  6
Continuous
 62
     0
370
    -2
100
AcDbLine
 10
-4.57
 20
41.969
 30
0.0
 11
-12.16666666666667
 21
41.969
 31
0.0
  0
INSERT
  5
C0A
330
C04
100
AcDbEntity
  8
SK2
 62
     0
370
    -2
100
AcDbBlockReference
  2
_ARROW_FILLED
 10
-32.0
 20
41.969
 30
0.0
 41
4.57
 42
4.57
 43
4.57
 50
180.0
  0
INSERT
  5
C0B
330
C04
100
AcDbEntity
  8
SK2
 62
     0
370
    -2
100
AcDbBlockReference
  2
_ARROW_FILLED
 10
0.0
 20
41.969
 30
0.0
 41
4.57
 42
4.57
 43
4.57
  0
MTEXT
  5
C0C
330
C04
100
AcDbEntity
  8
SK2
 62
     7
100
AcDbMText
 10
-16.0
 20
41.969
 30
0.0
 40
3.5
 41
0.0
 71
     5
 72
     1
  1
\A1;32
  7
BMG_Text
 73
     1
 44
1.0
  0
POINT
  5
C0D
330
C04
100
AcDbEntity
  8
Defpoints
 62
     0
100
AcDbPoint
 10
-32.0
 20
21.573501
 30
0.0
  0
POINT
  5
C0E
330
C04
100
AcDbEntity
  8
Defpoints
 62
     0
100
AcDbPoint
 10
0.0
 20
31.5
 30
0.0
  0
POINT
  5
D42
330
C04
100
AcDbEntity
  8
Defpoints
 62
     0
100
AcDbPoint
 10
0.0
 20
41.969
 30
0.0
  0
ENDBLK
  5
C0F
330
C04
100
AcDbEntity
  8
0
100
AcDbBlockEnd
  0
BLOCK
  5
C12
330
C11
100
AcDbEntity
  8
0
100
AcDbBlockBegin
  2
*D70
 70
     1
 10
0.0
 20
0.0
 30
0.0
  3
*D70
  1

  0
LINE
  5
C13
330
C11
100
AcDbEntity
  8
SK2
  6
Continuous
 62
     0
370
    -2
100
AcDbLine
 10
-32.0
 20
21.573501
 30
0.0
 11
-32.0
 21
60.969
 31
0.0
  0
LINE
  5
C14
330
C11
100
AcDbEntity
  8
SK2
  6
Continuous
 62
     0
370
    -2
100
AcDbLine
 10
80.0
 20
16.0
 30
0.0
 11
80.0
 21
60.969
 31
0.0
  0
LINE
  5
C15
330
C11
100
AcDbEntity
  8
SK2
  6
Continuous
 62
     0
370
    -2
100
AcDbLine
 10
-27.43
 20
55.969
 30
0.0
 11
19.16666666666667
 21
55.969
 31
0.0
  0
LINE
  5
C16
330
C11
100
AcDbEntity
  8
SK2
  6
Continuous
 62
     0
370
    -2
100
AcDbLine
 10
75.43
 20
55.969
 30
0.0
 11
28.83333333333333
 21
55.969
 31
0.0
  0
INSERT
  5
C17
330
C11
100
AcDbEntity
  8
SK2
 62
     0
370
    -2
100
AcDbBlockReference
  2
_ARROW_FILLED
 10
-32.0
 20
55.969
 30
0.0
 41
4.57
 42
4.57
 43
4.57
 50
180.0
  0
INSERT
  5
C18
330
C11
100
AcDbEntity
  8
SK2
 62
     0
370
    -2
100
AcDbBlockReference
  2
_ARROW_FILLED
 10
80.0
 20
55.969
 30
0.0
 41
4.57
 42
4.57
 43
4.57
  0
MTEXT
  5
C19
330
C11
100
AcDbEntity
  8
SK2
 62
     7
100
AcDbMText
 10
24.0
 20
55.969
 30
0.0
 40
3.5
 41
0.0
 71
     5
 72
     1
  1
\A1;112
  7
BMG_Text
 73
     1
 44
1.0
  0
POINT
  5
C1A
330
C11
100
AcDbEntity
  8
Defpoints
 62
     0
100
AcDbPoint
 10
-32.0
 20
21.573501
 30
0.0
  0
POINT
  5
C1B
330
C11
100
AcDbEntity
  8
Defpoints
 62
     0
100
AcDbPoint
 10
80.0
 20
16.0
 30
0.0
  0
POINT
  5
D41
330
C11
100
AcDbEntity
  8
Defpoints
 62
     0
100
AcDbPoint
 10
80.0
 20
55.969
 30
0.0
  0
ENDBLK
  5
C29
330
C11
100
AcDbEntity
  8
0
100
AcDbBlockEnd
  0
BLOCK
  5
C2C
330
C2B
100
AcDbEntity
  8
0
100
AcDbBlockBegin
  2
*D71
 70
     1
 10
0.0
 20
0.0
 30
0.0
  3
*D71
  1

  0
LINE
  5
C2D
330
C2B
100
AcDbEntity
  8
2
  6
Continuous
 62
     0
370
    -2
100
AcDbLine
 10
80.0
 20
-16.0
 30
0.0
 11
80.0
 21
-54.031
 31
0.0
  0
LINE
  5
C2E
330
C2B
100
AcDbEntity
  8
2
  6
Continuous
 62
     0
370
    -2
100
AcDbLine
 10
0.0
 20
-31.5
 30
0.0
 11
0.0
 21
-54.031
 31
0.0
  0
LINE
  5
C2F
330
C2B
100
AcDbEntity
  8
2
  6
Continuous
 62
     0
370
    -2
100
AcDbLine
 10
75.43
 20
-49.031
 30
0.0
 11
43.83333333333334
 21
-49.031
 31
0.0
  0
LINE
  5
C30
330
C2B
100
AcDbEntity
  8
2
  6
Continuous
 62
     0
370
    -2
100
AcDbLine
 10
4.57
 20
-49.031
 30
0.0
 11
36.16666666666666
 21
-49.031
 31
0.0
  0
INSERT
  5
C31
330
C2B
100
AcDbEntity
  8
2
 62
     0
370
    -2
100
AcDbBlockReference
  2
_ARROW_FILLED
 10
80.0
 20
-49.031
 30
0.0
 41
4.57
 42
4.57
 43
4.57
  0
INSERT
  5
C32
330
C2B
100
AcDbEntity
  8
2
 62
     0
370
    -2
100
AcDbBlockReference
  2
_ARROW_FILLED
 10
0.0
 20
-49.031
 30
0.0
 41
4.57
 42
4.57
 43
4.57
 50
180.0
  0
MTEXT
  5
C33
330
C2B
100
AcDbEntity
  8
2
 62
     7
100
AcDbMText
 10
40.0
 20
-49.031
 30
0.0
 40
3.5
 41
0.0
 71
     5
 72
     1
  1
\A1;80
  7
BMG_Text
 73
     1
 44
1.0
  0
POINT
  5
C34
330
C2B
100
AcDbEntity
  8
Defpoints
 62
     0
100
AcDbPoint
 10
80.0
 20
-16.0
 30
0.0
  0
POINT
  5
C35
330
C2B
100
AcDbEntity
  8
Defpoints
 62
     0
100
AcDbPoint
 10
0.0
 20
-31.5
 30
0.0
  0
POINT
  5
D46
330
C2B
100
AcDbEntity
  8
Defpoints
 62
     0
100
AcDbPoint
 10
0.0
 20
-49.031
 30
0.0
  0
ENDBLK
  5
C43
330
C2B
100
AcDbEntity
  8
0
100
AcDbBlockEnd
  0
BLOCK
  5
C55
330
C54
100
AcDbEntity
  8
0
100
AcDbBlockBegin
  2
*D72
 70
     1
 10
0.0
 20
0.0
 30
0.0
  3
*D72
  1

  0
LINE
  5
C56
330
C54
100
AcDbEntity
  8
2
  6
Continuous
 62
     0
370
    -2
100
AcDbLine
 10
75.0
 20
-21.0
 30
0.0
 11
98.041334
 21
-21.0
 31
0.0
  0
LINE
  5
C57
330
C54
100
AcDbEntity
  8
2
  6
Continuous
 62
     0
370
    -2
100
AcDbLine
 10
75.0
 20
21.0
 30
0.0
 11
98.041334
 21
21.0
 31
0.0
  0
LINE
  5
C58
330
C54
100
AcDbEntity
  8
2
  6
Continuous
 62
     0
370
    -2
100
AcDbLine
 10
93.041334
 20
-16.43
 30
0.0
 11
93.041334
 21
-5.416666666666673
 31
0.0
  0
LINE
  5
C59
330
C54
100
AcDbEntity
  8
2
  6
Continuous
 62
     0
370
    -2
100
AcDbLine
 10
93.041334
 20
16.43
 30
0.0
 11
93.041334
 21
5.416666666666671
 31
0.0
  0
INSERT
  5
C5A
330
C54
100
AcDbEntity
  8
2
 62
     0
370
    -2
100
AcDbBlockReference
  2
_ARROW_FILLED
 10
93.041334
 20
-21.0
 30
0.0
 41
4.57
 42
4.57
 43
4.57
 50
270.0
  0
INSERT
  5
C5B
330
C54
100
AcDbEntity
  8
2
 62
     0
370
    -2
100
AcDbBlockReference
  2
_ARROW_FILLED
 10
93.041334
 20
21.0
 30
0.0
 41
4.57
 42
4.57
 43
4.57
 50
90.0
  0
MTEXT
  5
C5C
330
C54
100
AcDbEntity
  8
2
 62
     7
100
AcDbMText
 10
93.041334
 20
0.0
 30
0.0
 40
3.5
 41
0.0
 71
     5
 72
     1
  1
\A1;%%c42
  7
BMG_Text
 11
0.0
 21
1.0
 31
0.0
 73
     1
 44
1.0
  0
POINT
  5
C5D
330
C54
100
AcDbEntity
  8
Defpoints
 62
     0
100
AcDbPoint
 10
75.0
 20
-21.0
 30
0.0
  0
POINT
  5
C5E
330
C54
100
AcDbEntity
  8
Defpoints
 62
     0
100
AcDbPoint
 10
75.0
 20
21.0
 30
0.0
  0
POINT
  5
D45
330
C54
100
AcDbEntity
  8
Defpoints
 62
     0
100
AcDbPoint
 10
93.041334
 20
21.0
 30
0.0
  0
ENDBLK
  5
C6C
330
C54
100
AcDbEntity
  8
0
100
AcDbBlockEnd
  0
BLOCK
  5
CA2
330
CA1
100
AcDbEntity
  8
0
100
AcDbBlockBegin
  2
*D73
 70
     1
 10
0.0
 20
0.0
 30
0.0
  3
*D73
  1

  0
LINE
  5
CA3
330
CA1
100
AcDbEntity
  8
2
  6
Continuous
 62
     0
370
    -2
100
AcDbLine
 10
26.0
 20
0.0
 30
0.0
 11
26.0
 21
46.999
 31
0.0
  0
LINE
  5
CA4
330
CA1
100
AcDbEntity
  8
2
  6
Continuous
 62
     0
370
    -2
100
AcDbLine
 10
80.0
 20
0.0
 30
0.0
 11
80.0
 21
46.999
 31
0.0
  0
LINE
  5
CA5
330
CA1
100
AcDbEntity
  8
2
  6
Continuous
 62
     0
370
    -2
100
AcDbLine
 10
30.57
 20
41.999
 30
0.0
 11
49.07552083333333
 21
41.999
 31
0.0
  0
LINE
  5
CA6
330
CA1
100
AcDbEntity
  8
2
  6
Continuous
 62
     0
370
    -2
100
AcDbLine
 10
75.43
 20
41.999
 30
0.0
 11
56.92447916666667
 21
41.999
 31
0.0
  0
INSERT
  5
CA7
330
CA1
100
AcDbEntity
  8
2
 62
     0
370
    -2
100
AcDbBlockReference
  2
_ARROW_FILLED
 10
26.0
 20
41.999
 30
0.0
 41
4.57
 42
4.57
 43
4.57
 50
180.0
  0
INSERT
  5
CA8
330
CA1
100
AcDbEntity
  8
2
 62
     0
370
    -2
100
AcDbBlockReference
  2
_ARROW_FILLED
 10
80.0
 20
41.999
 30
0.0
 41
4.57
 42
4.57
 43
4.57
  0
MTEXT
  5
CA9
330
CA1
100
AcDbEntity
  8
2
 62
     7
100
AcDbMText
 10
53.0
 20
41.999
 30
0.0
 40
3.5
 41
0.0
 71
     5
 72
     1
  1
\A1;54
  7
BMG_Text
 73
     1
 44
1.0
  0
POINT
  5
CAA
330
CA1
100
AcDbEntity
  8
Defpoints
 62
     0
100
AcDbPoint
 10
26.0
 20
0.0
 30
0.0
  0
POINT
  5
CAB
330
CA1
100
AcDbEntity
  8
Defpoints
 62
     0
100
AcDbPoint
 10
80.0
 20
0.0
 30
0.0
  0
POINT
  5
D44
330
CA1
100
AcDbEntity
  8
Defpoints
 62
     0
100
AcDbPoint
 10
80.0
 20
41.999
 30
0.0
  0
ENDBLK
  5
CB9
330
CA1
100
AcDbEntity
  8
0
100
AcDbBlockEnd
  0
BLOCK
  5
DCD
330
DCC
100
AcDbEntity
  8
0
100
AcDbBlockBegin
  2
*D75
 70
     1
 10
0.0
 20
0.0
 30
0.0
  3
*D75
  1

  0
LINE
  5
DCE
330
DCC
100
AcDbEntity
  8
SK2
  6
Continuous
 62
     0
370
    -2
100
AcDbLine
 10
0.0
 20
-31.5
 30
0.0
 11
-54.00000000000001
 21
-31.5
 31
0.0
  0
LINE
  5
DCF
330
DCC
100
AcDbEntity
  8
SK2
  6
Continuous
 62
     0
370
    -2
100
AcDbLine
 10
0.0
 20
31.5
 30
0.0
 11
-54.0
 21
31.5
 31
0.0
  0
LINE
  5
DD0
330
DCC
100
AcDbEntity
  8
SK2
  6
Continuous
 62
     0
370
    -2
100
AcDbLine
 10
-49.00000000000001
 20
-26.93
 30
0.0
 11
-49.00000000000001
 21
-5.416666666666668
 31
0.0
  0
LINE
  5
DD1
330
DCC
100
AcDbEntity
  8
SK2
  6
Continuous
 62
     0
370
    -2
100
AcDbLine
 10
-49.0
 20
26.93
 30
0.0
 11
-49.0
 21
5.416666666666661
 31
0.0
  0
INSERT
  5
DD2
330
DCC
100
AcDbEntity
  8
SK2
 62
     0
370
    -2
100
AcDbBlockReference
  2
_ARROW_FILLED
 10
-49.00000000000001
 20
-31.5
 30
0.0
 41
4.57
 42
4.57
 43
4.57
 50
270.0
  0
INSERT
  5
DD3
330
DCC
100
AcDbEntity
  8
SK2
 62
     0
370
    -2
100
AcDbBlockReference
  2
_ARROW_FILLED
 10
-49.0
 20
31.5
 30
0.0
 41
4.57
 42
4.57
 43
4.57
 50
90.0
  0
MTEXT
  5
DD4
330
DCC
100
AcDbEntity
  8
SK2
 62
     7
100
AcDbMText
 10
-49.0
 20
0.0000000000000036
 30
0.0
 40
3.5
 41
0.0
 71
     5
 72
     1
  1
\A1;%%c63
  7
BMG_Text
 11
1.127845612317619E-16
 21
1.0
 31
0.0
 73
     1
 44
1.0
  0
POINT
  5
DD5
330
DCC
100
AcDbEntity
  8
Defpoints
 62
     0
100
AcDbPoint
 10
0.0
 20
-31.5
 30
0.0
  0
POINT
  5
DD6
330
DCC
100
AcDbEntity
  8
Defpoints
 62
     0
100
AcDbPoint
 10
0.0
 20
31.5
 30
0.0
  0
POINT
  5
DD7
330
DCC
100
AcDbEntity
  8
Defpoints
 62
     0
100
AcDbPoint
 10
-49.0
 20
31.5
 30
0.0
  0
ENDBLK
  5
DD8
330
DCC
100
AcDbEntity
  8
0
100
AcDbBlockEnd
  0
BLOCK
  5
DDD
330
DDC
100
AcDbEntity
  8
0
100
AcDbBlockBegin
  2
*D76
 70
     1
 10
0.0
 20
0.0
 30
0.0
  3
*D76
  1

  0
LINE
  5
DDE
330
DDC
100
AcDbEntity
  8
SK2
  6
Continuous
 62
     0
370
    -2
100
AcDbLine
 10
-32.0
 20
21.57350100000002
 30
0.0
 11
-32.0
 21
61.0
 31
0.0
  0
LINE
  5
DDF
330
DDC
100
AcDbEntity
  8
SK2
  6
Continuous
 62
     0
370
    -2
100
AcDbLine
 10
0.0
 20
31.5
 30
0.0
 11
0.0
 21
61.0
 31
0.0
  0
LINE
  5
DE0
330
DDC
100
AcDbEntity
  8
SK2
  6
Continuous
 62
     0
370
    -2
100
AcDbLine
 10
-27.43
 20
56.0
 30
0.0
 11
-19.83333333333333
 21
56.0
 31
0.0
  0
LINE
  5
DE1
330
DDC
100
AcDbEntity
  8
SK2
  6
Continuous
 62
     0
370
    -2
100
AcDbLine
 10
-4.57
 20
56.0
 30
0.0
 11
-12.16666666666667
 21
56.0
 31
0.0
  0
INSERT
  5
DE2
330
DDC
100
AcDbEntity
  8
SK2
 62
     0
370
    -2
100
AcDbBlockReference
  2
_ARROW_FILLED
 10
-32.0
 20
56.0
 30
0.0
 41
4.57
 42
4.57
 43
4.57
 50
180.0
  0
INSERT
  5
DE3
330
DDC
100
AcDbEntity
  8
SK2
 62
     0
370
    -2
100
AcDbBlockReference
  2
_ARROW_FILLED
 10
0.0
 20
56.0
 30
0.0
 41
4.57
 42
4.57
 43
4.57
  0
MTEXT
  5
DE4
330
DDC
100
AcDbEntity
  8
SK2
 62
     7
100
AcDbMText
 10
-16.0
 20
56.0
 30
0.0
 40
3.5
 41
0.0
 71
     5
 72
     1
  1
\A1;32
  7
BMG_Text
 73
     1
 44
1.0
  0
POINT
  5
DE5
330
DDC
100
AcDbEntity
  8
Defpoints
 62
     0
100
AcDbPoint
 10
-32.0
 20
21.57350100000002
 30
0.0
  0
POINT
  5
DE6
330
DDC
100
AcDbEntity
  8
Defpoints
 62
     0
100
AcDbPoint
 10
0.0
 20
31.5
 30
0.0
  0
POINT
  5
DE7
330
DDC
100
AcDbEntity
  8
Defpoints
 62
     0
100
AcDbPoint
 10
0.0
 20
56.0
 30
0.0
  0
ENDBLK
  5
DE8
330
DDC
100
AcDbEntity
  8
0
100
AcDbBlockEnd
  0
BLOCK
  5
DEB
330
DEA
100
AcDbEntity
  8
0
100
AcDbBlockBegin
  2
*D77
 70
     1
 10
0.0
 20
0.0
 30
0.0
  3
*D77
  1

  0
LINE
  5
DEC
330
DEA
100
AcDbEntity
  8
SK2
  6
Continuous
 62
     0
370
    -2
100
AcDbLine
 10
-32.0
 20
21.57350100000002
 30
0.0
 11
-32.0
 21
75.0
 31
0.0
  0
LINE
  5
DED
330
DEA
100
AcDbEntity
  8
SK2
  6
Continuous
 62
     0
370
    -2
100
AcDbLine
 10
90.0
 20
18.0
 30
0.0
 11
90.0
 21
75.0
 31
0.0
  0
LINE
  5
DEE
330
DEA
100
AcDbEntity
  8
SK2
  6
Continuous
 62
     0
370
    -2
100
AcDbLine
 10
-27.43
 20
70.0
 30
0.0
 11
23.83333333333334
 21
70.0
 31
0.0
  0
LINE
  5
DEF
330
DEA
100
AcDbEntity
  8
SK2
  6
Continuous
 62
     0
370
    -2
100
AcDbLine
 10
85.43
 20
70.0
 30
0.0
 11
34.16666666666667
 21
70.0
 31
0.0
  0
INSERT
  5
DF0
330
DEA
100
AcDbEntity
  8
SK2
 62
     0
370
    -2
100
AcDbBlockReference
  2
_ARROW_FILLED
 10
-32.0
 20
70.0
 30
0.0
 41
4.57
 42
4.57
 43
4.57
 50
180.0
  0
INSERT
  5
DF1
330
DEA
100
AcDbEntity
  8
SK2
 62
     0
370
    -2
100
AcDbBlockReference
  2
_ARROW_FILLED
 10
90.0
 20
70.0
 30
0.0
 41
4.57
 42
4.57
 43
4.57
  0
MTEXT
  5
DF2
330
DEA
100
AcDbEntity
  8
SK2
 62
     7
100
AcDbMText
 10
29.0
 20
70.0
 30
0.0
 40
3.5
 41
0.0
 71
     5
 72
     1
  1
\A1;122
  7
BMG_Text
 73
     1
 44
1.0
  0
POINT
  5
DF3
330
DEA
100
AcDbEntity
  8
Defpoints
 62
     0
100
AcDbPoint
 10
-32.0
 20
21.57350100000002
 30
0.0
  0
POINT
  5
DF4
330
DEA
100
AcDbEntity
  8
Defpoints
 62
     0
100
AcDbPoint
 10
90.0
 20
18.0
 30
0.0
  0
POINT
  5
DF5
330
DEA
100
AcDbEntity
  8
Defpoints
 62
     0
100
AcDbPoint
 10
90.0
 20
70.0
 30
0.0
  0
ENDBLK
  5
DF6
330
DEA
100
AcDbEntity
  8
0
100
AcDbBlockEnd
  0
BLOCK
  5
DF9
330
DF8
100
AcDbEntity
  8
0
100
AcDbBlockBegin
  2
*D78
 70
     1
 10
0.0
 20
0.0
 30
0.0
  3
*D78
  1

  0
LINE
  5
DFA
330
DF8
100
AcDbEntity
  8
2
  6
Continuous
 62
     0
370
    -2
100
AcDbLine
 10
90.0
 20
-18.0
 30
0.0
 11
90.0
 21
-54.0
 31
0.0
  0
LINE
  5
DFB
330
DF8
100
AcDbEntity
  8
2
  6
Continuous
 62
     0
370
    -2
100
AcDbLine
 10
0.0
 20
-31.5
 30
0.0
 11
0.0
 21
-54.0
 31
0.0
  0
LINE
  5
DFC
330
DF8
100
AcDbEntity
  8
2
  6
Continuous
 62
     0
370
    -2
100
AcDbLine
 10
85.43
 20
-49.0
 30
0.0
 11
48.83333333333333
 21
-49.0
 31
0.0
  0
LINE
  5
DFD
330
DF8
100
AcDbEntity
  8
2
  6
Continuous
 62
     0
370
    -2
100
AcDbLine
 10
4.57
 20
-49.0
 30
0.0
 11
41.16666666666666
 21
-49.0
 31
0.0
  0
INSERT
  5
DFE
330
DF8
100
AcDbEntity
  8
2
 62
     0
370
    -2
100
AcDbBlockReference
  2
_ARROW_FILLED
 10
90.0
 20
-49.0
 30
0.0
 41
4.57
 42
4.57
 43
4.57
  0
INSERT
  5
DFF
330
DF8
100
AcDbEntity
  8
2
 62
     0
370
    -2
100
AcDbBlockReference
  2
_ARROW_FILLED
 10
0.0
 20
-49.0
 30
0.0
 41
4.57
 42
4.57
 43
4.57
 50
180.0
  0
MTEXT
  5
E00
330
DF8
100
AcDbEntity
  8
2
 62
     7
100
AcDbMText
 10
45.0
 20
-49.0
 30
0.0
 40
3.5
 41
0.0
 71
     5
 72
     1
  1
\A1;90
  7
BMG_Text
 73
     1
 44
1.0
  0
POINT
  5
E01
330
DF8
100
AcDbEntity
  8
Defpoints
 62
     0
100
AcDbPoint
 10
90.0
 20
-18.0
 30
0.0
  0
POINT
  5
E02
330
DF8
100
AcDbEntity
  8
Defpoints
 62
     0
100
AcDbPoint
 10
0.0
 20
-31.5
 30
0.0
  0
POINT
  5
E03
330
DF8
100
AcDbEntity
  8
Defpoints
 62
     0
100
AcDbPoint
 10
0.0
 20
-49.0
 30
0.0
  0
ENDBLK
  5
E04
330
DF8
100
AcDbEntity
  8
0
100
AcDbBlockEnd
  0
BLOCK
  5
E0F
330
E0E
100
AcDbEntity
  8
0
100
AcDbBlockBegin
  2
*D79
 70
     1
 10
0.0
 20
0.0
 30
0.0
  3
*D79
  1

  0
LINE
  5
E10
330
E0E
100
AcDbEntity
  8
SK2
  6
Continuous
 62
     0
370
    -2
100
AcDbLine
 10
70.65743600000002
 20
-20.0
 30
0.0
 11
136.5
 21
-20.00000000000001
 31
0.0
  0
LINE
  5
E11
330
E0E
100
AcDbEntity
  8
SK2
  6
Continuous
 62
     0
370
    -2
100
AcDbLine
 10
70.65743600000002
 20
20.0
 30
0.0
 11
136.5
 21
20.0
 31
0.0
  0
LINE
  5
E12
330
E0E
100
AcDbEntity
  8
SK2
  6
Continuous
 62
     0
370
    -2
100
AcDbLine
 10
131.5
 20
-15.43000000000001
 30
0.0
 11
131.5
 21
-5.416666666666657
 31
0.0
  0
LINE
  5
E13
330
E0E
100
AcDbEntity
  8
SK2
  6
Continuous
 62
     0
370
    -2
100
AcDbLine
 10
131.5
 20
15.43
 30
0.0
 11
131.5
 21
5.416666666666661
 31
0.0
  0
INSERT
  5
E14
330
E0E
100
AcDbEntity
  8
SK2
 62
     0
370
    -2
100
AcDbBlockReference
  2
_ARROW_FILLED
 10
131.5
 20
-20.00000000000001
 30
0.0
 41
4.57
 42
4.57
 43
4.57
 50
270.0
  0
INSERT
  5
E15
330
E0E
100
AcDbEntity
  8
SK2
 62
     0
370
    -2
100
AcDbBlockReference
  2
_ARROW_FILLED
 10
131.5
 20
20.0
 30
0.0
 41
4.57
 42
4.57
 43
4.57
 50
90.0
  0
MTEXT
  5
E16
330
E0E
100
AcDbEntity
  8
SK2
 62
     7
100
AcDbMText
 10
131.5
 20
-0.0000000000000071
 30
0.0
 40
3.5
 41
0.0
 71
     5
 72
     1
  1
\A1;%%c40
  7
BMG_Text
 11
0.0
 21
1.0
 31
0.0
 73
     1
 44
1.0
  0
POINT
  5
E17
330
E0E
100
AcDbEntity
  8
Defpoints
 62
     0
100
AcDbPoint
 10
70.65743600000002
 20
-20.0
 30
0.0
  0
POINT
  5
E18
330
E0E
100
AcDbEntity
  8
Defpoints
 62
     0
100
AcDbPoint
 10
70.65743600000002
 20
20.0
 30
0.0
  0
POINT
  5
E19
330
E0E
100
AcDbEntity
  8
Defpoints
 62
     0
100
AcDbPoint
 10
131.5
 20
20.0
 30
0.0
  0
ENDBLK
  5
E1A
330
E0E
100
AcDbEntity
  8
0
100
AcDbBlockEnd
  0
BLOCK
  5
E1F
330
E1E
100
AcDbEntity
  8
0
100
AcDbBlockBegin
  2
*D80
 70
     1
 10
0.0
 20
0.0
 30
0.0
  3
*D80
  1

  0
LINE
  5
E20
330
E1E
100
AcDbEntity
  8
2
  6
Continuous
 62
     0
370
    -2
100
AcDbLine
 10
86.0
 20
-9.0
 30
0.0
 11
108.5
 21
-9.000000000000002
 31
0.0
  0
LINE
  5
E21
330
E1E
100
AcDbEntity
  8
2
  6
Continuous
 62
     0
370
    -2
100
AcDbLine
 10
86.0
 20
9.0
 30
0.0
 11
108.5
 21
8.999999999999998
 31
0.0
  0
LINE
  5
E22
330
E1E
100
AcDbEntity
  8
2
  6
Continuous
 62
     0
370
    -2
100
AcDbLine
 10
103.5
 20
8.999999999999998
 30
0.0
 11
103.5
 21
13.57
 31
0.0
  0
LINE
  5
E23
330
E1E
100
AcDbEntity
  8
2
  6
Continuous
 62
     0
370
    -2
100
AcDbLine
 10
103.5
 20
-4.430000000000001
 30
0.0
 11
103.5
 21
4.429999999999998
 31
0.0
  0
INSERT
  5
E24
330
E1E
100
AcDbEntity
  8
2
 62
     0
370
    -2
100
AcDbBlockReference
  2
_ARROW_FILLED
 10
103.5
 20
-9.000000000000002
 30
0.0
 41
4.57
 42
4.57
 43
4.57
 50
270.0
  0
INSERT
  5
E25
330
E1E
100
AcDbEntity
  8
2
 62
     0
370
    -2
100
AcDbBlockReference
  2
_ARROW_FILLED
 10
103.5
 20
8.999999999999998
 30
0.0
 41
4.57
 42
4.57
 43
4.57
 50
90.0
  0
MTEXT
  5
E26
330
E1E
100
AcDbEntity
  8
2
 62
     7
100
AcDbMText
 10
103.5
 20
18.65333333333333
 30
0.0
 40
3.5
 41
0.0
 71
     5
 72
     1
  1
\A1;%%c18
  7
BMG_Text
 11
0.0
 21
1.0
 31
0.0
 73
     1
 44
1.0
  0
POINT
  5
E27
330
E1E
100
AcDbEntity
  8
Defpoints
 62
     0
100
AcDbPoint
 10
86.0
 20
-9.0
 30
0.0
  0
POINT
  5
E28
330
E1E
100
AcDbEntity
  8
Defpoints
 62
     0
100
AcDbPoint
 10
86.0
 20
9.0
 30
0.0
  0
POINT
  5
E29
330
E1E
100
AcDbEntity
  8
Defpoints
 62
     0
100
AcDbPoint
 10
103.5
 20
8.999999999999998
 30
0.0
  0
ENDBLK
  5
E2A
330
E1E
100
AcDbEntity
  8
0
100
AcDbBlockEnd
  0
BLOCK
  5
E2D
330
E2C
100
AcDbEntity
  8
0
100
AcDbBlockBegin
  2
*D81
 70
     1
 10
0.0
 20
0.0
 30
0.0
  3
*D81
  1

  0
LINE
  5
E2E
330
E2C
100
AcDbEntity
  8
SK2
  6
Continuous
 62
     0
370
    -2
100
AcDbLine
 10
90.0
 20
-18.0
 30
0.0
 11
122.5
 21
-18.0
 31
0.0
  0
LINE
  5
E2F
330
E2C
100
AcDbEntity
  8
SK2
  6
Continuous
 62
     0
370
    -2
100
AcDbLine
 10
90.0
 20
18.0
 30
0.0
 11
122.5
 21
18.0
 31
0.0
  0
LINE
  5
E30
330
E2C
100
AcDbEntity
  8
SK2
  6
Continuous
 62
     0
370
    -2
100
AcDbLine
 10
117.5
 20
-13.43
 30
0.0
 11
117.5
 21
-5.32552083333333
 31
0.0
  0
LINE
  5
E31
330
E2C
100
AcDbEntity
  8
SK2
  6
Continuous
 62
     0
370
    -2
100
AcDbLine
 10
117.5
 20
13.43
 30
0.0
 11
117.5
 21
5.325520833333336
 31
0.0
  0
INSERT
  5
E32
330
E2C
100
AcDbEntity
  8
SK2
 62
     0
370
    -2
100
AcDbBlockReference
  2
_ARROW_FILLED
 10
117.5
 20
-18.0
 30
0.0
 41
4.57
 42
4.57
 43
4.57
 50
270.0
  0
INSERT
  5
E33
330
E2C
100
AcDbEntity
  8
SK2
 62
     0
370
    -2
100
AcDbBlockReference
  2
_ARROW_FILLED
 10
117.5
 20
18.0
 30
0.0
 41
4.57
 42
4.57
 43
4.57
 50
90.0
  0
MTEXT
  5
E34
330
E2C
100
AcDbEntity
  8
SK2
 62
     7
100
AcDbMText
 10
117.5
 20
0.0
 30
0.0
 40
3.5
 41
0.0
 71
     5
 72
     1
  1
\A1;%%c36
  7
BMG_Text
 11
0.0
 21
1.0
 31
0.0
 73
     1
 44
1.0
  0
POINT
  5
E35
330
E2C
100
AcDbEntity
  8
Defpoints
 62
     0
100
AcDbPoint
 10
90.0
 20
-18.0
 30
0.0
  0
POINT
  5
E36
330
E2C
100
AcDbEntity
  8
Defpoints
 62
     0
100
AcDbPoint
 10
90.0
 20
18.0
 30
0.0
  0
POINT
  5
E37
330
E2C
100
AcDbEntity
  8
Defpoints
 62
     0
100
AcDbPoint
 10
117.5
 20
18.0
 30
0.0
  0
ENDBLK
  5
E38
330
E2C
100
AcDbEntity
  8
0
100
AcDbBlockEnd
  0
BLOCK
  5
E60
330
E5F
100
AcDbEntity
  8
0
100
AcDbBlockBegin
  2
*D82
 70
     1
 10
0.0
 20
0.0
 30
0.0
  3
*D82
  1

  0
LINE
  5
E61
330
E5F
100
AcDbEntity
  8
SK2
  6
Continuous
 62
     0
370
    -2
100
AcDbLine
 10
90.0
 20
18.0
 30
0.0
 11
90.0
 21
47.0
 31
0.0
  0
LINE
  5
E62
330
E5F
100
AcDbEntity
  8
SK2
  6
Continuous
 62
     0
370
    -2
100
AcDbLine
 10
42.49999999999999
 20
18.0
 30
0.0
 11
42.49999999999999
 21
47.0
 31
0.0
  0
LINE
  5
E63
330
E5F
100
AcDbEntity
  8
SK2
  6
Continuous
 62
     0
370
    -2
100
AcDbLine
 10
85.43
 20
42.0
 30
0.0
 11
72.58333333333333
 21
42.0
 31
0.0
  0
LINE
  5
E64
330
E5F
100
AcDbEntity
  8
SK2
  6
Continuous
 62
     0
370
    -2
100
AcDbLine
 10
47.06999999999999
 20
42.0
 30
0.0
 11
59.91666666666667
 21
42.0
 31
0.0
  0
INSERT
  5
E65
330
E5F
100
AcDbEntity
  8
SK2
 62
     0
370
    -2
100
AcDbBlockReference
  2
_ARROW_FILLED
 10
90.0
 20
42.0
 30
0.0
 41
4.57
 42
4.57
 43
4.57
  0
INSERT
  5
E66
330
E5F
100
AcDbEntity
  8
SK2
 62
     0
370
    -2
100
AcDbBlockReference
  2
_ARROW_FILLED
 10
42.49999999999999
 20
42.0
 30
0.0
 41
4.57
 42
4.57
 43
4.57
 50
180.0
  0
MTEXT
  5
E67
330
E5F
100
AcDbEntity
  8
SK2
 62
     7
100
AcDbMText
 10
66.25
 20
42.0
 30
0.0
 40
3.5
 41
0.0
 71
     5
 72
     1
  1
\A1;47.5
  7
BMG_Text
 73
     1
 44
1.0
  0
POINT
  5
E68
330
E5F
100
AcDbEntity
  8
Defpoints
 62
     0
100
AcDbPoint
 10
90.0
 20
18.0
 30
0.0
  0
POINT
  5
E69
330
E5F
100
AcDbEntity
  8
Defpoints
 62
     0
100
AcDbPoint
 10
42.49999999999999
 20
18.0
 30
0.0
  0
POINT
  5
E6A
330
E5F
100
AcDbEntity
  8
Defpoints
 62
     0
100
AcDbPoint
 10
42.49999999999999
 20
42.0
 30
0.0
  0
ENDBLK
  5
E6B
330
E5F
100
AcDbEntity
  8
0
100
AcDbBlockEnd
  0
BLOCK
  5
E6F
330
E6E
100
AcDbEntity
  8
0
100
AcDbBlockBegin
  2
*D83
 70
     1
 10
0.0
 20
0.0
 30
0.0
  3
*D83
  1

  0
LINE
  5
E70
330
E6E
100
AcDbEntity
  8
2
  6
Continuous
 62
     0
370
    -2
100
AcDbLine
 10
90.0
 20
18.0
 30
0.0
 11
90.0
 21
54.0
 31
0.0
  0
LINE
  5
E71
330
E6E
100
AcDbEntity
  8
2
  6
Continuous
 62
     0
370
    -2
100
AcDbLine
 10
37.99999999999999
 20
10.59999999999999
 30
0.0
 11
37.99999999999999
 21
54.0
 31
0.0
  0
LINE
  5
E72
330
E6E
100
AcDbEntity
  8
2
  6
Continuous
 62
     0
370
    -2
100
AcDbLine
 10
85.43
 20
49.0
 30
0.0
 11
67.83333333333333
 21
49.0
 31
0.0
  0
LINE
  5
E73
330
E6E
100
AcDbEntity
  8
2
  6
Continuous
 62
     0
370
    -2
100
AcDbLine
 10
42.56999999999999
 20
49.0
 30
0.0
 11
60.16666666666667
 21
49.0
 31
0.0
  0
INSERT
  5
E74
330
E6E
100
AcDbEntity
  8
2
 62
     0
370
    -2
100
AcDbBlockReference
  2
_ARROW_FILLED
 10
90.0
 20
49.0
 30
0.0
 41
4.57
 42
4.57
 43
4.57
  0
INSERT
  5
E75
330
E6E
100
AcDbEntity
  8
2
 62
     0
370
    -2
100
AcDbBlockReference
  2
_ARROW_FILLED
 10
37.99999999999999
 20
49.0
 30
0.0
 41
4.57
 42
4.57
 43
4.57
 50
180.0
  0
MTEXT
  5
E76
330
E6E
100
AcDbEntity
  8
2
 62
     7
100
AcDbMText
 10
64.0
 20
49.0
 30
0.0
 40
3.5
 41
0.0
 71
     5
 72
     1
  1
\A1;52
  7
BMG_Text
 73
     1
 44
1.0
  0
POINT
  5
E77
330
E6E
100
AcDbEntity
  8
Defpoints
 62
     0
100
AcDbPoint
 10
90.0
 20
18.0
 30
0.0
  0
POINT
  5
E78
330
E6E
100
AcDbEntity
  8
Defpoints
 62
     0
100
AcDbPoint
 10
37.99999999999999
 20
10.59999999999999
 30
0.0
  0
POINT
  5
E79
330
E6E
100
AcDbEntity
  8
Defpoints
 62
     0
100
AcDbPoint
 10
37.99999999999999
 20
49.0
 30
0.0
  0
ENDBLK
  5
E7A
330
E6E
100
AcDbEntity
  8
0
100
AcDbBlockEnd
  0
BLOCK
  5
E83
330
E82
100
AcDbEntity
  8
0
100
AcDbBlockBegin
  2
*D84
 70
     1
 10
0.0
 20
0.0
 30
0.0
  3
*D84
  1

  0
LINE
  5
E84
330
E82
100
AcDbEntity
  8
SK2
  6
Continuous
 62
     0
370
    -2
100
AcDbLine
 10
39.613249
 20
-25.0
 30
0.0
 11
150.5
 21
-25.00000000000001
 31
0.0
  0
LINE
  5
E85
330
E82
100
AcDbEntity
  8
SK2
  6
Continuous
 62
     0
370
    -2
100
AcDbLine
 10
39.613249
 20
25.0
 30
0.0
 11
150.5
 21
24.99999999999999
 31
0.0
  0
LINE
  5
E86
330
E82
100
AcDbEntity
  8
SK2
  6
Continuous
 62
     0
370
    -2
100
AcDbLine
 10
145.5
 20
-20.43000000000001
 30
0.0
 11
145.5
 21
-5.416666666666657
 31
0.0
  0
LINE
  5
E87
330
E82
100
AcDbEntity
  8
SK2
  6
Continuous
 62
     0
370
    -2
100
AcDbLine
 10
145.5
 20
20.42999999999999
 30
0.0
 11
145.5
 21
5.416666666666657
 31
0.0
  0
INSERT
  5
E88
330
E82
100
AcDbEntity
  8
SK2
 62
     0
370
    -2
100
AcDbBlockReference
  2
_ARROW_FILLED
 10
145.5
 20
-25.00000000000001
 30
0.0
 41
4.57
 42
4.57
 43
4.57
 50
270.0
  0
INSERT
  5
E89
330
E82
100
AcDbEntity
  8
SK2
 62
     0
370
    -2
100
AcDbBlockReference
  2
_ARROW_FILLED
 10
145.5
 20
24.99999999999999
 30
0.0
 41
4.57
 42
4.57
 43
4.57
 50
90.0
  0
MTEXT
  5
E8A
330
E82
100
AcDbEntity
  8
SK2
 62
     7
100
AcDbMText
 10
145.5
 20
-0.0000000000000071
 30
0.0
 40
3.5
 41
0.0
 71
     5
 72
     1
  1
\A1;%%c50
  7
BMG_Text
 11
0.0
 21
1.0
 31
0.0
 73
     1
 44
1.0
  0
POINT
  5
E8B
330
E82
100
AcDbEntity
  8
Defpoints
 62
     0
100
AcDbPoint
 10
39.613249
 20
-25.0
 30
0.0
  0
POINT
  5
E8C
330
E82
100
AcDbEntity
  8
Defpoints
 62
     0
100
AcDbPoint
 10
39.613249
 20
25.0
 30
0.0
  0
POINT
  5
E8D
330
E82
100
AcDbEntity
  8
Defpoints
 62
     0
100
AcDbPoint
 10
145.5
 20
24.99999999999999
 30
0.0
  0
ENDBLK
  5
E8E
330
E82
100
AcDbEntity
  8
0
100
AcDbBlockEnd
  0
BLOCK
  5
E93
330
E92
100
AcDbEntity
  8
0
100
AcDbBlockBegin
  2
*D85
 70
     1
 10
0.0
 20
0.0
 30
0.0
  3
*D85
  1

  0
LINE
  5
E94
330
E92
100
AcDbEntity
  8
SK2
  6
Continuous
 62
     0
370
    -2
100
AcDbLine
 10
90.0
 20
18.0
 30
0.0
 11
90.0
 21
61.0
 31
0.0
  0
LINE
  5
E95
330
E92
100
AcDbEntity
  8
SK2
  6
Continuous
 62
     0
370
    -2
100
AcDbLine
 10
25.99999999999999
 20
31.5
 30
0.0
 11
25.99999999999999
 21
61.0
 31
0.0
  0
LINE
  5
E96
330
E92
100
AcDbEntity
  8
SK2
  6
Continuous
 62
     0
370
    -2
100
AcDbLine
 10
85.43
 20
56.0
 30
0.0
 11
61.92447916666666
 21
56.0
 31
0.0
  0
LINE
  5
E97
330
E92
100
AcDbEntity
  8
SK2
  6
Continuous
 62
     0
370
    -2
100
AcDbLine
 10
30.56999999999999
 20
56.0
 30
0.0
 11
54.07552083333334
 21
56.0
 31
0.0
  0
INSERT
  5
E98
330
E92
100
AcDbEntity
  8
SK2
 62
     0
370
    -2
100
AcDbBlockReference
  2
_ARROW_FILLED
 10
90.0
 20
56.0
 30
0.0
 41
4.57
 42
4.57
 43
4.57
  0
INSERT
  5
E99
330
E92
100
AcDbEntity
  8
SK2
 62
     0
370
    -2
100
AcDbBlockReference
  2
_ARROW_FILLED
 10
25.99999999999999
 20
56.0
 30
0.0
 41
4.57
 42
4.57
 43
4.57
 50
180.0
  0
MTEXT
  5
E9A
330
E92
100
AcDbEntity
  8
SK2
 62
     7
100
AcDbMText
 10
58.0
 20
56.0
 30
0.0
 40
3.5
 41
0.0
 71
     5
 72
     1
  1
\A1;64
  7
BMG_Text
 73
     1
 44
1.0
  0
POINT
  5
E9B
330
E92
100
AcDbEntity
  8
Defpoints
 62
     0
100
AcDbPoint
 10
90.0
 20
18.0
 30
0.0
  0
POINT
  5
E9C
330
E92
100
AcDbEntity
  8
Defpoints
 62
     0
100
AcDbPoint
 10
25.99999999999999
 20
31.5
 30
0.0
  0
POINT
  5
E9D
330
E92
100
AcDbEntity
  8
Defpoints
 62
     0
100
AcDbPoint
 10
25.99999999999999
 20
56.0
 30
0.0
  0
ENDBLK
  5
E9E
330
E92
100
AcDbEntity
  8
0
100
AcDbBlockEnd
  0
ENDSEC
  0
SECTION
  2
ENTITIES
  0
INSERT
  5
32
330
A
100
AcDbEntity
  8
0
  6
Continuous
 62
     0
100
AcDbBlockReference
  2
BLK1
 10
0.0
 20
0.0
 30
0.0
  0
INSERT
  5
36
330
A
100
AcDbEntity
  8
0
  6
Continuous
 62
     0
100
AcDbBlockReference
  2
BLK2
 10
0.0
 20
0.0
 30
0.0
  0
INSERT
  5
3B
102
{ACAD_REACTORS
330
1D1
102
}
330
A
100
AcDbEntity
  8
SK1
  6
Continuous
 62
     4
100
AcDbBlockReference
  2
BLK3
 10
0.0
 20
0.0
 30
0.0
  0
INSERT
  5
3F
102
{ACAD_REACTORS
330
1D1
102
}
330
A
100
AcDbEntity
  8
SK1
  6
Continuous
 62
     4
100
AcDbBlockReference
  2
BLK4
 10
0.0
 20
0.0
 30
0.0
  0
INSERT
  5
43
102
{ACAD_REACTORS
330
1D1
102
}
330
A
100
AcDbEntity
  8
SK1
  6
Continuous
 62
     4
100
AcDbBlockReference
  2
BLK5
 10
0.0
 20
0.0
 30
0.0
  0
INSERT
  5
8A
102
{ACAD_REACTORS
330
1D1
102
}
330
A
100
AcDbEntity
  8
SK1
  6
Continuous
 62
     4
100
AcDbBlockReference
  2
BLK6
 10
0.0
 20
0.0
 30
0.0
  0
INSERT
  5
AD
102
{ACAD_REACTORS
330
1D1
102
}
330
A
100
AcDbEntity
  8
SK1
  6
Continuous
 62
     4
100
AcDbBlockReference
  2
BLK7
 10
0.0
 20
0.0
 30
0.0
  0
INSERT
  5
B4
102
{ACAD_REACTORS
330
1D1
102
}
330
A
100
AcDbEntity
  8
SK1
  6
Continuous
 62
     4
100
AcDbBlockReference
  2
BLK8
 10
0.0
 20
0.0
 30
0.0
  0
INSERT
  5
D6
102
{ACAD_REACTORS
330
1D1
102
}
330
A
100
AcDbEntity
  8
SK1
  6
Continuous
 62
     4
100
AcDbBlockReference
  2
BLK9
 10
0.0
 20
0.0
 30
0.0
  0
INSERT
  5
110
330
A
100
AcDbEntity
  8
0
  6
Continuous
 62
     0
100
AcDbBlockReference
  2
BLK10
 10
0.0
 20
0.0
 30
0.0
  0
INSERT
  5
114
102
{ACAD_REACTORS
330
1D3
102
}
330
A
100
AcDbEntity
  8
SK1
  6
Continuous
 62
     4
100
AcDbBlockReference
  2
BLK11
 10
0.0
 20
0.0
 30
0.0
  0
INSERT
  5
132
102
{ACAD_REACTORS
330
1D3
102
}
330
A
100
AcDbEntity
  8
SK1
  6
Continuous
 62
     4
100
AcDbBlockReference
  2
BLK12
 10
0.0
 20
0.0
 30
0.0
  0
INSERT
  5
184
102
{ACAD_REACTORS
330
1D3
102
}
330
A
100
AcDbEntity
  8
SK1
  6
Continuous
 62
     4
100
AcDbBlockReference
  2
BLK13
 10
0.0
 20
0.0
 30
0.0
  0
INSERT
  5
189
102
{ACAD_REACTORS
330
1D3
102
}
330
A
100
AcDbEntity
  8
SK1
  6
Continuous
 62
     4
100
AcDbBlockReference
  2
BLK14
 10
0.0
 20
0.0
 30
0.0
  0
INSERT
  5
197
102
{ACAD_REACTORS
330
1D3
102
}
330
A
100
AcDbEntity
  8
SK1
  6
Continuous
 62
     4
100
AcDbBlockReference
  2
BLK15
 10
0.0
 20
0.0
 30
0.0
  0
LINE
  5
237
330
A
100
AcDbEntity
  8
INFTOTAL
370
     0
100
AcDbLine
 10
-79.82928120705068
 20
98.8298386200679
 30
0.0
 11
-79.82928120705071
 21
-93.0229280774578
 31
0.0
  0
LINE
  5
23B
330
A
100
AcDbEntity
  8
INFTOTAL
370
     0
100
AcDbLine
 10
-79.82928120705068
 20
98.8298386200679
 30
0.0
 11
157.7566955302676
 21
98.8298386200679
 31
0.0
  0
LINE
  5
23C
330
A
100
AcDbEntity
  8
INFTOTAL
370
     0
100
AcDbLine
 10
157.7566955302676
 20
98.8298386200679
 30
0.0
 11
157.7566955302676
 21
-93.0229280774578
 31
0.0
  0
LINE
  5
23D
330
A
100
AcDbEntity
  8
INFTOTAL
370
     0
100
AcDbLine
 10
157.7566955302676
 20
-93.0229280774578
 30
0.0
 11
-79.82928120705071
 21
-93.0229280774578
 31
0.0
  0
INSERT
  5
D07
330
A
100
AcDbEntity
  8
SK1
  6
Continuous
 62
     4
100
AcDbBlockReference
  2
BLK11
 10
-0.000118
 20
-0.001
 30
0.0
  0
INSERT
  5
D0E
330
A
100
AcDbEntity
  8
SK1
  6
Continuous
 62
     4
100
AcDbBlockReference
  2
BLK12
 10
-0.000118
 20
-0.001
 30
0.0
  0
INSERT
  5
D16
330
A
100
AcDbEntity
  8
SK1
  6
Continuous
 62
     4
100
AcDbBlockReference
  2
BLK13
 10
-0.000118
 20
-0.001
 30
0.0
  0
TEXT
  5
EC4
330
A
100
AcDbEntity
  8
SK6
  6
Continuous
 62
     5
100
AcDbText
 10
-52.92
 20
-90.26
 30
0.0
 40
3.5
  1
93.05.036.107
  7
BMG_Text
100
AcDbText
  0
LINE
  5
EC5
330
A
100
AcDbEntity
  8
1
  6
Continuous
 62
     4
100
AcDbLine
 10
0.0
 20
31.5
 30
0.0
 11
14.46373000000001
 21
31.5
 31
0.0
  0
LINE
  5
EC6
330
A
100
AcDbEntity
  8
1
  6
Continuous
 62
     4
100
AcDbLine
 10
0.0
 20
-31.5
 30
0.0
 11
14.46373000000001
 21
-31.5
 31
0.0
  0
LINE
  5
EC7
330
A
100
AcDbEntity
  8
1
  6
Continuous
 62
     4
100
AcDbLine
 10
14.46373000000001
 20
31.5
 30
0.0
 11
16.12499999999999
 21
28.62259499999999
 31
0.0
  0
LINE
  5
EC8
330
A
100
AcDbEntity
  8
1
  6
Continuous
 62
     4
100
AcDbLine
 10
21.53626999999999
 20
31.5
 30
0.0
 11
19.87499999999999
 21
28.62259499999999
 31
0.0
  0
LINE
  5
EC9
330
A
100
AcDbEntity
  8
1
  6
Continuous
 62
     4
100
AcDbLine
 10
14.46373000000001
 20
-24.336187
 30
0.0
 11
16.12499999999999
 21
-21.45878199999999
 31
0.0
  0
LINE
  5
ECA
330
A
100
AcDbEntity
  8
1
  6
Continuous
 62
     4
100
AcDbLine
 10
16.12499999999999
 20
-27.84999999999999
 30
0.0
 11
19.87499999999999
 21
-27.84999999999999
 31
0.0
  0
LINE
  5
ECB
330
A
100
AcDbEntity
  8
1
  6
Continuous
 62
     4
100
AcDbLine
 10
19.87499999999999
 20
28.62259499999999
 30
0.0
 11
19.87499999999999
 21
8.050000000000011
 31
0.0
  0
LINE
  5
ECC
330
A
100
AcDbEntity
  8
1
  6
Continuous
 62
     4
100
AcDbLine
 10
16.12499999999999
 20
28.62259499999999
 30
0.0
 11
16.12499999999999
 21
8.050000000000011
 31
0.0
  0
LINE
  5
ECD
330
A
100
AcDbEntity
  8
1
  6
Continuous
 62
     4
100
AcDbLine
 10
-0.6000000000000014
 20
23.69999999999999
 30
0.0
 11
0.0
 21
23.69999999999999
 31
0.0
  0
LINE
  5
ECE
330
A
100
AcDbEntity
  8
1
  6
Continuous
 62
     4
100
AcDbLine
 10
-0.6000000000000014
 20
-23.69999999999999
 30
0.0
 11
0.0
 21
-23.69999999999999
 31
0.0
  0
LINE
  5
ECF
330
A
100
AcDbEntity
  8
1
  6
Continuous
 62
     4
100
AcDbLine
 10
19.87499999999999
 20
-28.62259499999999
 30
0.0
 11
19.87499999999999
 21
-21.45878199999999
 31
0.0
  0
LINE
  5
ED0
330
A
100
AcDbEntity
  8
1
  6
Continuous
 62
     4
100
AcDbLine
 10
21.53626999999999
 20
-31.5
 30
0.0
 11
21.53626999999999
 21
-24.336187
 31
0.0
  0
LINE
  5
ED1
330
A
100
AcDbEntity
  8
1
  6
Continuous
 62
     4
100
AcDbLine
 10
14.46373000000001
 20
-31.5
 30
0.0
 11
14.46373000000001
 21
-24.336187
 31
0.0
  0
LINE
  5
ED2
330
A
100
AcDbEntity
  8
1
  6
Continuous
 62
     4
100
AcDbLine
 10
14.46373000000001
 20
8.0
 30
0.0
 11
14.46373000000001
 21
31.5
 31
0.0
  0
LINE
  5
ED3
330
A
100
AcDbEntity
  8
1
  6
Continuous
 62
     4
100
AcDbLine
 10
21.53626999999999
 20
-8.0
 30
0.0
 11
21.53626999999999
 21
-20.0
 31
0.0
  0
LINE
  5
ED4
330
A
100
AcDbEntity
  8
1
  6
Continuous
 62
     4
100
AcDbLine
 10
16.12499999999999
 20
-8.0
 30
0.0
 11
16.12499999999999
 21
-20.0
 31
0.0
  0
LINE
  5
ED5
330
A
100
AcDbEntity
  8
1
  6
Continuous
 62
     4
100
AcDbLine
 10
-31.0
 20
5.0
 30
0.0
 11
-32.0
 21
5.577349999999996
 31
0.0
  0
LINE
  5
ED6
330
A
100
AcDbEntity
  8
1
  6
Continuous
 62
     4
100
AcDbLine
 10
-31.0
 20
-5.0
 30
0.0
 11
-32.0
 21
-5.577349999999996
 31
0.0
  0
LINE
  5
ED7
330
A
100
AcDbEntity
  8
1
  6
Continuous
 62
     4
100
AcDbLine
 10
-31.0
 20
-5.0
 30
0.0
 11
-31.0
 21
-5.0
 31
0.0
  0
LINE
  5
ED8
330
A
100
AcDbEntity
  8
1
  6
Continuous
 62
     4
100
AcDbLine
 10
0.0
 20
31.5
 30
0.0
 11
0.0
 21
-31.5
 31
0.0
  0
LINE
  5
ED9
330
A
100
AcDbEntity
  8
1
  6
Continuous
 62
     4
100
AcDbLine
 10
19.87499999999999
 20
-8.0
 30
0.0
 11
19.87499999999999
 21
-20.0
 31
0.0
  0
LINE
  5
EDA
330
A
100
AcDbEntity
  8
1
  6
Continuous
 62
     4
100
AcDbLine
 10
21.53626999999999
 20
31.5
 30
0.0
 11
21.53626999999999
 21
8.0
 31
0.0
  0
LINE
  5
EDB
330
A
100
AcDbEntity
  8
1
  6
Continuous
 62
     4
100
AcDbLine
 10
-0.6000000000000014
 20
24.285
 30
0.0
 11
-0.6000000000000014
 21
-24.285
 31
0.0
  0
LINE
  5
EDC
330
A
100
AcDbEntity
  8
1
  6
Continuous
 62
     4
100
AcDbLine
 10
25.99999999999999
 20
31.5
 30
0.0
 11
25.99999999999999
 21
0.0
 31
0.0
  0
LINE
  5
EDD
330
A
100
AcDbEntity
  8
1
  6
Continuous
 62
     4
100
AcDbLine
 10
12.99999999999999
 20
-8.0
 30
0.0
 11
25.99999999999999
 21
-8.0
 31
0.0
  0
LINE
  5
EDE
330
A
100
AcDbEntity
  8
1
  6
Continuous
 62
     4
100
AcDbLine
 10
12.99999999999999
 20
8.0
 30
0.0
 11
25.99999999999999
 21
8.0
 31
0.0
  0
LINE
  5
EDF
330
A
100
AcDbEntity
  8
1
  6
Continuous
 62
     4
100
AcDbLine
 10
16.12499999999999
 20
-28.62259499999999
 30
0.0
 11
16.12499999999999
 21
-21.45878199999999
 31
0.0
  0
LINE
  5
EE0
330
A
100
AcDbEntity
  8
1
  6
Continuous
 62
     4
100
AcDbLine
 10
25.99999999999999
 20
31.5
 30
0.0
 11
21.53626999999999
 21
31.5
 31
0.0
  0
LINE
  5
EE1
330
A
100
AcDbEntity
  8
1
  6
Continuous
 62
     4
100
AcDbLine
 10
14.46373000000001
 20
31.5
 30
0.0
 11
14.46373000000001
 21
31.5
 31
0.0
  0
LINE
  5
EE2
330
A
100
AcDbEntity
  8
1
  6
Continuous
 62
     4
100
AcDbLine
 10
16.12499999999999
 20
28.13647900000001
 30
0.0
 11
19.87499999999999
 21
28.13647900000001
 31
0.0
  0
ARC
  5
EE3
330
A
100
AcDbEntity
  8
1
  6
Continuous
 62
     4
100
AcDbCircle
 10
12.99999999999999
 20
0.0
 30
0.0
 40
8.0
100
AcDbArc
 50
90.0
 51
270.0
  0
LINE
  5
EE4
330
A
100
AcDbEntity
  8
1
  6
Continuous
 62
     4
100
AcDbLine
 10
21.53626999999999
 20
-24.336187
 30
0.0
 11
19.87499999999999
 21
-21.45878199999999
 31
0.0
  0
LINE
  5
EE5
330
A
100
AcDbEntity
  8
1
  6
Continuous
 62
     4
100
AcDbLine
 10
21.53626999999999
 20
-31.5
 30
0.0
 11
25.99999999999999
 21
-31.5
 31
0.0
  0
ARC
  5
EE6
330
A
100
AcDbEntity
  8
1
  6
Continuous
 62
     4
100
AcDbCircle
 10
-30.8
 20
21.57350100000002
 30
0.0
 40
1.2
100
AcDbArc
 50
92.86240499999987
 51
180.0
  0
LINE
  5
EE7
330
A
100
AcDbEntity
  8
1
  6
Continuous
 62
     4
100
AcDbLine
 10
-32.0
 20
21.57350100000002
 30
0.0
 11
-32.0
 21
5.577349999999996
 31
0.0
  0
LINE
  5
EE8
330
A
100
AcDbEntity
  8
1
  6
Continuous
 62
     4
100
AcDbLine
 10
-32.0
 20
-5.577349999999996
 30
0.0
 11
-32.0
 21
-21.57350100000002
 31
0.0
  0
ARC
  5
EE9
330
A
100
AcDbEntity
  8
1
  6
Continuous
 62
     4
100
AcDbCircle
 10
-30.8
 20
-21.57350100000002
 30
0.0
 40
1.2
100
AcDbArc
 50
180.0
 51
267.1375950000002
  0
LINE
  5
EEA
330
A
100
AcDbEntity
  8
1
  6
Continuous
 62
     4
100
AcDbLine
 10
-30.859925
 20
-22.77200399999998
 30
0.0
 11
-0.6000000000000014
 21
-24.285
 31
0.0
  0
LINE
  5
EEB
330
A
100
AcDbEntity
  8
1
  6
Continuous
 62
     4
100
AcDbLine
 10
25.99999999999999
 20
-20.0
 30
0.0
 11
12.111714
 21
-20.0
 31
0.0
  0
ARC
  5
EEC
330
A
100
AcDbEntity
  8
1
  6
Continuous
 62
     4
100
AcDbCircle
 10
12.111714
 20
-28.0
 30
0.0
 40
8.0
100
AcDbArc
 50
90.0
 51
152.7433809999999
  0
LINE
  5
EED
330
A
100
AcDbEntity
  8
1
  6
Continuous
 62
     4
100
AcDbLine
 10
16.12499999999999
 20
-28.62259499999999
 30
0.0
 11
14.46373000000001
 21
-31.5
 31
0.0
  0
LINE
  5
EEE
330
A
100
AcDbEntity
  8
1
  6
Continuous
 62
     4
100
AcDbLine
 10
19.87499999999999
 20
-28.62259499999999
 30
0.0
 11
21.53626999999999
 21
-31.5
 31
0.0
  0
LINE
  5
EEF
330
A
100
AcDbEntity
  8
1
  6
Continuous
 62
     4
100
AcDbLine
 10
16.12499999999999
 20
-21.45878199999999
 30
0.0
 11
19.87499999999999
 21
-21.45878199999999
 31
0.0
  0
LINE
  5
EF0
330
A
100
AcDbEntity
  8
1
  6
Continuous
 62
     4
100
AcDbLine
 10
14.46373000000001
 20
-8.0
 30
0.0
 11
14.46373000000001
 21
-20.0
 31
0.0
  0
ARC
  5
EF1
330
A
100
AcDbEntity
  8
1
  6
Continuous
 62
     4
100
AcDbCircle
 10
-27.5
 20
3.5
 30
0.0
 40
1.5
100
AcDbArc
 50
0.0
 51
90.0
  0
LINE
  5
EF2
330
A
100
AcDbEntity
  8
1
  6
Continuous
 62
     4
100
AcDbLine
 10
-31.0
 20
5.0
 30
0.0
 11
-27.5
 21
5.0
 31
0.0
  0
LINE
  5
EF3
330
A
100
AcDbEntity
  8
1
  6
Continuous
 62
     4
100
AcDbLine
 10
-26.0
 20
3.5
 30
0.0
 11
-26.0
 21
-3.5
 31
0.0
  0
ARC
  5
EF4
330
A
100
AcDbEntity
  8
1
  6
Continuous
 62
     4
100
AcDbCircle
 10
-27.5
 20
-3.5
 30
0.0
 40
1.5
100
AcDbArc
 50
270.0
 51
0.0
  0
LINE
  5
EF5
330
A
100
AcDbEntity
  8
1
  6
Continuous
 62
     4
100
AcDbLine
 10
-31.0
 20
-5.0
 30
0.0
 11
-27.5
 21
-5.0
 31
0.0
  0
LINE
  5
EF6
330
A
100
AcDbEntity
  8
1
  6
Continuous
 62
     4
100
AcDbLine
 10
-30.859925
 20
22.77200399999998
 30
0.0
 11
-0.6000000000000014
 21
24.285
 31
0.0
  0
LINE
  5
EF7
330
A
100
AcDbEntity
  8
1
  6
Continuous
 62
     4
100
AcDbLine
 10
14.46373000000001
 20
-24.336187
 30
0.0
 11
5.0
 21
-24.336187
 31
0.0
  0
LINE
  5
EF8
330
A
100
AcDbEntity
  8
1
  6
Continuous
 62
     4
100
AcDbLine
 10
25.99999999999999
 20
-24.336187
 30
0.0
 11
21.53626999999999
 21
-24.336187
 31
0.0
  0
LINE
  5
EF9
330
A
100
AcDbEntity
  8
SK3
  6
DASHED
 62
     1
100
AcDbLine
 10
11.99999999999999
 20
31.5
 30
0.0
 11
11.99999999999999
 21
26.89999999999998
 31
0.0
  0
LINE
  5
EFA
330
A
100
AcDbEntity
  8
SK3
  6
DASHED
 62
     1
100
AcDbLine
 10
9.804261000000004
 20
26.89999999999998
 30
0.0
 11
7.0
 21
25.454712
 31
0.0
  0
LINE
  5
EFB
330
A
100
AcDbEntity
  8
SK3
  6
DASHED
 62
     1
100
AcDbLine
 10
4.195738999999996
 20
26.89999999999998
 30
0.0
 11
7.0
 21
25.454712
 31
0.0
  0
LINE
  5
EFC
330
A
100
AcDbEntity
  8
SK3
  6
DASHED
 62
     1
100
AcDbLine
 10
2.0
 20
31.5
 30
0.0
 11
2.0
 21
26.89999999999998
 31
0.0
  0
LINE
  5
EFD
330
A
100
AcDbEntity
  8
SK3
  6
DASHED
 62
     1
100
AcDbLine
 10
2.0
 20
26.89999999999998
 30
0.0
 11
11.99999999999999
 21
26.89999999999998
 31
0.0
  0
LINE
  5
EFE
330
A
100
AcDbEntity
  8
1
  6
Continuous
 62
     4
100
AcDbLine
 10
-31.0
 20
5.0
 30
0.0
 11
-31.0
 21
9.131664999999998
 31
0.0
  0
LINE
  5
EFF
330
A
100
AcDbEntity
  8
1
  6
Continuous
 62
     4
100
AcDbLine
 10
-31.0
 20
9.131664999999998
 30
0.0
 11
-32.0
 21
9.70901600000002
 31
0.0
  0
LINE
  5
F00
330
A
100
AcDbEntity
  8
1
  6
Continuous
 62
     4
100
AcDbLine
 10
-26.0
 20
3.5
 30
0.0
 11
-26.0
 21
11.66874999999999
 31
0.0
  0
LINE
  5
F01
330
A
100
AcDbEntity
  8
1
  6
Continuous
 62
     4
100
AcDbLine
 10
-31.0
 20
9.131664999999998
 30
0.0
 11
-26.0
 21
11.66874999999999
 31
0.0
  0
LINE
  5
F02
330
A
100
AcDbEntity
  8
1
  6
Continuous
 62
     4
100
AcDbLine
 10
-31.0
 20
-5.0
 30
0.0
 11
-31.0
 21
-9.131664999999998
 31
0.0
  0
LINE
  5
F03
330
A
100
AcDbEntity
  8
1
  6
Continuous
 62
     4
100
AcDbLine
 10
-31.0
 20
-9.131664999999998
 30
0.0
 11
-32.0
 21
-9.70901600000002
 31
0.0
  0
LINE
  5
F04
330
A
100
AcDbEntity
  8
1
  6
Continuous
 62
     4
100
AcDbLine
 10
-31.0
 20
-9.131664999999998
 30
0.0
 11
-26.0
 21
-11.66874999999999
 31
0.0
  0
LINE
  5
F05
330
A
100
AcDbEntity
  8
1
  6
Continuous
 62
     4
100
AcDbLine
 10
-26.0
 20
-3.5
 30
0.0
 11
-26.0
 21
-11.66874999999999
 31
0.0
  0
DIMENSION
  5
F06
330
A
100
AcDbEntity
  8
SK2
  6
Continuous
 62
     7
100
AcDbDimension
  2
*D75
 10
-49.0
 20
31.5
 30
0.0
 11
-49.0
 21
0.0000000000000036
 31
0.0
 70
    32
  1
%%c<>
 71
     5
 42
63.0
  3
BMG
100
AcDbAlignedDimension
 13
0.0
 23
-31.5
 33
0.0
 14
0.0
 24
31.5
 34
0.0
 50
90.0
100
AcDbRotatedDimension
1001
ACAD
1000
DSTYLE
1002
{
1070
   340
1005
24B
1002
}
  0
CIRCLE
  5
F07
330
A
100
AcDbEntity
  8
1
  6
Continuous
 62
     4
100
AcDbCircle
 10
-9.0
 20
0.0
 30
0.0
 40
3.75
  0
LINE
  5
F08
330
A
100
AcDbEntity
  8
4
  6
DASHDOT
100
AcDbLine
 10
95.0
 20
0.0
 30
0.0
 11
-37.0
 21
0.0
 31
0.0
  0
DIMENSION
  5
F09
330
A
100
AcDbEntity
  8
SK2
  6
Continuous
 62
     7
100
AcDbDimension
  2
*D76
 10
0.0
 20
56.0
 30
0.0
 11
-16.0
 21
56.0
 31
0.0
 70
    32
 71
     5
 42
32.0
  3
BMG
100
AcDbAlignedDimension
 13
-32.0
 23
21.57350100000002
 33
0.0
 14
0.0
 24
31.5
 34
0.0
100
AcDbRotatedDimension
1001
ACAD
1000
DSTYLE
1002
{
1070
   340
1005
24B
1002
}
  0
DIMENSION
  5
F0A
330
A
100
AcDbEntity
  8
SK2
  6
Continuous
 62
     7
100
AcDbDimension
  2
*D77
 10
90.0
 20
70.0
 30
0.0
 11
29.0
 21
70.0
 31
0.0
 70
    32
 71
     5
 42
122.0
  3
BMG
100
AcDbAlignedDimension
 13
-32.0
 23
21.57350100000002
 33
0.0
 14
90.0
 24
18.0
 34
0.0
100
AcDbRotatedDimension
1001
ACAD
1000
DSTYLE
1002
{
1070
   340
1005
24B
1002
}
  0
DIMENSION
  5
F0B
330
A
100
AcDbEntity
  8
2
  6
Continuous
 62
     7
100
AcDbDimension
  2
*D78
 10
0.0
 20
-49.0
 30
0.0
 11
45.0
 21
-49.0
 31
0.0
 70
    32
 71
     5
 42
90.0
  3
BMG
100
AcDbAlignedDimension
 13
90.0
 23
-18.0
 33
0.0
 14
0.0
 24
-31.5
 34
0.0
100
AcDbRotatedDimension
1001
ACAD
1000
DSTYLE
1002
{
1070
   340
1005
24B
1002
}
  0
LINE
  5
F0C
330
A
100
AcDbEntity
  8
SK3
  6
DASHED
 62
     1
100
AcDbLine
 10
35.99999999999999
 20
8.25
 30
0.0
 11
37.99999999999999
 21
8.25
 31
0.0
  0
LINE
  5
F0D
330
A
100
AcDbEntity
  8
SK3
  6
DASHED
 62
     1
100
AcDbLine
 10
35.99999999999999
 20
-8.25
 30
0.0
 11
37.99999999999999
 21
-8.25
 31
0.0
  0
LINE
  5
F0E
330
A
100
AcDbEntity
  8
SK3
  6
DASHED
 62
     1
100
AcDbLine
 10
35.99999999999999
 20
8.25
 30
0.0
 11
35.99999999999999
 21
-8.25
 31
0.0
  0
LINE
  5
F0F
330
A
100
AcDbEntity
  8
1
  6
Continuous
 62
     4
100
AcDbLine
 10
78.65743600000002
 20
20.0
 30
0.0
 11
78.65743600000002
 21
-20.0
 31
0.0
  0
LINE
  5
F10
330
A
100
AcDbEntity
  8
1
  6
Continuous
 62
     4
100
AcDbLine
 10
90.0
 20
18.0
 30
0.0
 11
90.0
 21
-18.0
 31
0.0
  0
LINE
  5
F11
330
A
100
AcDbEntity
  8
1
  6
Continuous
 62
     4
100
AcDbLine
 10
78.65743600000002
 20
20.0
 30
0.0
 11
73.0
 21
20.0
 31
0.0
  0
LINE
  5
F12
330
A
100
AcDbEntity
  8
SK3
  6
DASHED
 62
     1
100
AcDbLine
 10
37.99999999999999
 20
9.0
 30
0.0
 11
86.0
 21
9.0
 31
0.0
  0
LINE
  5
F13
330
A
100
AcDbEntity
  8
SK3
  6
DASHED
 62
     1
100
AcDbLine
 10
37.99999999999999
 20
-9.0
 30
0.0
 11
86.0
 21
-9.0
 31
0.0
  0
DIMENSION
  5
F14
330
A
100
AcDbEntity
  8
SK2
  6
Continuous
 62
     7
100
AcDbDimension
  2
*D79
 10
131.5
 20
20.0
 30
0.0
 11
131.5
 21
-0.0000000000000071
 31
0.0
 70
    32
  1
%%c<>
 71
     5
 42
40.0
  3
BMG
100
AcDbAlignedDimension
 13
70.65743600000002
 23
-20.0
 33
0.0
 14
70.65743600000002
 24
20.0
 34
0.0
 50
90.0
100
AcDbRotatedDimension
1001
ACAD
1000
DSTYLE
1002
{
1070
   340
1005
24B
1002
}
  0
LINE
  5
F15
330
A
100
AcDbEntity
  8
1
  6
Continuous
 62
     4
100
AcDbLine
 10
78.65743600000002
 20
-20.0
 30
0.0
 11
73.0
 21
-20.0
 31
0.0
  0
LINE
  5
F16
330
A
100
AcDbEntity
  8
1
  6
Continuous
 62
     4
100
AcDbLine
 10
73.0
 20
20.0
 30
0.0
 11
73.0
 21
-20.0
 31
0.0
  0
DIMENSION
  5
F17
330
A
100
AcDbEntity
  8
2
  6
Continuous
 62
     7
100
AcDbDimension
  2
*D80
 10
103.5
 20
8.999999999999998
 30
0.0
 11
103.5
 21
18.65333333333333
 31
0.0
 70
    32
  1
%%c<>
 71
     5
 42
18.0
  3
BMG
100
AcDbAlignedDimension
 13
86.0
 23
-9.0
 33
0.0
 14
86.0
 24
9.0
 34
0.0
 50
90.0
100
AcDbRotatedDimension
1001
ACAD
1000
DSTYLE
1002
{
1070
   340
1005
24B
1002
}
  0
DIMENSION
  5
F18
330
A
100
AcDbEntity
  8
SK2
  6
Continuous
 62
     7
100
AcDbDimension
  2
*D81
 10
117.5
 20
18.0
 30
0.0
 11
117.5
 21
0.0
 31
0.0
 70
    32
  1
%%c<>
 71
     5
 42
36.0
  3
BMG
100
AcDbAlignedDimension
 13
90.0
 23
-18.0
 33
0.0
 14
90.0
 24
18.0
 34
0.0
 50
90.0
100
AcDbRotatedDimension
1001
ACAD
1000
DSTYLE
1002
{
1070
   340
1005
24B
1002
}
  0
LINE
  5
F19
330
A
100
AcDbEntity
  8
1
  6
Continuous
 62
     4
100
AcDbLine
 10
72.0
 20
20.0
 30
0.0
 11
72.0
 21
-20.0
 31
0.0
  0
LINE
  5
F1A
330
A
100
AcDbEntity
  8
SK3
  6
DASHED
 62
     1
100
AcDbLine
 10
86.0
 20
14.59999999999999
 30
0.0
 11
86.0
 21
-14.59999999999999
 31
0.0
  0
LINE
  5
F1B
330
A
100
AcDbEntity
  8
SK3
  6
DASHED
 62
     1
100
AcDbLine
 10
37.99999999999999
 20
10.59999999999999
 30
0.0
 11
37.99999999999999
 21
-10.59999999999999
 31
0.0
  0
LINE
  5
F1C
330
A
100
AcDbEntity
  8
SK3
  6
DASHED
 62
     1
100
AcDbLine
 10
86.4
 20
15.0
 30
0.0
 11
90.0
 21
15.0
 31
0.0
  0
LINE
  5
F1D
330
A
100
AcDbEntity
  8
SK3
  6
DASHED
 62
     1
100
AcDbLine
 10
86.4
 20
-15.0
 30
0.0
 11
90.0
 21
-15.0
 31
0.0
  0
LINE
  5
F1E
330
A
100
AcDbEntity
  8
SK3
  6
DASHED
 62
     1
100
AcDbLine
 10
38.4
 20
11.0
 30
0.0
 11
85.20000000000002
 21
11.0
 31
0.0
  0
LINE
  5
F1F
330
A
100
AcDbEntity
  8
SK3
  6
DASHED
 62
     1
100
AcDbLine
 10
38.4
 20
-11.0
 30
0.0
 11
85.20000000000002
 21
-11.0
 31
0.0
  0
LINE
  5
F20
330
A
100
AcDbEntity
  8
SK3
  6
DASHED
 62
     1
100
AcDbLine
 10
85.20000000000002
 20
11.0
 30
0.0
 11
85.20000000000002
 21
-11.0
 31
0.0
  0
LINE
  5
F21
330
A
100
AcDbEntity
  8
SK3
  6
DASHED
 62
     1
100
AcDbLine
 10
85.20000000000002
 20
11.0
 30
0.0
 11
86.0
 21
11.80000000000001
 31
0.0
  0
LINE
  5
F22
330
A
100
AcDbEntity
  8
SK3
  6
DASHED
 62
     1
100
AcDbLine
 10
85.20000000000002
 20
-11.0
 30
0.0
 11
86.0
 21
-11.80000000000001
 31
0.0
  0
LINE
  5
F23
330
A
100
AcDbEntity
  8
1
  6
Continuous
 62
     4
100
AcDbLine
 10
90.0
 20
18.0
 30
0.0
 11
78.65743600000002
 21
20.0
 31
0.0
  0
LINE
  5
F24
330
A
100
AcDbEntity
  8
1
  6
Continuous
 62
     4
100
AcDbLine
 10
90.0
 20
-18.0
 30
0.0
 11
78.65743600000002
 21
-20.0
 31
0.0
  0
LINE
  5
F25
330
A
100
AcDbEntity
  8
1
  6
Continuous
 62
     4
100
AcDbLine
 10
70.0
 20
20.0
 30
0.0
 11
70.0
 21
-20.0
 31
0.0
  0
LINE
  5
F26
330
A
100
AcDbEntity
  8
1
  6
Continuous
 62
     4
100
AcDbLine
 10
69.0
 20
20.0
 30
0.0
 11
69.0
 21
-20.0
 31
0.0
  0
LINE
  5
F27
330
A
100
AcDbEntity
  8
1
  6
Continuous
 62
     4
100
AcDbLine
 10
67.0
 20
20.0
 30
0.0
 11
67.0
 21
-20.0
 31
0.0
  0
LINE
  5
F28
330
A
100
AcDbEntity
  8
1
  6
Continuous
 62
     4
100
AcDbLine
 10
66.0
 20
20.0
 30
0.0
 11
66.0
 21
-20.0
 31
0.0
  0
LINE
  5
F29
330
A
100
AcDbEntity
  8
1
  6
Continuous
 62
     4
100
AcDbLine
 10
73.0
 20
19.5
 30
0.0
 11
72.0
 21
19.5
 31
0.0
  0
LINE
  5
F2A
330
A
100
AcDbEntity
  8
1
  6
Continuous
 62
     4
100
AcDbLine
 10
73.0
 20
-19.5
 30
0.0
 11
72.0
 21
-19.5
 31
0.0
  0
LINE
  5
F2B
330
A
100
AcDbEntity
  8
1
  6
Continuous
 62
     4
100
AcDbLine
 10
66.0
 20
20.0
 30
0.0
 11
60.99999999999999
 21
20.0
 31
0.0
  0
LINE
  5
F2C
330
A
100
AcDbEntity
  8
1
  6
Continuous
 62
     4
100
AcDbLine
 10
67.0
 20
19.5
 30
0.0
 11
66.0
 21
19.5
 31
0.0
  0
LINE
  5
F2D
330
A
100
AcDbEntity
  8
1
  6
Continuous
 62
     4
100
AcDbLine
 10
69.0
 20
20.0
 30
0.0
 11
67.0
 21
20.0
 31
0.0
  0
LINE
  5
F2E
330
A
100
AcDbEntity
  8
1
  6
Continuous
 62
     4
100
AcDbLine
 10
70.0
 20
19.5
 30
0.0
 11
69.0
 21
19.5
 31
0.0
  0
LINE
  5
F2F
330
A
100
AcDbEntity
  8
1
  6
Continuous
 62
     4
100
AcDbLine
 10
72.0
 20
20.0
 30
0.0
 11
70.0
 21
20.0
 31
0.0
  0
LINE
  5
F30
330
A
100
AcDbEntity
  8
1
  6
Continuous
 62
     4
100
AcDbLine
 10
66.0
 20
-20.0
 30
0.0
 11
60.99999999999999
 21
-20.0
 31
0.0
  0
LINE
  5
F31
330
A
100
AcDbEntity
  8
1
  6
Continuous
 62
     4
100
AcDbLine
 10
67.0
 20
-19.5
 30
0.0
 11
66.0
 21
-19.5
 31
0.0
  0
LINE
  5
F32
330
A
100
AcDbEntity
  8
1
  6
Continuous
 62
     4
100
AcDbLine
 10
69.0
 20
-20.0
 30
0.0
 11
67.0
 21
-20.0
 31
0.0
  0
LINE
  5
F33
330
A
100
AcDbEntity
  8
1
  6
Continuous
 62
     4
100
AcDbLine
 10
70.0
 20
-19.5
 30
0.0
 11
69.0
 21
-19.5
 31
0.0
  0
ARC
  5
F34
330
A
100
AcDbEntity
  8
SK3
  6
DASHED
 62
     1
100
AcDbCircle
 10
38.4
 20
10.59999999999999
 30
0.0
 40
0.4
100
AcDbArc
 50
90.0
 51
180.0
  0
ARC
  5
F35
330
A
100
AcDbEntity
  8
SK3
  6
DASHED
 62
     1
100
AcDbCircle
 10
38.4
 20
-10.59999999999999
 30
0.0
 40
0.4
100
AcDbArc
 50
180.0
 51
270.0
  0
ARC
  5
F36
330
A
100
AcDbEntity
  8
SK3
  6
DASHED
 62
     1
100
AcDbCircle
 10
86.4
 20
14.59999999999999
 30
0.0
 40
0.4
100
AcDbArc
 50
90.0
 51
180.0
  0
LINE
  5
F37
330
A
100
AcDbEntity
  8
1
  6
Continuous
 62
     4
100
AcDbLine
 10
72.0
 20
-20.0
 30
0.0
 11
70.0
 21
-20.0
 31
0.0
  0
LINE
  5
F38
330
A
100
AcDbEntity
  8
1
  6
Continuous
 62
     4
100
AcDbLine
 10
59.99999999999999
 20
20.0
 30
0.0
 11
59.99999999999999
 21
-20.0
 31
0.0
  0
LINE
  5
F39
330
A
100
AcDbEntity
  8
1
  6
Continuous
 62
     4
100
AcDbLine
 10
60.99999999999999
 20
20.0
 30
0.0
 11
60.99999999999999
 21
-20.0
 31
0.0
  0
LINE
  5
F3A
330
A
100
AcDbEntity
  8
1
  6
Continuous
 62
     4
100
AcDbLine
 10
60.99999999999999
 20
19.5
 30
0.0
 11
59.99999999999999
 21
19.5
 31
0.0
  0
LINE
  5
F3B
330
A
100
AcDbEntity
  8
1
  6
Continuous
 62
     4
100
AcDbLine
 10
60.99999999999999
 20
-19.5
 30
0.0
 11
59.99999999999999
 21
-19.5
 31
0.0
  0
LINE
  5
F3C
330
A
100
AcDbEntity
  8
1
  6
Continuous
 62
     4
100
AcDbLine
 10
59.99999999999999
 20
-20.0
 30
0.0
 11
44.23205100000001
 21
-20.0
 31
0.0
  0
LINE
  5
F3D
330
A
100
AcDbEntity
  8
1
  6
Continuous
 62
     4
100
AcDbLine
 10
59.99999999999999
 20
20.0
 30
0.0
 11
44.23205100000001
 21
20.0
 31
0.0
  0
DIMENSION
  5
F3E
330
A
100
AcDbEntity
  8
SK2
  6
Continuous
 62
     7
100
AcDbDimension
  2
*D82
 10
42.49999999999999
 20
42.0
 30
0.0
 11
66.25
 21
42.0
 31
0.0
 70
    32
 71
     5
 42
47.50000000000001
  3
BMG
100
AcDbAlignedDimension
 13
90.0
 23
18.0
 33
0.0
 14
42.49999999999999
 24
18.0
 34
0.0
100
AcDbRotatedDimension
1001
ACAD
1000
DSTYLE
1002
{
1070
   340
1005
24B
1002
}
  0
ARC
  5
F3F
330
A
100
AcDbEntity
  8
SK3
  6
DASHED
 62
     1
100
AcDbCircle
 10
86.4
 20
-14.59999999999999
 30
0.0
 40
0.4
100
AcDbArc
 50
180.0
 51
270.0
  0
DIMENSION
  5
F40
330
A
100
AcDbEntity
  8
2
  6
Continuous
 62
     7
100
AcDbDimension
  2
*D83
 10
37.99999999999999
 20
49.0
 30
0.0
 11
64.0
 21
49.0
 31
0.0
 70
    32
 71
     5
 42
52.00000000000001
  3
BMG
100
AcDbAlignedDimension
 13
90.0
 23
18.0
 33
0.0
 14
37.99999999999999
 24
10.59999999999999
 34
0.0
100
AcDbRotatedDimension
1001
ACAD
1000
DSTYLE
1002
{
1070
   340
1005
24B
1002
}
  0
LINE
  5
F41
330
A
100
AcDbEntity
  8
1
  6
Continuous
 62
     4
100
AcDbLine
 10
42.49999999999999
 20
18.0
 30
0.0
 11
42.49999999999999
 21
-18.0
 31
0.0
  0
LINE
  5
F42
330
A
100
AcDbEntity
  8
1
  6
Continuous
 62
     4
100
AcDbLine
 10
25.99999999999999
 20
25.0
 30
0.0
 11
39.613249
 21
25.0
 31
0.0
  0
LINE
  5
F43
330
A
100
AcDbEntity
  8
1
  6
Continuous
 62
     4
100
AcDbLine
 10
25.99999999999999
 20
-25.0
 30
0.0
 11
39.613249
 21
-25.0
 31
0.0
  0
LINE
  5
F44
330
A
100
AcDbEntity
  8
1
  6
Continuous
 62
     4
100
AcDbLine
 10
41.633975
 20
21.5
 30
0.0
 11
39.613249
 21
25.0
 31
0.0
  0
LINE
  5
F45
330
A
100
AcDbEntity
  8
1
  6
Continuous
 62
     4
100
AcDbLine
 10
41.633975
 20
-21.5
 30
0.0
 11
39.613249
 21
-25.0
 31
0.0
  0
LINE
  5
F46
330
A
100
AcDbEntity
  8
1
  6
Continuous
 62
     4
100
AcDbLine
 10
39.613249
 20
25.0
 30
0.0
 11
39.613249
 21
-25.0
 31
0.0
  0
DIMENSION
  5
F47
330
A
100
AcDbEntity
  8
SK2
  6
Continuous
 62
     7
100
AcDbDimension
  2
*D84
 10
145.5
 20
24.99999999999999
 30
0.0
 11
145.5
 21
-0.0000000000000071
 31
0.0
 70
    32
  1
%%c<>
 71
     5
 42
50.0
  3
BMG
100
AcDbAlignedDimension
 13
39.613249
 23
-25.0
 33
0.0
 14
39.613249
 24
25.0
 34
0.0
 50
90.0
100
AcDbRotatedDimension
1001
ACAD
1000
DSTYLE
1002
{
1070
   340
1005
24B
1002
}
  0
ARC
  5
F48
330
A
100
AcDbEntity
  8
1
  6
Continuous
 62
     4
100
AcDbCircle
 10
44.23205100000001
 20
23.0
 30
0.0
 40
3.0
100
AcDbArc
 50
210.0
 51
270.0
  0
ARC
  5
F49
330
A
100
AcDbEntity
  8
1
  6
Continuous
 62
     4
100
AcDbCircle
 10
44.23205100000001
 20
-23.0
 30
0.0
 40
3.0
100
AcDbArc
 50
90.0
 51
150.0
  0
DIMENSION
  5
F4A
330
A
100
AcDbEntity
  8
SK2
  6
Continuous
 62
     7
100
AcDbDimension
  2
*D85
 10
25.99999999999999
 20
56.0
 30
0.0
 11
58.0
 21
56.0
 31
0.0
 70
    32
 71
     5
 42
64.0
  3
BMG
100
AcDbAlignedDimension
 13
90.0
 23
18.0
 33
0.0
 14
25.99999999999999
 24
31.5
 34
0.0
100
AcDbRotatedDimension
1001
ACAD
1000
DSTYLE
1002
{
1070
   340
1005
24B
1002
}
  0
LINE
  5
F4B
330
A
100
AcDbEntity
  8
1
  6
Continuous
 62
     4
100
AcDbLine
 10
25.99999999999999
 20
0.0
 30
0.0
 11
25.99999999999999
 21
-31.5
 31
0.0
  0
LINE
  5
F4C
330
A
100
AcDbEntity
  8
NOCUT
370
     0
100
AcDbLine
 10
0.0
 20
0.0
 30
0.0
 11
0.0
 21
31.5
 31
0.0
  0
LINE
  5
F4D
330
A
100
AcDbEntity
  8
NOCUT
370
     0
100
AcDbLine
 10
0.0
 20
31.5
 30
0.0
 11
14.46373000000001
 21
31.5
 31
0.0
  0
LINE
  5
F4E
330
A
100
AcDbEntity
  8
NOCUT
370
     0
100
AcDbLine
 10
14.46373000000001
 20
31.5
 30
0.0
 11
16.12499999999999
 21
28.62259499999999
 31
0.0
  0
LINE
  5
F4F
330
A
100
AcDbEntity
  8
NOCUT
370
     0
100
AcDbLine
 10
16.12499999999999
 20
28.62259499999999
 30
0.0
 11
16.12499999999999
 21
28.13647900000001
 31
0.0
  0
LINE
  5
F50
330
A
100
AcDbEntity
  8
NOCUT
370
     0
100
AcDbLine
 10
16.12499999999999
 20
28.13647900000001
 30
0.0
 11
19.87499999999999
 21
28.13647900000001
 31
0.0
  0
LINE
  5
F51
330
A
100
AcDbEntity
  8
NOCUT
370
     0
100
AcDbLine
 10
19.87499999999999
 20
28.13647900000001
 30
0.0
 11
19.87499999999999
 21
28.62259499999999
 31
0.0
  0
LINE
  5
F52
330
A
100
AcDbEntity
  8
NOCUT
370
     0
100
AcDbLine
 10
19.87499999999999
 20
28.62259499999999
 30
0.0
 11
21.53626999999999
 21
31.5
 31
0.0
  0
LINE
  5
F53
330
A
100
AcDbEntity
  8
NOCUT
370
     0
100
AcDbLine
 10
21.53626999999999
 20
31.5
 30
0.0
 11
25.99999999999999
 21
31.5
 31
0.0
  0
LINE
  5
F54
330
A
100
AcDbEntity
  8
NOCUT
370
     0
100
AcDbLine
 10
25.99999999999999
 20
31.5
 30
0.0
 11
25.99999999999999
 21
25.0
 31
0.0
  0
LINE
  5
F55
330
A
100
AcDbEntity
  8
NOCUT
370
     0
100
AcDbLine
 10
25.99999999999999
 20
25.0
 30
0.0
 11
39.613249
 21
25.0
 31
0.0
  0
LINE
  5
F56
330
A
100
AcDbEntity
  8
NOCUT
370
     0
100
AcDbLine
 10
39.613249
 20
25.0
 30
0.0
 11
41.633975
 21
21.5
 31
0.0
  0
LINE
  5
F57
330
A
100
AcDbEntity
  8
NOCUT
370
     0
100
AcDbLine
 10
41.633975
 20
21.5
 30
0.0
 11
44.23205100000001
 21
20.0
 31
0.0
  0
LINE
  5
F58
330
A
100
AcDbEntity
  8
NOCUT
370
     0
100
AcDbLine
 10
44.23205100000001
 20
20.0
 30
0.0
 11
59.99999999999999
 21
20.0
 31
0.0
  0
LINE
  5
F59
330
A
100
AcDbEntity
  8
NOCUT
370
     0
100
AcDbLine
 10
59.99999999999999
 20
20.0
 30
0.0
 11
59.99999999999999
 21
19.5
 31
0.0
  0
LINE
  5
F5A
330
A
100
AcDbEntity
  8
NOCUT
370
     0
100
AcDbLine
 10
59.99999999999999
 20
19.5
 30
0.0
 11
60.99999999999999
 21
19.5
 31
0.0
  0
LINE
  5
F5B
330
A
100
AcDbEntity
  8
NOCUT
370
     0
100
AcDbLine
 10
60.99999999999999
 20
19.5
 30
0.0
 11
60.99999999999999
 21
20.0
 31
0.0
  0
LINE
  5
F5C
330
A
100
AcDbEntity
  8
NOCUT
370
     0
100
AcDbLine
 10
60.99999999999999
 20
20.0
 30
0.0
 11
66.0
 21
20.0
 31
0.0
  0
LINE
  5
F5D
330
A
100
AcDbEntity
  8
NOCUT
370
     0
100
AcDbLine
 10
66.0
 20
20.0
 30
0.0
 11
66.0
 21
19.5
 31
0.0
  0
LINE
  5
F5E
330
A
100
AcDbEntity
  8
NOCUT
370
     0
100
AcDbLine
 10
66.0
 20
19.5
 30
0.0
 11
67.0
 21
19.5
 31
0.0
  0
LINE
  5
F5F
330
A
100
AcDbEntity
  8
NOCUT
370
     0
100
AcDbLine
 10
67.0
 20
19.5
 30
0.0
 11
67.0
 21
20.0
 31
0.0
  0
LINE
  5
F60
330
A
100
AcDbEntity
  8
NOCUT
370
     0
100
AcDbLine
 10
67.0
 20
20.0
 30
0.0
 11
69.0
 21
20.0
 31
0.0
  0
LINE
  5
F61
330
A
100
AcDbEntity
  8
NOCUT
370
     0
100
AcDbLine
 10
69.0
 20
20.0
 30
0.0
 11
69.0
 21
19.5
 31
0.0
  0
LINE
  5
F62
330
A
100
AcDbEntity
  8
NOCUT
370
     0
100
AcDbLine
 10
69.0
 20
19.5
 30
0.0
 11
70.0
 21
19.5
 31
0.0
  0
LINE
  5
F63
330
A
100
AcDbEntity
  8
NOCUT
370
     0
100
AcDbLine
 10
70.0
 20
19.5
 30
0.0
 11
70.0
 21
20.0
 31
0.0
  0
LINE
  5
F64
330
A
100
AcDbEntity
  8
NOCUT
370
     0
100
AcDbLine
 10
70.0
 20
20.0
 30
0.0
 11
72.0
 21
20.0
 31
0.0
  0
LINE
  5
F65
330
A
100
AcDbEntity
  8
NOCUT
370
     0
100
AcDbLine
 10
72.0
 20
20.0
 30
0.0
 11
72.0
 21
19.5
 31
0.0
  0
LINE
  5
F66
330
A
100
AcDbEntity
  8
NOCUT
370
     0
100
AcDbLine
 10
72.0
 20
19.5
 30
0.0
 11
73.0
 21
19.5
 31
0.0
  0
LINE
  5
F67
330
A
100
AcDbEntity
  8
NOCUT
370
     0
100
AcDbLine
 10
73.0
 20
19.5
 30
0.0
 11
73.0
 21
20.0
 31
0.0
  0
LINE
  5
F68
330
A
100
AcDbEntity
  8
NOCUT
370
     0
100
AcDbLine
 10
73.0
 20
20.0
 30
0.0
 11
78.65743600000002
 21
20.0
 31
0.0
  0
LINE
  5
F69
330
A
100
AcDbEntity
  8
NOCUT
370
     0
100
AcDbLine
 10
78.65743600000002
 20
20.0
 30
0.0
 11
90.0
 21
18.0
 31
0.0
  0
LINE
  5
F6A
330
A
100
AcDbEntity
  8
NOCUT
370
     0
100
AcDbLine
 10
90.0
 20
18.0
 30
0.0
 11
90.0
 21
0.0
 31
0.0
  0
LINE
  5
F6B
330
A
100
AcDbEntity
  8
NOCUT
370
     0
100
AcDbLine
 10
90.0
 20
0.0
 30
0.0
 11
0.0
 21
0.0
 31
0.0
  0
TEXT
  5
F6C
330
A
100
AcDbEntity
  8
SK6
  6
Continuous
 62
     5
100
AcDbText
 10
-32.0
 20
13.57999999999998
 30
0.0
 40
3.5
  1
HSK-A63
  7
BMG_Text
100
AcDbText
  0
VIEWPORT
  5
1CC
330
B
100
AcDbEntity
 67
     1
  8
LC-000
100
AcDbViewport
 10
210.0
 20
148.5
 30
0.0
 40
420.0
 41
297.0
 68
     1
 69
     1
 12
210.0
 22
148.5
 13
0.0
 23
0.0
 14
1.0
 24
1.0
 15
0.0
 25
0.0
 16
0.0
 26
0.0
 36
1.0
 17
0.0
 27
0.0
 37
0.0
 42
50.0
 43
0.0
 44
0.0
 45
297.0
 50
0.0
 51
0.0
 72
   100
 90
    32928
  1

281
     0
 71
     0
 74
     1
110
0.0
120
0.0
130
0.0
111
1.0
121
0.0
131
0.0
112
0.0
122
1.0
132
0.0
 79
     0
146
0.0
  0
VIEWPORT
  5
1CD
330
B
100
AcDbEntity
 67
     1
  8
0
100
AcDbViewport
 10
0.0
 20
0.0
 30
0.0
 40
0.0
 41
0.0
 68
     2
 69
     2
 12
0.0
 22
0.0
 13
0.0
 23
0.0
 14
0.5
 24
0.5
 15
0.5
 25
0.5
 16
0.0
 26
0.0
 36
1.0
 17
0.0
 27
0.0
 37
0.0
 42
50.0
 43
0.0
 44
0.0
 45
297.0
 50
0.0
 51
0.0
 72
   100
 90
    32800
  1

281
     0
 71
     0
 74
     1
110
0.0
120
0.0
130
0.0
111
1.0
121
0.0
131
0.0
112
0.0
122
1.0
132
0.0
 79
     0
146
0.0
  0
ENDSEC
  0
SECTION
  2
OBJECTS
  0
DICTIONARY
  5
19
330
0
100
AcDbDictionary
281
     1
  3
ACAD_GROUP
350
1A
  3
ACAD_IMAGE_VARS
350
216
  3
ACAD_LAYOUT
350
1E
  3
ACAD_MLINESTYLE
350
1B
  3
ACAD_PLOTSETTINGS
350
22
  3
ACAD_PLOTSTYLENAME
350
1F
  3
ACAD_SCALELIST
350
1DC
  3
AcDbVariableDictionary
350
296
  3
APPDATA
350
215
  3
DWGPROPS
350
F74
  0
DICTIONARY
  5
238
330
2
100
AcDbDictionary
280
     1
281
     1
  3
ACAD_LAYERSTATES
360
239
  3
ACLYDICTIONARY
360
F73
  0
DICTIONARY
  5
1A
102
{ACAD_REACTORS
330
19
102
}
330
19
100
AcDbDictionary
281
     1
  3
12
350
1CF
  3
2
350
1D8
  3
22
350
1D0
  3
22
350
1D7
  3
3
350
1CE
  3
3
350
1DA
  3
33
350
1D4
  3
33
350
1D9
  3
9
350
1D5
  3
S:01-TDM\03-NORMTEILE\02045_DRM27
350
1D3
  3
S:01-TDM\KEGEL\HSK_A100
350
1D1
  3
Unsichtbare
350
1DB
  0
RASTERVARIABLES
  5
216
102
{ACAD_REACTORS
330
19
102
}
330
19
100
AcDbRasterVariables
 90
        0
 70
     1
 71
     1
 72
     0
  0
DICTIONARY
  5
1E
102
{ACAD_REACTORS
330
19
102
}
330
19
100
AcDbDictionary
281
     1
  3
Layout1
350
21
  3
Model
350
20
  0
DICTIONARY
  5
1B
102
{ACAD_REACTORS
330
19
102
}
330
19
100
AcDbDictionary
281
     1
  3
Standard
350
1C
  0
DICTIONARY
  5
22
102
{ACAD_REACTORS
330
19
102
}
330
19
100
AcDbDictionary
281
     1
  0
ACDBDICTIONARYWDFLT
  5
1F
102
{ACAD_REACTORS
330
19
102
}
330
19
100
AcDbDictionary
281
     1
  3
Normal
350
1D
100
AcDbDictionaryWithDefault
340
1D
  0
DICTIONARY
  5
1DC
102
{ACAD_REACTORS
330
19
102
}
330
19
100
AcDbDictionary
281
     1
  3
A0
350
1DD
  3
A1
350
1DE
  3
A2
350
1DF
  3
A3
350
1E0
  3
A4
350
1E1
  3
A5
350
1E2
  3
A6
350
1E3
  3
A7
350
1E4
  3
A8
350
1E5
  3
A9
350
1E6
  3
B0
350
1E7
  3
B1
350
1E8
  3
B2
350
1E9
  3
B3
350
1EA
  3
B4
350
1EB
  3
B5
350
1EC
  3
B6
350
1ED
  3
B7
350
1EE
  3
B8
350
1EF
  3
B9
350
1F0
  3
C0
350
1F1
  3
C1
350
1F2
  3
C2
350
1F3
  3
C3
350
1F4
  3
C4
350
1F5
  3
C5
350
1F6
  3
C6
350
1F7
  3
C7
350
1F8
  3
C8
350
1F9
  3
C9
350
1FA
  3
D0
350
1FB
  3
D1
350
1FC
  3
D2
350
1FD
  0
DICTIONARY
  5
296
102
{ACAD_REACTORS
330
19
102
}
330
19
100
AcDbDictionary
281
     1
  3
CANNOSCALE
350
2CA
  0
DICTIONARY
  5
215
102
{ACAD_REACTORS
330
19
102
}
330
19
100
AcDbDictionary
281
     1
  0
XRECORD
  5
F74
102
{ACAD_REACTORS
330
19
102
}
330
19
100
AcDbXrecord
280
     1
  1
DWGPROPS COOKIE
  2

  3

  4

  6

  7

  8
KutluO
  9

300
=
301
=
302
=
303
=
304
=
305
=
306
=
307
=
308
=
309
=
 40
0.0
 41
0.0
 42
2456643.41064478
  1

 90
        0
  0
DICTIONARY
  5
239
102
{ACAD_REACTORS
330
238
102
}
330
238
100
AcDbDictionary
281
     1
  3
ARGON_LAYERP_1
350
23A
  3
ARGON_LAYERP_10
350
970
  3
ARGON_LAYERP_11
350
971
  3
ARGON_LAYERP_12
350
972
  3
ARGON_LAYERP_13
350
973
  3
ARGON_LAYERP_14
350
974
  3
ARGON_LAYERP_15
350
975
  3
ARGON_LAYERP_16
350
976
  3
ARGON_LAYERP_17
350
F70
  3
ARGON_LAYERP_18
350
F71
  3
ARGON_LAYERP_19
350
F72
  3
ARGON_LAYERP_2
350
2B9
  3
ARGON_LAYERP_3
350
2CD
  3
ARGON_LAYERP_4
350
2F1
  3
ARGON_LAYERP_5
350
91E
  3
ARGON_LAYERP_6
350
91F
  3
ARGON_LAYERP_7
350
941
  3
ARGON_LAYERP_8
350
947
  3
ARGON_LAYERP_9
350
94C
  0
DICTIONARY
  5
F73
102
{ACAD_REACTORS
330
238
102
}
330
238
100
AcDbDictionary
281
     1
1001
ACAD
1000
<All
  0
GROUP
  5
1CF
102
{ACAD_REACTORS
330
1A
102
}
330
1A
100
AcDbGroup
300
12-LCMaster-S:01-TDM\KEGEL\HSK_A100
 70
     0
 71
     1
  0
GROUP
  5
1D8
102
{ACAD_REACTORS
330
1A
102
}
330
1A
100
AcDbGroup
300
2-LCMaster-S:01-TDM\03-NORMTEILE\02045_DRM27
 70
     0
 71
     1
  0
GROUP
  5
1D0
102
{ACAD_REACTORS
330
1A
102
}
330
1A
100
AcDbGroup
300
22-LCMaster-S:01-TDM\KEGEL\HSK_A100
 70
     0
 71
     1
  0
GROUP
  5
1D7
102
{ACAD_REACTORS
330
1A
102
}
330
1A
100
AcDbGroup
300
22-LCMaster-S:01-TDM\03-NORMTEILE\02045_DRM27
 70
     0
 71
     1
  0
GROUP
  5
1CE
102
{ACAD_REACTORS
330
1A
102
}
330
1A
100
AcDbGroup
300
3-LCMaster-S:01-TDM\KEGEL\HSK_A100
 70
     0
 71
     1
  0
GROUP
  5
1DA
102
{ACAD_REACTORS
330
1A
102
}
330
1A
100
AcDbGroup
300
3-LCMaster-S:01-TDM\03-NORMTEILE\02045_DRM27
 70
     0
 71
     1
  0
GROUP
  5
1D4
102
{ACAD_REACTORS
330
1A
102
}
330
1A
100
AcDbGroup
300
33-LCMaster-S:01-TDM\KEGEL\HSK_A100
 70
     0
 71
     1
  0
GROUP
  5
1D9
102
{ACAD_REACTORS
330
1A
102
}
330
1A
100
AcDbGroup
300
33-LCMaster-S:01-TDM\03-NORMTEILE\02045_DRM27
 70
     0
 71
     1
  0
GROUP
  5
1D5
102
{ACAD_REACTORS
330
1A
102
}
330
1A
100
AcDbGroup
300
9-LCMaster-S:01-TDM\KEGEL\HSK_A100
 70
     0
 71
     1
  0
GROUP
  5
1D3
102
{ACAD_REACTORS
330
1A
102
}
330
1A
100
AcDbGroup
300
S:01-TDM\03-NORMTEILE\02045_DRM27
 70
     0
 71
     1
340
114
340
132
340
184
340
189
340
197
  0
GROUP
  5
1D1
102
{ACAD_REACTORS
330
1A
102
}
330
1A
100
AcDbGroup
300
S:01-TDM\KEGEL\HSK_A100
 70
     0
 71
     1
340
3B
340
3F
340
43
340
8A
340
AD
340
B4
340
D6
  0
GROUP
  5
1DB
102
{ACAD_REACTORS
330
1A
102
}
330
1A
100
AcDbGroup
300
Unsichtbare-LCMaster-S:01-TDM\03-NORMTEILE\02045_DRM27
 70
     0
 71
     1
  0
LAYOUT
  5
21
102
{ACAD_REACTORS
330
1E
102
}
330
1E
100
AcDbPlotSettings
  1

  2

  4

  6

 40
0.0
 41
0.0
 42
0.0
 43
0.0
 44
0.0
 45
0.0
 46
0.0
 47
0.0
 48
0.0
 49
0.0
140
0.0
141
0.0
142
1.0
143
1.0
 70
     0
 72
     0
 73
     0
 74
     0
  7

 75
     0
147
1.0
148
0.0
149
0.0
100
AcDbLayout
  1
Layout1
 70
     0
 71
     0
 10
0.0
 20
0.0
 11
0.0
 21
0.0
 12
0.0
 22
0.0
 32
0.0
 14
0.0
 24
0.0
 34
0.0
 15
0.0
 25
0.0
 35
0.0
146
0.0
 13
0.0
 23
0.0
 33
0.0
 16
0.0
 26
0.0
 36
0.0
 17
0.0
 27
0.0
 37
0.0
 76
     0
330
B
331
1CC
  0
LAYOUT
  5
20
102
{ACAD_REACTORS
330
1E
102
}
330
1E
100
AcDbPlotSettings
  1

  2

  4

  6

 40
0.0
 41
0.0
 42
0.0
 43
0.0
 44
0.0
 45
0.0
 46
0.0
 47
0.0
 48
0.0
 49
0.0
140
0.0
141
0.0
142
1.0
143
1.0
 70
  1024
 72
     0
 73
     0
 74
     0
  7

 75
     0
147
1.0
148
0.0
149
0.0
100
AcDbLayout
  1
Model
 70
     0
 71
     1
 10
0.0
 20
0.0
 11
0.0
 21
0.0
 12
0.0
 22
0.0
 32
0.0
 14
0.0
 24
0.0
 34
0.0
 15
0.0
 25
0.0
 35
0.0
146
0.0
 13
0.0
 23
0.0
 33
0.0
 16
0.0
 26
0.0
 36
0.0
 17
0.0
 27
0.0
 37
0.0
 76
     0
330
A
331
15
  0
MLINESTYLE
  5
1C
102
{ACAD_REACTORS
330
1B
102
}
330
1B
100
AcDbMlineStyle
  2
Standard
 70
     0
  3

 62
     0
 51
90.0
 52
90.0
 71
     2
 49
0.5
 62
   256
  6
BYLAYER
 49
-0.5
 62
   256
  6
BYLAYER
  0
ACDBPLACEHOLDER
  5
1D
102
{ACAD_REACTORS
330
1F
102
}
330
1F
  0
SCALE
  5
1DD
102
{ACAD_REACTORS
330
1DC
102
}
330
1DC
100
AcDbScale
 70
     0
300
1:1
140
1.0
141
1.0
290
     1
  0
SCALE
  5
1DE
102
{ACAD_REACTORS
330
1DC
102
}
330
1DC
100
AcDbScale
 70
     0
300
1:2
140
1.0
141
2.0
290
     0
  0
SCALE
  5
1DF
102
{ACAD_REACTORS
330
1DC
102
}
330
1DC
100
AcDbScale
 70
     0
300
1:4
140
1.0
141
4.0
290
     0
  0
SCALE
  5
1E0
102
{ACAD_REACTORS
330
1DC
102
}
330
1DC
100
AcDbScale
 70
     0
300
1:5
140
1.0
141
5.0
290
     0
  0
SCALE
  5
1E1
102
{ACAD_REACTORS
330
1DC
102
}
330
1DC
100
AcDbScale
 70
     0
300
1:8
140
1.0
141
8.0
290
     0
  0
SCALE
  5
1E2
102
{ACAD_REACTORS
330
1DC
102
}
330
1DC
100
AcDbScale
 70
     0
300
1:10
140
1.0
141
10.0
290
     0
  0
SCALE
  5
1E3
102
{ACAD_REACTORS
330
1DC
102
}
330
1DC
100
AcDbScale
 70
     0
300
1:16
140
1.0
141
16.0
290
     0
  0
SCALE
  5
1E4
102
{ACAD_REACTORS
330
1DC
102
}
330
1DC
100
AcDbScale
 70
     0
300
1:20
140
1.0
141
20.0
290
     0
  0
SCALE
  5
1E5
102
{ACAD_REACTORS
330
1DC
102
}
330
1DC
100
AcDbScale
 70
     0
300
1:30
140
1.0
141
30.0
290
     0
  0
SCALE
  5
1E6
102
{ACAD_REACTORS
330
1DC
102
}
330
1DC
100
AcDbScale
 70
     0
300
1:40
140
1.0
141
40.0
290
     0
  0
SCALE
  5
1E7
102
{ACAD_REACTORS
330
1DC
102
}
330
1DC
100
AcDbScale
 70
     0
300
1:50
140
1.0
141
50.0
290
     0
  0
SCALE
  5
1E8
102
{ACAD_REACTORS
330
1DC
102
}
330
1DC
100
AcDbScale
 70
     0
300
1:100
140
1.0
141
100.0
290
     0
  0
SCALE
  5
1E9
102
{ACAD_REACTORS
330
1DC
102
}
330
1DC
100
AcDbScale
 70
     0
300
2:1
140
2.0
141
1.0
290
     0
  0
SCALE
  5
1EA
102
{ACAD_REACTORS
330
1DC
102
}
330
1DC
100
AcDbScale
 70
     0
300
4:1
140
4.0
141
1.0
290
     0
  0
SCALE
  5
1EB
102
{ACAD_REACTORS
330
1DC
102
}
330
1DC
100
AcDbScale
 70
     0
300
8:1
140
8.0
141
1.0
290
     0
  0
SCALE
  5
1EC
102
{ACAD_REACTORS
330
1DC
102
}
330
1DC
100
AcDbScale
 70
     0
300
10:1
140
10.0
141
1.0
290
     0
  0
SCALE
  5
1ED
102
{ACAD_REACTORS
330
1DC
102
}
330
1DC
100
AcDbScale
 70
     0
300
100:1
140
100.0
141
1.0
290
     0
  0
SCALE
  5
1EE
102
{ACAD_REACTORS
330
1DC
102
}
330
1DC
100
AcDbScale
 70
     0
300
1/128" = 1'-0"
140
0.0078125
141
12.0
290
     0
  0
SCALE
  5
1EF
102
{ACAD_REACTORS
330
1DC
102
}
330
1DC
100
AcDbScale
 70
     0
300
1/64" = 1'-0"
140
0.015625
141
12.0
290
     0
  0
SCALE
  5
1F0
102
{ACAD_REACTORS
330
1DC
102
}
330
1DC
100
AcDbScale
 70
     0
300
1/32" = 1'-0"
140
0.03125
141
12.0
290
     0
  0
SCALE
  5
1F1
102
{ACAD_REACTORS
330
1DC
102
}
330
1DC
100
AcDbScale
 70
     0
300
1/16" = 1'-0"
140
0.0625
141
12.0
290
     0
  0
SCALE
  5
1F2
102
{ACAD_REACTORS
330
1DC
102
}
330
1DC
100
AcDbScale
 70
     0
300
3/32" = 1'-0"
140
0.09375
141
12.0
290
     0
  0
SCALE
  5
1F3
102
{ACAD_REACTORS
330
1DC
102
}
330
1DC
100
AcDbScale
 70
     0
300
1/8" = 1'-0"
140
0.125
141
12.0
290
     0
  0
SCALE
  5
1F4
102
{ACAD_REACTORS
330
1DC
102
}
330
1DC
100
AcDbScale
 70
     0
300
3/16" = 1'-0"
140
0.1875
141
12.0
290
     0
  0
SCALE
  5
1F5
102
{ACAD_REACTORS
330
1DC
102
}
330
1DC
100
AcDbScale
 70
     0
300
1/4" = 1'-0"
140
0.25
141
12.0
290
     0
  0
SCALE
  5
1F6
102
{ACAD_REACTORS
330
1DC
102
}
330
1DC
100
AcDbScale
 70
     0
300
3/8" = 1'-0"
140
0.375
141
12.0
290
     0
  0
SCALE
  5
1F7
102
{ACAD_REACTORS
330
1DC
102
}
330
1DC
100
AcDbScale
 70
     0
300
1/2" = 1'-0"
140
0.5
141
12.0
290
     0
  0
SCALE
  5
1F8
102
{ACAD_REACTORS
330
1DC
102
}
330
1DC
100
AcDbScale
 70
     0
300
3/4" = 1'-0"
140
0.75
141
12.0
290
     0
  0
SCALE
  5
1F9
102
{ACAD_REACTORS
330
1DC
102
}
330
1DC
100
AcDbScale
 70
     0
300
1" = 1'-0"
140
1.0
141
12.0
290
     0
  0
SCALE
  5
1FA
102
{ACAD_REACTORS
330
1DC
102
}
330
1DC
100
AcDbScale
 70
     0
300
1-1/2" = 1'-0"
140
1.5
141
12.0
290
     0
  0
SCALE
  5
1FB
102
{ACAD_REACTORS
330
1DC
102
}
330
1DC
100
AcDbScale
 70
     0
300
3" = 1'-0"
140
3.0
141
12.0
290
     0
  0
SCALE
  5
1FC
102
{ACAD_REACTORS
330
1DC
102
}
330
1DC
100
AcDbScale
 70
     0
300
6" = 1'-0"
140
6.0
141
12.0
290
     0
  0
SCALE
  5
1FD
102
{ACAD_REACTORS
330
1DC
102
}
330
1DC
100
AcDbScale
 70
     0
300
1'-0" = 1'-0"
140
12.0
141
12.0
290
     0
  0
DICTIONARYVAR
  5
2CA
102
{ACAD_REACTORS
330
296
102
}
330
296
100
DictionaryVariables
280
     0
  1
1:1
  0
XRECORD
  5
23A
102
{ACAD_REACTORS
330
239
102
}
330
239
100
AcDbXrecord
280
     1
 91
     1023
301

290
     0
302
0
330
14
 90
        8
 62
     7
370
    -3
331
13
  1
Color_7
330
2A
 90
       11
 62
     1
370
    -3
331
29
  1
Color_1
330
3A
 90
        8
 62
     4
370
    -3
331
13
  1
Color_4
330
44
 90
        8
 62
     4
370
    -3
331
13
  1
Color_4
330
81
 90
        8
 62
     1
370
    -3
331
80
  1
Color_1
330
8B
 90
        8
 62
     5
370
    -3
331
13
  1
Color_5
330
8F
 90
        8
 62
     7
370
    -3
331
13
  1
Color_7
330
AF
 90
        8
 62
     2
370
    -3
331
AE
  1
Color_2
330
0
 90
        8
 62
     2
370
    -3
331
B5
  1
Color_2
330
D9
 90
        8
 62
     7
370
    -3
331
13
  1
Color_7
330
1CB
 90
        8
 62
     7
370
    -3
331
29
  1
Color_7
330
218
 90
        0
 62
     9
370
    18
331
13
  1
Color_9
  0
XRECORD
  5
970
102
{ACAD_REACTORS
330
239
102
}
330
239
100
AcDbXrecord
280
     1
 91
     1023
301

290
     0
302
NOCUT
330
14
 90
        8
 62
     7
370
    -3
331
13
  1
Color_7
330
2A
 90
       11
 62
     1
370
    -3
331
29
  1
Color_1
330
3A
 90
        8
 62
     4
370
    -3
331
13
  1
Color_4
330
44
 90
        8
 62
     4
370
    -3
331
13
  1
Color_4
330
81
 90
        8
 62
     1
370
    -3
331
80
  1
Color_1
330
8B
 90
        8
 62
     5
370
    -3
331
13
  1
Color_5
330
8F
 90
        8
 62
     7
370
    -3
331
13
  1
Color_7
330
AF
 90
        8
 62
     2
370
    -3
331
AE
  1
Color_2
330
D9
 90
        8
 62
     7
370
    -3
331
13
  1
Color_7
330
1CB
 90
        8
 62
     7
370
    -3
331
29
  1
Color_7
330
218
 90
        0
 62
     9
370
    18
331
13
  1
Color_9
330
23E
 90
        0
 62
     7
370
    -3
331
13
  1
Color_7
330
29C
 90
        8
 62
     7
370
    25
331
13
  1
Color_7
330
2D2
 90
        8
 62
     2
370
    25
331
2D3
  1
Color_2
330
0
 90
        8
 62
     2
370
    -3
331
B5
  1
Color_2
330
6E0
 90
        8
 62
     2
370
    -3
331
B7
  1
Color_2
  0
XRECORD
  5
971
102
{ACAD_REACTORS
330
239
102
}
330
239
100
AcDbXrecord
280
     1
 91
     1023
301

290
     0
302
NOCUT
330
14
 90
        8
 62
     7
370
    -3
331
13
  1
Color_7
330
2A
 90
       11
 62
     1
370
    -3
331
29
  1
Color_1
330
3A
 90
        8
 62
     4
370
    -3
331
13
  1
Color_4
330
44
 90
        8
 62
     4
370
    -3
331
13
  1
Color_4
330
81
 90
        8
 62
     1
370
    -3
331
80
  1
Color_1
330
8B
 90
        8
 62
     5
370
    -3
331
13
  1
Color_5
330
8F
 90
        8
 62
     7
370
    -3
331
13
  1
Color_7
330
AF
 90
        8
 62
     2
370
    -3
331
AE
  1
Color_2
330
D9
 90
        8
 62
     7
370
    -3
331
13
  1
Color_7
330
1CB
 90
        8
 62
     7
370
    -3
331
29
  1
Color_7
330
218
 90
        0
 62
     9
370
    18
331
13
  1
Color_9
330
23E
 90
        0
 62
     7
370
    -3
331
13
  1
Color_7
330
29C
 90
        8
 62
     7
370
    25
331
13
  1
Color_7
330
2D2
 90
        8
 62
     2
370
    25
331
2D3
  1
Color_2
330
0
 90
        9
 62
     2
370
    -3
331
B5
  1
Color_2
330
6E0
 90
        8
 62
     2
370
    -3
331
B7
  1
Color_2
  0
XRECORD
  5
972
102
{ACAD_REACTORS
330
239
102
}
330
239
100
AcDbXrecord
280
     1
 91
     1023
301

290
     0
302
NOCUT
330
14
 90
        8
 62
     7
370
    -3
331
13
  1
Color_7
330
2A
 90
       11
 62
     1
370
    -3
331
29
  1
Color_1
330
3A
 90
        8
 62
     4
370
    -3
331
13
  1
Color_4
330
44
 90
        8
 62
     4
370
    -3
331
13
  1
Color_4
330
81
 90
        8
 62
     1
370
    -3
331
80
  1
Color_1
330
8B
 90
        8
 62
     5
370
    -3
331
13
  1
Color_5
330
8F
 90
        8
 62
     7
370
    -3
331
13
  1
Color_7
330
AF
 90
        8
 62
     2
370
    -3
331
AE
  1
Color_2
330
D9
 90
        8
 62
     7
370
    -3
331
13
  1
Color_7
330
1CB
 90
        8
 62
     7
370
    -3
331
29
  1
Color_7
330
218
 90
        0
 62
     9
370
    18
331
13
  1
Color_9
330
23E
 90
        0
 62
     7
370
    -3
331
13
  1
Color_7
330
29C
 90
        8
 62
     7
370
    25
331
13
  1
Color_7
330
2D2
 90
        8
 62
     2
370
    25
331
2D3
  1
Color_2
330
0
 90
        8
 62
     2
370
    -3
331
B5
  1
Color_2
330
6E0
 90
        8
 62
     2
370
    -3
331
B7
  1
Color_2
  0
XRECORD
  5
973
102
{ACAD_REACTORS
330
239
102
}
330
239
100
AcDbXrecord
280
     1
 91
     1023
301

290
     0
302
NOCUT
330
14
 90
        8
 62
     7
370
    -3
331
13
  1
Color_7
330
2A
 90
       11
 62
     1
370
    -3
331
29
  1
Color_1
330
3A
 90
        8
 62
     4
370
    -3
331
13
  1
Color_4
330
44
 90
        8
 62
     4
370
    -3
331
13
  1
Color_4
330
81
 90
        8
 62
     1
370
    -3
331
80
  1
Color_1
330
8B
 90
        8
 62
     5
370
    -3
331
13
  1
Color_5
330
8F
 90
        8
 62
     7
370
    -3
331
13
  1
Color_7
330
AF
 90
        8
 62
     2
370
    -3
331
AE
  1
Color_2
330
D9
 90
        8
 62
     7
370
    -3
331
13
  1
Color_7
330
1CB
 90
        8
 62
     7
370
    -3
331
29
  1
Color_7
330
218
 90
        0
 62
     9
370
    18
331
13
  1
Color_9
330
23E
 90
        0
 62
     7
370
    -3
331
13
  1
Color_7
330
29C
 90
        8
 62
     7
370
    25
331
13
  1
Color_7
330
2D2
 90
        8
 62
     2
370
    25
331
2D3
  1
Color_2
330
0
 90
        9
 62
     2
370
    -3
331
B5
  1
Color_2
330
6E0
 90
        8
 62
     2
370
    -3
331
B7
  1
Color_2
  0
XRECORD
  5
974
102
{ACAD_REACTORS
330
239
102
}
330
239
100
AcDbXrecord
280
     1
 91
     1023
301

290
     0
302
NOCUT
330
14
 90
        8
 62
     7
370
    -3
331
13
  1
Color_7
330
2A
 90
       11
 62
     1
370
    -3
331
29
  1
Color_1
330
3A
 90
        8
 62
     4
370
    -3
331
13
  1
Color_4
330
44
 90
        8
 62
     4
370
    -3
331
13
  1
Color_4
330
81
 90
        8
 62
     1
370
    -3
331
80
  1
Color_1
330
8B
 90
        8
 62
     5
370
    -3
331
13
  1
Color_5
330
8F
 90
        8
 62
     7
370
    -3
331
13
  1
Color_7
330
AF
 90
        8
 62
     2
370
    -3
331
AE
  1
Color_2
330
D9
 90
        8
 62
     7
370
    -3
331
13
  1
Color_7
330
1CB
 90
        8
 62
     7
370
    -3
331
29
  1
Color_7
330
218
 90
        0
 62
     9
370
    18
331
13
  1
Color_9
330
23E
 90
        0
 62
     7
370
    -3
331
13
  1
Color_7
330
29C
 90
        8
 62
     7
370
    25
331
13
  1
Color_7
330
2D2
 90
        8
 62
     2
370
    25
331
2D3
  1
Color_2
330
0
 90
        8
 62
     2
370
    -3
331
B5
  1
Color_2
330
6E0
 90
        8
 62
     2
370
    -3
331
B7
  1
Color_2
  0
XRECORD
  5
975
102
{ACAD_REACTORS
330
239
102
}
330
239
100
AcDbXrecord
280
     1
 91
     1023
301

290
     0
302
NOCUT
330
14
 90
        8
 62
     7
370
    -3
331
13
  1
Color_7
330
2A
 90
       11
 62
     1
370
    -3
331
29
  1
Color_1
330
3A
 90
        8
 62
     4
370
    -3
331
13
  1
Color_4
330
44
 90
        8
 62
     4
370
    -3
331
13
  1
Color_4
330
81
 90
        8
 62
     1
370
    -3
331
80
  1
Color_1
330
8B
 90
        8
 62
     5
370
    -3
331
13
  1
Color_5
330
8F
 90
        8
 62
     7
370
    -3
331
13
  1
Color_7
330
AF
 90
        8
 62
     2
370
    -3
331
AE
  1
Color_2
330
D9
 90
        8
 62
     7
370
    -3
331
13
  1
Color_7
330
1CB
 90
        8
 62
     7
370
    -3
331
29
  1
Color_7
330
218
 90
        0
 62
     9
370
    18
331
13
  1
Color_9
330
23E
 90
        0
 62
     7
370
    -3
331
13
  1
Color_7
330
29C
 90
        8
 62
     7
370
    25
331
13
  1
Color_7
330
2D2
 90
        9
 62
     2
370
    25
331
2D3
  1
Color_2
330
0
 90
        8
 62
     2
370
    -3
331
B5
  1
Color_2
330
6E0
 90
        8
 62
     2
370
    -3
331
B7
  1
Color_2
  0
XRECORD
  5
976
102
{ACAD_REACTORS
330
239
102
}
330
239
100
AcDbXrecord
280
     1
 91
     1023
301

290
     0
302
NOCUT
330
14
 90
        8
 62
     7
370
    -3
331
13
  1
Color_7
330
2A
 90
       11
 62
     1
370
    -3
331
29
  1
Color_1
330
3A
 90
        8
 62
     4
370
    -3
331
13
  1
Color_4
330
44
 90
        8
 62
     4
370
    -3
331
13
  1
Color_4
330
81
 90
        8
 62
     1
370
    -3
331
80
  1
Color_1
330
8B
 90
        8
 62
     5
370
    -3
331
13
  1
Color_5
330
8F
 90
        8
 62
     7
370
    -3
331
13
  1
Color_7
330
AF
 90
        8
 62
     2
370
    -3
331
AE
  1
Color_2
330
D9
 90
        8
 62
     7
370
    -3
331
13
  1
Color_7
330
1CB
 90
        8
 62
     7
370
    -3
331
29
  1
Color_7
330
218
 90
        0
 62
     9
370
    18
331
13
  1
Color_9
330
23E
 90
        0
 62
     7
370
    -3
331
13
  1
Color_7
330
29C
 90
        8
 62
     7
370
    25
331
13
  1
Color_7
330
2D2
 90
        8
 62
     2
370
    25
331
2D3
  1
Color_2
330
0
 90
        8
 62
     2
370
    -3
331
B5
  1
Color_2
330
6E0
 90
        8
 62
     2
370
    -3
331
B7
  1
Color_2
  0
XRECORD
  5
F70
102
{ACAD_REACTORS
330
239
102
}
330
239
100
AcDbXrecord
280
     1
 91
     1023
301

290
     0
302
NOCUT
330
14
 90
        8
 62
     7
370
    -3
331
13
  1
Color_7
330
2A
 90
       11
 62
     1
370
    -3
331
29
  1
Color_1
330
3A
 90
        8
 62
     4
370
    -3
331
13
  1
Color_4
330
44
 90
        8
 62
     4
370
    -3
331
13
  1
Color_4
330
81
 90
        8
 62
     1
370
    -3
331
80
  1
Color_1
330
8B
 90
        8
 62
     5
370
    -3
331
13
  1
Color_5
330
8F
 90
        8
 62
     7
370
    -3
331
13
  1
Color_7
330
AF
 90
        8
 62
     2
370
    -3
331
AE
  1
Color_2
330
D9
 90
        8
 62
     7
370
    -3
331
13
  1
Color_7
330
1CB
 90
        8
 62
     7
370
    -3
331
29
  1
Color_7
330
218
 90
        0
 62
     9
370
    18
331
13
  1
Color_9
330
23E
 90
        0
 62
     7
370
    -3
331
13
  1
Color_7
330
29C
 90
        8
 62
     7
370
    25
331
13
  1
Color_7
330
2D2
 90
        8
 62
     2
370
    25
331
2D3
  1
Color_2
330
6E0
 90
        8
 62
     2
370
    -3
331
B7
  1
Color_2
330
0
 90
        8
 62
     2
370
    -3
331
B5
  1
Color_2
  0
XRECORD
  5
F71
102
{ACAD_REACTORS
330
239
102
}
330
239
100
AcDbXrecord
280
     1
 91
     1023
301

290
     0
302
NOCUT
330
14
 90
        8
 62
     7
370
    -3
331
13
  1
Color_7
330
2A
 90
       11
 62
     1
370
    -3
331
29
  1
Color_1
330
3A
 90
        8
 62
     4
370
    -3
331
13
  1
Color_4
330
44
 90
        8
 62
     4
370
    -3
331
13
  1
Color_4
330
81
 90
        8
 62
     1
370
    -3
331
80
  1
Color_1
330
8B
 90
        8
 62
     5
370
    -3
331
13
  1
Color_5
330
8F
 90
        8
 62
     7
370
    -3
331
13
  1
Color_7
330
AF
 90
        8
 62
     2
370
    -3
331
AE
  1
Color_2
330
D9
 90
        8
 62
     7
370
    -3
331
13
  1
Color_7
330
1CB
 90
        8
 62
     7
370
    -3
331
29
  1
Color_7
330
218
 90
        0
 62
     9
370
    18
331
13
  1
Color_9
330
23E
 90
        0
 62
     7
370
    -3
331
13
  1
Color_7
330
29C
 90
        8
 62
     7
370
    25
331
13
  1
Color_7
330
2D2
 90
        9
 62
     2
370
    25
331
2D3
  1
Color_2
330
6E0
 90
        8
 62
     2
370
    -3
331
B7
  1
Color_2
330
0
 90
        8
 62
     2
370
    -3
331
B5
  1
Color_2
  0
XRECORD
  5
F72
102
{ACAD_REACTORS
330
239
102
}
330
239
100
AcDbXrecord
280
     1
 91
     1023
301

290
     0
302
NOCUT
330
14
 90
        8
 62
     7
370
    -3
331
13
  1
Color_7
330
2A
 90
       11
 62
     1
370
    -3
331
29
  1
Color_1
330
3A
 90
        8
 62
     4
370
    -3
331
13
  1
Color_4
330
44
 90
        8
 62
     4
370
    -3
331
13
  1
Color_4
330
81
 90
        8
 62
     1
370
    -3
331
80
  1
Color_1
330
8B
 90
        8
 62
     5
370
    -3
331
13
  1
Color_5
330
8F
 90
        8
 62
     7
370
    -3
331
13
  1
Color_7
330
AF
 90
        8
 62
     2
370
    -3
331
AE
  1
Color_2
330
D9
 90
        8
 62
     7
370
    -3
331
13
  1
Color_7
330
1CB
 90
        8
 62
     7
370
    -3
331
29
  1
Color_7
330
218
 90
        0
 62
     9
370
    18
331
13
  1
Color_9
330
23E
 90
        0
 62
     7
370
    -3
331
13
  1
Color_7
330
29C
 90
        8
 62
     7
370
    25
331
13
  1
Color_7
330
2D2
 90
        8
 62
     2
370
    25
331
2D3
  1
Color_2
330
6E0
 90
        8
 62
     2
370
    -3
331
B7
  1
Color_2
330
0
 90
        8
 62
     2
370
    -3
331
B5
  1
Color_2
  0
XRECORD
  5
2B9
102
{ACAD_REACTORS
330
239
102
}
330
239
100
AcDbXrecord
280
     1
 91
     1023
301

290
     0
302
INFTOTAL
330
14
 90
        8
 62
     7
370
    -3
331
13
  1
Color_7
330
2A
 90
       11
 62
     1
370
    -3
331
29
  1
Color_1
330
3A
 90
        8
 62
     4
370
    -3
331
13
  1
Color_4
330
44
 90
        8
 62
     4
370
    -3
331
13
  1
Color_4
330
81
 90
        8
 62
     1
370
    -3
331
80
  1
Color_1
330
8B
 90
        8
 62
     5
370
    -3
331
13
  1
Color_5
330
8F
 90
        8
 62
     7
370
    -3
331
13
  1
Color_7
330
AF
 90
        8
 62
     2
370
    -3
331
AE
  1
Color_2
330
0
 90
        8
 62
     2
370
    -3
331
B5
  1
Color_2
330
D9
 90
        8
 62
     7
370
    -3
331
13
  1
Color_7
330
1CB
 90
        8
 62
     7
370
    -3
331
29
  1
Color_7
330
218
 90
        0
 62
     9
370
    18
331
13
  1
Color_9
330
23E
 90
        0
 62
     7
370
    -3
331
13
  1
Color_7
330
29C
 90
        8
 62
     7
370
    25
331
13
  1
Color_7
  0
XRECORD
  5
2CD
102
{ACAD_REACTORS
330
239
102
}
330
239
100
AcDbXrecord
280
     1
 91
     1023
301

290
     0
302
NOCUT
330
14
 90
        8
 62
     7
370
    -3
331
13
  1
Color_7
330
2A
 90
       11
 62
     1
370
    -3
331
29
  1
Color_1
330
3A
 90
        8
 62
     4
370
    -3
331
13
  1
Color_4
330
44
 90
        8
 62
     4
370
    -3
331
13
  1
Color_4
330
81
 90
        8
 62
     1
370
    -3
331
80
  1
Color_1
330
8B
 90
        8
 62
     5
370
    -3
331
13
  1
Color_5
330
8F
 90
        8
 62
     7
370
    -3
331
13
  1
Color_7
330
AF
 90
        8
 62
     2
370
    -3
331
AE
  1
Color_2
330
0
 90
        8
 62
     2
370
    -3
331
B5
  1
Color_2
330
D9
 90
        8
 62
     7
370
    -3
331
13
  1
Color_7
330
1CB
 90
        8
 62
     7
370
    -3
331
29
  1
Color_7
330
218
 90
        0
 62
     9
370
    18
331
13
  1
Color_9
330
23E
 90
        0
 62
     7
370
    -3
331
13
  1
Color_7
330
29C
 90
        8
 62
     7
370
    25
331
13
  1
Color_7
  0
XRECORD
  5
2F1
102
{ACAD_REACTORS
330
239
102
}
330
239
100
AcDbXrecord
280
     1
 91
     1023
301

290
     0
302
NOCUT
330
14
 90
        8
 62
     7
370
    -3
331
13
  1
Color_7
330
2A
 90
       11
 62
     1
370
    -3
331
29
  1
Color_1
330
3A
 90
        8
 62
     4
370
    -3
331
13
  1
Color_4
330
44
 90
        8
 62
     4
370
    -3
331
13
  1
Color_4
330
81
 90
        8
 62
     1
370
    -3
331
80
  1
Color_1
330
8B
 90
        8
 62
     5
370
    -3
331
13
  1
Color_5
330
8F
 90
        8
 62
     7
370
    -3
331
13
  1
Color_7
330
AF
 90
        8
 62
     2
370
    -3
331
AE
  1
Color_2
330
0
 90
        8
 62
     2
370
    -3
331
B5
  1
Color_2
330
D9
 90
        8
 62
     7
370
    -3
331
13
  1
Color_7
330
1CB
 90
        8
 62
     7
370
    -3
331
29
  1
Color_7
330
218
 90
        0
 62
     9
370
    18
331
13
  1
Color_9
330
23E
 90
        0
 62
     7
370
    -3
331
13
  1
Color_7
330
29C
 90
        8
 62
     7
370
    25
331
13
  1
Color_7
330
2D2
 90
        8
 62
     2
370
    25
331
2D3
  1
Color_2
  0
XRECORD
  5
91E
102
{ACAD_REACTORS
330
239
102
}
330
239
100
AcDbXrecord
280
     1
 91
     1023
301

290
     0
302
NOCUT
330
14
 90
        8
 62
     7
370
    -3
331
13
  1
Color_7
330
2A
 90
       11
 62
     1
370
    -3
331
29
  1
Color_1
330
3A
 90
        8
 62
     4
370
    -3
331
13
  1
Color_4
330
44
 90
        8
 62
     4
370
    -3
331
13
  1
Color_4
330
81
 90
        8
 62
     1
370
    -3
331
80
  1
Color_1
330
8B
 90
        8
 62
     5
370
    -3
331
13
  1
Color_5
330
8F
 90
        8
 62
     7
370
    -3
331
13
  1
Color_7
330
AF
 90
        8
 62
     2
370
    -3
331
AE
  1
Color_2
330
D9
 90
        8
 62
     7
370
    -3
331
13
  1
Color_7
330
1CB
 90
        8
 62
     7
370
    -3
331
29
  1
Color_7
330
218
 90
        0
 62
     9
370
    18
331
13
  1
Color_9
330
23E
 90
        0
 62
     7
370
    -3
331
13
  1
Color_7
330
29C
 90
        8
 62
     7
370
    25
331
13
  1
Color_7
330
2D2
 90
        8
 62
     2
370
    25
331
2D3
  1
Color_2
330
0
 90
        8
 62
     2
370
    -3
331
B5
  1
Color_2
330
6E0
 90
        8
 62
     2
370
    -3
331
B7
  1
Color_2
  0
XRECORD
  5
91F
102
{ACAD_REACTORS
330
239
102
}
330
239
100
AcDbXrecord
280
     1
 91
     1023
301

290
     0
302
INFTOTAL
330
14
 90
        8
 62
     7
370
    -3
331
13
  1
Color_7
330
2A
 90
       11
 62
     1
370
    -3
331
29
  1
Color_1
330
3A
 90
        8
 62
     4
370
    -3
331
13
  1
Color_4
330
44
 90
        8
 62
     4
370
    -3
331
13
  1
Color_4
330
81
 90
        8
 62
     1
370
    -3
331
80
  1
Color_1
330
8B
 90
        8
 62
     5
370
    -3
331
13
  1
Color_5
330
8F
 90
        8
 62
     7
370
    -3
331
13
  1
Color_7
330
AF
 90
        8
 62
     2
370
    -3
331
AE
  1
Color_2
330
D9
 90
        8
 62
     7
370
    -3
331
13
  1
Color_7
330
1CB
 90
        8
 62
     7
370
    -3
331
29
  1
Color_7
330
218
 90
        0
 62
     9
370
    18
331
13
  1
Color_9
330
23E
 90
        0
 62
     7
370
    -3
331
13
  1
Color_7
330
29C
 90
        8
 62
     7
370
    25
331
13
  1
Color_7
330
2D2
 90
        8
 62
     2
370
    25
331
2D3
  1
Color_2
330
0
 90
        8
 62
     2
370
    -3
331
B5
  1
Color_2
330
6E0
 90
        8
 62
     2
370
    -3
331
B7
  1
Color_2
  0
XRECORD
  5
941
102
{ACAD_REACTORS
330
239
102
}
330
239
100
AcDbXrecord
280
     1
 91
     1023
301

290
     0
302
NOCUT
330
14
 90
        8
 62
     7
370
    -3
331
13
  1
Color_7
330
2A
 90
       11
 62
     1
370
    -3
331
29
  1
Color_1
330
3A
 90
        8
 62
     4
370
    -3
331
13
  1
Color_4
330
44
 90
        8
 62
     4
370
    -3
331
13
  1
Color_4
330
81
 90
        8
 62
     1
370
    -3
331
80
  1
Color_1
330
8B
 90
        8
 62
     5
370
    -3
331
13
  1
Color_5
330
8F
 90
        8
 62
     7
370
    -3
331
13
  1
Color_7
330
AF
 90
        8
 62
     2
370
    -3
331
AE
  1
Color_2
330
D9
 90
        8
 62
     7
370
    -3
331
13
  1
Color_7
330
1CB
 90
        8
 62
     7
370
    -3
331
29
  1
Color_7
330
218
 90
        0
 62
     9
370
    18
331
13
  1
Color_9
330
23E
 90
        0
 62
     7
370
    -3
331
13
  1
Color_7
330
29C
 90
        8
 62
     7
370
    25
331
13
  1
Color_7
330
2D2
 90
        8
 62
     2
370
    25
331
2D3
  1
Color_2
330
0
 90
        8
 62
     2
370
    -3
331
B5
  1
Color_2
330
6E0
 90
        8
 62
     2
370
    -3
331
B7
  1
Color_2
  0
XRECORD
  5
947
102
{ACAD_REACTORS
330
239
102
}
330
239
100
AcDbXrecord
280
     1
 91
     1023
301

290
     0
302
NOCUT
330
14
 90
        8
 62
     7
370
    -3
331
13
  1
Color_7
330
2A
 90
       11
 62
     1
370
    -3
331
29
  1
Color_1
330
3A
 90
        8
 62
     4
370
    -3
331
13
  1
Color_4
330
44
 90
        8
 62
     4
370
    -3
331
13
  1
Color_4
330
81
 90
        8
 62
     1
370
    -3
331
80
  1
Color_1
330
8B
 90
        8
 62
     5
370
    -3
331
13
  1
Color_5
330
8F
 90
        8
 62
     7
370
    -3
331
13
  1
Color_7
330
AF
 90
        8
 62
     2
370
    -3
331
AE
  1
Color_2
330
D9
 90
        8
 62
     7
370
    -3
331
13
  1
Color_7
330
1CB
 90
        8
 62
     7
370
    -3
331
29
  1
Color_7
330
218
 90
        0
 62
     9
370
    18
331
13
  1
Color_9
330
23E
 90
        0
 62
     7
370
    -3
331
13
  1
Color_7
330
29C
 90
        8
 62
     7
370
    25
331
13
  1
Color_7
330
2D2
 90
        8
 62
     2
370
    25
331
2D3
  1
Color_2
330
0
 90
       12
 62
     2
370
    -3
331
B5
  1
Color_2
330
6E0
 90
        8
 62
     2
370
    -3
331
B7
  1
Color_2
  0
XRECORD
  5
94C
102
{ACAD_REACTORS
330
239
102
}
330
239
100
AcDbXrecord
280
     1
 91
     1023
301

290
     0
302
NOCUT
330
14
 90
        8
 62
     7
370
    -3
331
13
  1
Color_7
330
2A
 90
       11
 62
     1
370
    -3
331
29
  1
Color_1
330
3A
 90
        8
 62
     4
370
    -3
331
13
  1
Color_4
330
44
 90
        8
 62
     4
370
    -3
331
13
  1
Color_4
330
81
 90
        8
 62
     1
370
    -3
331
80
  1
Color_1
330
8B
 90
        8
 62
     5
370
    -3
331
13
  1
Color_5
330
8F
 90
        8
 62
     7
370
    -3
331
13
  1
Color_7
330
AF
 90
        8
 62
     2
370
    -3
331
AE
  1
Color_2
330
D9
 90
        8
 62
     7
370
    -3
331
13
  1
Color_7
330
1CB
 90
        8
 62
     7
370
    -3
331
29
  1
Color_7
330
218
 90
        0
 62
     9
370
    18
331
13
  1
Color_9
330
23E
 90
        0
 62
     7
370
    -3
331
13
  1
Color_7
330
29C
 90
        8
 62
     7
370
    25
331
13
  1
Color_7
330
2D2
 90
        8
 62
     2
370
    25
331
2D3
  1
Color_2
330
0
 90
        8
 62
     2
370
    -3
331
B5
  1
Color_2
330
6E0
 90
        8
 62
     2
370
    -3
331
B7
  1
Color_2
  0
ENDSEC
  0
EOF
