  0
SECTION
  2
HEADER
  9
$ACADVER
  1
AC1024
  9
$ACADMAINTVER
 70
     6
  9
$DWGCODEPAGE
  3
ANSI_1252
  9
$LASTSAVEDBY
  1
JochenWiegand
  9
$INSBASE
 10
0.0
 20
0.0
 30
0.0
  9
$EXTMIN
 10
45.75
 20
-254.989515984752
 30
0.0
  9
$EXTMAX
 10
1145.75
 20
202.189515984752
 30
0.0
  9
$LIMMIN
 10
0.0
 20
0.0
  9
$LIMMAX
 10
420.0
 20
297.0
  9
$ORTHOMODE
 70
     0
  9
$REGENMODE
 70
     1
  9
$FILLMODE
 70
     1
  9
$QTEXTMODE
 70
     0
  9
$MIRRTEXT
 70
     1
  9
$LTSCALE
 40
5.0
  9
$ATTMODE
 70
     1
  9
$TEXTSIZE
 40
2.5
  9
$TRACEWID
 40
1.0
  9
$TEXTSTYLE
  7
Standard
  9
$CLAYER
  8
0
  9
$CELTYPE
  6
ByLayer
  9
$CECOLOR
 62
   256
  9
$CELTSCALE
 40
1.0
  9
$DISPSILH
 70
     0
  9
$DIMSCALE
 40
1.0
  9
$DIMASZ
 40
2.5
  9
$DIMEXO
 40
0.625
  9
$DIMDLI
 40
3.75
  9
$DIMRND
 40
0.0
  9
$DIMDLE
 40
0.0
  9
$DIMEXE
 40
1.25
  9
$DIMTP
 40
0.0
  9
$DIMTM
 40
0.0
  9
$DIMTXT
 40
2.5
  9
$DIMCEN
 40
2.5
  9
$DIMTSZ
 40
0.0
  9
$DIMTOL
 70
     0
  9
$DIMLIM
 70
     0
  9
$DIMTIH
 70
     0
  9
$DIMTOH
 70
     0
  9
$DIMSE1
 70
     0
  9
$DIMSE2
 70
     0
  9
$DIMTAD
 70
     1
  9
$DIMZIN
 70
     8
  9
$DIMBLK
  1

  9
$DIMASO
 70
     1
  9
$DIMSHO
 70
     1
  9
$DIMPOST
  1

  9
$DIMAPOST
  1

  9
$DIMALT
 70
     0
  9
$DIMALTD
 70
     3
  9
$DIMALTF
 40
0.03937007874
  9
$DIMLFAC
 40
1.0
  9
$DIMTOFL
 70
     1
  9
$DIMTVP
 40
0.0
  9
$DIMTIX
 70
     0
  9
$DIMSOXD
 70
     0
  9
$DIMSAH
 70
     0
  9
$DIMBLK1
  1

  9
$DIMBLK2
  1

  9
$DIMSTYLE
  2
ISO-25
  9
$DIMCLRD
 70
     0
  9
$DIMCLRE
 70
     0
  9
$DIMCLRT
 70
     0
  9
$DIMTFAC
 40
1.0
  9
$DIMGAP
 40
0.625
  9
$DIMJUST
 70
     0
  9
$DIMSD1
 70
     0
  9
$DIMSD2
 70
     0
  9
$DIMTOLJ
 70
     0
  9
$DIMTZIN
 70
     8
  9
$DIMALTZ
 70
     0
  9
$DIMALTTZ
 70
     0
  9
$DIMUPT
 70
     0
  9
$DIMDEC
 70
     2
  9
$DIMTDEC
 70
     2
  9
$DIMALTU
 70
     2
  9
$DIMALTTD
 70
     3
  9
$DIMTXSTY
  7
Standard
  9
$DIMAUNIT
 70
     0
  9
$DIMADEC
 70
     0
  9
$DIMALTRND
 40
0.0
  9
$DIMAZIN
 70
     0
  9
$DIMDSEP
 70
    44
  9
$DIMATFIT
 70
     3
  9
$DIMFRAC
 70
     0
  9
$DIMLDRBLK
  1

  9
$DIMLUNIT
 70
     2
  9
$DIMLWD
 70
    -2
  9
$DIMLWE
 70
    -2
  9
$DIMTMOVE
 70
     0
  9
$DIMFXL
 40
1.0
  9
$DIMFXLON
 70
     0
  9
$DIMJOGANG
 40
0.785398163397
  9
$DIMTFILL
 70
     0
  9
$DIMTFILLCLR
 70
     0
  9
$DIMARCSYM
 70
     0
  9
$DIMLTYPE
  6

  9
$DIMLTEX1
  6

  9
$DIMLTEX2
  6

  9
$DIMTXTDIRECTION
 70
     0
  9
$LUNITS
 70
     2
  9
$LUPREC
 70
     4
  9
$SKETCHINC
 40
1.0
  9
$FILLETRAD
 40
0.0
  9
$AUNITS
 70
     0
  9
$AUPREC
 70
     0
  9
$MENU
  1
.
  9
$ELEVATION
 40
0.0
  9
$PELEVATION
 40
0.0
  9
$THICKNESS
 40
0.0
  9
$LIMCHECK
 70
     0
  9
$CHAMFERA
 40
0.0
  9
$CHAMFERB
 40
0.0
  9
$CHAMFERC
 40
0.0
  9
$CHAMFERD
 40
0.0
  9
$SKPOLY
 70
     0
  9
$TDCREATE
 40
2459724.337235451
  9
$TDUCREATE
 40
2459724.253902118
  9
$TDUPDATE
 40
2459724.337287512
  9
$TDUUPDATE
 40
2459724.253954178
  9
$TDINDWG
 40
0.0000000116
  9
$TDUSRTIMER
 40
0.0000000116
  9
$USRTIMER
 70
     1
  9
$ANGBASE
 50
0.0
  9
$ANGDIR
 70
     0
  9
$PDMODE
 70
     2
  9
$PDSIZE
 40
1.0
  9
$PLINEWID
 40
0.0
  9
$SPLFRAME
 70
     0
  9
$SPLINETYPE
 70
     6
  9
$SPLINESEGS
 70
     8
  9
$HANDSEED
  5
362
  9
$SURFTAB1
 70
     6
  9
$SURFTAB2
 70
     6
  9
$SURFTYPE
 70
     6
  9
$SURFU
 70
     6
  9
$SURFV
 70
     6
  9
$UCSBASE
  2

  9
$UCSNAME
  2

  9
$UCSORG
 10
0.0
 20
0.0
 30
0.0
  9
$UCSXDIR
 10
1.0
 20
0.0
 30
0.0
  9
$UCSYDIR
 10
0.0
 20
1.0
 30
0.0
  9
$UCSORTHOREF
  2

  9
$UCSORTHOVIEW
 70
     0
  9
$UCSORGTOP
 10
0.0
 20
0.0
 30
0.0
  9
$UCSORGBOTTOM
 10
0.0
 20
0.0
 30
0.0
  9
$UCSORGLEFT
 10
0.0
 20
0.0
 30
0.0
  9
$UCSORGRIGHT
 10
0.0
 20
0.0
 30
0.0
  9
$UCSORGFRONT
 10
0.0
 20
0.0
 30
0.0
  9
$UCSORGBACK
 10
0.0
 20
0.0
 30
0.0
  9
$PUCSBASE
  2

  9
$PUCSNAME
  2

  9
$PUCSORG
 10
0.0
 20
0.0
 30
0.0
  9
$PUCSXDIR
 10
1.0
 20
0.0
 30
0.0
  9
$PUCSYDIR
 10
0.0
 20
1.0
 30
0.0
  9
$PUCSORTHOREF
  2

  9
$PUCSORTHOVIEW
 70
     0
  9
$PUCSORGTOP
 10
0.0
 20
0.0
 30
0.0
  9
$PUCSORGBOTTOM
 10
0.0
 20
0.0
 30
0.0
  9
$PUCSORGLEFT
 10
0.0
 20
0.0
 30
0.0
  9
$PUCSORGRIGHT
 10
0.0
 20
0.0
 30
0.0
  9
$PUCSORGFRONT
 10
0.0
 20
0.0
 30
0.0
  9
$PUCSORGBACK
 10
0.0
 20
0.0
 30
0.0
  9
$USERI1
 70
     0
  9
$USERI2
 70
     0
  9
$USERI3
 70
     0
  9
$USERI4
 70
     0
  9
$USERI5
 70
     0
  9
$USERR1
 40
0.0
  9
$USERR2
 40
0.0
  9
$USERR3
 40
0.0
  9
$USERR4
 40
0.0
  9
$USERR5
 40
0.0
  9
$WORLDVIEW
 70
     1
  9
$SHADEDGE
 70
     3
  9
$SHADEDIF
 70
    70
  9
$TILEMODE
 70
     1
  9
$MAXACTVP
 70
    64
  9
$PINSBASE
 10
0.0
 20
0.0
 30
0.0
  9
$PLIMCHECK
 70
     0
  9
$PEXTMIN
 10
1.000000000000E+20
 20
1.000000000000E+20
 30
1.000000000000E+20
  9
$PEXTMAX
 10
-1.000000000000E+20
 20
-1.000000000000E+20
 30
-1.000000000000E+20
  9
$PLIMMIN
 10
0.0
 20
0.0
  9
$PLIMMAX
 10
420.0
 20
297.0
  9
$UNITMODE
 70
     0
  9
$VISRETAIN
 70
     1
  9
$PLINEGEN
 70
     0
  9
$PSLTSCALE
 70
     1
  9
$TREEDEPTH
 70
  3020
  9
$CMLSTYLE
  2
Standard
  9
$CMLJUST
 70
     0
  9
$CMLSCALE
 40
20.0
  9
$PROXYGRAPHICS
 70
     1
  9
$MEASUREMENT
 70
     1
  9
$CELWEIGHT
370
    -1
  9
$ENDCAPS
280
     0
  9
$JOINSTYLE
280
     0
  9
$LWDISPLAY
290
     0
  9
$INSUNITS
 70
     4
  9
$HYPERLINKBASE
  1

  9
$STYLESHEET
  1

  9
$XEDIT
290
     1
  9
$CEPSNTYPE
380
     0
  9
$PSTYLEMODE
290
     1
  9
$FINGERPRINTGUID
  2
{7b04abb2-7893-44c8-8c2c-637fe3dcb8f8}
  9
$VERSIONGUID
  2
{FAEB1C32-E019-11D5-929B-00C0DF256EC4}
  9
$EXTNAMES
290
     1
  9
$PSVPSCALE
 40
0.0
  9
$OLESTARTUP
290
     0
  9
$SORTENTS
280
   127
  9
$INDEXCTL
280
     0
  9
$HIDETEXT
280
     1
  9
$XCLIPFRAME
280
     2
  9
$HALOGAP
280
     0
  9
$OBSCOLOR
 70
   257
  9
$OBSLTYPE
280
     0
  9
$INTERSECTIONDISPLAY
280
     0
  9
$INTERSECTIONCOLOR
 70
   257
  9
$DIMASSOC
280
     2
  9
$PROJECTNAME
  1

  9
$CAMERADISPLAY
290
     0
  9
$LENSLENGTH
 40
50.0
  9
$CAMERAHEIGHT
 40
0.0
  9
$STEPSPERSEC
 40
2.0
  9
$STEPSIZE
 40
6.0
  9
$3DDWFPREC
 40
2.0
  9
$PSOLWIDTH
 40
5.0
  9
$PSOLHEIGHT
 40
80.0
  9
$LOFTANG1
 40
1.570796326795
  9
$LOFTANG2
 40
1.570796326795
  9
$LOFTMAG1
 40
0.0
  9
$LOFTMAG2
 40
0.0
  9
$LOFTPARAM
 70
     7
  9
$LOFTNORMALS
280
     1
  9
$LATITUDE
 40
37.795
  9
$LONGITUDE
 40
-122.394
  9
$NORTHDIRECTION
 40
0.0
  9
$TIMEZONE
 70
 -8000
  9
$LIGHTGLYPHDISPLAY
280
     1
  9
$TILEMODELIGHTSYNCH
280
     1
  9
$CMATERIAL
347
44
  9
$SOLIDHIST
280
     0
  9
$SHOWHIST
280
     1
  9
$DWFFRAME
280
     2
  9
$DGNFRAME
280
     2
  9
$REALWORLDSCALE
290
     1
  9
$INTERFERECOLOR
 62
   256
  9
$CSHADOW
280
     0
  9
$SHADOWPLANELOCATION
 40
0.0
  0
ENDSEC
  0
SECTION
  2
CLASSES
  0
CLASS
  1
ACDBDICTIONARYWDFLT
  2
AcDbDictionaryWithDefault
  3
ObjectDBX Classes
 90
        0
 91
        3
280
     0
281
     0
  0
CLASS
  1
VISUALSTYLE
  2
AcDbVisualStyle
  3
ObjectDBX Classes
 90
     4095
 91
        3
280
     0
281
     0
  0
CLASS
  1
MATERIAL
  2
AcDbMaterial
  3
ObjectDBX Classes
 90
     1153
 91
        3
280
     0
281
     0
  0
CLASS
  1
SCALE
  2
AcDbScale
  3
ObjectDBX Classes
 90
     1153
 91
        3
280
     0
281
     0
  0
CLASS
  1
TABLESTYLE
  2
AcDbTableStyle
  3
ObjectDBX Classes
 90
     4095
 91
        3
280
     0
281
     0
  0
CLASS
  1
MLEADERSTYLE
  2
AcDbMLeaderStyle
  3
ACDB_MLEADERSTYLE_CLASS
 90
     4095
 91
        3
280
     0
281
     0
  0
CLASS
  1
SUN
  2
AcDbSun
  3
SCENEOE
 90
     1153
 91
        3
280
     0
281
     0
  0
CLASS
  1
DICTIONARYVAR
  2
AcDbDictionaryVar
  3
ObjectDBX Classes
 90
        0
 91
        3
280
     0
281
     0
  0
CLASS
  1
CELLSTYLEMAP
  2
AcDbCellStyleMap
  3
ObjectDBX Classes
 90
     1152
 91
        3
280
     0
281
     0
  0
CLASS
  1
WIPEOUTVARIABLES
  2
AcDbWipeoutVariables
  3
WipeOut|AutoCAD Express Tool|expresstools@autodesk.com
 90
        0
 91
        3
280
     0
281
     0
  0
ENDSEC
  0
SECTION
  2
TABLES
  0
TABLE
  2
VPORT
  5
8
330
0
100
AcDbSymbolTable
 70
     1
  0
VPORT
  5
29
330
8
100
AcDbSymbolTableRecord
100
AcDbViewportTableRecord
  2
*Active
 70
     0
 10
0.0
 20
0.0
 11
1.0
 21
1.0
 12
595.75
 22
-26.4
 13
0.0
 23
0.0
 14
10.0
 24
10.0
 15
10.0
 25
10.0
 16
0.0
 26
0.0
 36
1.0
 17
0.0
 27
0.0
 37
0.0
 40
457.179031969503
 41
2.406059602649
 42
50.0
 43
0.0
 44
0.0
 50
0.0
 51
0.0
 71
     0
 72
   100
 73
     1
 74
     3
 75
     0
 76
     0
 77
     0
 78
     0
281
     0
 65
     1
110
0.0
120
0.0
130
0.0
111
1.0
121
0.0
131
0.0
112
0.0
122
1.0
132
0.0
 79
     0
146
0.0
348
2F
 60
     3
 61
     5
292
     1
282
     1
141
0.0
142
0.0
 63
   250
361
5D
  0
ENDTAB
  0
TABLE
  2
LTYPE
  5
5
330
0
100
AcDbSymbolTable
 70
     2
  0
LTYPE
  5
14
330
5
100
AcDbSymbolTableRecord
100
AcDbLinetypeTableRecord
  2
ByBlock
 70
     0
  3

 72
    65
 73
     0
 40
0.0
  0
LTYPE
  5
15
330
5
100
AcDbSymbolTableRecord
100
AcDbLinetypeTableRecord
  2
ByLayer
 70
     0
  3

 72
    65
 73
     0
 40
0.0
  0
LTYPE
  5
16
330
5
100
AcDbSymbolTableRecord
100
AcDbLinetypeTableRecord
  2
Continuous
 70
     0
  3
Solid line
 72
    65
 73
     0
 40
0.0
  0
LTYPE
  5
5E
330
5
100
AcDbSymbolTableRecord
100
AcDbLinetypeTableRecord
  2
AUSGEZOGEN
 70
     0
  3

 72
    65
 73
     0
 40
0.0
  0
ENDTAB
  0
TABLE
  2
LAYER
  5
2
330
0
100
AcDbSymbolTable
 70
     4
  0
LAYER
  5
10
330
2
100
AcDbSymbolTableRecord
100
AcDbLayerTableRecord
  2
0
 70
     0
 62
     7
  6
Continuous
370
    -3
390
F
347
46
  0
LAYER
  5
61
330
2
100
AcDbSymbolTableRecord
100
AcDbLayerTableRecord
  2
Kontur
 70
     0
 62
     7
  6
Continuous
370
    -3
390
F
347
46
  0
LAYER
  5
62
330
2
100
AcDbSymbolTableRecord
100
AcDbLayerTableRecord
  2
Bemassung
 70
     0
 62
     1
420
 16711680
  6
Continuous
370
    -3
390
F
347
46
  0
LAYER
  5
63
330
2
100
AcDbSymbolTableRecord
100
AcDbLayerTableRecord
  2
Text
 70
     0
 62
     3
420
    65280
  6
Continuous
370
    -3
390
F
347
46
  0
ENDTAB
  0
TABLE
  2
STYLE
  5
3
330
0
100
AcDbSymbolTable
 70
     3
  0
STYLE
  5
11
330
3
100
AcDbSymbolTableRecord
100
AcDbTextStyleTableRecord
  2
Standard
 70
     0
 40
0.0
 41
1.0
 50
0.0
 71
     0
 42
2.5
  3
txt
  4

  0
STYLE
  5
5F
330
3
100
AcDbSymbolTableRecord
100
AcDbTextStyleTableRecord
  2
tfont1
 70
     0
 40
0.0
 41
1.0
 50
0.0
 71
     0
 42
2.5
  3
TXT.SHX
  4

  0
STYLE
  5
60
330
3
100
AcDbSymbolTableRecord
100
AcDbTextStyleTableRecord
  2
Toleranzfont
 70
     0
 40
0.0
 41
1.0
 50
0.0
 71
     0
 42
2.5
  3
IGES1003.SHX
  4

  0
ENDTAB
  0
TABLE
  2
VIEW
  5
6
330
0
100
AcDbSymbolTable
 70
     0
  0
ENDTAB
  0
TABLE
  2
UCS
  5
7
330
0
100
AcDbSymbolTable
 70
     0
  0
ENDTAB
  0
TABLE
  2
APPID
  5
9
330
0
100
AcDbSymbolTable
 70
     1
  0
APPID
  5
12
330
9
100
AcDbSymbolTableRecord
100
AcDbRegAppTableRecord
  2
ACAD
 70
     0
  0
ENDTAB
  0
TABLE
  2
DIMSTYLE
  5
A
330
0
100
AcDbSymbolTable
 70
     1
100
AcDbDimStyleTable
  0
DIMSTYLE
105
27
102
{ACAD_REACTORS
330
E0
330
1D5
330
317
102
}
330
A
100
AcDbSymbolTableRecord
100
AcDbDimStyleTableRecord
  2
ISO-25
 70
     0
 41
2.5
 42
0.625
 43
3.75
 44
1.25
 73
     0
 74
     0
 77
     1
 78
     8
140
2.5
141
2.5
143
0.03937007874
147
0.625
171
     3
172
     1
178
     0
271
     2
272
     2
274
     3
278
    44
283
     0
284
     8
340
11
  0
ENDTAB
  0
TABLE
  2
BLOCK_RECORD
  5
1
330
0
100
AcDbSymbolTable
 70
     5
  0
BLOCK_RECORD
  5
1F
330
1
100
AcDbSymbolTableRecord
100
AcDbBlockTableRecord
  2
*Model_Space
340
22
 70
     0
280
     1
281
     0
  0
BLOCK_RECORD
  5
1B
330
1
100
AcDbSymbolTableRecord
100
AcDbBlockTableRecord
  2
*Paper_Space
340
1E
 70
     0
280
     1
281
     0
  0
BLOCK_RECORD
  5
23
330
1
100
AcDbSymbolTableRecord
100
AcDbBlockTableRecord
  2
*Paper_Space0
340
26
 70
     0
280
     1
281
     0
  0
BLOCK_RECORD
  5
D6
330
1
100
AcDbSymbolTableRecord
100
AcDbBlockTableRecord
  2
*D1
340
0
 70
     0
280
     1
281
     0
  0
BLOCK_RECORD
  5
E1
330
1
100
AcDbSymbolTableRecord
100
AcDbBlockTableRecord
  2
_Oblique
340
0
 70
     0
280
     1
281
     0
  0
BLOCK_RECORD
  5
1CB
330
1
100
AcDbSymbolTableRecord
100
AcDbBlockTableRecord
  2
*D3
340
0
 70
     0
280
     1
281
     0
  0
BLOCK_RECORD
  5
30D
330
1
100
AcDbSymbolTableRecord
100
AcDbBlockTableRecord
  2
*D4
340
0
 70
     0
280
     1
281
     0
  0
ENDTAB
  0
ENDSEC
  0
SECTION
  2
BLOCKS
  0
BLOCK
  5
20
330
1F
100
AcDbEntity
  8
0
100
AcDbBlockBegin
  2
*Model_Space
 70
     0
 10
0.0
 20
0.0
 30
0.0
  3
*Model_Space
  1

  0
ENDBLK
  5
21
330
1F
100
AcDbEntity
  8
0
100
AcDbBlockEnd
  0
BLOCK
  5
1C
330
1B
100
AcDbEntity
 67
     1
  8
0
100
AcDbBlockBegin
  2
*Paper_Space
 70
     0
 10
0.0
 20
0.0
 30
0.0
  3
*Paper_Space
  1

  0
ENDBLK
  5
1D
330
1B
100
AcDbEntity
 67
     1
  8
0
100
AcDbBlockEnd
  0
BLOCK
  5
24
330
23
100
AcDbEntity
  8
0
100
AcDbBlockBegin
  2
*Paper_Space0
 70
     0
 10
0.0
 20
0.0
 30
0.0
  3
*Paper_Space0
  1

  0
ENDBLK
  5
25
330
23
100
AcDbEntity
  8
0
100
AcDbBlockEnd
  0
BLOCK
  5
D7
330
D6
100
AcDbEntity
  8
0
100
AcDbBlockBegin
  2
*D1
 70
     1
 10
0.0
 20
0.0
 30
0.0
  3
*D1
  1

  0
LINE
  5
D9
330
D6
100
AcDbEntity
  8
Bemassung
  6
AUSGEZOGEN
 62
     1
420
 16711680
370
    18
100
AcDbLine
 10
94.265075759508
 20
93.515075759508
 30
0.0
 11
97.234924240492
 21
96.484924240492
 31
0.0
  0
LINE
  5
DA
330
D6
100
AcDbEntity
  8
Bemassung
  6
AUSGEZOGEN
 62
     1
420
 16711680
370
    18
100
AcDbLine
 10
447.234924240492
 20
96.484924240492
 30
0.0
 11
444.265075759508
 21
93.515075759508
 31
0.0
  0
LINE
  5
DB
330
D6
100
AcDbEntity
  8
Bemassung
  6
AUSGEZOGEN
 62
     1
420
 16711680
370
    18
100
AcDbLine
 10
445.75
 20
95.0
 30
0.0
 11
277.050000071526
 21
95.0
 31
0.0
  0
LINE
  5
DC
330
D6
100
AcDbEntity
  8
Bemassung
  6
AUSGEZOGEN
 62
     1
420
 16711680
370
    18
100
AcDbLine
 10
264.449999928474
 20
95.0
 30
0.0
 11
95.75
 21
95.0
 31
0.0
  0
LINE
  5
DD
330
D6
100
AcDbEntity
  8
Bemassung
  6
AUSGEZOGEN
 62
     1
420
 16711680
370
    18
100
AcDbLine
 10
445.75
 20
83.457106781187
 30
0.0
 11
445.75
 21
97.0
 31
0.0
  0
LINE
  5
DE
330
D6
100
AcDbEntity
  8
Bemassung
  6
AUSGEZOGEN
 62
     1
420
 16711680
370
    18
100
AcDbLine
 10
95.75
 20
81.457106781187
 30
0.0
 11
95.75
 21
97.0
 31
0.0
  0
TEXT
  5
DF
330
D6
100
AcDbEntity
  8
Bemassung
  6
AUSGEZOGEN
 62
     1
420
 16711680
370
    18
100
AcDbText
 10
266.374999940395
 20
93.25
 30
0.0
 40
3.5
  1
350
 41
1.000000013624
  7
tfont1
 72
     5
 11
275.125000059605
 21
93.25
 31
0.0
100
AcDbText
  0
ENDBLK
  5
D8
330
D6
100
AcDbEntity
  8
0
100
AcDbBlockEnd
  0
BLOCK
  5
E2
330
E1
100
AcDbEntity
  8
0
100
AcDbBlockBegin
  2
_Oblique
 70
     0
 10
0.0
 20
0.0
 30
0.0
  3
_Oblique
  1

  0
LINE
  5
E4
330
E1
100
AcDbEntity
  8
0
  6
ByBlock
 62
     0
370
    -2
100
AcDbLine
 10
-0.5
 20
-0.5
 30
0.0
 11
0.5
 21
0.5
 31
0.0
  0
ENDBLK
  5
E3
330
E1
100
AcDbEntity
  8
0
100
AcDbBlockEnd
  0
BLOCK
  5
1CC
330
1CB
100
AcDbEntity
  8
0
100
AcDbBlockBegin
  2
*D3
 70
     1
 10
0.0
 20
0.0
 30
0.0
  3
*D3
  1

  0
LINE
  5
1CE
330
1CB
100
AcDbEntity
  8
Bemassung
  6
AUSGEZOGEN
 62
     1
420
 16711680
370
    18
100
AcDbLine
 10
94.265075759508
 20
23.515075759508
 30
0.0
 11
97.234924240492
 21
26.484924240492
 31
0.0
  0
LINE
  5
1CF
330
1CB
100
AcDbEntity
  8
Bemassung
  6
AUSGEZOGEN
 62
     1
420
 16711680
370
    18
100
AcDbLine
 10
797.234924240492
 20
26.484924240492
 30
0.0
 11
794.265075759508
 21
23.515075759508
 31
0.0
  0
LINE
  5
1D0
330
1CB
100
AcDbEntity
  8
Bemassung
  6
AUSGEZOGEN
 62
     1
420
 16711680
370
    18
100
AcDbLine
 10
795.75
 20
25.0
 30
0.0
 11
452.050000071526
 21
25.0
 31
0.0
  0
LINE
  5
1D1
330
1CB
100
AcDbEntity
  8
Bemassung
  6
AUSGEZOGEN
 62
     1
420
 16711680
370
    18
100
AcDbLine
 10
439.449999928474
 20
25.0
 30
0.0
 11
95.75
 21
25.0
 31
0.0
  0
LINE
  5
1D2
330
1CB
100
AcDbEntity
  8
Bemassung
  6
AUSGEZOGEN
 62
     1
420
 16711680
370
    18
100
AcDbLine
 10
795.75
 20
13.457106781187
 30
0.0
 11
795.75
 21
27.0
 31
0.0
  0
LINE
  5
1D3
330
1CB
100
AcDbEntity
  8
Bemassung
  6
AUSGEZOGEN
 62
     1
420
 16711680
370
    18
100
AcDbLine
 10
95.75
 20
11.457106781187
 30
0.0
 11
95.75
 21
27.0
 31
0.0
  0
TEXT
  5
1D4
330
1CB
100
AcDbEntity
  8
Bemassung
  6
AUSGEZOGEN
 62
     1
420
 16711680
370
    18
100
AcDbText
 10
441.374999940395
 20
23.25
 30
0.0
 40
3.5
  1
700
 41
1.071428586026
  7
tfont1
 72
     5
 11
450.125000059605
 21
23.25
 31
0.0
100
AcDbText
  0
ENDBLK
  5
1CD
330
1CB
100
AcDbEntity
  8
0
100
AcDbBlockEnd
  0
BLOCK
  5
30E
330
30D
100
AcDbEntity
  8
0
100
AcDbBlockBegin
  2
*D4
 70
     1
 10
0.0
 20
0.0
 30
0.0
  3
*D4
  1

  0
LINE
  5
310
330
30D
100
AcDbEntity
  8
Bemassung
  6
AUSGEZOGEN
 62
     1
420
 16711680
370
    18
100
AcDbLine
 10
94.265075759508
 20
-46.484924240492
 30
0.0
 11
97.234924240492
 21
-43.515075759508
 31
0.0
  0
LINE
  5
311
330
30D
100
AcDbEntity
  8
Bemassung
  6
AUSGEZOGEN
 62
     1
420
 16711680
370
    18
100
AcDbLine
 10
1097.234924240492
 20
-43.515075759508
 30
0.0
 11
1094.265075759508
 21
-46.484924240492
 31
0.0
  0
LINE
  5
312
330
30D
100
AcDbEntity
  8
Bemassung
  6
AUSGEZOGEN
 62
     1
420
 16711680
370
    18
100
AcDbLine
 10
1095.75
 20
-45.0
 30
0.0
 11
603.625000089407
 21
-45.0
 31
0.0
  0
LINE
  5
313
330
30D
100
AcDbEntity
  8
Bemassung
  6
AUSGEZOGEN
 62
     1
420
 16711680
370
    18
100
AcDbLine
 10
587.874999910593
 20
-45.0
 30
0.0
 11
95.75
 21
-45.0
 31
0.0
  0
LINE
  5
314
330
30D
100
AcDbEntity
  8
Bemassung
  6
AUSGEZOGEN
 62
     1
420
 16711680
370
    18
100
AcDbLine
 10
1095.75
 20
-61.292893218813
 30
0.0
 11
1095.75
 21
-43.0
 31
0.0
  0
LINE
  5
315
330
30D
100
AcDbEntity
  8
Bemassung
  6
AUSGEZOGEN
 62
     1
420
 16711680
370
    18
100
AcDbLine
 10
95.75
 20
-58.542893218813
 30
0.0
 11
95.75
 21
-43.0
 31
0.0
  0
TEXT
  5
316
330
30D
100
AcDbEntity
  8
Bemassung
  6
AUSGEZOGEN
 62
     1
420
 16711680
370
    18
100
AcDbText
 10
589.799999922514
 20
-46.75
 30
0.0
 40
3.5
  1
1000
 41
1.200000015627
  7
tfont1
 72
     5
 11
601.700000077486
 21
-46.75
 31
0.0
100
AcDbText
  0
ENDBLK
  5
30F
330
30D
100
AcDbEntity
  8
0
100
AcDbBlockEnd
  0
ENDSEC
  0
SECTION
  2
ENTITIES
  0
LINE
  5
64
330
1F
100
AcDbEntity
  8
Kontur
  6
AUSGEZOGEN
 62
     7
370
    25
100
AcDbLine
 10
98.5
 20
78.707106781187
 30
0.0
 11
98.5
 21
68.0
 31
0.0
  0
LINE
  5
65
330
1F
100
AcDbEntity
  8
Kontur
  6
AUSGEZOGEN
 62
     7
370
    25
100
AcDbLine
 10
100.5
 20
78.707106781187
 30
0.0
 11
100.5
 21
68.0
 31
0.0
  0
LINE
  5
66
330
1F
100
AcDbEntity
  8
Kontur
  6
AUSGEZOGEN
 62
     7
370
    25
100
AcDbLine
 10
114.5
 20
78.707106781187
 30
0.0
 11
114.5
 21
68.0
 31
0.0
  0
ARC
  5
67
330
1F
100
AcDbEntity
  8
Kontur
  6
AUSGEZOGEN
 62
     7
370
    25
100
AcDbCircle
 10
99.5
 20
68.0
 30
0.0
 40
1.0
100
AcDbArc
 50
180.0
 51
0.0
  0
ARC
  5
68
330
1F
100
AcDbEntity
  8
Kontur
  6
AUSGEZOGEN
 62
     7
370
    25
100
AcDbCircle
 10
115.5
 20
68.0
 30
0.0
 40
1.0
100
AcDbArc
 50
180.0
 51
0.0
  0
LINE
  5
69
330
1F
100
AcDbEntity
  8
Kontur
  6
AUSGEZOGEN
 62
     7
370
    25
100
AcDbLine
 10
116.5
 20
78.707106781187
 30
0.0
 11
116.5
 21
68.0
 31
0.0
  0
LINE
  5
6A
330
1F
100
AcDbEntity
  8
Kontur
  6
AUSGEZOGEN
 62
     7
370
    25
100
AcDbLine
 10
130.5
 20
78.707106781187
 30
0.0
 11
130.5
 21
68.0
 31
0.0
  0
LINE
  5
6B
330
1F
100
AcDbEntity
  8
Kontur
  6
AUSGEZOGEN
 62
     7
370
    25
100
AcDbLine
 10
98.5
 20
78.707106781187
 30
0.0
 11
95.75
 21
81.457106781187
 31
0.0
  0
LINE
  5
6C
330
1F
100
AcDbEntity
  8
Kontur
  6
AUSGEZOGEN
 62
     7
370
    25
100
AcDbLine
 10
100.5
 20
78.707106781187
 30
0.0
 11
107.5
 21
85.707106781187
 31
0.0
  0
LINE
  5
6D
330
1F
100
AcDbEntity
  8
Kontur
  6
AUSGEZOGEN
 62
     7
370
    25
100
AcDbLine
 10
114.5
 20
78.707106781187
 30
0.0
 11
107.5
 21
85.707106781187
 31
0.0
  0
LINE
  5
6E
330
1F
100
AcDbEntity
  8
Kontur
  6
AUSGEZOGEN
 62
     7
370
    25
100
AcDbLine
 10
116.5
 20
78.707106781187
 30
0.0
 11
123.5
 21
85.707106781187
 31
0.0
  0
LINE
  5
6F
330
1F
100
AcDbEntity
  8
Kontur
  6
AUSGEZOGEN
 62
     7
370
    25
100
AcDbLine
 10
130.5
 20
78.707106781187
 30
0.0
 11
123.5
 21
85.707106781187
 31
0.0
  0
ARC
  5
70
330
1F
100
AcDbEntity
  8
Kontur
  6
AUSGEZOGEN
 62
     7
370
    25
100
AcDbCircle
 10
131.5
 20
68.0
 30
0.0
 40
1.0
100
AcDbArc
 50
180.0
 51
0.0
  0
LINE
  5
71
330
1F
100
AcDbEntity
  8
Kontur
  6
AUSGEZOGEN
 62
     7
370
    25
100
AcDbLine
 10
132.5
 20
78.707106781187
 30
0.0
 11
132.5
 21
68.0
 31
0.0
  0
LINE
  5
72
330
1F
100
AcDbEntity
  8
Kontur
  6
AUSGEZOGEN
 62
     7
370
    25
100
AcDbLine
 10
146.5
 20
78.707106781187
 30
0.0
 11
146.5
 21
68.0
 31
0.0
  0
LINE
  5
73
330
1F
100
AcDbEntity
  8
Kontur
  6
AUSGEZOGEN
 62
     7
370
    25
100
AcDbLine
 10
132.5
 20
78.707106781187
 30
0.0
 11
139.5
 21
85.707106781187
 31
0.0
  0
LINE
  5
74
330
1F
100
AcDbEntity
  8
Kontur
  6
AUSGEZOGEN
 62
     7
370
    25
100
AcDbLine
 10
146.5
 20
78.707106781187
 30
0.0
 11
139.5
 21
85.707106781187
 31
0.0
  0
ARC
  5
75
330
1F
100
AcDbEntity
  8
Kontur
  6
AUSGEZOGEN
 62
     7
370
    25
100
AcDbCircle
 10
147.5
 20
68.0
 30
0.0
 40
1.0
100
AcDbArc
 50
180.0
 51
0.0
  0
LINE
  5
76
330
1F
100
AcDbEntity
  8
Kontur
  6
AUSGEZOGEN
 62
     7
370
    25
100
AcDbLine
 10
148.5
 20
78.707106781187
 30
0.0
 11
148.5
 21
68.0
 31
0.0
  0
LINE
  5
77
330
1F
100
AcDbEntity
  8
Kontur
  6
AUSGEZOGEN
 62
     7
370
    25
100
AcDbLine
 10
162.5
 20
78.707106781187
 30
0.0
 11
162.5
 21
68.0
 31
0.0
  0
LINE
  5
78
330
1F
100
AcDbEntity
  8
Kontur
  6
AUSGEZOGEN
 62
     7
370
    25
100
AcDbLine
 10
148.5
 20
78.707106781187
 30
0.0
 11
155.5
 21
85.707106781187
 31
0.0
  0
LINE
  5
79
330
1F
100
AcDbEntity
  8
Kontur
  6
AUSGEZOGEN
 62
     7
370
    25
100
AcDbLine
 10
162.5
 20
78.707106781187
 30
0.0
 11
155.5
 21
85.707106781187
 31
0.0
  0
ARC
  5
7A
330
1F
100
AcDbEntity
  8
Kontur
  6
AUSGEZOGEN
 62
     7
370
    25
100
AcDbCircle
 10
163.5
 20
68.0
 30
0.0
 40
1.0
100
AcDbArc
 50
180.0
 51
0.0
  0
LINE
  5
7B
330
1F
100
AcDbEntity
  8
Kontur
  6
AUSGEZOGEN
 62
     7
370
    25
100
AcDbLine
 10
164.5
 20
78.707106781187
 30
0.0
 11
164.5
 21
68.0
 31
0.0
  0
LINE
  5
7C
330
1F
100
AcDbEntity
  8
Kontur
  6
AUSGEZOGEN
 62
     7
370
    25
100
AcDbLine
 10
178.5
 20
78.707106781187
 30
0.0
 11
178.5
 21
68.0
 31
0.0
  0
LINE
  5
7D
330
1F
100
AcDbEntity
  8
Kontur
  6
AUSGEZOGEN
 62
     7
370
    25
100
AcDbLine
 10
164.5
 20
78.707106781187
 30
0.0
 11
171.5
 21
85.707106781187
 31
0.0
  0
LINE
  5
7E
330
1F
100
AcDbEntity
  8
Kontur
  6
AUSGEZOGEN
 62
     7
370
    25
100
AcDbLine
 10
178.5
 20
78.707106781187
 30
0.0
 11
171.5
 21
85.707106781187
 31
0.0
  0
ARC
  5
7F
330
1F
100
AcDbEntity
  8
Kontur
  6
AUSGEZOGEN
 62
     7
370
    25
100
AcDbCircle
 10
179.5
 20
68.0
 30
0.0
 40
1.0
100
AcDbArc
 50
180.0
 51
0.0
  0
LINE
  5
80
330
1F
100
AcDbEntity
  8
Kontur
  6
AUSGEZOGEN
 62
     7
370
    25
100
AcDbLine
 10
180.5
 20
78.707106781187
 30
0.0
 11
180.5
 21
68.0
 31
0.0
  0
LINE
  5
81
330
1F
100
AcDbEntity
  8
Kontur
  6
AUSGEZOGEN
 62
     7
370
    25
100
AcDbLine
 10
194.5
 20
78.707106781187
 30
0.0
 11
194.5
 21
68.0
 31
0.0
  0
LINE
  5
82
330
1F
100
AcDbEntity
  8
Kontur
  6
AUSGEZOGEN
 62
     7
370
    25
100
AcDbLine
 10
180.5
 20
78.707106781187
 30
0.0
 11
187.5
 21
85.707106781187
 31
0.0
  0
LINE
  5
83
330
1F
100
AcDbEntity
  8
Kontur
  6
AUSGEZOGEN
 62
     7
370
    25
100
AcDbLine
 10
194.5
 20
78.707106781187
 30
0.0
 11
187.5
 21
85.707106781187
 31
0.0
  0
ARC
  5
84
330
1F
100
AcDbEntity
  8
Kontur
  6
AUSGEZOGEN
 62
     7
370
    25
100
AcDbCircle
 10
195.5
 20
68.0
 30
0.0
 40
1.0
100
AcDbArc
 50
180.0
 51
0.0
  0
LINE
  5
85
330
1F
100
AcDbEntity
  8
Kontur
  6
AUSGEZOGEN
 62
     7
370
    25
100
AcDbLine
 10
196.5
 20
78.707106781187
 30
0.0
 11
196.5
 21
68.0
 31
0.0
  0
LINE
  5
86
330
1F
100
AcDbEntity
  8
Kontur
  6
AUSGEZOGEN
 62
     7
370
    25
100
AcDbLine
 10
210.5
 20
78.707106781187
 30
0.0
 11
210.5
 21
68.0
 31
0.0
  0
LINE
  5
87
330
1F
100
AcDbEntity
  8
Kontur
  6
AUSGEZOGEN
 62
     7
370
    25
100
AcDbLine
 10
196.5
 20
78.707106781187
 30
0.0
 11
203.5
 21
85.707106781187
 31
0.0
  0
LINE
  5
88
330
1F
100
AcDbEntity
  8
Kontur
  6
AUSGEZOGEN
 62
     7
370
    25
100
AcDbLine
 10
210.5
 20
78.707106781187
 30
0.0
 11
203.5
 21
85.707106781187
 31
0.0
  0
ARC
  5
89
330
1F
100
AcDbEntity
  8
Kontur
  6
AUSGEZOGEN
 62
     7
370
    25
100
AcDbCircle
 10
211.5
 20
68.0
 30
0.0
 40
1.0
100
AcDbArc
 50
180.0
 51
0.0
  0
LINE
  5
8A
330
1F
100
AcDbEntity
  8
Kontur
  6
AUSGEZOGEN
 62
     7
370
    25
100
AcDbLine
 10
212.5
 20
78.707106781187
 30
0.0
 11
212.5
 21
68.0
 31
0.0
  0
LINE
  5
8B
330
1F
100
AcDbEntity
  8
Kontur
  6
AUSGEZOGEN
 62
     7
370
    25
100
AcDbLine
 10
226.5
 20
78.707106781187
 30
0.0
 11
226.5
 21
68.0
 31
0.0
  0
LINE
  5
8C
330
1F
100
AcDbEntity
  8
Kontur
  6
AUSGEZOGEN
 62
     7
370
    25
100
AcDbLine
 10
212.5
 20
78.707106781187
 30
0.0
 11
219.5
 21
85.707106781187
 31
0.0
  0
LINE
  5
8D
330
1F
100
AcDbEntity
  8
Kontur
  6
AUSGEZOGEN
 62
     7
370
    25
100
AcDbLine
 10
226.5
 20
78.707106781187
 30
0.0
 11
219.5
 21
85.707106781187
 31
0.0
  0
ARC
  5
8E
330
1F
100
AcDbEntity
  8
Kontur
  6
AUSGEZOGEN
 62
     7
370
    25
100
AcDbCircle
 10
227.5
 20
68.0
 30
0.0
 40
1.0
100
AcDbArc
 50
180.0
 51
0.0
  0
LINE
  5
8F
330
1F
100
AcDbEntity
  8
Kontur
  6
AUSGEZOGEN
 62
     7
370
    25
100
AcDbLine
 10
228.5
 20
78.707106781187
 30
0.0
 11
228.5
 21
68.0
 31
0.0
  0
LINE
  5
90
330
1F
100
AcDbEntity
  8
Kontur
  6
AUSGEZOGEN
 62
     7
370
    25
100
AcDbLine
 10
242.5
 20
78.707106781187
 30
0.0
 11
242.5
 21
68.0
 31
0.0
  0
LINE
  5
91
330
1F
100
AcDbEntity
  8
Kontur
  6
AUSGEZOGEN
 62
     7
370
    25
100
AcDbLine
 10
228.5
 20
78.707106781187
 30
0.0
 11
235.5
 21
85.707106781187
 31
0.0
  0
LINE
  5
92
330
1F
100
AcDbEntity
  8
Kontur
  6
AUSGEZOGEN
 62
     7
370
    25
100
AcDbLine
 10
242.5
 20
78.707106781187
 30
0.0
 11
235.5
 21
85.707106781187
 31
0.0
  0
ARC
  5
93
330
1F
100
AcDbEntity
  8
Kontur
  6
AUSGEZOGEN
 62
     7
370
    25
100
AcDbCircle
 10
243.5
 20
68.0
 30
0.0
 40
1.0
100
AcDbArc
 50
180.0
 51
0.0
  0
LINE
  5
94
330
1F
100
AcDbEntity
  8
Kontur
  6
AUSGEZOGEN
 62
     7
370
    25
100
AcDbLine
 10
244.5
 20
78.707106781187
 30
0.0
 11
244.5
 21
68.0
 31
0.0
  0
LINE
  5
95
330
1F
100
AcDbEntity
  8
Kontur
  6
AUSGEZOGEN
 62
     7
370
    25
100
AcDbLine
 10
258.5
 20
78.707106781187
 30
0.0
 11
258.5
 21
68.0
 31
0.0
  0
LINE
  5
96
330
1F
100
AcDbEntity
  8
Kontur
  6
AUSGEZOGEN
 62
     7
370
    25
100
AcDbLine
 10
244.5
 20
78.707106781187
 30
0.0
 11
251.5
 21
85.707106781187
 31
0.0
  0
LINE
  5
97
330
1F
100
AcDbEntity
  8
Kontur
  6
AUSGEZOGEN
 62
     7
370
    25
100
AcDbLine
 10
258.5
 20
78.707106781187
 30
0.0
 11
251.5
 21
85.707106781187
 31
0.0
  0
ARC
  5
98
330
1F
100
AcDbEntity
  8
Kontur
  6
AUSGEZOGEN
 62
     7
370
    25
100
AcDbCircle
 10
259.5
 20
68.0
 30
0.0
 40
1.0
100
AcDbArc
 50
180.0
 51
0.0
  0
LINE
  5
99
330
1F
100
AcDbEntity
  8
Kontur
  6
AUSGEZOGEN
 62
     7
370
    25
100
AcDbLine
 10
260.5
 20
78.707106781187
 30
0.0
 11
260.5
 21
68.0
 31
0.0
  0
LINE
  5
9A
330
1F
100
AcDbEntity
  8
Kontur
  6
AUSGEZOGEN
 62
     7
370
    25
100
AcDbLine
 10
274.5
 20
78.707106781187
 30
0.0
 11
274.5
 21
68.0
 31
0.0
  0
LINE
  5
9B
330
1F
100
AcDbEntity
  8
Kontur
  6
AUSGEZOGEN
 62
     7
370
    25
100
AcDbLine
 10
260.5
 20
78.707106781187
 30
0.0
 11
267.5
 21
85.707106781187
 31
0.0
  0
LINE
  5
9C
330
1F
100
AcDbEntity
  8
Kontur
  6
AUSGEZOGEN
 62
     7
370
    25
100
AcDbLine
 10
274.5
 20
78.707106781187
 30
0.0
 11
267.5
 21
85.707106781187
 31
0.0
  0
ARC
  5
9D
330
1F
100
AcDbEntity
  8
Kontur
  6
AUSGEZOGEN
 62
     7
370
    25
100
AcDbCircle
 10
275.5
 20
68.0
 30
0.0
 40
1.0
100
AcDbArc
 50
180.0
 51
0.0
  0
LINE
  5
9E
330
1F
100
AcDbEntity
  8
Kontur
  6
AUSGEZOGEN
 62
     7
370
    25
100
AcDbLine
 10
276.5
 20
78.707106781187
 30
0.0
 11
276.5
 21
68.0
 31
0.0
  0
LINE
  5
9F
330
1F
100
AcDbEntity
  8
Kontur
  6
AUSGEZOGEN
 62
     7
370
    25
100
AcDbLine
 10
290.5
 20
78.707106781187
 30
0.0
 11
290.5
 21
68.0
 31
0.0
  0
LINE
  5
A0
330
1F
100
AcDbEntity
  8
Kontur
  6
AUSGEZOGEN
 62
     7
370
    25
100
AcDbLine
 10
276.5
 20
78.707106781187
 30
0.0
 11
283.5
 21
85.707106781187
 31
0.0
  0
LINE
  5
A1
330
1F
100
AcDbEntity
  8
Kontur
  6
AUSGEZOGEN
 62
     7
370
    25
100
AcDbLine
 10
290.5
 20
78.707106781187
 30
0.0
 11
283.5
 21
85.707106781187
 31
0.0
  0
ARC
  5
A2
330
1F
100
AcDbEntity
  8
Kontur
  6
AUSGEZOGEN
 62
     7
370
    25
100
AcDbCircle
 10
291.5
 20
68.0
 30
0.0
 40
1.0
100
AcDbArc
 50
180.0
 51
0.0
  0
LINE
  5
A3
330
1F
100
AcDbEntity
  8
Kontur
  6
AUSGEZOGEN
 62
     7
370
    25
100
AcDbLine
 10
292.5
 20
78.707106781187
 30
0.0
 11
292.5
 21
68.0
 31
0.0
  0
LINE
  5
A4
330
1F
100
AcDbEntity
  8
Kontur
  6
AUSGEZOGEN
 62
     7
370
    25
100
AcDbLine
 10
306.5
 20
78.707106781187
 30
0.0
 11
306.5
 21
68.0
 31
0.0
  0
LINE
  5
A5
330
1F
100
AcDbEntity
  8
Kontur
  6
AUSGEZOGEN
 62
     7
370
    25
100
AcDbLine
 10
292.5
 20
78.707106781187
 30
0.0
 11
299.5
 21
85.707106781187
 31
0.0
  0
LINE
  5
A6
330
1F
100
AcDbEntity
  8
Kontur
  6
AUSGEZOGEN
 62
     7
370
    25
100
AcDbLine
 10
306.5
 20
78.707106781187
 30
0.0
 11
299.5
 21
85.707106781187
 31
0.0
  0
ARC
  5
A7
330
1F
100
AcDbEntity
  8
Kontur
  6
AUSGEZOGEN
 62
     7
370
    25
100
AcDbCircle
 10
307.5
 20
68.0
 30
0.0
 40
1.0
100
AcDbArc
 50
180.0
 51
0.0
  0
LINE
  5
A8
330
1F
100
AcDbEntity
  8
Kontur
  6
AUSGEZOGEN
 62
     7
370
    25
100
AcDbLine
 10
308.5
 20
78.707106781187
 30
0.0
 11
308.5
 21
68.0
 31
0.0
  0
LINE
  5
A9
330
1F
100
AcDbEntity
  8
Kontur
  6
AUSGEZOGEN
 62
     7
370
    25
100
AcDbLine
 10
322.5
 20
78.707106781187
 30
0.0
 11
322.5
 21
68.0
 31
0.0
  0
LINE
  5
AA
330
1F
100
AcDbEntity
  8
Kontur
  6
AUSGEZOGEN
 62
     7
370
    25
100
AcDbLine
 10
308.5
 20
78.707106781187
 30
0.0
 11
315.5
 21
85.707106781187
 31
0.0
  0
LINE
  5
AB
330
1F
100
AcDbEntity
  8
Kontur
  6
AUSGEZOGEN
 62
     7
370
    25
100
AcDbLine
 10
322.5
 20
78.707106781187
 30
0.0
 11
315.5
 21
85.707106781187
 31
0.0
  0
ARC
  5
AC
330
1F
100
AcDbEntity
  8
Kontur
  6
AUSGEZOGEN
 62
     7
370
    25
100
AcDbCircle
 10
323.5
 20
68.0
 30
0.0
 40
1.0
100
AcDbArc
 50
180.0
 51
0.0
  0
LINE
  5
AD
330
1F
100
AcDbEntity
  8
Kontur
  6
AUSGEZOGEN
 62
     7
370
    25
100
AcDbLine
 10
324.5
 20
78.707106781187
 30
0.0
 11
324.5
 21
68.0
 31
0.0
  0
LINE
  5
AE
330
1F
100
AcDbEntity
  8
Kontur
  6
AUSGEZOGEN
 62
     7
370
    25
100
AcDbLine
 10
338.5
 20
78.707106781187
 30
0.0
 11
338.5
 21
68.0
 31
0.0
  0
LINE
  5
AF
330
1F
100
AcDbEntity
  8
Kontur
  6
AUSGEZOGEN
 62
     7
370
    25
100
AcDbLine
 10
324.5
 20
78.707106781187
 30
0.0
 11
331.5
 21
85.707106781187
 31
0.0
  0
LINE
  5
B0
330
1F
100
AcDbEntity
  8
Kontur
  6
AUSGEZOGEN
 62
     7
370
    25
100
AcDbLine
 10
338.5
 20
78.707106781187
 30
0.0
 11
331.5
 21
85.707106781187
 31
0.0
  0
ARC
  5
B1
330
1F
100
AcDbEntity
  8
Kontur
  6
AUSGEZOGEN
 62
     7
370
    25
100
AcDbCircle
 10
339.5
 20
68.0
 30
0.0
 40
1.0
100
AcDbArc
 50
180.0
 51
0.0
  0
LINE
  5
B2
330
1F
100
AcDbEntity
  8
Kontur
  6
AUSGEZOGEN
 62
     7
370
    25
100
AcDbLine
 10
340.5
 20
78.707106781187
 30
0.0
 11
340.5
 21
68.0
 31
0.0
  0
LINE
  5
B3
330
1F
100
AcDbEntity
  8
Kontur
  6
AUSGEZOGEN
 62
     7
370
    25
100
AcDbLine
 10
354.5
 20
78.707106781187
 30
0.0
 11
354.5
 21
68.0
 31
0.0
  0
LINE
  5
B4
330
1F
100
AcDbEntity
  8
Kontur
  6
AUSGEZOGEN
 62
     7
370
    25
100
AcDbLine
 10
340.5
 20
78.707106781187
 30
0.0
 11
347.5
 21
85.707106781187
 31
0.0
  0
LINE
  5
B5
330
1F
100
AcDbEntity
  8
Kontur
  6
AUSGEZOGEN
 62
     7
370
    25
100
AcDbLine
 10
354.5
 20
78.707106781187
 30
0.0
 11
347.5
 21
85.707106781187
 31
0.0
  0
ARC
  5
B6
330
1F
100
AcDbEntity
  8
Kontur
  6
AUSGEZOGEN
 62
     7
370
    25
100
AcDbCircle
 10
355.5
 20
68.0
 30
0.0
 40
1.0
100
AcDbArc
 50
180.0
 51
0.0
  0
LINE
  5
B7
330
1F
100
AcDbEntity
  8
Kontur
  6
AUSGEZOGEN
 62
     7
370
    25
100
AcDbLine
 10
356.5
 20
78.707106781187
 30
0.0
 11
356.5
 21
68.0
 31
0.0
  0
LINE
  5
B8
330
1F
100
AcDbEntity
  8
Kontur
  6
AUSGEZOGEN
 62
     7
370
    25
100
AcDbLine
 10
370.5
 20
78.707106781187
 30
0.0
 11
370.5
 21
68.0
 31
0.0
  0
LINE
  5
B9
330
1F
100
AcDbEntity
  8
Kontur
  6
AUSGEZOGEN
 62
     7
370
    25
100
AcDbLine
 10
356.5
 20
78.707106781187
 30
0.0
 11
363.5
 21
85.707106781187
 31
0.0
  0
LINE
  5
BA
330
1F
100
AcDbEntity
  8
Kontur
  6
AUSGEZOGEN
 62
     7
370
    25
100
AcDbLine
 10
370.5
 20
78.707106781187
 30
0.0
 11
363.5
 21
85.707106781187
 31
0.0
  0
ARC
  5
BB
330
1F
100
AcDbEntity
  8
Kontur
  6
AUSGEZOGEN
 62
     7
370
    25
100
AcDbCircle
 10
371.5
 20
68.0
 30
0.0
 40
1.0
100
AcDbArc
 50
180.0
 51
0.0
  0
LINE
  5
BC
330
1F
100
AcDbEntity
  8
Kontur
  6
AUSGEZOGEN
 62
     7
370
    25
100
AcDbLine
 10
372.5
 20
78.707106781187
 30
0.0
 11
372.5
 21
68.0
 31
0.0
  0
LINE
  5
BD
330
1F
100
AcDbEntity
  8
Kontur
  6
AUSGEZOGEN
 62
     7
370
    25
100
AcDbLine
 10
386.5
 20
78.707106781187
 30
0.0
 11
386.5
 21
68.0
 31
0.0
  0
LINE
  5
BE
330
1F
100
AcDbEntity
  8
Kontur
  6
AUSGEZOGEN
 62
     7
370
    25
100
AcDbLine
 10
372.5
 20
78.707106781187
 30
0.0
 11
379.5
 21
85.707106781187
 31
0.0
  0
LINE
  5
BF
330
1F
100
AcDbEntity
  8
Kontur
  6
AUSGEZOGEN
 62
     7
370
    25
100
AcDbLine
 10
386.5
 20
78.707106781187
 30
0.0
 11
379.5
 21
85.707106781187
 31
0.0
  0
ARC
  5
C0
330
1F
100
AcDbEntity
  8
Kontur
  6
AUSGEZOGEN
 62
     7
370
    25
100
AcDbCircle
 10
387.5
 20
68.0
 30
0.0
 40
1.0
100
AcDbArc
 50
180.0
 51
0.0
  0
LINE
  5
C1
330
1F
100
AcDbEntity
  8
Kontur
  6
AUSGEZOGEN
 62
     7
370
    25
100
AcDbLine
 10
388.5
 20
78.707106781187
 30
0.0
 11
388.5
 21
68.0
 31
0.0
  0
LINE
  5
C2
330
1F
100
AcDbEntity
  8
Kontur
  6
AUSGEZOGEN
 62
     7
370
    25
100
AcDbLine
 10
402.5
 20
78.707106781187
 30
0.0
 11
402.5
 21
68.0
 31
0.0
  0
LINE
  5
C3
330
1F
100
AcDbEntity
  8
Kontur
  6
AUSGEZOGEN
 62
     7
370
    25
100
AcDbLine
 10
388.5
 20
78.707106781187
 30
0.0
 11
395.5
 21
85.707106781187
 31
0.0
  0
LINE
  5
C4
330
1F
100
AcDbEntity
  8
Kontur
  6
AUSGEZOGEN
 62
     7
370
    25
100
AcDbLine
 10
402.5
 20
78.707106781187
 30
0.0
 11
395.5
 21
85.707106781187
 31
0.0
  0
ARC
  5
C5
330
1F
100
AcDbEntity
  8
Kontur
  6
AUSGEZOGEN
 62
     7
370
    25
100
AcDbCircle
 10
403.5
 20
68.0
 30
0.0
 40
1.0
100
AcDbArc
 50
180.0
 51
0.0
  0
LINE
  5
C6
330
1F
100
AcDbEntity
  8
Kontur
  6
AUSGEZOGEN
 62
     7
370
    25
100
AcDbLine
 10
404.5
 20
78.707106781187
 30
0.0
 11
404.5
 21
68.0
 31
0.0
  0
LINE
  5
C7
330
1F
100
AcDbEntity
  8
Kontur
  6
AUSGEZOGEN
 62
     7
370
    25
100
AcDbLine
 10
418.5
 20
78.707106781187
 30
0.0
 11
418.5
 21
68.0
 31
0.0
  0
LINE
  5
C8
330
1F
100
AcDbEntity
  8
Kontur
  6
AUSGEZOGEN
 62
     7
370
    25
100
AcDbLine
 10
404.5
 20
78.707106781187
 30
0.0
 11
411.5
 21
85.707106781187
 31
0.0
  0
LINE
  5
C9
330
1F
100
AcDbEntity
  8
Kontur
  6
AUSGEZOGEN
 62
     7
370
    25
100
AcDbLine
 10
418.5
 20
78.707106781187
 30
0.0
 11
411.5
 21
85.707106781187
 31
0.0
  0
ARC
  5
CA
330
1F
100
AcDbEntity
  8
Kontur
  6
AUSGEZOGEN
 62
     7
370
    25
100
AcDbCircle
 10
419.5
 20
68.0
 30
0.0
 40
1.0
100
AcDbArc
 50
180.0
 51
0.0
  0
LINE
  5
CB
330
1F
100
AcDbEntity
  8
Kontur
  6
AUSGEZOGEN
 62
     7
370
    25
100
AcDbLine
 10
420.5
 20
78.707106781187
 30
0.0
 11
420.5
 21
68.0
 31
0.0
  0
LINE
  5
CC
330
1F
100
AcDbEntity
  8
Kontur
  6
AUSGEZOGEN
 62
     7
370
    25
100
AcDbLine
 10
434.5
 20
78.707106781187
 30
0.0
 11
434.5
 21
68.0
 31
0.0
  0
LINE
  5
CD
330
1F
100
AcDbEntity
  8
Kontur
  6
AUSGEZOGEN
 62
     7
370
    25
100
AcDbLine
 10
420.5
 20
78.707106781187
 30
0.0
 11
427.5
 21
85.707106781187
 31
0.0
  0
LINE
  5
CE
330
1F
100
AcDbEntity
  8
Kontur
  6
AUSGEZOGEN
 62
     7
370
    25
100
AcDbLine
 10
434.5
 20
78.707106781187
 30
0.0
 11
427.5
 21
85.707106781187
 31
0.0
  0
ARC
  5
CF
330
1F
100
AcDbEntity
  8
Kontur
  6
AUSGEZOGEN
 62
     7
370
    25
100
AcDbCircle
 10
435.5
 20
68.0
 30
0.0
 40
1.0
100
AcDbArc
 50
180.0
 51
0.0
  0
LINE
  5
D0
330
1F
100
AcDbEntity
  8
Kontur
  6
AUSGEZOGEN
 62
     7
370
    25
100
AcDbLine
 10
436.5
 20
78.707106781187
 30
0.0
 11
436.5
 21
68.0
 31
0.0
  0
LINE
  5
D1
330
1F
100
AcDbEntity
  8
Kontur
  6
AUSGEZOGEN
 62
     7
370
    25
100
AcDbLine
 10
436.5
 20
78.707106781187
 30
0.0
 11
443.5
 21
85.707106781187
 31
0.0
  0
LINE
  5
D2
330
1F
100
AcDbEntity
  8
Kontur
  6
AUSGEZOGEN
 62
     7
370
    25
100
AcDbLine
 10
445.75
 20
83.457106781187
 30
0.0
 11
443.5
 21
85.707106781187
 31
0.0
  0
LINE
  5
D3
330
1F
100
AcDbEntity
  8
Kontur
  6
AUSGEZOGEN
 62
     7
370
    25
100
AcDbLine
 10
95.75
 20
54.7
 30
0.0
 11
445.75
 21
54.7
 31
0.0
  0
LINE
  5
D4
330
1F
100
AcDbEntity
  8
Kontur
  6
AUSGEZOGEN
 62
     7
370
    18
100
AcDbLine
 10
95.75
 20
81.457106781187
 30
0.0
 11
95.75
 21
54.7
 31
0.0
  0
LINE
  5
D5
330
1F
100
AcDbEntity
  8
Kontur
  6
AUSGEZOGEN
 62
     7
370
    18
100
AcDbLine
 10
445.75
 20
54.7
 30
0.0
 11
445.75
 21
83.457106781187
 31
0.0
  0
DIMENSION
  5
E0
330
1F
100
AcDbEntity
  8
Bemassung
  6
AUSGEZOGEN
 62
     1
420
 16711680
370
    18
100
AcDbDimension
280
     0
  2
*D1
 10
95.75
 20
95.0
 30
0.0
 11
270.75
 21
95.0
 31
0.0
 70
    32
 71
     5
 42
-1.0
 73
     0
 74
     0
 75
     0
  3
ISO-25
100
AcDbAlignedDimension
 13
445.75
 23
83.457106781187
 33
0.0
 14
95.75
 24
81.457106781187
 34
0.0
 50
180.0
100
AcDbRotatedDimension
1001
ACAD
1000
DSTYLE
1002
{
1070
     3
1000
<>
1070
   340
1005
5F
1070
    44
1040
2.5
1070
   280
1070
     0
1070
    77
1070
     0
1070
    78
1070
     8
1070
   179
1070
     2
1070
   271
1070
     2
1070
   344
1005
E1
1070
   343
1005
E1
1070
   173
1070
     1
1070
    41
1040
3.5
1070
   147
1040
0.5
1070
   140
1040
3.5
1070
   178
1070
     1
1070
   177
1070
     1
1070
   176
1070
     1
1002
}
  0
LINE
  5
E5
330
1F
100
AcDbEntity
  8
Kontur
  6
AUSGEZOGEN
 62
     3
420
    65280
370
    18
100
AcDbLine
 10
95.75
 20
54.7
 30
0.0
 11
95.75
 21
49.7
 31
0.0
  0
LINE
  5
E6
330
1F
100
AcDbEntity
  8
Kontur
  6
AUSGEZOGEN
 62
     3
420
    65280
370
    18
100
AcDbLine
 10
445.75
 20
54.7
 30
0.0
 11
445.75
 21
49.7
 31
0.0
  0
TEXT
  5
E7
330
1F
100
AcDbEntity
  8
Text
  6
AUSGEZOGEN
 62
     3
420
    65280
370
    18
100
AcDbText
 10
97.449998021126
 20
36.5
 30
0.0
 40
7.0
  1
350mm-500mm  - 2 -  festprogrammierte Microstege setzen
 41
0.933123039093
  7
tfont1
 72
     5
 11
442.550001978874
 21
36.5
 31
0.0
100
AcDbText
  0
LINE
  5
E8
330
1F
100
AcDbEntity
  8
Kontur
  6
AUSGEZOGEN
 62
     7
370
    25
100
AcDbLine
 10
98.5
 20
8.707106781187
 30
0.0
 11
98.5
 21
-2.0
 31
0.0
  0
LINE
  5
E9
330
1F
100
AcDbEntity
  8
Kontur
  6
AUSGEZOGEN
 62
     7
370
    25
100
AcDbLine
 10
100.5
 20
8.707106781187
 30
0.0
 11
100.5
 21
-2.0
 31
0.0
  0
LINE
  5
EA
330
1F
100
AcDbEntity
  8
Kontur
  6
AUSGEZOGEN
 62
     7
370
    25
100
AcDbLine
 10
114.5
 20
8.707106781187
 30
0.0
 11
114.5
 21
-2.0
 31
0.0
  0
ARC
  5
EB
330
1F
100
AcDbEntity
  8
Kontur
  6
AUSGEZOGEN
 62
     7
370
    25
100
AcDbCircle
 10
99.5
 20
-2.0
 30
0.0
 40
1.0
100
AcDbArc
 50
180.0
 51
0.0
  0
ARC
  5
EC
330
1F
100
AcDbEntity
  8
Kontur
  6
AUSGEZOGEN
 62
     7
370
    25
100
AcDbCircle
 10
115.5
 20
-2.0
 30
0.0
 40
1.0
100
AcDbArc
 50
180.0
 51
0.0
  0
LINE
  5
ED
330
1F
100
AcDbEntity
  8
Kontur
  6
AUSGEZOGEN
 62
     7
370
    25
100
AcDbLine
 10
116.5
 20
8.707106781187
 30
0.0
 11
116.5
 21
-2.0
 31
0.0
  0
LINE
  5
EE
330
1F
100
AcDbEntity
  8
Kontur
  6
AUSGEZOGEN
 62
     7
370
    25
100
AcDbLine
 10
130.5
 20
8.707106781187
 30
0.0
 11
130.5
 21
-2.0
 31
0.0
  0
LINE
  5
EF
330
1F
100
AcDbEntity
  8
Kontur
  6
AUSGEZOGEN
 62
     7
370
    25
100
AcDbLine
 10
98.5
 20
8.707106781187
 30
0.0
 11
95.75
 21
11.457106781187
 31
0.0
  0
LINE
  5
F0
330
1F
100
AcDbEntity
  8
Kontur
  6
AUSGEZOGEN
 62
     7
370
    25
100
AcDbLine
 10
100.5
 20
8.707106781187
 30
0.0
 11
107.5
 21
15.707106781187
 31
0.0
  0
LINE
  5
F1
330
1F
100
AcDbEntity
  8
Kontur
  6
AUSGEZOGEN
 62
     7
370
    25
100
AcDbLine
 10
114.5
 20
8.707106781187
 30
0.0
 11
107.5
 21
15.707106781187
 31
0.0
  0
LINE
  5
F2
330
1F
100
AcDbEntity
  8
Kontur
  6
AUSGEZOGEN
 62
     7
370
    25
100
AcDbLine
 10
116.5
 20
8.707106781187
 30
0.0
 11
123.5
 21
15.707106781187
 31
0.0
  0
LINE
  5
F3
330
1F
100
AcDbEntity
  8
Kontur
  6
AUSGEZOGEN
 62
     7
370
    25
100
AcDbLine
 10
130.5
 20
8.707106781187
 30
0.0
 11
123.5
 21
15.707106781187
 31
0.0
  0
ARC
  5
F4
330
1F
100
AcDbEntity
  8
Kontur
  6
AUSGEZOGEN
 62
     7
370
    25
100
AcDbCircle
 10
131.5
 20
-2.0
 30
0.0
 40
1.0
100
AcDbArc
 50
180.0
 51
0.0
  0
LINE
  5
F5
330
1F
100
AcDbEntity
  8
Kontur
  6
AUSGEZOGEN
 62
     7
370
    25
100
AcDbLine
 10
132.5
 20
8.707106781187
 30
0.0
 11
132.5
 21
-2.0
 31
0.0
  0
LINE
  5
F6
330
1F
100
AcDbEntity
  8
Kontur
  6
AUSGEZOGEN
 62
     7
370
    25
100
AcDbLine
 10
146.5
 20
8.707106781187
 30
0.0
 11
146.5
 21
-2.0
 31
0.0
  0
LINE
  5
F7
330
1F
100
AcDbEntity
  8
Kontur
  6
AUSGEZOGEN
 62
     7
370
    25
100
AcDbLine
 10
132.5
 20
8.707106781187
 30
0.0
 11
139.5
 21
15.707106781187
 31
0.0
  0
LINE
  5
F8
330
1F
100
AcDbEntity
  8
Kontur
  6
AUSGEZOGEN
 62
     7
370
    25
100
AcDbLine
 10
146.5
 20
8.707106781187
 30
0.0
 11
139.5
 21
15.707106781187
 31
0.0
  0
ARC
  5
F9
330
1F
100
AcDbEntity
  8
Kontur
  6
AUSGEZOGEN
 62
     7
370
    25
100
AcDbCircle
 10
147.5
 20
-2.0
 30
0.0
 40
1.0
100
AcDbArc
 50
180.0
 51
0.0
  0
LINE
  5
FA
330
1F
100
AcDbEntity
  8
Kontur
  6
AUSGEZOGEN
 62
     7
370
    25
100
AcDbLine
 10
148.5
 20
8.707106781187
 30
0.0
 11
148.5
 21
-2.0
 31
0.0
  0
LINE
  5
FB
330
1F
100
AcDbEntity
  8
Kontur
  6
AUSGEZOGEN
 62
     7
370
    25
100
AcDbLine
 10
162.5
 20
8.707106781187
 30
0.0
 11
162.5
 21
-2.0
 31
0.0
  0
LINE
  5
FC
330
1F
100
AcDbEntity
  8
Kontur
  6
AUSGEZOGEN
 62
     7
370
    25
100
AcDbLine
 10
148.5
 20
8.707106781187
 30
0.0
 11
155.5
 21
15.707106781187
 31
0.0
  0
LINE
  5
FD
330
1F
100
AcDbEntity
  8
Kontur
  6
AUSGEZOGEN
 62
     7
370
    25
100
AcDbLine
 10
162.5
 20
8.707106781187
 30
0.0
 11
155.5
 21
15.707106781187
 31
0.0
  0
ARC
  5
FE
330
1F
100
AcDbEntity
  8
Kontur
  6
AUSGEZOGEN
 62
     7
370
    25
100
AcDbCircle
 10
163.5
 20
-2.0
 30
0.0
 40
1.0
100
AcDbArc
 50
180.0
 51
0.0
  0
LINE
  5
FF
330
1F
100
AcDbEntity
  8
Kontur
  6
AUSGEZOGEN
 62
     7
370
    25
100
AcDbLine
 10
164.5
 20
8.707106781187
 30
0.0
 11
164.5
 21
-2.0
 31
0.0
  0
LINE
  5
100
330
1F
100
AcDbEntity
  8
Kontur
  6
AUSGEZOGEN
 62
     7
370
    25
100
AcDbLine
 10
178.5
 20
8.707106781187
 30
0.0
 11
178.5
 21
-2.0
 31
0.0
  0
LINE
  5
101
330
1F
100
AcDbEntity
  8
Kontur
  6
AUSGEZOGEN
 62
     7
370
    25
100
AcDbLine
 10
164.5
 20
8.707106781187
 30
0.0
 11
171.5
 21
15.707106781187
 31
0.0
  0
LINE
  5
102
330
1F
100
AcDbEntity
  8
Kontur
  6
AUSGEZOGEN
 62
     7
370
    25
100
AcDbLine
 10
178.5
 20
8.707106781187
 30
0.0
 11
171.5
 21
15.707106781187
 31
0.0
  0
ARC
  5
103
330
1F
100
AcDbEntity
  8
Kontur
  6
AUSGEZOGEN
 62
     7
370
    25
100
AcDbCircle
 10
179.5
 20
-2.0
 30
0.0
 40
1.0
100
AcDbArc
 50
180.0
 51
0.0
  0
LINE
  5
104
330
1F
100
AcDbEntity
  8
Kontur
  6
AUSGEZOGEN
 62
     7
370
    25
100
AcDbLine
 10
180.5
 20
8.707106781187
 30
0.0
 11
180.5
 21
-2.0
 31
0.0
  0
LINE
  5
105
330
1F
100
AcDbEntity
  8
Kontur
  6
AUSGEZOGEN
 62
     7
370
    25
100
AcDbLine
 10
194.5
 20
8.707106781187
 30
0.0
 11
194.5
 21
-2.0
 31
0.0
  0
LINE
  5
106
330
1F
100
AcDbEntity
  8
Kontur
  6
AUSGEZOGEN
 62
     7
370
    25
100
AcDbLine
 10
180.5
 20
8.707106781187
 30
0.0
 11
187.5
 21
15.707106781187
 31
0.0
  0
LINE
  5
107
330
1F
100
AcDbEntity
  8
Kontur
  6
AUSGEZOGEN
 62
     7
370
    25
100
AcDbLine
 10
194.5
 20
8.707106781187
 30
0.0
 11
187.5
 21
15.707106781187
 31
0.0
  0
ARC
  5
108
330
1F
100
AcDbEntity
  8
Kontur
  6
AUSGEZOGEN
 62
     7
370
    25
100
AcDbCircle
 10
195.5
 20
-2.0
 30
0.0
 40
1.0
100
AcDbArc
 50
180.0
 51
0.0
  0
LINE
  5
109
330
1F
100
AcDbEntity
  8
Kontur
  6
AUSGEZOGEN
 62
     7
370
    25
100
AcDbLine
 10
196.5
 20
8.707106781187
 30
0.0
 11
196.5
 21
-2.0
 31
0.0
  0
LINE
  5
10A
330
1F
100
AcDbEntity
  8
Kontur
  6
AUSGEZOGEN
 62
     7
370
    25
100
AcDbLine
 10
210.5
 20
8.707106781187
 30
0.0
 11
210.5
 21
-2.0
 31
0.0
  0
LINE
  5
10B
330
1F
100
AcDbEntity
  8
Kontur
  6
AUSGEZOGEN
 62
     7
370
    25
100
AcDbLine
 10
196.5
 20
8.707106781187
 30
0.0
 11
203.5
 21
15.707106781187
 31
0.0
  0
LINE
  5
10C
330
1F
100
AcDbEntity
  8
Kontur
  6
AUSGEZOGEN
 62
     7
370
    25
100
AcDbLine
 10
210.5
 20
8.707106781187
 30
0.0
 11
203.5
 21
15.707106781187
 31
0.0
  0
ARC
  5
10D
330
1F
100
AcDbEntity
  8
Kontur
  6
AUSGEZOGEN
 62
     7
370
    25
100
AcDbCircle
 10
211.5
 20
-2.0
 30
0.0
 40
1.0
100
AcDbArc
 50
180.0
 51
0.0
  0
LINE
  5
10E
330
1F
100
AcDbEntity
  8
Kontur
  6
AUSGEZOGEN
 62
     7
370
    25
100
AcDbLine
 10
212.5
 20
8.707106781187
 30
0.0
 11
212.5
 21
-2.0
 31
0.0
  0
LINE
  5
10F
330
1F
100
AcDbEntity
  8
Kontur
  6
AUSGEZOGEN
 62
     7
370
    25
100
AcDbLine
 10
226.5
 20
8.707106781187
 30
0.0
 11
226.5
 21
-2.0
 31
0.0
  0
LINE
  5
110
330
1F
100
AcDbEntity
  8
Kontur
  6
AUSGEZOGEN
 62
     7
370
    25
100
AcDbLine
 10
212.5
 20
8.707106781187
 30
0.0
 11
219.5
 21
15.707106781187
 31
0.0
  0
LINE
  5
111
330
1F
100
AcDbEntity
  8
Kontur
  6
AUSGEZOGEN
 62
     7
370
    25
100
AcDbLine
 10
226.5
 20
8.707106781187
 30
0.0
 11
219.5
 21
15.707106781187
 31
0.0
  0
ARC
  5
112
330
1F
100
AcDbEntity
  8
Kontur
  6
AUSGEZOGEN
 62
     7
370
    25
100
AcDbCircle
 10
227.5
 20
-2.0
 30
0.0
 40
1.0
100
AcDbArc
 50
180.0
 51
0.0
  0
LINE
  5
113
330
1F
100
AcDbEntity
  8
Kontur
  6
AUSGEZOGEN
 62
     7
370
    25
100
AcDbLine
 10
228.5
 20
8.707106781187
 30
0.0
 11
228.5
 21
-2.0
 31
0.0
  0
LINE
  5
114
330
1F
100
AcDbEntity
  8
Kontur
  6
AUSGEZOGEN
 62
     7
370
    25
100
AcDbLine
 10
242.5
 20
8.707106781187
 30
0.0
 11
242.5
 21
-2.0
 31
0.0
  0
LINE
  5
115
330
1F
100
AcDbEntity
  8
Kontur
  6
AUSGEZOGEN
 62
     7
370
    25
100
AcDbLine
 10
228.5
 20
8.707106781187
 30
0.0
 11
235.5
 21
15.707106781187
 31
0.0
  0
LINE
  5
116
330
1F
100
AcDbEntity
  8
Kontur
  6
AUSGEZOGEN
 62
     7
370
    25
100
AcDbLine
 10
242.5
 20
8.707106781187
 30
0.0
 11
235.5
 21
15.707106781187
 31
0.0
  0
ARC
  5
117
330
1F
100
AcDbEntity
  8
Kontur
  6
AUSGEZOGEN
 62
     7
370
    25
100
AcDbCircle
 10
243.5
 20
-2.0
 30
0.0
 40
1.0
100
AcDbArc
 50
180.0
 51
0.0
  0
LINE
  5
118
330
1F
100
AcDbEntity
  8
Kontur
  6
AUSGEZOGEN
 62
     7
370
    25
100
AcDbLine
 10
244.5
 20
8.707106781187
 30
0.0
 11
244.5
 21
-2.0
 31
0.0
  0
LINE
  5
119
330
1F
100
AcDbEntity
  8
Kontur
  6
AUSGEZOGEN
 62
     7
370
    25
100
AcDbLine
 10
258.5
 20
8.707106781187
 30
0.0
 11
258.5
 21
-2.0
 31
0.0
  0
LINE
  5
11A
330
1F
100
AcDbEntity
  8
Kontur
  6
AUSGEZOGEN
 62
     7
370
    25
100
AcDbLine
 10
244.5
 20
8.707106781187
 30
0.0
 11
251.5
 21
15.707106781187
 31
0.0
  0
LINE
  5
11B
330
1F
100
AcDbEntity
  8
Kontur
  6
AUSGEZOGEN
 62
     7
370
    25
100
AcDbLine
 10
258.5
 20
8.707106781187
 30
0.0
 11
251.5
 21
15.707106781187
 31
0.0
  0
ARC
  5
11C
330
1F
100
AcDbEntity
  8
Kontur
  6
AUSGEZOGEN
 62
     7
370
    25
100
AcDbCircle
 10
259.5
 20
-2.0
 30
0.0
 40
1.0
100
AcDbArc
 50
180.0
 51
0.0
  0
LINE
  5
11D
330
1F
100
AcDbEntity
  8
Kontur
  6
AUSGEZOGEN
 62
     7
370
    25
100
AcDbLine
 10
260.5
 20
8.707106781187
 30
0.0
 11
260.5
 21
-2.0
 31
0.0
  0
LINE
  5
11E
330
1F
100
AcDbEntity
  8
Kontur
  6
AUSGEZOGEN
 62
     7
370
    25
100
AcDbLine
 10
274.5
 20
8.707106781187
 30
0.0
 11
274.5
 21
-2.0
 31
0.0
  0
LINE
  5
11F
330
1F
100
AcDbEntity
  8
Kontur
  6
AUSGEZOGEN
 62
     7
370
    25
100
AcDbLine
 10
260.5
 20
8.707106781187
 30
0.0
 11
267.5
 21
15.707106781187
 31
0.0
  0
LINE
  5
120
330
1F
100
AcDbEntity
  8
Kontur
  6
AUSGEZOGEN
 62
     7
370
    25
100
AcDbLine
 10
274.5
 20
8.707106781187
 30
0.0
 11
267.5
 21
15.707106781187
 31
0.0
  0
ARC
  5
121
330
1F
100
AcDbEntity
  8
Kontur
  6
AUSGEZOGEN
 62
     7
370
    25
100
AcDbCircle
 10
275.5
 20
-2.0
 30
0.0
 40
1.0
100
AcDbArc
 50
180.0
 51
0.0
  0
LINE
  5
122
330
1F
100
AcDbEntity
  8
Kontur
  6
AUSGEZOGEN
 62
     7
370
    25
100
AcDbLine
 10
276.5
 20
8.707106781187
 30
0.0
 11
276.5
 21
-2.0
 31
0.0
  0
LINE
  5
123
330
1F
100
AcDbEntity
  8
Kontur
  6
AUSGEZOGEN
 62
     7
370
    25
100
AcDbLine
 10
290.5
 20
8.707106781187
 30
0.0
 11
290.5
 21
-2.0
 31
0.0
  0
LINE
  5
124
330
1F
100
AcDbEntity
  8
Kontur
  6
AUSGEZOGEN
 62
     7
370
    25
100
AcDbLine
 10
276.5
 20
8.707106781187
 30
0.0
 11
283.5
 21
15.707106781187
 31
0.0
  0
LINE
  5
125
330
1F
100
AcDbEntity
  8
Kontur
  6
AUSGEZOGEN
 62
     7
370
    25
100
AcDbLine
 10
290.5
 20
8.707106781187
 30
0.0
 11
283.5
 21
15.707106781187
 31
0.0
  0
ARC
  5
126
330
1F
100
AcDbEntity
  8
Kontur
  6
AUSGEZOGEN
 62
     7
370
    25
100
AcDbCircle
 10
291.5
 20
-2.0
 30
0.0
 40
1.0
100
AcDbArc
 50
180.0
 51
0.0
  0
LINE
  5
127
330
1F
100
AcDbEntity
  8
Kontur
  6
AUSGEZOGEN
 62
     7
370
    25
100
AcDbLine
 10
292.5
 20
8.707106781187
 30
0.0
 11
292.5
 21
-2.0
 31
0.0
  0
LINE
  5
128
330
1F
100
AcDbEntity
  8
Kontur
  6
AUSGEZOGEN
 62
     7
370
    25
100
AcDbLine
 10
306.5
 20
8.707106781187
 30
0.0
 11
306.5
 21
-2.0
 31
0.0
  0
LINE
  5
129
330
1F
100
AcDbEntity
  8
Kontur
  6
AUSGEZOGEN
 62
     7
370
    25
100
AcDbLine
 10
292.5
 20
8.707106781187
 30
0.0
 11
299.5
 21
15.707106781187
 31
0.0
  0
LINE
  5
12A
330
1F
100
AcDbEntity
  8
Kontur
  6
AUSGEZOGEN
 62
     7
370
    25
100
AcDbLine
 10
306.5
 20
8.707106781187
 30
0.0
 11
299.5
 21
15.707106781187
 31
0.0
  0
ARC
  5
12B
330
1F
100
AcDbEntity
  8
Kontur
  6
AUSGEZOGEN
 62
     7
370
    25
100
AcDbCircle
 10
307.5
 20
-2.0
 30
0.0
 40
1.0
100
AcDbArc
 50
180.0
 51
0.0
  0
LINE
  5
12C
330
1F
100
AcDbEntity
  8
Kontur
  6
AUSGEZOGEN
 62
     7
370
    25
100
AcDbLine
 10
308.5
 20
8.707106781187
 30
0.0
 11
308.5
 21
-2.0
 31
0.0
  0
LINE
  5
12D
330
1F
100
AcDbEntity
  8
Kontur
  6
AUSGEZOGEN
 62
     7
370
    25
100
AcDbLine
 10
322.5
 20
8.707106781187
 30
0.0
 11
322.5
 21
-2.0
 31
0.0
  0
LINE
  5
12E
330
1F
100
AcDbEntity
  8
Kontur
  6
AUSGEZOGEN
 62
     7
370
    25
100
AcDbLine
 10
308.5
 20
8.707106781187
 30
0.0
 11
315.5
 21
15.707106781187
 31
0.0
  0
LINE
  5
12F
330
1F
100
AcDbEntity
  8
Kontur
  6
AUSGEZOGEN
 62
     7
370
    25
100
AcDbLine
 10
322.5
 20
8.707106781187
 30
0.0
 11
315.5
 21
15.707106781187
 31
0.0
  0
ARC
  5
130
330
1F
100
AcDbEntity
  8
Kontur
  6
AUSGEZOGEN
 62
     7
370
    25
100
AcDbCircle
 10
323.5
 20
-2.0
 30
0.0
 40
1.0
100
AcDbArc
 50
180.0
 51
0.0
  0
LINE
  5
131
330
1F
100
AcDbEntity
  8
Kontur
  6
AUSGEZOGEN
 62
     7
370
    25
100
AcDbLine
 10
324.5
 20
8.707106781187
 30
0.0
 11
324.5
 21
-2.0
 31
0.0
  0
LINE
  5
132
330
1F
100
AcDbEntity
  8
Kontur
  6
AUSGEZOGEN
 62
     7
370
    25
100
AcDbLine
 10
338.5
 20
8.707106781187
 30
0.0
 11
338.5
 21
-2.0
 31
0.0
  0
LINE
  5
133
330
1F
100
AcDbEntity
  8
Kontur
  6
AUSGEZOGEN
 62
     7
370
    25
100
AcDbLine
 10
324.5
 20
8.707106781187
 30
0.0
 11
331.5
 21
15.707106781187
 31
0.0
  0
LINE
  5
134
330
1F
100
AcDbEntity
  8
Kontur
  6
AUSGEZOGEN
 62
     7
370
    25
100
AcDbLine
 10
338.5
 20
8.707106781187
 30
0.0
 11
331.5
 21
15.707106781187
 31
0.0
  0
ARC
  5
135
330
1F
100
AcDbEntity
  8
Kontur
  6
AUSGEZOGEN
 62
     7
370
    25
100
AcDbCircle
 10
339.5
 20
-2.0
 30
0.0
 40
1.0
100
AcDbArc
 50
180.0
 51
0.0
  0
LINE
  5
136
330
1F
100
AcDbEntity
  8
Kontur
  6
AUSGEZOGEN
 62
     7
370
    25
100
AcDbLine
 10
340.5
 20
8.707106781187
 30
0.0
 11
340.5
 21
-2.0
 31
0.0
  0
LINE
  5
137
330
1F
100
AcDbEntity
  8
Kontur
  6
AUSGEZOGEN
 62
     7
370
    25
100
AcDbLine
 10
354.5
 20
8.707106781187
 30
0.0
 11
354.5
 21
-2.0
 31
0.0
  0
LINE
  5
138
330
1F
100
AcDbEntity
  8
Kontur
  6
AUSGEZOGEN
 62
     7
370
    25
100
AcDbLine
 10
340.5
 20
8.707106781187
 30
0.0
 11
347.5
 21
15.707106781187
 31
0.0
  0
LINE
  5
139
330
1F
100
AcDbEntity
  8
Kontur
  6
AUSGEZOGEN
 62
     7
370
    25
100
AcDbLine
 10
354.5
 20
8.707106781187
 30
0.0
 11
347.5
 21
15.707106781187
 31
0.0
  0
ARC
  5
13A
330
1F
100
AcDbEntity
  8
Kontur
  6
AUSGEZOGEN
 62
     7
370
    25
100
AcDbCircle
 10
355.5
 20
-2.0
 30
0.0
 40
1.0
100
AcDbArc
 50
180.0
 51
0.0
  0
LINE
  5
13B
330
1F
100
AcDbEntity
  8
Kontur
  6
AUSGEZOGEN
 62
     7
370
    25
100
AcDbLine
 10
356.5
 20
8.707106781187
 30
0.0
 11
356.5
 21
-2.0
 31
0.0
  0
LINE
  5
13C
330
1F
100
AcDbEntity
  8
Kontur
  6
AUSGEZOGEN
 62
     7
370
    25
100
AcDbLine
 10
370.5
 20
8.707106781187
 30
0.0
 11
370.5
 21
-2.0
 31
0.0
  0
LINE
  5
13D
330
1F
100
AcDbEntity
  8
Kontur
  6
AUSGEZOGEN
 62
     7
370
    25
100
AcDbLine
 10
356.5
 20
8.707106781187
 30
0.0
 11
363.5
 21
15.707106781187
 31
0.0
  0
LINE
  5
13E
330
1F
100
AcDbEntity
  8
Kontur
  6
AUSGEZOGEN
 62
     7
370
    25
100
AcDbLine
 10
370.5
 20
8.707106781187
 30
0.0
 11
363.5
 21
15.707106781187
 31
0.0
  0
ARC
  5
13F
330
1F
100
AcDbEntity
  8
Kontur
  6
AUSGEZOGEN
 62
     7
370
    25
100
AcDbCircle
 10
371.5
 20
-2.0
 30
0.0
 40
1.0
100
AcDbArc
 50
180.0
 51
0.0
  0
LINE
  5
140
330
1F
100
AcDbEntity
  8
Kontur
  6
AUSGEZOGEN
 62
     7
370
    25
100
AcDbLine
 10
372.5
 20
8.707106781187
 30
0.0
 11
372.5
 21
-2.0
 31
0.0
  0
LINE
  5
141
330
1F
100
AcDbEntity
  8
Kontur
  6
AUSGEZOGEN
 62
     7
370
    25
100
AcDbLine
 10
386.5
 20
8.707106781187
 30
0.0
 11
386.5
 21
-2.0
 31
0.0
  0
LINE
  5
142
330
1F
100
AcDbEntity
  8
Kontur
  6
AUSGEZOGEN
 62
     7
370
    25
100
AcDbLine
 10
372.5
 20
8.707106781187
 30
0.0
 11
379.5
 21
15.707106781187
 31
0.0
  0
LINE
  5
143
330
1F
100
AcDbEntity
  8
Kontur
  6
AUSGEZOGEN
 62
     7
370
    25
100
AcDbLine
 10
386.5
 20
8.707106781187
 30
0.0
 11
379.5
 21
15.707106781187
 31
0.0
  0
ARC
  5
144
330
1F
100
AcDbEntity
  8
Kontur
  6
AUSGEZOGEN
 62
     7
370
    25
100
AcDbCircle
 10
387.5
 20
-2.0
 30
0.0
 40
1.0
100
AcDbArc
 50
180.0
 51
0.0
  0
LINE
  5
145
330
1F
100
AcDbEntity
  8
Kontur
  6
AUSGEZOGEN
 62
     7
370
    25
100
AcDbLine
 10
388.5
 20
8.707106781187
 30
0.0
 11
388.5
 21
-2.0
 31
0.0
  0
LINE
  5
146
330
1F
100
AcDbEntity
  8
Kontur
  6
AUSGEZOGEN
 62
     7
370
    25
100
AcDbLine
 10
402.5
 20
8.707106781187
 30
0.0
 11
402.5
 21
-2.0
 31
0.0
  0
LINE
  5
147
330
1F
100
AcDbEntity
  8
Kontur
  6
AUSGEZOGEN
 62
     7
370
    25
100
AcDbLine
 10
388.5
 20
8.707106781187
 30
0.0
 11
395.5
 21
15.707106781187
 31
0.0
  0
LINE
  5
148
330
1F
100
AcDbEntity
  8
Kontur
  6
AUSGEZOGEN
 62
     7
370
    25
100
AcDbLine
 10
402.5
 20
8.707106781187
 30
0.0
 11
395.5
 21
15.707106781187
 31
0.0
  0
ARC
  5
149
330
1F
100
AcDbEntity
  8
Kontur
  6
AUSGEZOGEN
 62
     7
370
    25
100
AcDbCircle
 10
403.5
 20
-2.0
 30
0.0
 40
1.0
100
AcDbArc
 50
180.0
 51
0.0
  0
LINE
  5
14A
330
1F
100
AcDbEntity
  8
Kontur
  6
AUSGEZOGEN
 62
     7
370
    25
100
AcDbLine
 10
404.5
 20
8.707106781187
 30
0.0
 11
404.5
 21
-2.0
 31
0.0
  0
LINE
  5
14B
330
1F
100
AcDbEntity
  8
Kontur
  6
AUSGEZOGEN
 62
     7
370
    25
100
AcDbLine
 10
418.5
 20
8.707106781187
 30
0.0
 11
418.5
 21
-2.0
 31
0.0
  0
LINE
  5
14C
330
1F
100
AcDbEntity
  8
Kontur
  6
AUSGEZOGEN
 62
     7
370
    25
100
AcDbLine
 10
404.5
 20
8.707106781187
 30
0.0
 11
411.5
 21
15.707106781187
 31
0.0
  0
LINE
  5
14D
330
1F
100
AcDbEntity
  8
Kontur
  6
AUSGEZOGEN
 62
     7
370
    25
100
AcDbLine
 10
418.5
 20
8.707106781187
 30
0.0
 11
411.5
 21
15.707106781187
 31
0.0
  0
ARC
  5
14E
330
1F
100
AcDbEntity
  8
Kontur
  6
AUSGEZOGEN
 62
     7
370
    25
100
AcDbCircle
 10
419.5
 20
-2.0
 30
0.0
 40
1.0
100
AcDbArc
 50
180.0
 51
0.0
  0
LINE
  5
14F
330
1F
100
AcDbEntity
  8
Kontur
  6
AUSGEZOGEN
 62
     7
370
    25
100
AcDbLine
 10
420.5
 20
8.707106781187
 30
0.0
 11
420.5
 21
-2.0
 31
0.0
  0
LINE
  5
150
330
1F
100
AcDbEntity
  8
Kontur
  6
AUSGEZOGEN
 62
     7
370
    25
100
AcDbLine
 10
434.5
 20
8.707106781187
 30
0.0
 11
434.5
 21
-2.0
 31
0.0
  0
LINE
  5
151
330
1F
100
AcDbEntity
  8
Kontur
  6
AUSGEZOGEN
 62
     7
370
    25
100
AcDbLine
 10
420.5
 20
8.707106781187
 30
0.0
 11
427.5
 21
15.707106781187
 31
0.0
  0
LINE
  5
152
330
1F
100
AcDbEntity
  8
Kontur
  6
AUSGEZOGEN
 62
     7
370
    25
100
AcDbLine
 10
434.5
 20
8.707106781187
 30
0.0
 11
427.5
 21
15.707106781187
 31
0.0
  0
ARC
  5
153
330
1F
100
AcDbEntity
  8
Kontur
  6
AUSGEZOGEN
 62
     7
370
    25
100
AcDbCircle
 10
435.5
 20
-2.0
 30
0.0
 40
1.0
100
AcDbArc
 50
180.0
 51
0.0
  0
LINE
  5
154
330
1F
100
AcDbEntity
  8
Kontur
  6
AUSGEZOGEN
 62
     7
370
    25
100
AcDbLine
 10
436.5
 20
8.707106781187
 30
0.0
 11
436.5
 21
-2.0
 31
0.0
  0
LINE
  5
155
330
1F
100
AcDbEntity
  8
Kontur
  6
AUSGEZOGEN
 62
     7
370
    25
100
AcDbLine
 10
436.5
 20
8.707106781187
 30
0.0
 11
443.5
 21
15.707106781187
 31
0.0
  0
LINE
  5
156
330
1F
100
AcDbEntity
  8
Kontur
  6
AUSGEZOGEN
 62
     7
370
    25
100
AcDbLine
 10
95.75
 20
-15.3
 30
0.0
 11
445.75
 21
-15.3
 31
0.0
  0
LINE
  5
157
330
1F
100
AcDbEntity
  8
Kontur
  6
AUSGEZOGEN
 62
     7
370
    18
100
AcDbLine
 10
95.75
 20
11.457106781187
 30
0.0
 11
95.75
 21
-15.3
 31
0.0
  0
LINE
  5
158
330
1F
100
AcDbEntity
  8
Kontur
  6
AUSGEZOGEN
 62
     3
420
    65280
370
    18
100
AcDbLine
 10
95.75
 20
-15.3
 30
0.0
 11
95.75
 21
-20.3
 31
0.0
  0
LINE
  5
159
330
1F
100
AcDbEntity
  8
Kontur
  6
AUSGEZOGEN
 62
     3
420
    65280
370
    18
100
AcDbLine
 10
445.75
 20
-15.3
 30
0.0
 11
445.75
 21
-20.3
 31
0.0
  0
TEXT
  5
15A
330
1F
100
AcDbEntity
  8
Text
  6
AUSGEZOGEN
 62
     3
420
    65280
370
    18
100
AcDbText
 10
97.449998021126
 20
-33.5
 30
0.0
 40
7.0
  1
>500-1000mm  - 3 -  festprogrammierte Microstege setzen
 41
0.94807693395
  7
tfont1
 72
     5
 11
442.550001978874
 21
-33.5
 31
0.0
100
AcDbText
  0
LINE
  5
15B
330
1F
100
AcDbEntity
  8
Kontur
  6
AUSGEZOGEN
 62
     7
370
    25
100
AcDbLine
 10
450.5
 20
8.707106781187
 30
0.0
 11
450.5
 21
-2.0
 31
0.0
  0
LINE
  5
15C
330
1F
100
AcDbEntity
  8
Kontur
  6
AUSGEZOGEN
 62
     7
370
    25
100
AcDbLine
 10
452.5
 20
8.707106781187
 30
0.0
 11
452.5
 21
-2.0
 31
0.0
  0
LINE
  5
15D
330
1F
100
AcDbEntity
  8
Kontur
  6
AUSGEZOGEN
 62
     7
370
    25
100
AcDbLine
 10
466.5
 20
8.707106781187
 30
0.0
 11
466.5
 21
-2.0
 31
0.0
  0
ARC
  5
15E
330
1F
100
AcDbEntity
  8
Kontur
  6
AUSGEZOGEN
 62
     7
370
    25
100
AcDbCircle
 10
451.5
 20
-2.0
 30
0.0
 40
1.0
100
AcDbArc
 50
180.0
 51
0.0
  0
ARC
  5
15F
330
1F
100
AcDbEntity
  8
Kontur
  6
AUSGEZOGEN
 62
     7
370
    25
100
AcDbCircle
 10
467.5
 20
-2.0
 30
0.0
 40
1.0
100
AcDbArc
 50
180.0
 51
0.0
  0
LINE
  5
160
330
1F
100
AcDbEntity
  8
Kontur
  6
AUSGEZOGEN
 62
     7
370
    25
100
AcDbLine
 10
468.5
 20
8.707106781187
 30
0.0
 11
468.5
 21
-2.0
 31
0.0
  0
LINE
  5
161
330
1F
100
AcDbEntity
  8
Kontur
  6
AUSGEZOGEN
 62
     7
370
    25
100
AcDbLine
 10
482.5
 20
8.707106781187
 30
0.0
 11
482.5
 21
-2.0
 31
0.0
  0
LINE
  5
162
330
1F
100
AcDbEntity
  8
Kontur
  6
AUSGEZOGEN
 62
     7
370
    25
100
AcDbLine
 10
452.5
 20
8.707106781187
 30
0.0
 11
459.5
 21
15.707106781187
 31
0.0
  0
LINE
  5
163
330
1F
100
AcDbEntity
  8
Kontur
  6
AUSGEZOGEN
 62
     7
370
    25
100
AcDbLine
 10
466.5
 20
8.707106781187
 30
0.0
 11
459.5
 21
15.707106781187
 31
0.0
  0
LINE
  5
164
330
1F
100
AcDbEntity
  8
Kontur
  6
AUSGEZOGEN
 62
     7
370
    25
100
AcDbLine
 10
468.5
 20
8.707106781187
 30
0.0
 11
475.5
 21
15.707106781187
 31
0.0
  0
LINE
  5
165
330
1F
100
AcDbEntity
  8
Kontur
  6
AUSGEZOGEN
 62
     7
370
    25
100
AcDbLine
 10
482.5
 20
8.707106781187
 30
0.0
 11
475.5
 21
15.707106781187
 31
0.0
  0
ARC
  5
166
330
1F
100
AcDbEntity
  8
Kontur
  6
AUSGEZOGEN
 62
     7
370
    25
100
AcDbCircle
 10
483.5
 20
-2.0
 30
0.0
 40
1.0
100
AcDbArc
 50
180.0
 51
0.0
  0
LINE
  5
167
330
1F
100
AcDbEntity
  8
Kontur
  6
AUSGEZOGEN
 62
     7
370
    25
100
AcDbLine
 10
484.5
 20
8.707106781187
 30
0.0
 11
484.5
 21
-2.0
 31
0.0
  0
LINE
  5
168
330
1F
100
AcDbEntity
  8
Kontur
  6
AUSGEZOGEN
 62
     7
370
    25
100
AcDbLine
 10
498.5
 20
8.707106781187
 30
0.0
 11
498.5
 21
-2.0
 31
0.0
  0
LINE
  5
169
330
1F
100
AcDbEntity
  8
Kontur
  6
AUSGEZOGEN
 62
     7
370
    25
100
AcDbLine
 10
484.5
 20
8.707106781187
 30
0.0
 11
491.5
 21
15.707106781187
 31
0.0
  0
LINE
  5
16A
330
1F
100
AcDbEntity
  8
Kontur
  6
AUSGEZOGEN
 62
     7
370
    25
100
AcDbLine
 10
498.5
 20
8.707106781187
 30
0.0
 11
491.5
 21
15.707106781187
 31
0.0
  0
ARC
  5
16B
330
1F
100
AcDbEntity
  8
Kontur
  6
AUSGEZOGEN
 62
     7
370
    25
100
AcDbCircle
 10
499.5
 20
-2.0
 30
0.0
 40
1.0
100
AcDbArc
 50
180.0
 51
0.0
  0
LINE
  5
16C
330
1F
100
AcDbEntity
  8
Kontur
  6
AUSGEZOGEN
 62
     7
370
    25
100
AcDbLine
 10
500.5
 20
8.707106781187
 30
0.0
 11
500.5
 21
-2.0
 31
0.0
  0
LINE
  5
16D
330
1F
100
AcDbEntity
  8
Kontur
  6
AUSGEZOGEN
 62
     7
370
    25
100
AcDbLine
 10
514.5
 20
8.707106781187
 30
0.0
 11
514.5
 21
-2.0
 31
0.0
  0
LINE
  5
16E
330
1F
100
AcDbEntity
  8
Kontur
  6
AUSGEZOGEN
 62
     7
370
    25
100
AcDbLine
 10
500.5
 20
8.707106781187
 30
0.0
 11
507.5
 21
15.707106781187
 31
0.0
  0
LINE
  5
16F
330
1F
100
AcDbEntity
  8
Kontur
  6
AUSGEZOGEN
 62
     7
370
    25
100
AcDbLine
 10
514.5
 20
8.707106781187
 30
0.0
 11
507.5
 21
15.707106781187
 31
0.0
  0
ARC
  5
170
330
1F
100
AcDbEntity
  8
Kontur
  6
AUSGEZOGEN
 62
     7
370
    25
100
AcDbCircle
 10
515.5
 20
-2.0
 30
0.0
 40
1.0
100
AcDbArc
 50
180.0
 51
0.0
  0
LINE
  5
171
330
1F
100
AcDbEntity
  8
Kontur
  6
AUSGEZOGEN
 62
     7
370
    25
100
AcDbLine
 10
516.5
 20
8.707106781187
 30
0.0
 11
516.5
 21
-2.0
 31
0.0
  0
LINE
  5
172
330
1F
100
AcDbEntity
  8
Kontur
  6
AUSGEZOGEN
 62
     7
370
    25
100
AcDbLine
 10
530.5
 20
8.707106781187
 30
0.0
 11
530.5
 21
-2.0
 31
0.0
  0
LINE
  5
173
330
1F
100
AcDbEntity
  8
Kontur
  6
AUSGEZOGEN
 62
     7
370
    25
100
AcDbLine
 10
516.5
 20
8.707106781187
 30
0.0
 11
523.5
 21
15.707106781187
 31
0.0
  0
LINE
  5
174
330
1F
100
AcDbEntity
  8
Kontur
  6
AUSGEZOGEN
 62
     7
370
    25
100
AcDbLine
 10
530.5
 20
8.707106781187
 30
0.0
 11
523.5
 21
15.707106781187
 31
0.0
  0
ARC
  5
175
330
1F
100
AcDbEntity
  8
Kontur
  6
AUSGEZOGEN
 62
     7
370
    25
100
AcDbCircle
 10
531.5
 20
-2.0
 30
0.0
 40
1.0
100
AcDbArc
 50
180.0
 51
0.0
  0
LINE
  5
176
330
1F
100
AcDbEntity
  8
Kontur
  6
AUSGEZOGEN
 62
     7
370
    25
100
AcDbLine
 10
532.5
 20
8.707106781187
 30
0.0
 11
532.5
 21
-2.0
 31
0.0
  0
LINE
  5
177
330
1F
100
AcDbEntity
  8
Kontur
  6
AUSGEZOGEN
 62
     7
370
    25
100
AcDbLine
 10
546.5
 20
8.707106781187
 30
0.0
 11
546.5
 21
-2.0
 31
0.0
  0
LINE
  5
178
330
1F
100
AcDbEntity
  8
Kontur
  6
AUSGEZOGEN
 62
     7
370
    25
100
AcDbLine
 10
532.5
 20
8.707106781187
 30
0.0
 11
539.5
 21
15.707106781187
 31
0.0
  0
LINE
  5
179
330
1F
100
AcDbEntity
  8
Kontur
  6
AUSGEZOGEN
 62
     7
370
    25
100
AcDbLine
 10
546.5
 20
8.707106781187
 30
0.0
 11
539.5
 21
15.707106781187
 31
0.0
  0
ARC
  5
17A
330
1F
100
AcDbEntity
  8
Kontur
  6
AUSGEZOGEN
 62
     7
370
    25
100
AcDbCircle
 10
547.5
 20
-2.0
 30
0.0
 40
1.0
100
AcDbArc
 50
180.0
 51
0.0
  0
LINE
  5
17B
330
1F
100
AcDbEntity
  8
Kontur
  6
AUSGEZOGEN
 62
     7
370
    25
100
AcDbLine
 10
548.5
 20
8.707106781187
 30
0.0
 11
548.5
 21
-2.0
 31
0.0
  0
LINE
  5
17C
330
1F
100
AcDbEntity
  8
Kontur
  6
AUSGEZOGEN
 62
     7
370
    25
100
AcDbLine
 10
562.5
 20
8.707106781187
 30
0.0
 11
562.5
 21
-2.0
 31
0.0
  0
LINE
  5
17D
330
1F
100
AcDbEntity
  8
Kontur
  6
AUSGEZOGEN
 62
     7
370
    25
100
AcDbLine
 10
548.5
 20
8.707106781187
 30
0.0
 11
555.5
 21
15.707106781187
 31
0.0
  0
LINE
  5
17E
330
1F
100
AcDbEntity
  8
Kontur
  6
AUSGEZOGEN
 62
     7
370
    25
100
AcDbLine
 10
562.5
 20
8.707106781187
 30
0.0
 11
555.5
 21
15.707106781187
 31
0.0
  0
ARC
  5
17F
330
1F
100
AcDbEntity
  8
Kontur
  6
AUSGEZOGEN
 62
     7
370
    25
100
AcDbCircle
 10
563.5
 20
-2.0
 30
0.0
 40
1.0
100
AcDbArc
 50
180.0
 51
0.0
  0
LINE
  5
180
330
1F
100
AcDbEntity
  8
Kontur
  6
AUSGEZOGEN
 62
     7
370
    25
100
AcDbLine
 10
564.5
 20
8.707106781187
 30
0.0
 11
564.5
 21
-2.0
 31
0.0
  0
LINE
  5
181
330
1F
100
AcDbEntity
  8
Kontur
  6
AUSGEZOGEN
 62
     7
370
    25
100
AcDbLine
 10
578.5
 20
8.707106781187
 30
0.0
 11
578.5
 21
-2.0
 31
0.0
  0
LINE
  5
182
330
1F
100
AcDbEntity
  8
Kontur
  6
AUSGEZOGEN
 62
     7
370
    25
100
AcDbLine
 10
564.5
 20
8.707106781187
 30
0.0
 11
571.5
 21
15.707106781187
 31
0.0
  0
LINE
  5
183
330
1F
100
AcDbEntity
  8
Kontur
  6
AUSGEZOGEN
 62
     7
370
    25
100
AcDbLine
 10
578.5
 20
8.707106781187
 30
0.0
 11
571.5
 21
15.707106781187
 31
0.0
  0
ARC
  5
184
330
1F
100
AcDbEntity
  8
Kontur
  6
AUSGEZOGEN
 62
     7
370
    25
100
AcDbCircle
 10
579.5
 20
-2.0
 30
0.0
 40
1.0
100
AcDbArc
 50
180.0
 51
0.0
  0
LINE
  5
185
330
1F
100
AcDbEntity
  8
Kontur
  6
AUSGEZOGEN
 62
     7
370
    25
100
AcDbLine
 10
580.5
 20
8.707106781187
 30
0.0
 11
580.5
 21
-2.0
 31
0.0
  0
LINE
  5
186
330
1F
100
AcDbEntity
  8
Kontur
  6
AUSGEZOGEN
 62
     7
370
    25
100
AcDbLine
 10
594.5
 20
8.707106781187
 30
0.0
 11
594.5
 21
-2.0
 31
0.0
  0
LINE
  5
187
330
1F
100
AcDbEntity
  8
Kontur
  6
AUSGEZOGEN
 62
     7
370
    25
100
AcDbLine
 10
580.5
 20
8.707106781187
 30
0.0
 11
587.5
 21
15.707106781187
 31
0.0
  0
LINE
  5
188
330
1F
100
AcDbEntity
  8
Kontur
  6
AUSGEZOGEN
 62
     7
370
    25
100
AcDbLine
 10
594.5
 20
8.707106781187
 30
0.0
 11
587.5
 21
15.707106781187
 31
0.0
  0
ARC
  5
189
330
1F
100
AcDbEntity
  8
Kontur
  6
AUSGEZOGEN
 62
     7
370
    25
100
AcDbCircle
 10
595.5
 20
-2.0
 30
0.0
 40
1.0
100
AcDbArc
 50
180.0
 51
0.0
  0
LINE
  5
18A
330
1F
100
AcDbEntity
  8
Kontur
  6
AUSGEZOGEN
 62
     7
370
    25
100
AcDbLine
 10
596.5
 20
8.707106781187
 30
0.0
 11
596.5
 21
-2.0
 31
0.0
  0
LINE
  5
18B
330
1F
100
AcDbEntity
  8
Kontur
  6
AUSGEZOGEN
 62
     7
370
    25
100
AcDbLine
 10
610.5
 20
8.707106781187
 30
0.0
 11
610.5
 21
-2.0
 31
0.0
  0
LINE
  5
18C
330
1F
100
AcDbEntity
  8
Kontur
  6
AUSGEZOGEN
 62
     7
370
    25
100
AcDbLine
 10
596.5
 20
8.707106781187
 30
0.0
 11
603.5
 21
15.707106781187
 31
0.0
  0
LINE
  5
18D
330
1F
100
AcDbEntity
  8
Kontur
  6
AUSGEZOGEN
 62
     7
370
    25
100
AcDbLine
 10
610.5
 20
8.707106781187
 30
0.0
 11
603.5
 21
15.707106781187
 31
0.0
  0
ARC
  5
18E
330
1F
100
AcDbEntity
  8
Kontur
  6
AUSGEZOGEN
 62
     7
370
    25
100
AcDbCircle
 10
611.5
 20
-2.0
 30
0.0
 40
1.0
100
AcDbArc
 50
180.0
 51
0.0
  0
LINE
  5
18F
330
1F
100
AcDbEntity
  8
Kontur
  6
AUSGEZOGEN
 62
     7
370
    25
100
AcDbLine
 10
612.5
 20
8.707106781187
 30
0.0
 11
612.5
 21
-2.0
 31
0.0
  0
LINE
  5
190
330
1F
100
AcDbEntity
  8
Kontur
  6
AUSGEZOGEN
 62
     7
370
    25
100
AcDbLine
 10
626.5
 20
8.707106781187
 30
0.0
 11
626.5
 21
-2.0
 31
0.0
  0
LINE
  5
191
330
1F
100
AcDbEntity
  8
Kontur
  6
AUSGEZOGEN
 62
     7
370
    25
100
AcDbLine
 10
612.5
 20
8.707106781187
 30
0.0
 11
619.5
 21
15.707106781187
 31
0.0
  0
LINE
  5
192
330
1F
100
AcDbEntity
  8
Kontur
  6
AUSGEZOGEN
 62
     7
370
    25
100
AcDbLine
 10
626.5
 20
8.707106781187
 30
0.0
 11
619.5
 21
15.707106781187
 31
0.0
  0
ARC
  5
193
330
1F
100
AcDbEntity
  8
Kontur
  6
AUSGEZOGEN
 62
     7
370
    25
100
AcDbCircle
 10
627.5
 20
-2.0
 30
0.0
 40
1.0
100
AcDbArc
 50
180.0
 51
0.0
  0
LINE
  5
194
330
1F
100
AcDbEntity
  8
Kontur
  6
AUSGEZOGEN
 62
     7
370
    25
100
AcDbLine
 10
628.5
 20
8.707106781187
 30
0.0
 11
628.5
 21
-2.0
 31
0.0
  0
LINE
  5
195
330
1F
100
AcDbEntity
  8
Kontur
  6
AUSGEZOGEN
 62
     7
370
    25
100
AcDbLine
 10
642.5
 20
8.707106781187
 30
0.0
 11
642.5
 21
-2.0
 31
0.0
  0
LINE
  5
196
330
1F
100
AcDbEntity
  8
Kontur
  6
AUSGEZOGEN
 62
     7
370
    25
100
AcDbLine
 10
628.5
 20
8.707106781187
 30
0.0
 11
635.5
 21
15.707106781187
 31
0.0
  0
LINE
  5
197
330
1F
100
AcDbEntity
  8
Kontur
  6
AUSGEZOGEN
 62
     7
370
    25
100
AcDbLine
 10
642.5
 20
8.707106781187
 30
0.0
 11
635.5
 21
15.707106781187
 31
0.0
  0
ARC
  5
198
330
1F
100
AcDbEntity
  8
Kontur
  6
AUSGEZOGEN
 62
     7
370
    25
100
AcDbCircle
 10
643.5
 20
-2.0
 30
0.0
 40
1.0
100
AcDbArc
 50
180.0
 51
0.0
  0
LINE
  5
199
330
1F
100
AcDbEntity
  8
Kontur
  6
AUSGEZOGEN
 62
     7
370
    25
100
AcDbLine
 10
644.5
 20
8.707106781187
 30
0.0
 11
644.5
 21
-2.0
 31
0.0
  0
LINE
  5
19A
330
1F
100
AcDbEntity
  8
Kontur
  6
AUSGEZOGEN
 62
     7
370
    25
100
AcDbLine
 10
658.5
 20
8.707106781187
 30
0.0
 11
658.5
 21
-2.0
 31
0.0
  0
LINE
  5
19B
330
1F
100
AcDbEntity
  8
Kontur
  6
AUSGEZOGEN
 62
     7
370
    25
100
AcDbLine
 10
644.5
 20
8.707106781187
 30
0.0
 11
651.5
 21
15.707106781187
 31
0.0
  0
LINE
  5
19C
330
1F
100
AcDbEntity
  8
Kontur
  6
AUSGEZOGEN
 62
     7
370
    25
100
AcDbLine
 10
658.5
 20
8.707106781187
 30
0.0
 11
651.5
 21
15.707106781187
 31
0.0
  0
ARC
  5
19D
330
1F
100
AcDbEntity
  8
Kontur
  6
AUSGEZOGEN
 62
     7
370
    25
100
AcDbCircle
 10
659.5
 20
-2.0
 30
0.0
 40
1.0
100
AcDbArc
 50
180.0
 51
0.0
  0
LINE
  5
19E
330
1F
100
AcDbEntity
  8
Kontur
  6
AUSGEZOGEN
 62
     7
370
    25
100
AcDbLine
 10
660.5
 20
8.707106781187
 30
0.0
 11
660.5
 21
-2.0
 31
0.0
  0
LINE
  5
19F
330
1F
100
AcDbEntity
  8
Kontur
  6
AUSGEZOGEN
 62
     7
370
    25
100
AcDbLine
 10
674.5
 20
8.707106781187
 30
0.0
 11
674.5
 21
-2.0
 31
0.0
  0
LINE
  5
1A0
330
1F
100
AcDbEntity
  8
Kontur
  6
AUSGEZOGEN
 62
     7
370
    25
100
AcDbLine
 10
660.5
 20
8.707106781187
 30
0.0
 11
667.5
 21
15.707106781187
 31
0.0
  0
LINE
  5
1A1
330
1F
100
AcDbEntity
  8
Kontur
  6
AUSGEZOGEN
 62
     7
370
    25
100
AcDbLine
 10
674.5
 20
8.707106781187
 30
0.0
 11
667.5
 21
15.707106781187
 31
0.0
  0
ARC
  5
1A2
330
1F
100
AcDbEntity
  8
Kontur
  6
AUSGEZOGEN
 62
     7
370
    25
100
AcDbCircle
 10
675.5
 20
-2.0
 30
0.0
 40
1.0
100
AcDbArc
 50
180.0
 51
0.0
  0
LINE
  5
1A3
330
1F
100
AcDbEntity
  8
Kontur
  6
AUSGEZOGEN
 62
     7
370
    25
100
AcDbLine
 10
676.5
 20
8.707106781187
 30
0.0
 11
676.5
 21
-2.0
 31
0.0
  0
LINE
  5
1A4
330
1F
100
AcDbEntity
  8
Kontur
  6
AUSGEZOGEN
 62
     7
370
    25
100
AcDbLine
 10
690.5
 20
8.707106781187
 30
0.0
 11
690.5
 21
-2.0
 31
0.0
  0
LINE
  5
1A5
330
1F
100
AcDbEntity
  8
Kontur
  6
AUSGEZOGEN
 62
     7
370
    25
100
AcDbLine
 10
676.5
 20
8.707106781187
 30
0.0
 11
683.5
 21
15.707106781187
 31
0.0
  0
LINE
  5
1A6
330
1F
100
AcDbEntity
  8
Kontur
  6
AUSGEZOGEN
 62
     7
370
    25
100
AcDbLine
 10
690.5
 20
8.707106781187
 30
0.0
 11
683.5
 21
15.707106781187
 31
0.0
  0
ARC
  5
1A7
330
1F
100
AcDbEntity
  8
Kontur
  6
AUSGEZOGEN
 62
     7
370
    25
100
AcDbCircle
 10
691.5
 20
-2.0
 30
0.0
 40
1.0
100
AcDbArc
 50
180.0
 51
0.0
  0
LINE
  5
1A8
330
1F
100
AcDbEntity
  8
Kontur
  6
AUSGEZOGEN
 62
     7
370
    25
100
AcDbLine
 10
692.5
 20
8.707106781187
 30
0.0
 11
692.5
 21
-2.0
 31
0.0
  0
LINE
  5
1A9
330
1F
100
AcDbEntity
  8
Kontur
  6
AUSGEZOGEN
 62
     7
370
    25
100
AcDbLine
 10
706.5
 20
8.707106781187
 30
0.0
 11
706.5
 21
-2.0
 31
0.0
  0
LINE
  5
1AA
330
1F
100
AcDbEntity
  8
Kontur
  6
AUSGEZOGEN
 62
     7
370
    25
100
AcDbLine
 10
692.5
 20
8.707106781187
 30
0.0
 11
699.5
 21
15.707106781187
 31
0.0
  0
LINE
  5
1AB
330
1F
100
AcDbEntity
  8
Kontur
  6
AUSGEZOGEN
 62
     7
370
    25
100
AcDbLine
 10
706.5
 20
8.707106781187
 30
0.0
 11
699.5
 21
15.707106781187
 31
0.0
  0
ARC
  5
1AC
330
1F
100
AcDbEntity
  8
Kontur
  6
AUSGEZOGEN
 62
     7
370
    25
100
AcDbCircle
 10
707.5
 20
-2.0
 30
0.0
 40
1.0
100
AcDbArc
 50
180.0
 51
0.0
  0
LINE
  5
1AD
330
1F
100
AcDbEntity
  8
Kontur
  6
AUSGEZOGEN
 62
     7
370
    25
100
AcDbLine
 10
708.5
 20
8.707106781187
 30
0.0
 11
708.5
 21
-2.0
 31
0.0
  0
LINE
  5
1AE
330
1F
100
AcDbEntity
  8
Kontur
  6
AUSGEZOGEN
 62
     7
370
    25
100
AcDbLine
 10
722.5
 20
8.707106781187
 30
0.0
 11
722.5
 21
-2.0
 31
0.0
  0
LINE
  5
1AF
330
1F
100
AcDbEntity
  8
Kontur
  6
AUSGEZOGEN
 62
     7
370
    25
100
AcDbLine
 10
708.5
 20
8.707106781187
 30
0.0
 11
715.5
 21
15.707106781187
 31
0.0
  0
LINE
  5
1B0
330
1F
100
AcDbEntity
  8
Kontur
  6
AUSGEZOGEN
 62
     7
370
    25
100
AcDbLine
 10
722.5
 20
8.707106781187
 30
0.0
 11
715.5
 21
15.707106781187
 31
0.0
  0
ARC
  5
1B1
330
1F
100
AcDbEntity
  8
Kontur
  6
AUSGEZOGEN
 62
     7
370
    25
100
AcDbCircle
 10
723.5
 20
-2.0
 30
0.0
 40
1.0
100
AcDbArc
 50
180.0
 51
0.0
  0
LINE
  5
1B2
330
1F
100
AcDbEntity
  8
Kontur
  6
AUSGEZOGEN
 62
     7
370
    25
100
AcDbLine
 10
724.5
 20
8.707106781187
 30
0.0
 11
724.5
 21
-2.0
 31
0.0
  0
LINE
  5
1B3
330
1F
100
AcDbEntity
  8
Kontur
  6
AUSGEZOGEN
 62
     7
370
    25
100
AcDbLine
 10
738.5
 20
8.707106781187
 30
0.0
 11
738.5
 21
-2.0
 31
0.0
  0
LINE
  5
1B4
330
1F
100
AcDbEntity
  8
Kontur
  6
AUSGEZOGEN
 62
     7
370
    25
100
AcDbLine
 10
724.5
 20
8.707106781187
 30
0.0
 11
731.5
 21
15.707106781187
 31
0.0
  0
LINE
  5
1B5
330
1F
100
AcDbEntity
  8
Kontur
  6
AUSGEZOGEN
 62
     7
370
    25
100
AcDbLine
 10
738.5
 20
8.707106781187
 30
0.0
 11
731.5
 21
15.707106781187
 31
0.0
  0
ARC
  5
1B6
330
1F
100
AcDbEntity
  8
Kontur
  6
AUSGEZOGEN
 62
     7
370
    25
100
AcDbCircle
 10
739.5
 20
-2.0
 30
0.0
 40
1.0
100
AcDbArc
 50
180.0
 51
0.0
  0
LINE
  5
1B7
330
1F
100
AcDbEntity
  8
Kontur
  6
AUSGEZOGEN
 62
     7
370
    25
100
AcDbLine
 10
740.5
 20
8.707106781187
 30
0.0
 11
740.5
 21
-2.0
 31
0.0
  0
LINE
  5
1B8
330
1F
100
AcDbEntity
  8
Kontur
  6
AUSGEZOGEN
 62
     7
370
    25
100
AcDbLine
 10
754.5
 20
8.707106781187
 30
0.0
 11
754.5
 21
-2.0
 31
0.0
  0
LINE
  5
1B9
330
1F
100
AcDbEntity
  8
Kontur
  6
AUSGEZOGEN
 62
     7
370
    25
100
AcDbLine
 10
740.5
 20
8.707106781187
 30
0.0
 11
747.5
 21
15.707106781187
 31
0.0
  0
LINE
  5
1BA
330
1F
100
AcDbEntity
  8
Kontur
  6
AUSGEZOGEN
 62
     7
370
    25
100
AcDbLine
 10
754.5
 20
8.707106781187
 30
0.0
 11
747.5
 21
15.707106781187
 31
0.0
  0
ARC
  5
1BB
330
1F
100
AcDbEntity
  8
Kontur
  6
AUSGEZOGEN
 62
     7
370
    25
100
AcDbCircle
 10
755.5
 20
-2.0
 30
0.0
 40
1.0
100
AcDbArc
 50
180.0
 51
0.0
  0
LINE
  5
1BC
330
1F
100
AcDbEntity
  8
Kontur
  6
AUSGEZOGEN
 62
     7
370
    25
100
AcDbLine
 10
756.5
 20
8.707106781187
 30
0.0
 11
756.5
 21
-2.0
 31
0.0
  0
LINE
  5
1BD
330
1F
100
AcDbEntity
  8
Kontur
  6
AUSGEZOGEN
 62
     7
370
    25
100
AcDbLine
 10
770.5
 20
8.707106781187
 30
0.0
 11
770.5
 21
-2.0
 31
0.0
  0
LINE
  5
1BE
330
1F
100
AcDbEntity
  8
Kontur
  6
AUSGEZOGEN
 62
     7
370
    25
100
AcDbLine
 10
756.5
 20
8.707106781187
 30
0.0
 11
763.5
 21
15.707106781187
 31
0.0
  0
LINE
  5
1BF
330
1F
100
AcDbEntity
  8
Kontur
  6
AUSGEZOGEN
 62
     7
370
    25
100
AcDbLine
 10
770.5
 20
8.707106781187
 30
0.0
 11
763.5
 21
15.707106781187
 31
0.0
  0
ARC
  5
1C0
330
1F
100
AcDbEntity
  8
Kontur
  6
AUSGEZOGEN
 62
     7
370
    25
100
AcDbCircle
 10
771.5
 20
-2.0
 30
0.0
 40
1.0
100
AcDbArc
 50
180.0
 51
0.0
  0
LINE
  5
1C1
330
1F
100
AcDbEntity
  8
Kontur
  6
AUSGEZOGEN
 62
     7
370
    25
100
AcDbLine
 10
772.5
 20
8.707106781187
 30
0.0
 11
772.5
 21
-2.0
 31
0.0
  0
LINE
  5
1C2
330
1F
100
AcDbEntity
  8
Kontur
  6
AUSGEZOGEN
 62
     7
370
    25
100
AcDbLine
 10
786.5
 20
8.707106781187
 30
0.0
 11
786.5
 21
-2.0
 31
0.0
  0
LINE
  5
1C3
330
1F
100
AcDbEntity
  8
Kontur
  6
AUSGEZOGEN
 62
     7
370
    25
100
AcDbLine
 10
772.5
 20
8.707106781187
 30
0.0
 11
779.5
 21
15.707106781187
 31
0.0
  0
LINE
  5
1C4
330
1F
100
AcDbEntity
  8
Kontur
  6
AUSGEZOGEN
 62
     7
370
    25
100
AcDbLine
 10
786.5
 20
8.707106781187
 30
0.0
 11
779.5
 21
15.707106781187
 31
0.0
  0
ARC
  5
1C5
330
1F
100
AcDbEntity
  8
Kontur
  6
AUSGEZOGEN
 62
     7
370
    25
100
AcDbCircle
 10
787.5
 20
-2.0
 30
0.0
 40
1.0
100
AcDbArc
 50
180.0
 51
0.0
  0
LINE
  5
1C6
330
1F
100
AcDbEntity
  8
Kontur
  6
AUSGEZOGEN
 62
     7
370
    25
100
AcDbLine
 10
788.5
 20
8.707106781187
 30
0.0
 11
788.5
 21
-2.0
 31
0.0
  0
LINE
  5
1C7
330
1F
100
AcDbEntity
  8
Kontur
  6
AUSGEZOGEN
 62
     7
370
    25
100
AcDbLine
 10
788.5
 20
8.707106781187
 30
0.0
 11
795.5
 21
15.707106781187
 31
0.0
  0
LINE
  5
1C8
330
1F
100
AcDbEntity
  8
Kontur
  6
AUSGEZOGEN
 62
     7
370
    25
100
AcDbLine
 10
445.75
 20
-15.3
 30
0.0
 11
795.75
 21
-15.3
 31
0.0
  0
LINE
  5
1C9
330
1F
100
AcDbEntity
  8
Kontur
  6
AUSGEZOGEN
 62
     7
370
    18
100
AcDbLine
 10
795.75
 20
-15.3
 30
0.0
 11
795.75
 21
15.457106781187
 31
0.0
  0
LINE
  5
1CA
330
1F
100
AcDbEntity
  8
Kontur
  6
AUSGEZOGEN
 62
     3
420
    65280
370
    18
100
AcDbLine
 10
795.75
 20
-15.3
 30
0.0
 11
795.75
 21
-20.3
 31
0.0
  0
DIMENSION
  5
1D5
330
1F
100
AcDbEntity
  8
Bemassung
  6
AUSGEZOGEN
 62
     1
420
 16711680
370
    18
100
AcDbDimension
280
     0
  2
*D3
 10
95.75
 20
25.0
 30
0.0
 11
445.75
 21
25.0
 31
0.0
 70
    32
 71
     5
 42
-1.0
 73
     0
 74
     0
 75
     0
  3
ISO-25
100
AcDbAlignedDimension
 13
795.75
 23
13.457106781187
 33
0.0
 14
95.75
 24
11.457106781187
 34
0.0
 50
180.0
100
AcDbRotatedDimension
1001
ACAD
1000
DSTYLE
1002
{
1070
     3
1000
<>
1070
   340
1005
5F
1070
    44
1040
2.5
1070
   280
1070
     0
1070
    77
1070
     0
1070
    78
1070
     8
1070
   179
1070
     2
1070
   271
1070
     2
1070
   344
1005
E1
1070
   343
1005
E1
1070
   173
1070
     1
1070
    41
1040
3.5
1070
   147
1040
0.5
1070
   140
1040
3.5
1070
   178
1070
     1
1070
   177
1070
     1
1070
   176
1070
     1
1002
}
  0
LINE
  5
1D6
330
1F
100
AcDbEntity
  8
Kontur
  6
AUSGEZOGEN
 62
     7
370
    25
100
AcDbLine
 10
795.75
 20
15.457106781187
 30
0.0
 11
795.5
 21
15.707106781187
 31
0.0
  0
LINE
  5
1D7
330
1F
100
AcDbEntity
  8
Kontur
  6
AUSGEZOGEN
 62
     7
370
    25
100
AcDbLine
 10
450.5
 20
8.707106781187
 30
0.0
 11
443.5
 21
15.707106781187
 31
0.0
  0
LINE
  5
1D8
330
1F
100
AcDbEntity
  8
Kontur
  6
AUSGEZOGEN
 62
     7
370
    25
100
AcDbLine
 10
121.75
 20
-61.292893218813
 30
0.0
 11
121.75
 21
-72.0
 31
0.0
  0
LINE
  5
1D9
330
1F
100
AcDbEntity
  8
Kontur
  6
AUSGEZOGEN
 62
     7
370
    25
100
AcDbLine
 10
135.75
 20
-61.292893218813
 30
0.0
 11
135.75
 21
-72.0
 31
0.0
  0
ARC
  5
1DA
330
1F
100
AcDbEntity
  8
Kontur
  6
AUSGEZOGEN
 62
     7
370
    25
100
AcDbCircle
 10
136.75
 20
-72.0
 30
0.0
 40
1.0
100
AcDbArc
 50
180.0
 51
0.0
  0
LINE
  5
1DB
330
1F
100
AcDbEntity
  8
Kontur
  6
AUSGEZOGEN
 62
     7
370
    25
100
AcDbLine
 10
137.75
 20
-61.292893218813
 30
0.0
 11
137.75
 21
-72.0
 31
0.0
  0
LINE
  5
1DC
330
1F
100
AcDbEntity
  8
Kontur
  6
AUSGEZOGEN
 62
     7
370
    25
100
AcDbLine
 10
151.75
 20
-61.292893218813
 30
0.0
 11
151.75
 21
-72.0
 31
0.0
  0
LINE
  5
1DD
330
1F
100
AcDbEntity
  8
Kontur
  6
AUSGEZOGEN
 62
     7
370
    25
100
AcDbLine
 10
121.75
 20
-61.292893218813
 30
0.0
 11
128.75
 21
-54.292893218813
 31
0.0
  0
LINE
  5
1DE
330
1F
100
AcDbEntity
  8
Kontur
  6
AUSGEZOGEN
 62
     7
370
    25
100
AcDbLine
 10
135.75
 20
-61.292893218813
 30
0.0
 11
128.75
 21
-54.292893218813
 31
0.0
  0
LINE
  5
1DF
330
1F
100
AcDbEntity
  8
Kontur
  6
AUSGEZOGEN
 62
     7
370
    25
100
AcDbLine
 10
137.75
 20
-61.292893218813
 30
0.0
 11
144.75
 21
-54.292893218813
 31
0.0
  0
LINE
  5
1E0
330
1F
100
AcDbEntity
  8
Kontur
  6
AUSGEZOGEN
 62
     7
370
    25
100
AcDbLine
 10
151.75
 20
-61.292893218813
 30
0.0
 11
144.75
 21
-54.292893218813
 31
0.0
  0
ARC
  5
1E1
330
1F
100
AcDbEntity
  8
Kontur
  6
AUSGEZOGEN
 62
     7
370
    25
100
AcDbCircle
 10
152.75
 20
-72.0
 30
0.0
 40
1.0
100
AcDbArc
 50
180.0
 51
0.0
  0
LINE
  5
1E2
330
1F
100
AcDbEntity
  8
Kontur
  6
AUSGEZOGEN
 62
     7
370
    25
100
AcDbLine
 10
153.75
 20
-61.292893218813
 30
0.0
 11
153.75
 21
-72.0
 31
0.0
  0
LINE
  5
1E3
330
1F
100
AcDbEntity
  8
Kontur
  6
AUSGEZOGEN
 62
     7
370
    25
100
AcDbLine
 10
167.75
 20
-61.292893218813
 30
0.0
 11
167.75
 21
-72.0
 31
0.0
  0
LINE
  5
1E4
330
1F
100
AcDbEntity
  8
Kontur
  6
AUSGEZOGEN
 62
     7
370
    25
100
AcDbLine
 10
153.75
 20
-61.292893218813
 30
0.0
 11
160.75
 21
-54.292893218813
 31
0.0
  0
LINE
  5
1E5
330
1F
100
AcDbEntity
  8
Kontur
  6
AUSGEZOGEN
 62
     7
370
    25
100
AcDbLine
 10
167.75
 20
-61.292893218813
 30
0.0
 11
160.75
 21
-54.292893218813
 31
0.0
  0
ARC
  5
1E6
330
1F
100
AcDbEntity
  8
Kontur
  6
AUSGEZOGEN
 62
     7
370
    25
100
AcDbCircle
 10
168.75
 20
-72.0
 30
0.0
 40
1.0
100
AcDbArc
 50
180.0
 51
0.0
  0
LINE
  5
1E7
330
1F
100
AcDbEntity
  8
Kontur
  6
AUSGEZOGEN
 62
     7
370
    25
100
AcDbLine
 10
169.75
 20
-61.292893218813
 30
0.0
 11
169.75
 21
-72.0
 31
0.0
  0
LINE
  5
1E8
330
1F
100
AcDbEntity
  8
Kontur
  6
AUSGEZOGEN
 62
     7
370
    25
100
AcDbLine
 10
183.75
 20
-61.292893218813
 30
0.0
 11
183.75
 21
-72.0
 31
0.0
  0
LINE
  5
1E9
330
1F
100
AcDbEntity
  8
Kontur
  6
AUSGEZOGEN
 62
     7
370
    25
100
AcDbLine
 10
169.75
 20
-61.292893218813
 30
0.0
 11
176.75
 21
-54.292893218813
 31
0.0
  0
LINE
  5
1EA
330
1F
100
AcDbEntity
  8
Kontur
  6
AUSGEZOGEN
 62
     7
370
    25
100
AcDbLine
 10
183.75
 20
-61.292893218813
 30
0.0
 11
176.75
 21
-54.292893218813
 31
0.0
  0
ARC
  5
1EB
330
1F
100
AcDbEntity
  8
Kontur
  6
AUSGEZOGEN
 62
     7
370
    25
100
AcDbCircle
 10
184.75
 20
-72.0
 30
0.0
 40
1.0
100
AcDbArc
 50
180.0
 51
0.0
  0
LINE
  5
1EC
330
1F
100
AcDbEntity
  8
Kontur
  6
AUSGEZOGEN
 62
     7
370
    25
100
AcDbLine
 10
185.75
 20
-61.292893218813
 30
0.0
 11
185.75
 21
-72.0
 31
0.0
  0
LINE
  5
1ED
330
1F
100
AcDbEntity
  8
Kontur
  6
AUSGEZOGEN
 62
     7
370
    25
100
AcDbLine
 10
199.75
 20
-61.292893218813
 30
0.0
 11
199.75
 21
-72.0
 31
0.0
  0
LINE
  5
1EE
330
1F
100
AcDbEntity
  8
Kontur
  6
AUSGEZOGEN
 62
     7
370
    25
100
AcDbLine
 10
185.75
 20
-61.292893218813
 30
0.0
 11
192.75
 21
-54.292893218813
 31
0.0
  0
LINE
  5
1EF
330
1F
100
AcDbEntity
  8
Kontur
  6
AUSGEZOGEN
 62
     7
370
    25
100
AcDbLine
 10
199.75
 20
-61.292893218813
 30
0.0
 11
192.75
 21
-54.292893218813
 31
0.0
  0
ARC
  5
1F0
330
1F
100
AcDbEntity
  8
Kontur
  6
AUSGEZOGEN
 62
     7
370
    25
100
AcDbCircle
 10
200.75
 20
-72.0
 30
0.0
 40
1.0
100
AcDbArc
 50
180.0
 51
0.0
  0
LINE
  5
1F1
330
1F
100
AcDbEntity
  8
Kontur
  6
AUSGEZOGEN
 62
     7
370
    25
100
AcDbLine
 10
201.75
 20
-61.292893218813
 30
0.0
 11
201.75
 21
-72.0
 31
0.0
  0
LINE
  5
1F2
330
1F
100
AcDbEntity
  8
Kontur
  6
AUSGEZOGEN
 62
     7
370
    25
100
AcDbLine
 10
215.75
 20
-61.292893218813
 30
0.0
 11
215.75
 21
-72.0
 31
0.0
  0
LINE
  5
1F3
330
1F
100
AcDbEntity
  8
Kontur
  6
AUSGEZOGEN
 62
     7
370
    25
100
AcDbLine
 10
201.75
 20
-61.292893218813
 30
0.0
 11
208.75
 21
-54.292893218813
 31
0.0
  0
LINE
  5
1F4
330
1F
100
AcDbEntity
  8
Kontur
  6
AUSGEZOGEN
 62
     7
370
    25
100
AcDbLine
 10
215.75
 20
-61.292893218813
 30
0.0
 11
208.75
 21
-54.292893218813
 31
0.0
  0
ARC
  5
1F5
330
1F
100
AcDbEntity
  8
Kontur
  6
AUSGEZOGEN
 62
     7
370
    25
100
AcDbCircle
 10
216.75
 20
-72.0
 30
0.0
 40
1.0
100
AcDbArc
 50
180.0
 51
0.0
  0
LINE
  5
1F6
330
1F
100
AcDbEntity
  8
Kontur
  6
AUSGEZOGEN
 62
     7
370
    25
100
AcDbLine
 10
217.75
 20
-61.292893218813
 30
0.0
 11
217.75
 21
-72.0
 31
0.0
  0
LINE
  5
1F7
330
1F
100
AcDbEntity
  8
Kontur
  6
AUSGEZOGEN
 62
     7
370
    25
100
AcDbLine
 10
231.75
 20
-61.292893218813
 30
0.0
 11
231.75
 21
-72.0
 31
0.0
  0
LINE
  5
1F8
330
1F
100
AcDbEntity
  8
Kontur
  6
AUSGEZOGEN
 62
     7
370
    25
100
AcDbLine
 10
217.75
 20
-61.292893218813
 30
0.0
 11
224.75
 21
-54.292893218813
 31
0.0
  0
LINE
  5
1F9
330
1F
100
AcDbEntity
  8
Kontur
  6
AUSGEZOGEN
 62
     7
370
    25
100
AcDbLine
 10
231.75
 20
-61.292893218813
 30
0.0
 11
224.75
 21
-54.292893218813
 31
0.0
  0
ARC
  5
1FA
330
1F
100
AcDbEntity
  8
Kontur
  6
AUSGEZOGEN
 62
     7
370
    25
100
AcDbCircle
 10
232.75
 20
-72.0
 30
0.0
 40
1.0
100
AcDbArc
 50
180.0
 51
0.0
  0
LINE
  5
1FB
330
1F
100
AcDbEntity
  8
Kontur
  6
AUSGEZOGEN
 62
     7
370
    25
100
AcDbLine
 10
233.75
 20
-61.292893218813
 30
0.0
 11
233.75
 21
-72.0
 31
0.0
  0
LINE
  5
1FC
330
1F
100
AcDbEntity
  8
Kontur
  6
AUSGEZOGEN
 62
     7
370
    25
100
AcDbLine
 10
247.75
 20
-61.292893218813
 30
0.0
 11
247.75
 21
-72.0
 31
0.0
  0
LINE
  5
1FD
330
1F
100
AcDbEntity
  8
Kontur
  6
AUSGEZOGEN
 62
     7
370
    25
100
AcDbLine
 10
233.75
 20
-61.292893218813
 30
0.0
 11
240.75
 21
-54.292893218813
 31
0.0
  0
LINE
  5
1FE
330
1F
100
AcDbEntity
  8
Kontur
  6
AUSGEZOGEN
 62
     7
370
    25
100
AcDbLine
 10
247.75
 20
-61.292893218813
 30
0.0
 11
240.75
 21
-54.292893218813
 31
0.0
  0
ARC
  5
1FF
330
1F
100
AcDbEntity
  8
Kontur
  6
AUSGEZOGEN
 62
     7
370
    25
100
AcDbCircle
 10
248.75
 20
-72.0
 30
0.0
 40
1.0
100
AcDbArc
 50
180.0
 51
0.0
  0
LINE
  5
200
330
1F
100
AcDbEntity
  8
Kontur
  6
AUSGEZOGEN
 62
     7
370
    25
100
AcDbLine
 10
249.75
 20
-61.292893218813
 30
0.0
 11
249.75
 21
-72.0
 31
0.0
  0
LINE
  5
201
330
1F
100
AcDbEntity
  8
Kontur
  6
AUSGEZOGEN
 62
     7
370
    25
100
AcDbLine
 10
263.75
 20
-61.292893218813
 30
0.0
 11
263.75
 21
-72.0
 31
0.0
  0
LINE
  5
202
330
1F
100
AcDbEntity
  8
Kontur
  6
AUSGEZOGEN
 62
     7
370
    25
100
AcDbLine
 10
249.75
 20
-61.292893218813
 30
0.0
 11
256.75
 21
-54.292893218813
 31
0.0
  0
LINE
  5
203
330
1F
100
AcDbEntity
  8
Kontur
  6
AUSGEZOGEN
 62
     7
370
    25
100
AcDbLine
 10
263.75
 20
-61.292893218813
 30
0.0
 11
256.75
 21
-54.292893218813
 31
0.0
  0
ARC
  5
204
330
1F
100
AcDbEntity
  8
Kontur
  6
AUSGEZOGEN
 62
     7
370
    25
100
AcDbCircle
 10
264.75
 20
-72.0
 30
0.0
 40
1.0
100
AcDbArc
 50
180.0
 51
0.0
  0
LINE
  5
205
330
1F
100
AcDbEntity
  8
Kontur
  6
AUSGEZOGEN
 62
     7
370
    25
100
AcDbLine
 10
265.75
 20
-61.292893218813
 30
0.0
 11
265.75
 21
-72.0
 31
0.0
  0
LINE
  5
206
330
1F
100
AcDbEntity
  8
Kontur
  6
AUSGEZOGEN
 62
     7
370
    25
100
AcDbLine
 10
279.75
 20
-61.292893218813
 30
0.0
 11
279.75
 21
-72.0
 31
0.0
  0
LINE
  5
207
330
1F
100
AcDbEntity
  8
Kontur
  6
AUSGEZOGEN
 62
     7
370
    25
100
AcDbLine
 10
265.75
 20
-61.292893218813
 30
0.0
 11
272.75
 21
-54.292893218813
 31
0.0
  0
LINE
  5
208
330
1F
100
AcDbEntity
  8
Kontur
  6
AUSGEZOGEN
 62
     7
370
    25
100
AcDbLine
 10
279.75
 20
-61.292893218813
 30
0.0
 11
272.75
 21
-54.292893218813
 31
0.0
  0
ARC
  5
209
330
1F
100
AcDbEntity
  8
Kontur
  6
AUSGEZOGEN
 62
     7
370
    25
100
AcDbCircle
 10
280.75
 20
-72.0
 30
0.0
 40
1.0
100
AcDbArc
 50
180.0
 51
0.0
  0
LINE
  5
20A
330
1F
100
AcDbEntity
  8
Kontur
  6
AUSGEZOGEN
 62
     7
370
    25
100
AcDbLine
 10
281.75
 20
-61.292893218813
 30
0.0
 11
281.75
 21
-72.0
 31
0.0
  0
LINE
  5
20B
330
1F
100
AcDbEntity
  8
Kontur
  6
AUSGEZOGEN
 62
     7
370
    25
100
AcDbLine
 10
295.75
 20
-61.292893218813
 30
0.0
 11
295.75
 21
-72.0
 31
0.0
  0
LINE
  5
20C
330
1F
100
AcDbEntity
  8
Kontur
  6
AUSGEZOGEN
 62
     7
370
    25
100
AcDbLine
 10
281.75
 20
-61.292893218813
 30
0.0
 11
288.75
 21
-54.292893218813
 31
0.0
  0
LINE
  5
20D
330
1F
100
AcDbEntity
  8
Kontur
  6
AUSGEZOGEN
 62
     7
370
    25
100
AcDbLine
 10
295.75
 20
-61.292893218813
 30
0.0
 11
288.75
 21
-54.292893218813
 31
0.0
  0
ARC
  5
20E
330
1F
100
AcDbEntity
  8
Kontur
  6
AUSGEZOGEN
 62
     7
370
    25
100
AcDbCircle
 10
296.75
 20
-72.0
 30
0.0
 40
1.0
100
AcDbArc
 50
180.0
 51
0.0
  0
LINE
  5
20F
330
1F
100
AcDbEntity
  8
Kontur
  6
AUSGEZOGEN
 62
     7
370
    25
100
AcDbLine
 10
297.75
 20
-61.292893218813
 30
0.0
 11
297.75
 21
-72.0
 31
0.0
  0
LINE
  5
210
330
1F
100
AcDbEntity
  8
Kontur
  6
AUSGEZOGEN
 62
     7
370
    25
100
AcDbLine
 10
311.75
 20
-61.292893218813
 30
0.0
 11
311.75
 21
-72.0
 31
0.0
  0
LINE
  5
211
330
1F
100
AcDbEntity
  8
Kontur
  6
AUSGEZOGEN
 62
     7
370
    25
100
AcDbLine
 10
297.75
 20
-61.292893218813
 30
0.0
 11
304.75
 21
-54.292893218813
 31
0.0
  0
LINE
  5
212
330
1F
100
AcDbEntity
  8
Kontur
  6
AUSGEZOGEN
 62
     7
370
    25
100
AcDbLine
 10
311.75
 20
-61.292893218813
 30
0.0
 11
304.75
 21
-54.292893218813
 31
0.0
  0
ARC
  5
213
330
1F
100
AcDbEntity
  8
Kontur
  6
AUSGEZOGEN
 62
     7
370
    25
100
AcDbCircle
 10
312.75
 20
-72.0
 30
0.0
 40
1.0
100
AcDbArc
 50
180.0
 51
0.0
  0
LINE
  5
214
330
1F
100
AcDbEntity
  8
Kontur
  6
AUSGEZOGEN
 62
     7
370
    25
100
AcDbLine
 10
313.75
 20
-61.292893218813
 30
0.0
 11
313.75
 21
-72.0
 31
0.0
  0
LINE
  5
215
330
1F
100
AcDbEntity
  8
Kontur
  6
AUSGEZOGEN
 62
     7
370
    25
100
AcDbLine
 10
327.75
 20
-61.292893218813
 30
0.0
 11
327.75
 21
-72.0
 31
0.0
  0
LINE
  5
216
330
1F
100
AcDbEntity
  8
Kontur
  6
AUSGEZOGEN
 62
     7
370
    25
100
AcDbLine
 10
313.75
 20
-61.292893218813
 30
0.0
 11
320.75
 21
-54.292893218813
 31
0.0
  0
LINE
  5
217
330
1F
100
AcDbEntity
  8
Kontur
  6
AUSGEZOGEN
 62
     7
370
    25
100
AcDbLine
 10
327.75
 20
-61.292893218813
 30
0.0
 11
320.75
 21
-54.292893218813
 31
0.0
  0
ARC
  5
218
330
1F
100
AcDbEntity
  8
Kontur
  6
AUSGEZOGEN
 62
     7
370
    25
100
AcDbCircle
 10
328.75
 20
-72.0
 30
0.0
 40
1.0
100
AcDbArc
 50
180.0
 51
0.0
  0
LINE
  5
219
330
1F
100
AcDbEntity
  8
Kontur
  6
AUSGEZOGEN
 62
     7
370
    25
100
AcDbLine
 10
329.75
 20
-61.292893218813
 30
0.0
 11
329.75
 21
-72.0
 31
0.0
  0
LINE
  5
21A
330
1F
100
AcDbEntity
  8
Kontur
  6
AUSGEZOGEN
 62
     7
370
    25
100
AcDbLine
 10
343.75
 20
-61.292893218813
 30
0.0
 11
343.75
 21
-72.0
 31
0.0
  0
LINE
  5
21B
330
1F
100
AcDbEntity
  8
Kontur
  6
AUSGEZOGEN
 62
     7
370
    25
100
AcDbLine
 10
329.75
 20
-61.292893218813
 30
0.0
 11
336.75
 21
-54.292893218813
 31
0.0
  0
LINE
  5
21C
330
1F
100
AcDbEntity
  8
Kontur
  6
AUSGEZOGEN
 62
     7
370
    25
100
AcDbLine
 10
343.75
 20
-61.292893218813
 30
0.0
 11
336.75
 21
-54.292893218813
 31
0.0
  0
ARC
  5
21D
330
1F
100
AcDbEntity
  8
Kontur
  6
AUSGEZOGEN
 62
     7
370
    25
100
AcDbCircle
 10
344.75
 20
-72.0
 30
0.0
 40
1.0
100
AcDbArc
 50
180.0
 51
0.0
  0
LINE
  5
21E
330
1F
100
AcDbEntity
  8
Kontur
  6
AUSGEZOGEN
 62
     7
370
    25
100
AcDbLine
 10
345.75
 20
-61.292893218813
 30
0.0
 11
345.75
 21
-72.0
 31
0.0
  0
LINE
  5
21F
330
1F
100
AcDbEntity
  8
Kontur
  6
AUSGEZOGEN
 62
     7
370
    25
100
AcDbLine
 10
359.75
 20
-61.292893218813
 30
0.0
 11
359.75
 21
-72.0
 31
0.0
  0
LINE
  5
220
330
1F
100
AcDbEntity
  8
Kontur
  6
AUSGEZOGEN
 62
     7
370
    25
100
AcDbLine
 10
345.75
 20
-61.292893218813
 30
0.0
 11
352.75
 21
-54.292893218813
 31
0.0
  0
LINE
  5
221
330
1F
100
AcDbEntity
  8
Kontur
  6
AUSGEZOGEN
 62
     7
370
    25
100
AcDbLine
 10
359.75
 20
-61.292893218813
 30
0.0
 11
352.75
 21
-54.292893218813
 31
0.0
  0
ARC
  5
222
330
1F
100
AcDbEntity
  8
Kontur
  6
AUSGEZOGEN
 62
     7
370
    25
100
AcDbCircle
 10
360.75
 20
-72.0
 30
0.0
 40
1.0
100
AcDbArc
 50
180.0
 51
0.0
  0
LINE
  5
223
330
1F
100
AcDbEntity
  8
Kontur
  6
AUSGEZOGEN
 62
     7
370
    25
100
AcDbLine
 10
361.75
 20
-61.292893218813
 30
0.0
 11
361.75
 21
-72.0
 31
0.0
  0
LINE
  5
224
330
1F
100
AcDbEntity
  8
Kontur
  6
AUSGEZOGEN
 62
     7
370
    25
100
AcDbLine
 10
375.75
 20
-61.292893218813
 30
0.0
 11
375.75
 21
-72.0
 31
0.0
  0
LINE
  5
225
330
1F
100
AcDbEntity
  8
Kontur
  6
AUSGEZOGEN
 62
     7
370
    25
100
AcDbLine
 10
361.75
 20
-61.292893218813
 30
0.0
 11
368.75
 21
-54.292893218813
 31
0.0
  0
LINE
  5
226
330
1F
100
AcDbEntity
  8
Kontur
  6
AUSGEZOGEN
 62
     7
370
    25
100
AcDbLine
 10
375.75
 20
-61.292893218813
 30
0.0
 11
368.75
 21
-54.292893218813
 31
0.0
  0
ARC
  5
227
330
1F
100
AcDbEntity
  8
Kontur
  6
AUSGEZOGEN
 62
     7
370
    25
100
AcDbCircle
 10
376.75
 20
-72.0
 30
0.0
 40
1.0
100
AcDbArc
 50
180.0
 51
0.0
  0
LINE
  5
228
330
1F
100
AcDbEntity
  8
Kontur
  6
AUSGEZOGEN
 62
     7
370
    25
100
AcDbLine
 10
377.75
 20
-61.292893218813
 30
0.0
 11
377.75
 21
-72.0
 31
0.0
  0
LINE
  5
229
330
1F
100
AcDbEntity
  8
Kontur
  6
AUSGEZOGEN
 62
     7
370
    25
100
AcDbLine
 10
391.75
 20
-61.292893218813
 30
0.0
 11
391.75
 21
-72.0
 31
0.0
  0
LINE
  5
22A
330
1F
100
AcDbEntity
  8
Kontur
  6
AUSGEZOGEN
 62
     7
370
    25
100
AcDbLine
 10
377.75
 20
-61.292893218813
 30
0.0
 11
384.75
 21
-54.292893218813
 31
0.0
  0
LINE
  5
22B
330
1F
100
AcDbEntity
  8
Kontur
  6
AUSGEZOGEN
 62
     7
370
    25
100
AcDbLine
 10
391.75
 20
-61.292893218813
 30
0.0
 11
384.75
 21
-54.292893218813
 31
0.0
  0
ARC
  5
22C
330
1F
100
AcDbEntity
  8
Kontur
  6
AUSGEZOGEN
 62
     7
370
    25
100
AcDbCircle
 10
392.75
 20
-72.0
 30
0.0
 40
1.0
100
AcDbArc
 50
180.0
 51
0.0
  0
LINE
  5
22D
330
1F
100
AcDbEntity
  8
Kontur
  6
AUSGEZOGEN
 62
     7
370
    25
100
AcDbLine
 10
393.75
 20
-61.292893218813
 30
0.0
 11
393.75
 21
-72.0
 31
0.0
  0
LINE
  5
22E
330
1F
100
AcDbEntity
  8
Kontur
  6
AUSGEZOGEN
 62
     7
370
    25
100
AcDbLine
 10
407.75
 20
-61.292893218813
 30
0.0
 11
407.75
 21
-72.0
 31
0.0
  0
LINE
  5
22F
330
1F
100
AcDbEntity
  8
Kontur
  6
AUSGEZOGEN
 62
     7
370
    25
100
AcDbLine
 10
393.75
 20
-61.292893218813
 30
0.0
 11
400.75
 21
-54.292893218813
 31
0.0
  0
LINE
  5
230
330
1F
100
AcDbEntity
  8
Kontur
  6
AUSGEZOGEN
 62
     7
370
    25
100
AcDbLine
 10
407.75
 20
-61.292893218813
 30
0.0
 11
400.75
 21
-54.292893218813
 31
0.0
  0
ARC
  5
231
330
1F
100
AcDbEntity
  8
Kontur
  6
AUSGEZOGEN
 62
     7
370
    25
100
AcDbCircle
 10
408.75
 20
-72.0
 30
0.0
 40
1.0
100
AcDbArc
 50
180.0
 51
0.0
  0
LINE
  5
232
330
1F
100
AcDbEntity
  8
Kontur
  6
AUSGEZOGEN
 62
     7
370
    25
100
AcDbLine
 10
409.75
 20
-61.292893218813
 30
0.0
 11
409.75
 21
-72.0
 31
0.0
  0
LINE
  5
233
330
1F
100
AcDbEntity
  8
Kontur
  6
AUSGEZOGEN
 62
     7
370
    25
100
AcDbLine
 10
423.75
 20
-61.292893218813
 30
0.0
 11
423.75
 21
-72.0
 31
0.0
  0
LINE
  5
234
330
1F
100
AcDbEntity
  8
Kontur
  6
AUSGEZOGEN
 62
     7
370
    25
100
AcDbLine
 10
409.75
 20
-61.292893218813
 30
0.0
 11
416.75
 21
-54.292893218813
 31
0.0
  0
LINE
  5
235
330
1F
100
AcDbEntity
  8
Kontur
  6
AUSGEZOGEN
 62
     7
370
    25
100
AcDbLine
 10
423.75
 20
-61.292893218813
 30
0.0
 11
416.75
 21
-54.292893218813
 31
0.0
  0
ARC
  5
236
330
1F
100
AcDbEntity
  8
Kontur
  6
AUSGEZOGEN
 62
     7
370
    25
100
AcDbCircle
 10
424.75
 20
-72.0
 30
0.0
 40
1.0
100
AcDbArc
 50
180.0
 51
0.0
  0
LINE
  5
237
330
1F
100
AcDbEntity
  8
Kontur
  6
AUSGEZOGEN
 62
     7
370
    25
100
AcDbLine
 10
425.75
 20
-61.292893218813
 30
0.0
 11
425.75
 21
-72.0
 31
0.0
  0
LINE
  5
238
330
1F
100
AcDbEntity
  8
Kontur
  6
AUSGEZOGEN
 62
     7
370
    25
100
AcDbLine
 10
439.75
 20
-61.292893218813
 30
0.0
 11
439.75
 21
-72.0
 31
0.0
  0
LINE
  5
239
330
1F
100
AcDbEntity
  8
Kontur
  6
AUSGEZOGEN
 62
     7
370
    25
100
AcDbLine
 10
425.75
 20
-61.292893218813
 30
0.0
 11
432.75
 21
-54.292893218813
 31
0.0
  0
LINE
  5
23A
330
1F
100
AcDbEntity
  8
Kontur
  6
AUSGEZOGEN
 62
     7
370
    25
100
AcDbLine
 10
439.75
 20
-61.292893218813
 30
0.0
 11
432.75
 21
-54.292893218813
 31
0.0
  0
ARC
  5
23B
330
1F
100
AcDbEntity
  8
Kontur
  6
AUSGEZOGEN
 62
     7
370
    25
100
AcDbCircle
 10
440.75
 20
-72.0
 30
0.0
 40
1.0
100
AcDbArc
 50
180.0
 51
0.0
  0
LINE
  5
23C
330
1F
100
AcDbEntity
  8
Kontur
  6
AUSGEZOGEN
 62
     7
370
    25
100
AcDbLine
 10
441.75
 20
-61.292893218813
 30
0.0
 11
441.75
 21
-72.0
 31
0.0
  0
LINE
  5
23D
330
1F
100
AcDbEntity
  8
Kontur
  6
AUSGEZOGEN
 62
     7
370
    25
100
AcDbLine
 10
455.75
 20
-61.292893218813
 30
0.0
 11
455.75
 21
-72.0
 31
0.0
  0
LINE
  5
23E
330
1F
100
AcDbEntity
  8
Kontur
  6
AUSGEZOGEN
 62
     7
370
    25
100
AcDbLine
 10
441.75
 20
-61.292893218813
 30
0.0
 11
448.75
 21
-54.292893218813
 31
0.0
  0
LINE
  5
23F
330
1F
100
AcDbEntity
  8
Kontur
  6
AUSGEZOGEN
 62
     7
370
    25
100
AcDbLine
 10
455.75
 20
-61.292893218813
 30
0.0
 11
448.75
 21
-54.292893218813
 31
0.0
  0
ARC
  5
240
330
1F
100
AcDbEntity
  8
Kontur
  6
AUSGEZOGEN
 62
     7
370
    25
100
AcDbCircle
 10
456.75
 20
-72.0
 30
0.0
 40
1.0
100
AcDbArc
 50
180.0
 51
0.0
  0
LINE
  5
241
330
1F
100
AcDbEntity
  8
Kontur
  6
AUSGEZOGEN
 62
     7
370
    25
100
AcDbLine
 10
457.75
 20
-61.292893218813
 30
0.0
 11
457.75
 21
-72.0
 31
0.0
  0
LINE
  5
242
330
1F
100
AcDbEntity
  8
Kontur
  6
AUSGEZOGEN
 62
     7
370
    25
100
AcDbLine
 10
457.75
 20
-61.292893218813
 30
0.0
 11
464.75
 21
-54.292893218813
 31
0.0
  0
LINE
  5
243
330
1F
100
AcDbEntity
  8
Kontur
  6
AUSGEZOGEN
 62
     7
370
    25
100
AcDbLine
 10
95.75
 20
-85.3
 30
0.0
 11
467.0
 21
-85.3
 31
0.0
  0
LINE
  5
244
330
1F
100
AcDbEntity
  8
Kontur
  6
AUSGEZOGEN
 62
     7
370
    18
100
AcDbLine
 10
95.75
 20
-55.292893218813
 30
0.0
 11
95.75
 21
-85.3
 31
0.0
  0
LINE
  5
245
330
1F
100
AcDbEntity
  8
Kontur
  6
AUSGEZOGEN
 62
     3
420
    65280
370
    18
100
AcDbLine
 10
95.75
 20
-85.3
 30
0.0
 11
95.75
 21
-90.3
 31
0.0
  0
TEXT
  5
246
330
1F
100
AcDbEntity
  8
Text
  6
AUSGEZOGEN
 62
     3
420
    65280
370
    18
100
AcDbText
 10
100.049998164177
 20
-108.5
 30
0.0
 40
7.0
  1
>1000mm  - 4 -  festprogrammierte Microstege setzen
 41
0.945517252231
  7
tfont1
 72
     5
 11
419.950001835823
 21
-108.5
 31
0.0
100
AcDbText
  0
LINE
  5
247
330
1F
100
AcDbEntity
  8
Kontur
  6
AUSGEZOGEN
 62
     7
370
    25
100
AcDbLine
 10
471.75
 20
-61.292893218813
 30
0.0
 11
471.75
 21
-72.0
 31
0.0
  0
LINE
  5
248
330
1F
100
AcDbEntity
  8
Kontur
  6
AUSGEZOGEN
 62
     7
370
    25
100
AcDbLine
 10
473.75
 20
-61.292893218813
 30
0.0
 11
473.75
 21
-72.0
 31
0.0
  0
LINE
  5
249
330
1F
100
AcDbEntity
  8
Kontur
  6
AUSGEZOGEN
 62
     7
370
    25
100
AcDbLine
 10
487.75
 20
-61.292893218813
 30
0.0
 11
487.75
 21
-72.0
 31
0.0
  0
ARC
  5
24A
330
1F
100
AcDbEntity
  8
Kontur
  6
AUSGEZOGEN
 62
     7
370
    25
100
AcDbCircle
 10
472.75
 20
-72.0
 30
0.0
 40
1.0
100
AcDbArc
 50
180.0
 51
0.0
  0
ARC
  5
24B
330
1F
100
AcDbEntity
  8
Kontur
  6
AUSGEZOGEN
 62
     7
370
    25
100
AcDbCircle
 10
488.75
 20
-72.0
 30
0.0
 40
1.0
100
AcDbArc
 50
180.0
 51
0.0
  0
LINE
  5
24C
330
1F
100
AcDbEntity
  8
Kontur
  6
AUSGEZOGEN
 62
     7
370
    25
100
AcDbLine
 10
489.75
 20
-61.292893218813
 30
0.0
 11
489.75
 21
-72.0
 31
0.0
  0
LINE
  5
24D
330
1F
100
AcDbEntity
  8
Kontur
  6
AUSGEZOGEN
 62
     7
370
    25
100
AcDbLine
 10
503.75
 20
-61.292893218813
 30
0.0
 11
503.75
 21
-72.0
 31
0.0
  0
LINE
  5
24E
330
1F
100
AcDbEntity
  8
Kontur
  6
AUSGEZOGEN
 62
     7
370
    25
100
AcDbLine
 10
473.75
 20
-61.292893218813
 30
0.0
 11
480.75
 21
-54.292893218813
 31
0.0
  0
LINE
  5
24F
330
1F
100
AcDbEntity
  8
Kontur
  6
AUSGEZOGEN
 62
     7
370
    25
100
AcDbLine
 10
487.75
 20
-61.292893218813
 30
0.0
 11
480.75
 21
-54.292893218813
 31
0.0
  0
LINE
  5
250
330
1F
100
AcDbEntity
  8
Kontur
  6
AUSGEZOGEN
 62
     7
370
    25
100
AcDbLine
 10
489.75
 20
-61.292893218813
 30
0.0
 11
496.75
 21
-54.292893218813
 31
0.0
  0
LINE
  5
251
330
1F
100
AcDbEntity
  8
Kontur
  6
AUSGEZOGEN
 62
     7
370
    25
100
AcDbLine
 10
503.75
 20
-61.292893218813
 30
0.0
 11
496.75
 21
-54.292893218813
 31
0.0
  0
ARC
  5
252
330
1F
100
AcDbEntity
  8
Kontur
  6
AUSGEZOGEN
 62
     7
370
    25
100
AcDbCircle
 10
504.75
 20
-72.0
 30
0.0
 40
1.0
100
AcDbArc
 50
180.0
 51
0.0
  0
LINE
  5
253
330
1F
100
AcDbEntity
  8
Kontur
  6
AUSGEZOGEN
 62
     7
370
    25
100
AcDbLine
 10
505.75
 20
-61.292893218813
 30
0.0
 11
505.75
 21
-72.0
 31
0.0
  0
LINE
  5
254
330
1F
100
AcDbEntity
  8
Kontur
  6
AUSGEZOGEN
 62
     7
370
    25
100
AcDbLine
 10
519.75
 20
-61.292893218813
 30
0.0
 11
519.75
 21
-72.0
 31
0.0
  0
LINE
  5
255
330
1F
100
AcDbEntity
  8
Kontur
  6
AUSGEZOGEN
 62
     7
370
    25
100
AcDbLine
 10
505.75
 20
-61.292893218813
 30
0.0
 11
512.75
 21
-54.292893218813
 31
0.0
  0
LINE
  5
256
330
1F
100
AcDbEntity
  8
Kontur
  6
AUSGEZOGEN
 62
     7
370
    25
100
AcDbLine
 10
519.75
 20
-61.292893218813
 30
0.0
 11
512.75
 21
-54.292893218813
 31
0.0
  0
ARC
  5
257
330
1F
100
AcDbEntity
  8
Kontur
  6
AUSGEZOGEN
 62
     7
370
    25
100
AcDbCircle
 10
520.75
 20
-72.0
 30
0.0
 40
1.0
100
AcDbArc
 50
180.0
 51
0.0
  0
LINE
  5
258
330
1F
100
AcDbEntity
  8
Kontur
  6
AUSGEZOGEN
 62
     7
370
    25
100
AcDbLine
 10
521.75
 20
-61.292893218813
 30
0.0
 11
521.75
 21
-72.0
 31
0.0
  0
LINE
  5
259
330
1F
100
AcDbEntity
  8
Kontur
  6
AUSGEZOGEN
 62
     7
370
    25
100
AcDbLine
 10
535.75
 20
-61.292893218813
 30
0.0
 11
535.75
 21
-72.0
 31
0.0
  0
LINE
  5
25A
330
1F
100
AcDbEntity
  8
Kontur
  6
AUSGEZOGEN
 62
     7
370
    25
100
AcDbLine
 10
521.75
 20
-61.292893218813
 30
0.0
 11
528.75
 21
-54.292893218813
 31
0.0
  0
LINE
  5
25B
330
1F
100
AcDbEntity
  8
Kontur
  6
AUSGEZOGEN
 62
     7
370
    25
100
AcDbLine
 10
535.75
 20
-61.292893218813
 30
0.0
 11
528.75
 21
-54.292893218813
 31
0.0
  0
ARC
  5
25C
330
1F
100
AcDbEntity
  8
Kontur
  6
AUSGEZOGEN
 62
     7
370
    25
100
AcDbCircle
 10
536.75
 20
-72.0
 30
0.0
 40
1.0
100
AcDbArc
 50
180.0
 51
0.0
  0
LINE
  5
25D
330
1F
100
AcDbEntity
  8
Kontur
  6
AUSGEZOGEN
 62
     7
370
    25
100
AcDbLine
 10
537.75
 20
-61.292893218813
 30
0.0
 11
537.75
 21
-72.0
 31
0.0
  0
LINE
  5
25E
330
1F
100
AcDbEntity
  8
Kontur
  6
AUSGEZOGEN
 62
     7
370
    25
100
AcDbLine
 10
551.75
 20
-61.292893218813
 30
0.0
 11
551.75
 21
-72.0
 31
0.0
  0
LINE
  5
25F
330
1F
100
AcDbEntity
  8
Kontur
  6
AUSGEZOGEN
 62
     7
370
    25
100
AcDbLine
 10
537.75
 20
-61.292893218813
 30
0.0
 11
544.75
 21
-54.292893218813
 31
0.0
  0
LINE
  5
260
330
1F
100
AcDbEntity
  8
Kontur
  6
AUSGEZOGEN
 62
     7
370
    25
100
AcDbLine
 10
551.75
 20
-61.292893218813
 30
0.0
 11
544.75
 21
-54.292893218813
 31
0.0
  0
ARC
  5
261
330
1F
100
AcDbEntity
  8
Kontur
  6
AUSGEZOGEN
 62
     7
370
    25
100
AcDbCircle
 10
552.75
 20
-72.0
 30
0.0
 40
1.0
100
AcDbArc
 50
180.0
 51
0.0
  0
LINE
  5
262
330
1F
100
AcDbEntity
  8
Kontur
  6
AUSGEZOGEN
 62
     7
370
    25
100
AcDbLine
 10
553.75
 20
-61.292893218813
 30
0.0
 11
553.75
 21
-72.0
 31
0.0
  0
LINE
  5
263
330
1F
100
AcDbEntity
  8
Kontur
  6
AUSGEZOGEN
 62
     7
370
    25
100
AcDbLine
 10
567.75
 20
-61.292893218813
 30
0.0
 11
567.75
 21
-72.0
 31
0.0
  0
LINE
  5
264
330
1F
100
AcDbEntity
  8
Kontur
  6
AUSGEZOGEN
 62
     7
370
    25
100
AcDbLine
 10
553.75
 20
-61.292893218813
 30
0.0
 11
560.75
 21
-54.292893218813
 31
0.0
  0
LINE
  5
265
330
1F
100
AcDbEntity
  8
Kontur
  6
AUSGEZOGEN
 62
     7
370
    25
100
AcDbLine
 10
567.75
 20
-61.292893218813
 30
0.0
 11
560.75
 21
-54.292893218813
 31
0.0
  0
ARC
  5
266
330
1F
100
AcDbEntity
  8
Kontur
  6
AUSGEZOGEN
 62
     7
370
    25
100
AcDbCircle
 10
568.75
 20
-72.0
 30
0.0
 40
1.0
100
AcDbArc
 50
180.0
 51
0.0
  0
LINE
  5
267
330
1F
100
AcDbEntity
  8
Kontur
  6
AUSGEZOGEN
 62
     7
370
    25
100
AcDbLine
 10
569.75
 20
-61.292893218813
 30
0.0
 11
569.75
 21
-72.0
 31
0.0
  0
LINE
  5
268
330
1F
100
AcDbEntity
  8
Kontur
  6
AUSGEZOGEN
 62
     7
370
    25
100
AcDbLine
 10
583.75
 20
-61.292893218813
 30
0.0
 11
583.75
 21
-72.0
 31
0.0
  0
LINE
  5
269
330
1F
100
AcDbEntity
  8
Kontur
  6
AUSGEZOGEN
 62
     7
370
    25
100
AcDbLine
 10
569.75
 20
-61.292893218813
 30
0.0
 11
576.75
 21
-54.292893218813
 31
0.0
  0
LINE
  5
26A
330
1F
100
AcDbEntity
  8
Kontur
  6
AUSGEZOGEN
 62
     7
370
    25
100
AcDbLine
 10
583.75
 20
-61.292893218813
 30
0.0
 11
576.75
 21
-54.292893218813
 31
0.0
  0
ARC
  5
26B
330
1F
100
AcDbEntity
  8
Kontur
  6
AUSGEZOGEN
 62
     7
370
    25
100
AcDbCircle
 10
584.75
 20
-72.0
 30
0.0
 40
1.0
100
AcDbArc
 50
180.0
 51
0.0
  0
LINE
  5
26C
330
1F
100
AcDbEntity
  8
Kontur
  6
AUSGEZOGEN
 62
     7
370
    25
100
AcDbLine
 10
585.75
 20
-61.292893218813
 30
0.0
 11
585.75
 21
-72.0
 31
0.0
  0
LINE
  5
26D
330
1F
100
AcDbEntity
  8
Kontur
  6
AUSGEZOGEN
 62
     7
370
    25
100
AcDbLine
 10
599.75
 20
-61.292893218813
 30
0.0
 11
599.75
 21
-72.0
 31
0.0
  0
LINE
  5
26E
330
1F
100
AcDbEntity
  8
Kontur
  6
AUSGEZOGEN
 62
     7
370
    25
100
AcDbLine
 10
585.75
 20
-61.292893218813
 30
0.0
 11
592.75
 21
-54.292893218813
 31
0.0
  0
LINE
  5
26F
330
1F
100
AcDbEntity
  8
Kontur
  6
AUSGEZOGEN
 62
     7
370
    25
100
AcDbLine
 10
599.75
 20
-61.292893218813
 30
0.0
 11
592.75
 21
-54.292893218813
 31
0.0
  0
ARC
  5
270
330
1F
100
AcDbEntity
  8
Kontur
  6
AUSGEZOGEN
 62
     7
370
    25
100
AcDbCircle
 10
600.75
 20
-72.0
 30
0.0
 40
1.0
100
AcDbArc
 50
180.0
 51
0.0
  0
LINE
  5
271
330
1F
100
AcDbEntity
  8
Kontur
  6
AUSGEZOGEN
 62
     7
370
    25
100
AcDbLine
 10
601.75
 20
-61.292893218813
 30
0.0
 11
601.75
 21
-72.0
 31
0.0
  0
LINE
  5
272
330
1F
100
AcDbEntity
  8
Kontur
  6
AUSGEZOGEN
 62
     7
370
    25
100
AcDbLine
 10
615.75
 20
-61.292893218813
 30
0.0
 11
615.75
 21
-72.0
 31
0.0
  0
LINE
  5
273
330
1F
100
AcDbEntity
  8
Kontur
  6
AUSGEZOGEN
 62
     7
370
    25
100
AcDbLine
 10
601.75
 20
-61.292893218813
 30
0.0
 11
608.75
 21
-54.292893218813
 31
0.0
  0
LINE
  5
274
330
1F
100
AcDbEntity
  8
Kontur
  6
AUSGEZOGEN
 62
     7
370
    25
100
AcDbLine
 10
615.75
 20
-61.292893218813
 30
0.0
 11
608.75
 21
-54.292893218813
 31
0.0
  0
ARC
  5
275
330
1F
100
AcDbEntity
  8
Kontur
  6
AUSGEZOGEN
 62
     7
370
    25
100
AcDbCircle
 10
616.75
 20
-72.0
 30
0.0
 40
1.0
100
AcDbArc
 50
180.0
 51
0.0
  0
LINE
  5
276
330
1F
100
AcDbEntity
  8
Kontur
  6
AUSGEZOGEN
 62
     7
370
    25
100
AcDbLine
 10
617.75
 20
-61.292893218813
 30
0.0
 11
617.75
 21
-72.0
 31
0.0
  0
LINE
  5
277
330
1F
100
AcDbEntity
  8
Kontur
  6
AUSGEZOGEN
 62
     7
370
    25
100
AcDbLine
 10
631.75
 20
-61.292893218813
 30
0.0
 11
631.75
 21
-72.0
 31
0.0
  0
LINE
  5
278
330
1F
100
AcDbEntity
  8
Kontur
  6
AUSGEZOGEN
 62
     7
370
    25
100
AcDbLine
 10
617.75
 20
-61.292893218813
 30
0.0
 11
624.75
 21
-54.292893218813
 31
0.0
  0
LINE
  5
279
330
1F
100
AcDbEntity
  8
Kontur
  6
AUSGEZOGEN
 62
     7
370
    25
100
AcDbLine
 10
631.75
 20
-61.292893218813
 30
0.0
 11
624.75
 21
-54.292893218813
 31
0.0
  0
ARC
  5
27A
330
1F
100
AcDbEntity
  8
Kontur
  6
AUSGEZOGEN
 62
     7
370
    25
100
AcDbCircle
 10
632.75
 20
-72.0
 30
0.0
 40
1.0
100
AcDbArc
 50
180.0
 51
0.0
  0
LINE
  5
27B
330
1F
100
AcDbEntity
  8
Kontur
  6
AUSGEZOGEN
 62
     7
370
    25
100
AcDbLine
 10
633.75
 20
-61.292893218813
 30
0.0
 11
633.75
 21
-72.0
 31
0.0
  0
LINE
  5
27C
330
1F
100
AcDbEntity
  8
Kontur
  6
AUSGEZOGEN
 62
     7
370
    25
100
AcDbLine
 10
647.75
 20
-61.292893218813
 30
0.0
 11
647.75
 21
-72.0
 31
0.0
  0
LINE
  5
27D
330
1F
100
AcDbEntity
  8
Kontur
  6
AUSGEZOGEN
 62
     7
370
    25
100
AcDbLine
 10
633.75
 20
-61.292893218813
 30
0.0
 11
640.75
 21
-54.292893218813
 31
0.0
  0
LINE
  5
27E
330
1F
100
AcDbEntity
  8
Kontur
  6
AUSGEZOGEN
 62
     7
370
    25
100
AcDbLine
 10
647.75
 20
-61.292893218813
 30
0.0
 11
640.75
 21
-54.292893218813
 31
0.0
  0
ARC
  5
27F
330
1F
100
AcDbEntity
  8
Kontur
  6
AUSGEZOGEN
 62
     7
370
    25
100
AcDbCircle
 10
648.75
 20
-72.0
 30
0.0
 40
1.0
100
AcDbArc
 50
180.0
 51
0.0
  0
LINE
  5
280
330
1F
100
AcDbEntity
  8
Kontur
  6
AUSGEZOGEN
 62
     7
370
    25
100
AcDbLine
 10
649.75
 20
-61.292893218813
 30
0.0
 11
649.75
 21
-72.0
 31
0.0
  0
LINE
  5
281
330
1F
100
AcDbEntity
  8
Kontur
  6
AUSGEZOGEN
 62
     7
370
    25
100
AcDbLine
 10
663.75
 20
-61.292893218813
 30
0.0
 11
663.75
 21
-72.0
 31
0.0
  0
LINE
  5
282
330
1F
100
AcDbEntity
  8
Kontur
  6
AUSGEZOGEN
 62
     7
370
    25
100
AcDbLine
 10
649.75
 20
-61.292893218813
 30
0.0
 11
656.75
 21
-54.292893218813
 31
0.0
  0
LINE
  5
283
330
1F
100
AcDbEntity
  8
Kontur
  6
AUSGEZOGEN
 62
     7
370
    25
100
AcDbLine
 10
663.75
 20
-61.292893218813
 30
0.0
 11
656.75
 21
-54.292893218813
 31
0.0
  0
ARC
  5
284
330
1F
100
AcDbEntity
  8
Kontur
  6
AUSGEZOGEN
 62
     7
370
    25
100
AcDbCircle
 10
664.75
 20
-72.0
 30
0.0
 40
1.0
100
AcDbArc
 50
180.0
 51
0.0
  0
LINE
  5
285
330
1F
100
AcDbEntity
  8
Kontur
  6
AUSGEZOGEN
 62
     7
370
    25
100
AcDbLine
 10
665.75
 20
-61.292893218813
 30
0.0
 11
665.75
 21
-72.0
 31
0.0
  0
LINE
  5
286
330
1F
100
AcDbEntity
  8
Kontur
  6
AUSGEZOGEN
 62
     7
370
    25
100
AcDbLine
 10
679.75
 20
-61.292893218813
 30
0.0
 11
679.75
 21
-72.0
 31
0.0
  0
LINE
  5
287
330
1F
100
AcDbEntity
  8
Kontur
  6
AUSGEZOGEN
 62
     7
370
    25
100
AcDbLine
 10
665.75
 20
-61.292893218813
 30
0.0
 11
672.75
 21
-54.292893218813
 31
0.0
  0
LINE
  5
288
330
1F
100
AcDbEntity
  8
Kontur
  6
AUSGEZOGEN
 62
     7
370
    25
100
AcDbLine
 10
679.75
 20
-61.292893218813
 30
0.0
 11
672.75
 21
-54.292893218813
 31
0.0
  0
ARC
  5
289
330
1F
100
AcDbEntity
  8
Kontur
  6
AUSGEZOGEN
 62
     7
370
    25
100
AcDbCircle
 10
680.75
 20
-72.0
 30
0.0
 40
1.0
100
AcDbArc
 50
180.0
 51
0.0
  0
LINE
  5
28A
330
1F
100
AcDbEntity
  8
Kontur
  6
AUSGEZOGEN
 62
     7
370
    25
100
AcDbLine
 10
681.75
 20
-61.292893218813
 30
0.0
 11
681.75
 21
-72.0
 31
0.0
  0
LINE
  5
28B
330
1F
100
AcDbEntity
  8
Kontur
  6
AUSGEZOGEN
 62
     7
370
    25
100
AcDbLine
 10
695.75
 20
-61.292893218813
 30
0.0
 11
695.75
 21
-72.0
 31
0.0
  0
LINE
  5
28C
330
1F
100
AcDbEntity
  8
Kontur
  6
AUSGEZOGEN
 62
     7
370
    25
100
AcDbLine
 10
681.75
 20
-61.292893218813
 30
0.0
 11
688.75
 21
-54.292893218813
 31
0.0
  0
LINE
  5
28D
330
1F
100
AcDbEntity
  8
Kontur
  6
AUSGEZOGEN
 62
     7
370
    25
100
AcDbLine
 10
695.75
 20
-61.292893218813
 30
0.0
 11
688.75
 21
-54.292893218813
 31
0.0
  0
ARC
  5
28E
330
1F
100
AcDbEntity
  8
Kontur
  6
AUSGEZOGEN
 62
     7
370
    25
100
AcDbCircle
 10
696.75
 20
-72.0
 30
0.0
 40
1.0
100
AcDbArc
 50
180.0
 51
0.0
  0
LINE
  5
28F
330
1F
100
AcDbEntity
  8
Kontur
  6
AUSGEZOGEN
 62
     7
370
    25
100
AcDbLine
 10
697.75
 20
-61.292893218813
 30
0.0
 11
697.75
 21
-72.0
 31
0.0
  0
LINE
  5
290
330
1F
100
AcDbEntity
  8
Kontur
  6
AUSGEZOGEN
 62
     7
370
    25
100
AcDbLine
 10
711.75
 20
-61.292893218813
 30
0.0
 11
711.75
 21
-72.0
 31
0.0
  0
LINE
  5
291
330
1F
100
AcDbEntity
  8
Kontur
  6
AUSGEZOGEN
 62
     7
370
    25
100
AcDbLine
 10
697.75
 20
-61.292893218813
 30
0.0
 11
704.75
 21
-54.292893218813
 31
0.0
  0
LINE
  5
292
330
1F
100
AcDbEntity
  8
Kontur
  6
AUSGEZOGEN
 62
     7
370
    25
100
AcDbLine
 10
711.75
 20
-61.292893218813
 30
0.0
 11
704.75
 21
-54.292893218813
 31
0.0
  0
ARC
  5
293
330
1F
100
AcDbEntity
  8
Kontur
  6
AUSGEZOGEN
 62
     7
370
    25
100
AcDbCircle
 10
712.75
 20
-72.0
 30
0.0
 40
1.0
100
AcDbArc
 50
180.0
 51
0.0
  0
LINE
  5
294
330
1F
100
AcDbEntity
  8
Kontur
  6
AUSGEZOGEN
 62
     7
370
    25
100
AcDbLine
 10
713.75
 20
-61.292893218813
 30
0.0
 11
713.75
 21
-72.0
 31
0.0
  0
LINE
  5
295
330
1F
100
AcDbEntity
  8
Kontur
  6
AUSGEZOGEN
 62
     7
370
    25
100
AcDbLine
 10
727.75
 20
-61.292893218813
 30
0.0
 11
727.75
 21
-72.0
 31
0.0
  0
LINE
  5
296
330
1F
100
AcDbEntity
  8
Kontur
  6
AUSGEZOGEN
 62
     7
370
    25
100
AcDbLine
 10
713.75
 20
-61.292893218813
 30
0.0
 11
720.75
 21
-54.292893218813
 31
0.0
  0
LINE
  5
297
330
1F
100
AcDbEntity
  8
Kontur
  6
AUSGEZOGEN
 62
     7
370
    25
100
AcDbLine
 10
727.75
 20
-61.292893218813
 30
0.0
 11
720.75
 21
-54.292893218813
 31
0.0
  0
ARC
  5
298
330
1F
100
AcDbEntity
  8
Kontur
  6
AUSGEZOGEN
 62
     7
370
    25
100
AcDbCircle
 10
728.75
 20
-72.0
 30
0.0
 40
1.0
100
AcDbArc
 50
180.0
 51
0.0
  0
LINE
  5
299
330
1F
100
AcDbEntity
  8
Kontur
  6
AUSGEZOGEN
 62
     7
370
    25
100
AcDbLine
 10
729.75
 20
-61.292893218813
 30
0.0
 11
729.75
 21
-72.0
 31
0.0
  0
LINE
  5
29A
330
1F
100
AcDbEntity
  8
Kontur
  6
AUSGEZOGEN
 62
     7
370
    25
100
AcDbLine
 10
743.75
 20
-61.292893218813
 30
0.0
 11
743.75
 21
-72.0
 31
0.0
  0
LINE
  5
29B
330
1F
100
AcDbEntity
  8
Kontur
  6
AUSGEZOGEN
 62
     7
370
    25
100
AcDbLine
 10
729.75
 20
-61.292893218813
 30
0.0
 11
736.75
 21
-54.292893218813
 31
0.0
  0
LINE
  5
29C
330
1F
100
AcDbEntity
  8
Kontur
  6
AUSGEZOGEN
 62
     7
370
    25
100
AcDbLine
 10
743.75
 20
-61.292893218813
 30
0.0
 11
736.75
 21
-54.292893218813
 31
0.0
  0
ARC
  5
29D
330
1F
100
AcDbEntity
  8
Kontur
  6
AUSGEZOGEN
 62
     7
370
    25
100
AcDbCircle
 10
744.75
 20
-72.0
 30
0.0
 40
1.0
100
AcDbArc
 50
180.0
 51
0.0
  0
LINE
  5
29E
330
1F
100
AcDbEntity
  8
Kontur
  6
AUSGEZOGEN
 62
     7
370
    25
100
AcDbLine
 10
745.75
 20
-61.292893218813
 30
0.0
 11
745.75
 21
-72.0
 31
0.0
  0
LINE
  5
29F
330
1F
100
AcDbEntity
  8
Kontur
  6
AUSGEZOGEN
 62
     7
370
    25
100
AcDbLine
 10
759.75
 20
-61.292893218813
 30
0.0
 11
759.75
 21
-72.0
 31
0.0
  0
LINE
  5
2A0
330
1F
100
AcDbEntity
  8
Kontur
  6
AUSGEZOGEN
 62
     7
370
    25
100
AcDbLine
 10
745.75
 20
-61.292893218813
 30
0.0
 11
752.75
 21
-54.292893218813
 31
0.0
  0
LINE
  5
2A1
330
1F
100
AcDbEntity
  8
Kontur
  6
AUSGEZOGEN
 62
     7
370
    25
100
AcDbLine
 10
759.75
 20
-61.292893218813
 30
0.0
 11
752.75
 21
-54.292893218813
 31
0.0
  0
ARC
  5
2A2
330
1F
100
AcDbEntity
  8
Kontur
  6
AUSGEZOGEN
 62
     7
370
    25
100
AcDbCircle
 10
760.75
 20
-72.0
 30
0.0
 40
1.0
100
AcDbArc
 50
180.0
 51
0.0
  0
LINE
  5
2A3
330
1F
100
AcDbEntity
  8
Kontur
  6
AUSGEZOGEN
 62
     7
370
    25
100
AcDbLine
 10
761.75
 20
-61.292893218813
 30
0.0
 11
761.75
 21
-72.0
 31
0.0
  0
LINE
  5
2A4
330
1F
100
AcDbEntity
  8
Kontur
  6
AUSGEZOGEN
 62
     7
370
    25
100
AcDbLine
 10
775.75
 20
-61.292893218813
 30
0.0
 11
775.75
 21
-72.0
 31
0.0
  0
LINE
  5
2A5
330
1F
100
AcDbEntity
  8
Kontur
  6
AUSGEZOGEN
 62
     7
370
    25
100
AcDbLine
 10
761.75
 20
-61.292893218813
 30
0.0
 11
768.75
 21
-54.292893218813
 31
0.0
  0
LINE
  5
2A6
330
1F
100
AcDbEntity
  8
Kontur
  6
AUSGEZOGEN
 62
     7
370
    25
100
AcDbLine
 10
775.75
 20
-61.292893218813
 30
0.0
 11
768.75
 21
-54.292893218813
 31
0.0
  0
ARC
  5
2A7
330
1F
100
AcDbEntity
  8
Kontur
  6
AUSGEZOGEN
 62
     7
370
    25
100
AcDbCircle
 10
776.75
 20
-72.0
 30
0.0
 40
1.0
100
AcDbArc
 50
180.0
 51
0.0
  0
LINE
  5
2A8
330
1F
100
AcDbEntity
  8
Kontur
  6
AUSGEZOGEN
 62
     7
370
    25
100
AcDbLine
 10
777.75
 20
-61.292893218813
 30
0.0
 11
777.75
 21
-72.0
 31
0.0
  0
LINE
  5
2A9
330
1F
100
AcDbEntity
  8
Kontur
  6
AUSGEZOGEN
 62
     7
370
    25
100
AcDbLine
 10
791.75
 20
-61.292893218813
 30
0.0
 11
791.75
 21
-72.0
 31
0.0
  0
LINE
  5
2AA
330
1F
100
AcDbEntity
  8
Kontur
  6
AUSGEZOGEN
 62
     7
370
    25
100
AcDbLine
 10
777.75
 20
-61.292893218813
 30
0.0
 11
784.75
 21
-54.292893218813
 31
0.0
  0
LINE
  5
2AB
330
1F
100
AcDbEntity
  8
Kontur
  6
AUSGEZOGEN
 62
     7
370
    25
100
AcDbLine
 10
791.75
 20
-61.292893218813
 30
0.0
 11
784.75
 21
-54.292893218813
 31
0.0
  0
ARC
  5
2AC
330
1F
100
AcDbEntity
  8
Kontur
  6
AUSGEZOGEN
 62
     7
370
    25
100
AcDbCircle
 10
792.75
 20
-72.0
 30
0.0
 40
1.0
100
AcDbArc
 50
180.0
 51
0.0
  0
LINE
  5
2AD
330
1F
100
AcDbEntity
  8
Kontur
  6
AUSGEZOGEN
 62
     7
370
    25
100
AcDbLine
 10
793.75
 20
-61.292893218813
 30
0.0
 11
793.75
 21
-72.0
 31
0.0
  0
LINE
  5
2AE
330
1F
100
AcDbEntity
  8
Kontur
  6
AUSGEZOGEN
 62
     7
370
    25
100
AcDbLine
 10
807.75
 20
-61.292893218813
 30
0.0
 11
807.75
 21
-72.0
 31
0.0
  0
LINE
  5
2AF
330
1F
100
AcDbEntity
  8
Kontur
  6
AUSGEZOGEN
 62
     7
370
    25
100
AcDbLine
 10
793.75
 20
-61.292893218813
 30
0.0
 11
800.75
 21
-54.292893218813
 31
0.0
  0
LINE
  5
2B0
330
1F
100
AcDbEntity
  8
Kontur
  6
AUSGEZOGEN
 62
     7
370
    25
100
AcDbLine
 10
807.75
 20
-61.292893218813
 30
0.0
 11
800.75
 21
-54.292893218813
 31
0.0
  0
ARC
  5
2B1
330
1F
100
AcDbEntity
  8
Kontur
  6
AUSGEZOGEN
 62
     7
370
    25
100
AcDbCircle
 10
808.75
 20
-72.0
 30
0.0
 40
1.0
100
AcDbArc
 50
180.0
 51
0.0
  0
LINE
  5
2B2
330
1F
100
AcDbEntity
  8
Kontur
  6
AUSGEZOGEN
 62
     7
370
    25
100
AcDbLine
 10
467.0
 20
-85.3
 30
0.0
 11
1095.75
 21
-85.3
 31
0.0
  0
LINE
  5
2B3
330
1F
100
AcDbEntity
  8
Kontur
  6
AUSGEZOGEN
 62
     7
370
    25
100
AcDbLine
 10
471.75
 20
-61.292893218813
 30
0.0
 11
464.75
 21
-54.292893218813
 31
0.0
  0
LINE
  5
2B4
330
1F
100
AcDbEntity
  8
Kontur
  6
AUSGEZOGEN
 62
     7
370
    25
100
AcDbLine
 10
809.75
 20
-61.292893218813
 30
0.0
 11
809.75
 21
-72.0
 31
0.0
  0
LINE
  5
2B5
330
1F
100
AcDbEntity
  8
Kontur
  6
AUSGEZOGEN
 62
     7
370
    25
100
AcDbLine
 10
823.75
 20
-61.292893218813
 30
0.0
 11
823.75
 21
-72.0
 31
0.0
  0
ARC
  5
2B6
330
1F
100
AcDbEntity
  8
Kontur
  6
AUSGEZOGEN
 62
     7
370
    25
100
AcDbCircle
 10
824.75
 20
-72.0
 30
0.0
 40
1.0
100
AcDbArc
 50
180.0
 51
0.0
  0
LINE
  5
2B7
330
1F
100
AcDbEntity
  8
Kontur
  6
AUSGEZOGEN
 62
     7
370
    25
100
AcDbLine
 10
825.75
 20
-61.292893218813
 30
0.0
 11
825.75
 21
-72.0
 31
0.0
  0
LINE
  5
2B8
330
1F
100
AcDbEntity
  8
Kontur
  6
AUSGEZOGEN
 62
     7
370
    25
100
AcDbLine
 10
839.75
 20
-61.292893218813
 30
0.0
 11
839.75
 21
-72.0
 31
0.0
  0
LINE
  5
2B9
330
1F
100
AcDbEntity
  8
Kontur
  6
AUSGEZOGEN
 62
     7
370
    25
100
AcDbLine
 10
809.75
 20
-61.292893218813
 30
0.0
 11
816.75
 21
-54.292893218813
 31
0.0
  0
LINE
  5
2BA
330
1F
100
AcDbEntity
  8
Kontur
  6
AUSGEZOGEN
 62
     7
370
    25
100
AcDbLine
 10
823.75
 20
-61.292893218813
 30
0.0
 11
816.75
 21
-54.292893218813
 31
0.0
  0
LINE
  5
2BB
330
1F
100
AcDbEntity
  8
Kontur
  6
AUSGEZOGEN
 62
     7
370
    25
100
AcDbLine
 10
825.75
 20
-61.292893218813
 30
0.0
 11
832.75
 21
-54.292893218813
 31
0.0
  0
LINE
  5
2BC
330
1F
100
AcDbEntity
  8
Kontur
  6
AUSGEZOGEN
 62
     7
370
    25
100
AcDbLine
 10
839.75
 20
-61.292893218813
 30
0.0
 11
832.75
 21
-54.292893218813
 31
0.0
  0
ARC
  5
2BD
330
1F
100
AcDbEntity
  8
Kontur
  6
AUSGEZOGEN
 62
     7
370
    25
100
AcDbCircle
 10
840.75
 20
-72.0
 30
0.0
 40
1.0
100
AcDbArc
 50
180.0
 51
0.0
  0
LINE
  5
2BE
330
1F
100
AcDbEntity
  8
Kontur
  6
AUSGEZOGEN
 62
     7
370
    25
100
AcDbLine
 10
841.75
 20
-61.292893218813
 30
0.0
 11
841.75
 21
-72.0
 31
0.0
  0
LINE
  5
2BF
330
1F
100
AcDbEntity
  8
Kontur
  6
AUSGEZOGEN
 62
     7
370
    25
100
AcDbLine
 10
855.75
 20
-61.292893218813
 30
0.0
 11
855.75
 21
-72.0
 31
0.0
  0
LINE
  5
2C0
330
1F
100
AcDbEntity
  8
Kontur
  6
AUSGEZOGEN
 62
     7
370
    25
100
AcDbLine
 10
841.75
 20
-61.292893218813
 30
0.0
 11
848.75
 21
-54.292893218813
 31
0.0
  0
LINE
  5
2C1
330
1F
100
AcDbEntity
  8
Kontur
  6
AUSGEZOGEN
 62
     7
370
    25
100
AcDbLine
 10
855.75
 20
-61.292893218813
 30
0.0
 11
848.75
 21
-54.292893218813
 31
0.0
  0
ARC
  5
2C2
330
1F
100
AcDbEntity
  8
Kontur
  6
AUSGEZOGEN
 62
     7
370
    25
100
AcDbCircle
 10
856.75
 20
-72.0
 30
0.0
 40
1.0
100
AcDbArc
 50
180.0
 51
0.0
  0
LINE
  5
2C3
330
1F
100
AcDbEntity
  8
Kontur
  6
AUSGEZOGEN
 62
     7
370
    25
100
AcDbLine
 10
857.75
 20
-61.292893218813
 30
0.0
 11
857.75
 21
-72.0
 31
0.0
  0
LINE
  5
2C4
330
1F
100
AcDbEntity
  8
Kontur
  6
AUSGEZOGEN
 62
     7
370
    25
100
AcDbLine
 10
871.75
 20
-61.292893218813
 30
0.0
 11
871.75
 21
-72.0
 31
0.0
  0
LINE
  5
2C5
330
1F
100
AcDbEntity
  8
Kontur
  6
AUSGEZOGEN
 62
     7
370
    25
100
AcDbLine
 10
857.75
 20
-61.292893218813
 30
0.0
 11
864.75
 21
-54.292893218813
 31
0.0
  0
LINE
  5
2C6
330
1F
100
AcDbEntity
  8
Kontur
  6
AUSGEZOGEN
 62
     7
370
    25
100
AcDbLine
 10
871.75
 20
-61.292893218813
 30
0.0
 11
864.75
 21
-54.292893218813
 31
0.0
  0
ARC
  5
2C7
330
1F
100
AcDbEntity
  8
Kontur
  6
AUSGEZOGEN
 62
     7
370
    25
100
AcDbCircle
 10
872.75
 20
-72.0
 30
0.0
 40
1.0
100
AcDbArc
 50
180.0
 51
0.0
  0
LINE
  5
2C8
330
1F
100
AcDbEntity
  8
Kontur
  6
AUSGEZOGEN
 62
     7
370
    25
100
AcDbLine
 10
873.75
 20
-61.292893218813
 30
0.0
 11
873.75
 21
-72.0
 31
0.0
  0
LINE
  5
2C9
330
1F
100
AcDbEntity
  8
Kontur
  6
AUSGEZOGEN
 62
     7
370
    25
100
AcDbLine
 10
887.75
 20
-61.292893218813
 30
0.0
 11
887.75
 21
-72.0
 31
0.0
  0
LINE
  5
2CA
330
1F
100
AcDbEntity
  8
Kontur
  6
AUSGEZOGEN
 62
     7
370
    25
100
AcDbLine
 10
873.75
 20
-61.292893218813
 30
0.0
 11
880.75
 21
-54.292893218813
 31
0.0
  0
LINE
  5
2CB
330
1F
100
AcDbEntity
  8
Kontur
  6
AUSGEZOGEN
 62
     7
370
    25
100
AcDbLine
 10
887.75
 20
-61.292893218813
 30
0.0
 11
880.75
 21
-54.292893218813
 31
0.0
  0
ARC
  5
2CC
330
1F
100
AcDbEntity
  8
Kontur
  6
AUSGEZOGEN
 62
     7
370
    25
100
AcDbCircle
 10
888.75
 20
-72.0
 30
0.0
 40
1.0
100
AcDbArc
 50
180.0
 51
0.0
  0
LINE
  5
2CD
330
1F
100
AcDbEntity
  8
Kontur
  6
AUSGEZOGEN
 62
     7
370
    25
100
AcDbLine
 10
889.75
 20
-61.292893218813
 30
0.0
 11
889.75
 21
-72.0
 31
0.0
  0
LINE
  5
2CE
330
1F
100
AcDbEntity
  8
Kontur
  6
AUSGEZOGEN
 62
     7
370
    25
100
AcDbLine
 10
903.75
 20
-61.292893218813
 30
0.0
 11
903.75
 21
-72.0
 31
0.0
  0
LINE
  5
2CF
330
1F
100
AcDbEntity
  8
Kontur
  6
AUSGEZOGEN
 62
     7
370
    25
100
AcDbLine
 10
889.75
 20
-61.292893218813
 30
0.0
 11
896.75
 21
-54.292893218813
 31
0.0
  0
LINE
  5
2D0
330
1F
100
AcDbEntity
  8
Kontur
  6
AUSGEZOGEN
 62
     7
370
    25
100
AcDbLine
 10
903.75
 20
-61.292893218813
 30
0.0
 11
896.75
 21
-54.292893218813
 31
0.0
  0
ARC
  5
2D1
330
1F
100
AcDbEntity
  8
Kontur
  6
AUSGEZOGEN
 62
     7
370
    25
100
AcDbCircle
 10
904.75
 20
-72.0
 30
0.0
 40
1.0
100
AcDbArc
 50
180.0
 51
0.0
  0
LINE
  5
2D2
330
1F
100
AcDbEntity
  8
Kontur
  6
AUSGEZOGEN
 62
     7
370
    25
100
AcDbLine
 10
905.75
 20
-61.292893218813
 30
0.0
 11
905.75
 21
-72.0
 31
0.0
  0
LINE
  5
2D3
330
1F
100
AcDbEntity
  8
Kontur
  6
AUSGEZOGEN
 62
     7
370
    25
100
AcDbLine
 10
919.75
 20
-61.292893218813
 30
0.0
 11
919.75
 21
-72.0
 31
0.0
  0
LINE
  5
2D4
330
1F
100
AcDbEntity
  8
Kontur
  6
AUSGEZOGEN
 62
     7
370
    25
100
AcDbLine
 10
905.75
 20
-61.292893218813
 30
0.0
 11
912.75
 21
-54.292893218813
 31
0.0
  0
LINE
  5
2D5
330
1F
100
AcDbEntity
  8
Kontur
  6
AUSGEZOGEN
 62
     7
370
    25
100
AcDbLine
 10
919.75
 20
-61.292893218813
 30
0.0
 11
912.75
 21
-54.292893218813
 31
0.0
  0
ARC
  5
2D6
330
1F
100
AcDbEntity
  8
Kontur
  6
AUSGEZOGEN
 62
     7
370
    25
100
AcDbCircle
 10
920.75
 20
-72.0
 30
0.0
 40
1.0
100
AcDbArc
 50
180.0
 51
0.0
  0
LINE
  5
2D7
330
1F
100
AcDbEntity
  8
Kontur
  6
AUSGEZOGEN
 62
     7
370
    25
100
AcDbLine
 10
921.75
 20
-61.292893218813
 30
0.0
 11
921.75
 21
-72.0
 31
0.0
  0
LINE
  5
2D8
330
1F
100
AcDbEntity
  8
Kontur
  6
AUSGEZOGEN
 62
     7
370
    25
100
AcDbLine
 10
935.75
 20
-61.292893218813
 30
0.0
 11
935.75
 21
-72.0
 31
0.0
  0
LINE
  5
2D9
330
1F
100
AcDbEntity
  8
Kontur
  6
AUSGEZOGEN
 62
     7
370
    25
100
AcDbLine
 10
921.75
 20
-61.292893218813
 30
0.0
 11
928.75
 21
-54.292893218813
 31
0.0
  0
LINE
  5
2DA
330
1F
100
AcDbEntity
  8
Kontur
  6
AUSGEZOGEN
 62
     7
370
    25
100
AcDbLine
 10
935.75
 20
-61.292893218813
 30
0.0
 11
928.75
 21
-54.292893218813
 31
0.0
  0
ARC
  5
2DB
330
1F
100
AcDbEntity
  8
Kontur
  6
AUSGEZOGEN
 62
     7
370
    25
100
AcDbCircle
 10
936.75
 20
-72.0
 30
0.0
 40
1.0
100
AcDbArc
 50
180.0
 51
0.0
  0
LINE
  5
2DC
330
1F
100
AcDbEntity
  8
Kontur
  6
AUSGEZOGEN
 62
     7
370
    25
100
AcDbLine
 10
937.75
 20
-61.292893218813
 30
0.0
 11
937.75
 21
-72.0
 31
0.0
  0
LINE
  5
2DD
330
1F
100
AcDbEntity
  8
Kontur
  6
AUSGEZOGEN
 62
     7
370
    25
100
AcDbLine
 10
951.75
 20
-61.292893218813
 30
0.0
 11
951.75
 21
-72.0
 31
0.0
  0
LINE
  5
2DE
330
1F
100
AcDbEntity
  8
Kontur
  6
AUSGEZOGEN
 62
     7
370
    25
100
AcDbLine
 10
937.75
 20
-61.292893218813
 30
0.0
 11
944.75
 21
-54.292893218813
 31
0.0
  0
LINE
  5
2DF
330
1F
100
AcDbEntity
  8
Kontur
  6
AUSGEZOGEN
 62
     7
370
    25
100
AcDbLine
 10
951.75
 20
-61.292893218813
 30
0.0
 11
944.75
 21
-54.292893218813
 31
0.0
  0
ARC
  5
2E0
330
1F
100
AcDbEntity
  8
Kontur
  6
AUSGEZOGEN
 62
     7
370
    25
100
AcDbCircle
 10
952.75
 20
-72.0
 30
0.0
 40
1.0
100
AcDbArc
 50
180.0
 51
0.0
  0
LINE
  5
2E1
330
1F
100
AcDbEntity
  8
Kontur
  6
AUSGEZOGEN
 62
     7
370
    25
100
AcDbLine
 10
953.75
 20
-61.292893218813
 30
0.0
 11
953.75
 21
-72.0
 31
0.0
  0
LINE
  5
2E2
330
1F
100
AcDbEntity
  8
Kontur
  6
AUSGEZOGEN
 62
     7
370
    25
100
AcDbLine
 10
967.75
 20
-61.292893218813
 30
0.0
 11
967.75
 21
-72.0
 31
0.0
  0
LINE
  5
2E3
330
1F
100
AcDbEntity
  8
Kontur
  6
AUSGEZOGEN
 62
     7
370
    25
100
AcDbLine
 10
953.75
 20
-61.292893218813
 30
0.0
 11
960.75
 21
-54.292893218813
 31
0.0
  0
LINE
  5
2E4
330
1F
100
AcDbEntity
  8
Kontur
  6
AUSGEZOGEN
 62
     7
370
    25
100
AcDbLine
 10
967.75
 20
-61.292893218813
 30
0.0
 11
960.75
 21
-54.292893218813
 31
0.0
  0
ARC
  5
2E5
330
1F
100
AcDbEntity
  8
Kontur
  6
AUSGEZOGEN
 62
     7
370
    25
100
AcDbCircle
 10
968.75
 20
-72.0
 30
0.0
 40
1.0
100
AcDbArc
 50
180.0
 51
0.0
  0
LINE
  5
2E6
330
1F
100
AcDbEntity
  8
Kontur
  6
AUSGEZOGEN
 62
     7
370
    25
100
AcDbLine
 10
969.75
 20
-61.292893218813
 30
0.0
 11
969.75
 21
-72.0
 31
0.0
  0
LINE
  5
2E7
330
1F
100
AcDbEntity
  8
Kontur
  6
AUSGEZOGEN
 62
     7
370
    25
100
AcDbLine
 10
983.75
 20
-61.292893218813
 30
0.0
 11
983.75
 21
-72.0
 31
0.0
  0
LINE
  5
2E8
330
1F
100
AcDbEntity
  8
Kontur
  6
AUSGEZOGEN
 62
     7
370
    25
100
AcDbLine
 10
969.75
 20
-61.292893218813
 30
0.0
 11
976.75
 21
-54.292893218813
 31
0.0
  0
LINE
  5
2E9
330
1F
100
AcDbEntity
  8
Kontur
  6
AUSGEZOGEN
 62
     7
370
    25
100
AcDbLine
 10
983.75
 20
-61.292893218813
 30
0.0
 11
976.75
 21
-54.292893218813
 31
0.0
  0
ARC
  5
2EA
330
1F
100
AcDbEntity
  8
Kontur
  6
AUSGEZOGEN
 62
     7
370
    25
100
AcDbCircle
 10
984.75
 20
-72.0
 30
0.0
 40
1.0
100
AcDbArc
 50
180.0
 51
0.0
  0
LINE
  5
2EB
330
1F
100
AcDbEntity
  8
Kontur
  6
AUSGEZOGEN
 62
     7
370
    25
100
AcDbLine
 10
985.75
 20
-61.292893218813
 30
0.0
 11
985.75
 21
-72.0
 31
0.0
  0
LINE
  5
2EC
330
1F
100
AcDbEntity
  8
Kontur
  6
AUSGEZOGEN
 62
     7
370
    25
100
AcDbLine
 10
999.75
 20
-61.292893218813
 30
0.0
 11
999.75
 21
-72.0
 31
0.0
  0
LINE
  5
2ED
330
1F
100
AcDbEntity
  8
Kontur
  6
AUSGEZOGEN
 62
     7
370
    25
100
AcDbLine
 10
985.75
 20
-61.292893218813
 30
0.0
 11
992.75
 21
-54.292893218813
 31
0.0
  0
LINE
  5
2EE
330
1F
100
AcDbEntity
  8
Kontur
  6
AUSGEZOGEN
 62
     7
370
    25
100
AcDbLine
 10
999.75
 20
-61.292893218813
 30
0.0
 11
992.75
 21
-54.292893218813
 31
0.0
  0
ARC
  5
2EF
330
1F
100
AcDbEntity
  8
Kontur
  6
AUSGEZOGEN
 62
     7
370
    25
100
AcDbCircle
 10
1000.75
 20
-72.0
 30
0.0
 40
1.0
100
AcDbArc
 50
180.0
 51
0.0
  0
LINE
  5
2F0
330
1F
100
AcDbEntity
  8
Kontur
  6
AUSGEZOGEN
 62
     7
370
    25
100
AcDbLine
 10
1001.75
 20
-61.292893218813
 30
0.0
 11
1001.75
 21
-72.0
 31
0.0
  0
LINE
  5
2F1
330
1F
100
AcDbEntity
  8
Kontur
  6
AUSGEZOGEN
 62
     7
370
    25
100
AcDbLine
 10
1015.75
 20
-61.292893218813
 30
0.0
 11
1015.75
 21
-72.0
 31
0.0
  0
LINE
  5
2F2
330
1F
100
AcDbEntity
  8
Kontur
  6
AUSGEZOGEN
 62
     7
370
    25
100
AcDbLine
 10
1001.75
 20
-61.292893218813
 30
0.0
 11
1008.75
 21
-54.292893218813
 31
0.0
  0
LINE
  5
2F3
330
1F
100
AcDbEntity
  8
Kontur
  6
AUSGEZOGEN
 62
     7
370
    25
100
AcDbLine
 10
1015.75
 20
-61.292893218813
 30
0.0
 11
1008.75
 21
-54.292893218813
 31
0.0
  0
ARC
  5
2F4
330
1F
100
AcDbEntity
  8
Kontur
  6
AUSGEZOGEN
 62
     7
370
    25
100
AcDbCircle
 10
1016.75
 20
-72.0
 30
0.0
 40
1.0
100
AcDbArc
 50
180.0
 51
0.0
  0
LINE
  5
2F5
330
1F
100
AcDbEntity
  8
Kontur
  6
AUSGEZOGEN
 62
     7
370
    25
100
AcDbLine
 10
1017.75
 20
-61.292893218813
 30
0.0
 11
1017.75
 21
-72.0
 31
0.0
  0
LINE
  5
2F6
330
1F
100
AcDbEntity
  8
Kontur
  6
AUSGEZOGEN
 62
     7
370
    25
100
AcDbLine
 10
1031.75
 20
-61.292893218813
 30
0.0
 11
1031.75
 21
-72.0
 31
0.0
  0
LINE
  5
2F7
330
1F
100
AcDbEntity
  8
Kontur
  6
AUSGEZOGEN
 62
     7
370
    25
100
AcDbLine
 10
1017.75
 20
-61.292893218813
 30
0.0
 11
1024.75
 21
-54.292893218813
 31
0.0
  0
LINE
  5
2F8
330
1F
100
AcDbEntity
  8
Kontur
  6
AUSGEZOGEN
 62
     7
370
    25
100
AcDbLine
 10
1031.75
 20
-61.292893218813
 30
0.0
 11
1024.75
 21
-54.292893218813
 31
0.0
  0
ARC
  5
2F9
330
1F
100
AcDbEntity
  8
Kontur
  6
AUSGEZOGEN
 62
     7
370
    25
100
AcDbCircle
 10
1032.75
 20
-72.0
 30
0.0
 40
1.0
100
AcDbArc
 50
180.0
 51
0.0
  0
LINE
  5
2FA
330
1F
100
AcDbEntity
  8
Kontur
  6
AUSGEZOGEN
 62
     7
370
    25
100
AcDbLine
 10
1033.75
 20
-61.292893218813
 30
0.0
 11
1033.75
 21
-72.0
 31
0.0
  0
LINE
  5
2FB
330
1F
100
AcDbEntity
  8
Kontur
  6
AUSGEZOGEN
 62
     7
370
    25
100
AcDbLine
 10
1047.75
 20
-61.292893218813
 30
0.0
 11
1047.75
 21
-72.0
 31
0.0
  0
LINE
  5
2FC
330
1F
100
AcDbEntity
  8
Kontur
  6
AUSGEZOGEN
 62
     7
370
    25
100
AcDbLine
 10
1033.75
 20
-61.292893218813
 30
0.0
 11
1040.75
 21
-54.292893218813
 31
0.0
  0
LINE
  5
2FD
330
1F
100
AcDbEntity
  8
Kontur
  6
AUSGEZOGEN
 62
     7
370
    25
100
AcDbLine
 10
1047.75
 20
-61.292893218813
 30
0.0
 11
1040.75
 21
-54.292893218813
 31
0.0
  0
ARC
  5
2FE
330
1F
100
AcDbEntity
  8
Kontur
  6
AUSGEZOGEN
 62
     7
370
    25
100
AcDbCircle
 10
1048.75
 20
-72.0
 30
0.0
 40
1.0
100
AcDbArc
 50
180.0
 51
0.0
  0
LINE
  5
2FF
330
1F
100
AcDbEntity
  8
Kontur
  6
AUSGEZOGEN
 62
     7
370
    25
100
AcDbLine
 10
1049.75
 20
-61.292893218813
 30
0.0
 11
1049.75
 21
-72.0
 31
0.0
  0
LINE
  5
300
330
1F
100
AcDbEntity
  8
Kontur
  6
AUSGEZOGEN
 62
     7
370
    25
100
AcDbLine
 10
1063.75
 20
-61.292893218813
 30
0.0
 11
1063.75
 21
-72.0
 31
0.0
  0
LINE
  5
301
330
1F
100
AcDbEntity
  8
Kontur
  6
AUSGEZOGEN
 62
     7
370
    25
100
AcDbLine
 10
1049.75
 20
-61.292893218813
 30
0.0
 11
1056.75
 21
-54.292893218813
 31
0.0
  0
LINE
  5
302
330
1F
100
AcDbEntity
  8
Kontur
  6
AUSGEZOGEN
 62
     7
370
    25
100
AcDbLine
 10
1063.75
 20
-61.292893218813
 30
0.0
 11
1056.75
 21
-54.292893218813
 31
0.0
  0
ARC
  5
303
330
1F
100
AcDbEntity
  8
Kontur
  6
AUSGEZOGEN
 62
     7
370
    25
100
AcDbCircle
 10
1064.75
 20
-72.0
 30
0.0
 40
1.0
100
AcDbArc
 50
180.0
 51
0.0
  0
LINE
  5
304
330
1F
100
AcDbEntity
  8
Kontur
  6
AUSGEZOGEN
 62
     7
370
    25
100
AcDbLine
 10
1065.75
 20
-61.292893218813
 30
0.0
 11
1065.75
 21
-72.0
 31
0.0
  0
LINE
  5
305
330
1F
100
AcDbEntity
  8
Kontur
  6
AUSGEZOGEN
 62
     7
370
    25
100
AcDbLine
 10
1079.75
 20
-61.292893218813
 30
0.0
 11
1079.75
 21
-72.0
 31
0.0
  0
LINE
  5
306
330
1F
100
AcDbEntity
  8
Kontur
  6
AUSGEZOGEN
 62
     7
370
    25
100
AcDbLine
 10
1065.75
 20
-61.292893218813
 30
0.0
 11
1072.75
 21
-54.292893218813
 31
0.0
  0
LINE
  5
307
330
1F
100
AcDbEntity
  8
Kontur
  6
AUSGEZOGEN
 62
     7
370
    25
100
AcDbLine
 10
1079.75
 20
-61.292893218813
 30
0.0
 11
1072.75
 21
-54.292893218813
 31
0.0
  0
ARC
  5
308
330
1F
100
AcDbEntity
  8
Kontur
  6
AUSGEZOGEN
 62
     7
370
    25
100
AcDbCircle
 10
1080.75
 20
-72.0
 30
0.0
 40
1.0
100
AcDbArc
 50
180.0
 51
0.0
  0
LINE
  5
309
330
1F
100
AcDbEntity
  8
Kontur
  6
AUSGEZOGEN
 62
     7
370
    25
100
AcDbLine
 10
1081.75
 20
-61.292893218813
 30
0.0
 11
1081.75
 21
-72.0
 31
0.0
  0
LINE
  5
30A
330
1F
100
AcDbEntity
  8
Kontur
  6
AUSGEZOGEN
 62
     7
370
    25
100
AcDbLine
 10
1095.75
 20
-61.292893218813
 30
0.0
 11
1095.75
 21
-85.3
 31
0.0
  0
LINE
  5
30B
330
1F
100
AcDbEntity
  8
Kontur
  6
AUSGEZOGEN
 62
     7
370
    25
100
AcDbLine
 10
1081.75
 20
-61.292893218813
 30
0.0
 11
1088.75
 21
-54.292893218813
 31
0.0
  0
LINE
  5
30C
330
1F
100
AcDbEntity
  8
Kontur
  6
AUSGEZOGEN
 62
     7
370
    25
100
AcDbLine
 10
1095.75
 20
-61.292893218813
 30
0.0
 11
1088.75
 21
-54.292893218813
 31
0.0
  0
DIMENSION
  5
317
330
1F
100
AcDbEntity
  8
Bemassung
  6
AUSGEZOGEN
 62
     1
420
 16711680
370
    18
100
AcDbDimension
280
     0
  2
*D4
 10
95.75
 20
-45.0
 30
0.0
 11
595.75
 21
-45.0
 31
0.0
 70
    32
 71
     5
 42
-1.0
 73
     0
 74
     0
 75
     0
  3
ISO-25
100
AcDbAlignedDimension
 13
1095.75
 23
-61.292893218813
 33
0.0
 14
95.75
 24
-58.542893218813
 34
0.0
 50
180.0
100
AcDbRotatedDimension
1001
ACAD
1000
DSTYLE
1002
{
1070
     3
1000
<>
1070
   340
1005
5F
1070
    44
1040
2.5
1070
   280
1070
     0
1070
    77
1070
     0
1070
    78
1070
     8
1070
   179
1070
     2
1070
   271
1070
     2
1070
   344
1005
E1
1070
   343
1005
E1
1070
   173
1070
     1
1070
    41
1040
3.5
1070
   147
1040
0.5
1070
   140
1040
3.5
1070
   178
1070
     1
1070
   177
1070
     1
1070
   176
1070
     1
1002
}
  0
LINE
  5
318
330
1F
100
AcDbEntity
  8
Kontur
  6
AUSGEZOGEN
 62
     7
370
    25
100
AcDbLine
 10
103.75
 20
-61.292893218813
 30
0.0
 11
103.75
 21
-72.0
 31
0.0
  0
ARC
  5
319
330
1F
100
AcDbEntity
  8
Kontur
  6
AUSGEZOGEN
 62
     7
370
    25
100
AcDbCircle
 10
104.75
 20
-72.0
 30
0.0
 40
1.0
100
AcDbArc
 50
180.0
 51
0.0
  0
LINE
  5
31A
330
1F
100
AcDbEntity
  8
Kontur
  6
AUSGEZOGEN
 62
     7
370
    25
100
AcDbLine
 10
105.75
 20
-61.292893218813
 30
0.0
 11
105.75
 21
-72.0
 31
0.0
  0
LINE
  5
31B
330
1F
100
AcDbEntity
  8
Kontur
  6
AUSGEZOGEN
 62
     7
370
    25
100
AcDbLine
 10
119.75
 20
-61.292893218813
 30
0.0
 11
119.75
 21
-72.0
 31
0.0
  0
LINE
  5
31C
330
1F
100
AcDbEntity
  8
Kontur
  6
AUSGEZOGEN
 62
     7
370
    25
100
AcDbLine
 10
95.75
 20
-55.292893218813
 30
0.0
 11
96.75
 21
-54.292893218813
 31
0.0
  0
LINE
  5
31D
330
1F
100
AcDbEntity
  8
Kontur
  6
AUSGEZOGEN
 62
     7
370
    25
100
AcDbLine
 10
103.75
 20
-61.292893218813
 30
0.0
 11
96.75
 21
-54.292893218813
 31
0.0
  0
LINE
  5
31E
330
1F
100
AcDbEntity
  8
Kontur
  6
AUSGEZOGEN
 62
     7
370
    25
100
AcDbLine
 10
105.75
 20
-61.292893218813
 30
0.0
 11
112.75
 21
-54.292893218813
 31
0.0
  0
LINE
  5
31F
330
1F
100
AcDbEntity
  8
Kontur
  6
AUSGEZOGEN
 62
     7
370
    25
100
AcDbLine
 10
119.75
 20
-61.292893218813
 30
0.0
 11
112.75
 21
-54.292893218813
 31
0.0
  0
ARC
  5
320
330
1F
100
AcDbEntity
  8
Kontur
  6
AUSGEZOGEN
 62
     7
370
    25
100
AcDbCircle
 10
120.75
 20
-72.0
 30
0.0
 40
1.0
100
AcDbArc
 50
180.0
 51
0.0
  0
LINE
  5
321
330
1F
100
AcDbEntity
  8
Kontur
  6
AUSGEZOGEN
 62
     3
420
    65280
370
    18
100
AcDbLine
 10
1095.75
 20
-85.3
 30
0.0
 11
1095.75
 21
-90.3
 31
0.0
  0
LINE
  5
322
330
1F
100
AcDbEntity
  8
Kontur
  6
AUSGEZOGEN
 62
     3
420
    65280
370
    18
100
AcDbLine
 10
762.75
 20
-85.3
 30
0.0
 11
762.75
 21
-90.3
 31
0.0
  0
LINE
  5
323
330
1F
100
AcDbEntity
  8
Kontur
  6
AUSGEZOGEN
 62
     3
420
    65280
370
    18
100
AcDbLine
 10
428.75
 20
-85.3
 30
0.0
 11
428.75
 21
-90.3
 31
0.0
  0
TEXT
  5
324
330
1F
100
AcDbEntity
  8
Text
  6
AUSGEZOGEN
 62
     3
420
    65280
370
    18
100
AcDbText
 10
101.699997842312
 20
-148.5
 30
0.0
 40
7.0
  1
>1400 ca. alle 300-350mm festprogrammierte Microstege setzen
 41
0.972289167768
  7
tfont1
 72
     5
 11
478.300002157688
 21
-148.5
 31
0.0
100
AcDbText
  0
ENDSEC
  0
SECTION
  2
OBJECTS
  0
DICTIONARY
  5
C
330
0
100
AcDbDictionary
281
     1
  3
ACAD_DETAILVIEWSTYLE
350
35D
  3
ACAD_GROUP
350
D
  3
ACAD_LAYOUT
350
1A
  3
ACAD_MATERIAL
350
43
  3
ACAD_MLEADERSTYLE
350
5B
  3
ACAD_MLINESTYLE
350
17
  3
ACAD_PLOTSETTINGS
350
19
  3
ACAD_PLOTSTYLENAME
350
E
  3
ACAD_SCALELIST
350
47
  3
ACAD_SECTIONVIEWSTYLE
350
35E
  3
ACAD_TABLESTYLE
350
59
  3
ACAD_VISUALSTYLE
350
2A
  3
ACAD_WIPEOUT_VARS
350
35A
  3
ACDB_RECOMPOSE_DATA
350
359
  3
AcDbVariableDictionary
350
325
  0
SUN
  5
5D
330
29
100
AcDbSun
 90
        1
290
     0
 63
     7
421
 16777215
 40
1.0
291
     1
 91
  2455826
 92
 54000000
292
     0
 70
     2
 71
   256
280
     1
  0
DICTIONARY
  5
35D
102
{ACAD_REACTORS
330
C
102
}
330
C
100
AcDbDictionary
281
     1
  0
DICTIONARY
  5
D
102
{ACAD_REACTORS
330
C
102
}
330
C
100
AcDbDictionary
281
     1
  0
DICTIONARY
  5
1A
102
{ACAD_REACTORS
330
C
102
}
330
C
100
AcDbDictionary
281
     1
  3
Layout1
350
1E
  3
Layout2
350
26
  3
Model
350
22
  0
DICTIONARY
  5
43
102
{ACAD_REACTORS
330
C
102
}
330
C
100
AcDbDictionary
281
     1
  3
ByBlock
350
45
  3
ByLayer
350
44
  3
Global
350
46
  0
DICTIONARY
  5
5B
102
{ACAD_REACTORS
330
C
102
}
330
C
100
AcDbDictionary
281
     1
  3
Standard
350
5C
  0
DICTIONARY
  5
17
102
{ACAD_REACTORS
330
C
102
}
330
C
100
AcDbDictionary
281
     1
  3
Standard
350
18
  0
DICTIONARY
  5
19
102
{ACAD_REACTORS
330
C
102
}
330
C
100
AcDbDictionary
281
     1
  0
ACDBDICTIONARYWDFLT
  5
E
102
{ACAD_REACTORS
330
C
102
}
330
C
100
AcDbDictionary
281
     1
  3
Normal
350
F
100
AcDbDictionaryWithDefault
340
F
  0
DICTIONARY
  5
47
102
{ACAD_REACTORS
330
C
102
}
330
C
100
AcDbDictionary
281
     1
  3
A0
350
48
  3
A1
350
49
  3
A2
350
4A
  3
A3
350
4B
  3
A4
350
4C
  3
A5
350
4D
  3
A6
350
4E
  3
A7
350
4F
  3
A8
350
50
  3
A9
350
51
  3
B0
350
52
  3
B1
350
53
  3
B2
350
54
  3
B3
350
55
  3
B4
350
56
  3
B5
350
57
  3
B6
350
58
  0
DICTIONARY
  5
35E
102
{ACAD_REACTORS
330
C
102
}
330
C
100
AcDbDictionary
281
     1
  0
DICTIONARY
  5
59
102
{ACAD_REACTORS
330
C
102
}
330
C
100
AcDbDictionary
281
     1
  3
Standard
350
5A
  0
DICTIONARY
  5
2A
102
{ACAD_REACTORS
330
C
102
}
330
C
100
AcDbDictionary
281
     1
  3
2dWireframe
350
2F
  3
Basic
350
32
  3
Brighten
350
36
  3
ColorChange
350
3A
  3
Conceptual
350
34
  3
Dim
350
35
  3
EdgeColorOff
350
3D
  3
Facepattern
350
39
  3
Flat
350
2B
  3
FlatWithEdges
350
2C
  3
Gouraud
350
2D
  3
GouraudWithEdges
350
2E
  3
Hidden
350
31
  3
JitterOff
350
3B
  3
Linepattern
350
38
  3
OverhangOff
350
3C
  3
Realistic
350
33
  3
Shaded
350
42
  3
Shaded with edges
350
41
  3
Shades of Gray
350
3E
  3
Sketchy
350
3F
  3
Thicken
350
37
  3
Wireframe
350
30
  3
X-Ray
350
40
  0
WIPEOUTVARIABLES
  5
35A
102
{ACAD_REACTORS
330
C
102
}
330
C
100
AcDbWipeoutVariables
 70
     0
  0
XRECORD
  5
359
102
{ACAD_REACTORS
330
C
102
}
330
C
100
AcDbXrecord
280
     1
 90
        1
330
5A
  0
DICTIONARY
  5
325
102
{ACAD_REACTORS
330
C
102
}
330
C
100
AcDbDictionary
281
     1
  3
CANNOSCALE
350
326
  3
CENTEREXE
350
360
  3
CENTERLTYPEFILE
350
361
  3
CMLEADERSTYLE
350
35C
  3
CTABLESTYLE
350
35B
  3
WIPEOUTFRAME
350
35F
  0
LAYOUT
  5
1E
102
{ACAD_REACTORS
330
1A
102
}
330
1A
100
AcDbPlotSettings
  1

  2
none_device
  4

  6

 40
0.0
 41
0.0
 42
0.0
 43
0.0
 44
0.0
 45
0.0
 46
0.0
 47
0.0
 48
0.0
 49
0.0
140
0.0
141
0.0
142
1.0
143
1.0
 70
   688
 72
     1
 73
     0
 74
     5
  7

 75
    16
 76
     0
 77
     2
 78
   300
147
1.0
148
0.0
149
0.0
100
AcDbLayout
  1
Layout1
 70
     1
 71
     1
 10
0.0
 20
0.0
 11
420.0
 21
297.0
 12
0.0
 22
0.0
 32
0.0
 14
1.000000000000E+20
 24
1.000000000000E+20
 34
1.000000000000E+20
 15
-1.000000000000E+20
 25
-1.000000000000E+20
 35
-1.000000000000E+20
146
0.0
 13
0.0
 23
0.0
 33
0.0
 16
1.0
 26
0.0
 36
0.0
 17
0.0
 27
1.0
 37
0.0
 76
     0
330
1B
  0
LAYOUT
  5
26
102
{ACAD_REACTORS
330
1A
102
}
330
1A
100
AcDbPlotSettings
  1

  2
none_device
  4

  6

 40
0.0
 41
0.0
 42
0.0
 43
0.0
 44
0.0
 45
0.0
 46
0.0
 47
0.0
 48
0.0
 49
0.0
140
0.0
141
0.0
142
1.0
143
1.0
 70
   688
 72
     1
 73
     0
 74
     5
  7

 75
    16
 76
     0
 77
     2
 78
   300
147
1.0
148
0.0
149
0.0
100
AcDbLayout
  1
Layout2
 70
     1
 71
     2
 10
0.0
 20
0.0
 11
0.0
 21
0.0
 12
0.0
 22
0.0
 32
0.0
 14
0.0
 24
0.0
 34
0.0
 15
0.0
 25
0.0
 35
0.0
146
0.0
 13
0.0
 23
0.0
 33
0.0
 16
1.0
 26
0.0
 36
0.0
 17
0.0
 27
1.0
 37
0.0
 76
     0
330
23
  0
LAYOUT
  5
22
102
{ACAD_REACTORS
330
1A
102
}
330
1A
100
AcDbPlotSettings
  1

  2
none_device
  4
Letter_(8.50_x_11.00_Inches)
  6

 40
6.35
 41
6.35
 42
6.35000508
 43
6.35000508
 44
215.9
 45
279.4
 46
0.0
 47
0.0
 48
0.0
 49
0.0
140
0.0
141
0.0
142
1.0
143
1.0
 70
  1712
 72
     1
 73
     0
 74
     0
  7

 75
     0
 76
     0
 77
     2
 78
   300
147
1.0
148
0.0
149
0.0
100
AcDbLayout
  1
Model
 70
     1
 71
     0
 10
0.0
 20
0.0
 11
420.0
 21
297.0
 12
0.0
 22
0.0
 32
0.0
 14
45.75
 24
-254.989515984752
 34
0.0
 15
1145.75
 25
202.189515984752
 35
0.0
146
0.0
 13
0.0
 23
0.0
 33
0.0
 16
1.0
 26
0.0
 36
0.0
 17
0.0
 27
1.0
 37
0.0
 76
     0
330
1F
331
29
  0
MATERIAL
  5
45
102
{ACAD_REACTORS
330
43
102
}
330
43
100
AcDbMaterial
  1
ByBlock
 72
     1
 94
      127
  0
MATERIAL
  5
44
102
{ACAD_REACTORS
330
43
102
}
330
43
100
AcDbMaterial
  1
ByLayer
 72
     1
 94
      127
  0
MATERIAL
  5
46
102
{ACAD_REACTORS
330
43
102
}
330
43
100
AcDbMaterial
  1
Global
 72
     1
 94
      127
  0
MLEADERSTYLE
  5
5C
102
{ACAD_REACTORS
330
5B
102
}
330
5B
100
AcDbMLeaderStyle
179
     2
170
     2
171
     1
172
     0
 90
        2
 40
0.0
 41
0.0
173
     1
 91
-1056964608
340
14
 92
       -2
290
     1
 42
2.0
291
     1
 43
8.0
  3
Standard
341
0
 44
4.0
300

342
11
174
     1
178
     6
175
     1
176
     0
 93
-1056964608
 45
4.0
292
     0
297
     0
 46
4.0
343
0
 94
-1056964608
 47
1.0
 49
1.0
140
1.0
293
     1
141
0.0
294
     1
177
     0
142
1.0
295
     0
296
     0
143
3.75
271
     0
272
     9
273
     9
  0
MLINESTYLE
  5
18
102
{ACAD_REACTORS
330
17
102
}
330
17
100
AcDbMlineStyle
  2
Standard
 70
     0
  3

 62
   256
 51
90.0
 52
90.0
 71
     2
 49
0.5
 62
   256
  6
BYLAYER
 49
-0.5
 62
   256
  6
BYLAYER
  0
ACDBPLACEHOLDER
  5
F
102
{ACAD_REACTORS
330
E
102
}
330
E
  0
SCALE
  5
48
102
{ACAD_REACTORS
330
47
102
}
330
47
100
AcDbScale
 70
     0
300
1:1
140
1.0
141
1.0
290
     1
  0
SCALE
  5
49
102
{ACAD_REACTORS
330
47
102
}
330
47
100
AcDbScale
 70
     0
300
1:2
140
1.0
141
2.0
290
     0
  0
SCALE
  5
4A
102
{ACAD_REACTORS
330
47
102
}
330
47
100
AcDbScale
 70
     0
300
1:4
140
1.0
141
4.0
290
     0
  0
SCALE
  5
4B
102
{ACAD_REACTORS
330
47
102
}
330
47
100
AcDbScale
 70
     0
300
1:5
140
1.0
141
5.0
290
     0
  0
SCALE
  5
4C
102
{ACAD_REACTORS
330
47
102
}
330
47
100
AcDbScale
 70
     0
300
1:8
140
1.0
141
8.0
290
     0
  0
SCALE
  5
4D
102
{ACAD_REACTORS
330
47
102
}
330
47
100
AcDbScale
 70
     0
300
1:10
140
1.0
141
10.0
290
     0
  0
SCALE
  5
4E
102
{ACAD_REACTORS
330
47
102
}
330
47
100
AcDbScale
 70
     0
300
1:16
140
1.0
141
16.0
290
     0
  0
SCALE
  5
4F
102
{ACAD_REACTORS
330
47
102
}
330
47
100
AcDbScale
 70
     0
300
1:20
140
1.0
141
20.0
290
     0
  0
SCALE
  5
50
102
{ACAD_REACTORS
330
47
102
}
330
47
100
AcDbScale
 70
     0
300
1:30
140
1.0
141
30.0
290
     0
  0
SCALE
  5
51
102
{ACAD_REACTORS
330
47
102
}
330
47
100
AcDbScale
 70
     0
300
1:40
140
1.0
141
40.0
290
     0
  0
SCALE
  5
52
102
{ACAD_REACTORS
330
47
102
}
330
47
100
AcDbScale
 70
     0
300
1:50
140
1.0
141
50.0
290
     0
  0
SCALE
  5
53
102
{ACAD_REACTORS
330
47
102
}
330
47
100
AcDbScale
 70
     0
300
1:100
140
1.0
141
100.0
290
     0
  0
SCALE
  5
54
102
{ACAD_REACTORS
330
47
102
}
330
47
100
AcDbScale
 70
     0
300
2:1
140
2.0
141
1.0
290
     0
  0
SCALE
  5
55
102
{ACAD_REACTORS
330
47
102
}
330
47
100
AcDbScale
 70
     0
300
4:1
140
4.0
141
1.0
290
     0
  0
SCALE
  5
56
102
{ACAD_REACTORS
330
47
102
}
330
47
100
AcDbScale
 70
     0
300
8:1
140
8.0
141
1.0
290
     0
  0
SCALE
  5
57
102
{ACAD_REACTORS
330
47
102
}
330
47
100
AcDbScale
 70
     0
300
10:1
140
10.0
141
1.0
290
     0
  0
SCALE
  5
58
102
{ACAD_REACTORS
330
47
102
}
330
47
100
AcDbScale
 70
     0
300
100:1
140
100.0
141
1.0
290
     0
  0
TABLESTYLE
  5
5A
102
{ACAD_REACTORS
330
59
102
}
102
{ACAD_XDICTIONARY
360
357
102
}
330
59
100
AcDbTableStyle
  3
Standard
 70
     0
 71
     0
 40
0.06
 41
0.06
280
     0
281
     0
  7
Standard
140
4.5
170
     2
 62
     0
 63
   257
283
     0
 90
        4
 91
        0
  1

274
    -2
284
     1
 64
     0
275
    -2
285
     1
 65
     0
276
    -2
286
     1
 66
     0
277
    -2
287
     1
 67
     0
278
    -2
288
     1
 68
     0
279
    -2
289
     1
 69
     0
  7
Standard
140
6.0
170
     5
 62
     0
 63
   257
283
     0
 90
        4
 91
        0
  1

274
    -2
284
     1
 64
     0
275
    -2
285
     1
 65
     0
276
    -2
286
     1
 66
     0
277
    -2
287
     1
 67
     0
278
    -2
288
     1
 68
     0
279
    -2
289
     1
 69
     0
  7
Standard
140
4.5
170
     5
 62
     0
 63
   257
283
     0
 90
        4
 91
        0
  1

274
    -2
284
     1
 64
     0
275
    -2
285
     1
 65
     0
276
    -2
286
     1
 66
     0
277
    -2
287
     1
 67
     0
278
    -2
288
     1
 68
     0
279
    -2
289
     1
 69
     0
  0
VISUALSTYLE
  5
2F
102
{ACAD_REACTORS
330
2A
102
}
102
{ACAD_XDICTIONARY
360
32F
102
}
330
2A
100
AcDbVisualStyle
  2
2dWireframe
 70
     4
177
     2
291
     0
 71
     0
176
     1
 72
     2
176
     1
 73
     0
176
     1
 90
        0
176
     1
 40
0.6
176
     1
 41
30.0
176
     1
 62
     5
 63
     7
421
 16777215
176
     1
 74
     1
176
     1
 91
        4
176
     1
 64
     7
176
     1
 65
   257
176
     1
 75
     1
176
     1
175
     1
176
     1
 42
1.0
176
     1
 92
        0
176
     1
 66
   257
176
     1
 43
1.0
176
     1
 76
     1
176
     1
 77
     6
176
     1
 78
     2
176
     1
 67
     7
176
     1
 79
     5
176
     1
170
     0
176
     1
171
     0
176
     1
290
     0
176
     1
 93
        1
176
     1
 44
0.0
176
     1
173
     0
176
     1
  0
VISUALSTYLE
  5
32
102
{ACAD_REACTORS
330
2A
102
}
102
{ACAD_XDICTIONARY
360
335
102
}
330
2A
100
AcDbVisualStyle
  2
Basic
 70
     7
177
     2
291
     1
 71
     1
176
     1
 72
     0
176
     1
 73
     1
176
     1
 90
        0
176
     1
 40
0.6
176
     1
 41
30.0
176
     1
 62
     5
 63
     7
421
 16777215
176
     1
 74
     0
176
     1
 91
        4
176
     1
 64
     7
176
     1
 65
   257
176
     1
 75
     1
176
     1
175
     1
176
     1
 42
1.0
176
     1
 92
        8
176
     1
 66
     7
176
     1
 43
1.0
176
     1
 76
     1
176
     1
 77
     6
176
     1
 78
     2
176
     1
 67
     7
176
     1
 79
     5
176
     1
170
     0
176
     1
171
     0
176
     1
290
     0
176
     1
 93
        1
176
     1
 44
0.0
176
     1
173
     0
176
     1
  0
VISUALSTYLE
  5
36
102
{ACAD_REACTORS
330
2A
102
}
102
{ACAD_XDICTIONARY
360
33D
102
}
330
2A
100
AcDbVisualStyle
  2
Brighten
 70
    12
177
     2
291
     1
 71
     2
176
     1
 72
     2
176
     1
 73
     0
176
     1
 90
        0
176
     1
 40
0.6
176
     1
 41
30.0
176
     1
 62
     5
 63
     7
421
 16777215
176
     1
 74
     1
176
     1
 91
        4
176
     1
 64
     7
176
     1
 65
   257
176
     1
 75
     1
176
     1
175
     1
176
     1
 42
1.0
176
     1
 92
        8
176
     1
 66
     7
176
     1
 43
1.0
176
     1
 76
     1
176
     1
 77
     6
176
     1
 78
     2
176
     1
 67
     7
176
     1
 79
     5
176
     1
170
     0
176
     1
171
     0
176
     1
290
     0
176
     1
 93
        1
176
     1
 44
50.0
176
     1
173
     0
176
     1
  0
VISUALSTYLE
  5
3A
102
{ACAD_REACTORS
330
2A
102
}
102
{ACAD_XDICTIONARY
360
345
102
}
330
2A
100
AcDbVisualStyle
  2
ColorChange
 70
    16
177
     2
291
     1
 71
     2
176
     1
 72
     2
176
     1
 73
     3
176
     1
 90
        0
176
     1
 40
0.6
176
     1
 41
30.0
176
     1
 62
     5
 63
     8
421
  8421504
176
     1
 74
     1
176
     1
 91
        4
176
     1
 64
     7
176
     1
 65
   257
176
     1
 75
     1
176
     1
175
     1
176
     1
 42
1.0
176
     1
 92
        8
176
     1
 66
     8
424
  8421504
176
     1
 43
1.0
176
     1
 76
     1
176
     1
 77
     6
176
     1
 78
     2
176
     1
 67
     7
176
     1
 79
     5
176
     1
170
     0
176
     1
171
     0
176
     1
290
     0
176
     1
 93
        1
176
     1
 44
0.0
176
     1
173
     0
176
     1
  0
VISUALSTYLE
  5
34
102
{ACAD_REACTORS
330
2A
102
}
102
{ACAD_XDICTIONARY
360
339
102
}
330
2A
100
AcDbVisualStyle
  2
Conceptual
 70
     9
177
     2
291
     0
 71
     3
176
     1
 72
     2
176
     1
 73
     0
176
     1
 90
        0
176
     1
 40
0.6
176
     1
 41
30.0
176
     1
 62
     5
 63
     7
421
 16777215
176
     1
 74
     2
176
     1
 91
        2
176
     1
 64
     7
176
     1
 65
   257
176
     1
 75
     1
176
     1
175
     1
176
     1
 42
179.0
176
     1
 92
        8
176
     1
 66
     7
176
     1
 43
1.0
176
     1
 76
     1
176
     1
 77
     6
176
     1
 78
     2
176
     1
 67
     7
176
     1
 79
     3
176
     1
170
     0
176
     1
171
     0
176
     1
290
     0
176
     1
 93
        1
176
     1
 44
0.0
176
     1
173
     0
176
     1
  0
VISUALSTYLE
  5
35
102
{ACAD_REACTORS
330
2A
102
}
102
{ACAD_XDICTIONARY
360
33B
102
}
330
2A
100
AcDbVisualStyle
  2
Dim
 70
    11
177
     2
291
     1
 71
     2
176
     1
 72
     2
176
     1
 73
     0
176
     1
 90
        0
176
     1
 40
0.6
176
     1
 41
30.0
176
     1
 62
     5
 63
     7
421
 16777215
176
     1
 74
     1
176
     1
 91
        4
176
     1
 64
     7
176
     1
 65
   257
176
     1
 75
     1
176
     1
175
     1
176
     1
 42
1.0
176
     1
 92
        8
176
     1
 66
     7
176
     1
 43
1.0
176
     1
 76
     1
176
     1
 77
     6
176
     1
 78
     2
176
     1
 67
     7
176
     1
 79
     5
176
     1
170
     0
176
     1
171
     0
176
     1
290
     0
176
     1
 93
        1
176
     1
 44
-50.0
176
     1
173
     0
176
     1
  0
VISUALSTYLE
  5
3D
102
{ACAD_REACTORS
330
2A
102
}
102
{ACAD_XDICTIONARY
360
34B
102
}
330
2A
100
AcDbVisualStyle
  2
EdgeColorOff
 70
    22
177
     2
291
     1
 71
     2
176
     0
 72
     2
176
     0
 73
     0
176
     0
 90
        0
176
     0
 40
0.6
176
     0
 41
30.0
176
     0
 62
     5
 63
     7
421
 16777215
176
     0
 74
     1
176
     0
 91
        4
176
     0
 64
     7
176
     0
 65
   257
176
     0
 75
     1
176
     0
175
     1
176
     0
 42
1.0
176
     0
 92
        8
176
     2
 66
     7
176
     0
 43
1.0
176
     0
 76
     1
176
     0
 77
     6
176
     0
 78
     2
176
     0
 67
     7
176
     0
 79
     5
176
     0
170
     0
176
     0
171
     0
176
     0
290
     0
176
     0
 93
        1
176
     0
 44
0.0
176
     0
173
     0
176
     0
  0
VISUALSTYLE
  5
39
102
{ACAD_REACTORS
330
2A
102
}
102
{ACAD_XDICTIONARY
360
343
102
}
330
2A
100
AcDbVisualStyle
  2
Facepattern
 70
    15
177
     2
291
     1
 71
     2
176
     1
 72
     2
176
     1
 73
     0
176
     1
 90
        0
176
     1
 40
0.6
176
     1
 41
30.0
176
     1
 62
     5
 63
     7
421
 16777215
176
     1
 74
     1
176
     1
 91
        4
176
     1
 64
     7
176
     1
 65
   257
176
     1
 75
     1
176
     1
175
     1
176
     1
 42
1.0
176
     1
 92
        8
176
     1
 66
     7
176
     1
 43
1.0
176
     1
 76
     1
176
     1
 77
     6
176
     1
 78
     2
176
     1
 67
     7
176
     1
 79
     5
176
     1
170
     0
176
     1
171
     0
176
     1
290
     0
176
     1
 93
        1
176
     1
 44
0.0
176
     1
173
     0
176
     1
  0
VISUALSTYLE
  5
2B
102
{ACAD_REACTORS
330
2A
102
}
102
{ACAD_XDICTIONARY
360
327
102
}
330
2A
100
AcDbVisualStyle
  2
Flat
 70
     0
177
     2
291
     1
 71
     2
176
     1
 72
     1
176
     1
 73
     1
176
     1
 90
        2
176
     1
 40
0.6
176
     1
 41
30.0
176
     1
 62
     5
 63
     7
421
 16777215
176
     1
 74
     0
176
     1
 91
        0
176
     1
 64
     7
176
     1
 65
   257
176
     1
 75
     1
176
     1
175
     1
176
     1
 42
1.0
176
     1
 92
        8
176
     1
 66
     7
176
     1
 43
1.0
176
     1
 76
     1
176
     1
 77
     6
176
     1
 78
     2
176
     1
 67
     7
176
     1
 79
     5
176
     1
170
     0
176
     1
171
     0
176
     1
290
     0
176
     1
 93
       13
176
     1
 44
0.0
176
     1
173
     0
176
     1
  0
VISUALSTYLE
  5
2C
102
{ACAD_REACTORS
330
2A
102
}
102
{ACAD_XDICTIONARY
360
329
102
}
330
2A
100
AcDbVisualStyle
  2
FlatWithEdges
 70
     1
177
     2
291
     1
 71
     2
176
     1
 72
     1
176
     1
 73
     1
176
     1
 90
        2
176
     1
 40
0.6
176
     1
 41
30.0
176
     1
 62
     5
 63
     7
421
 16777215
176
     1
 74
     1
176
     1
 91
        0
176
     1
 64
     7
176
     1
 65
   257
176
     1
 75
     1
176
     1
175
     1
176
     1
 42
1.0
176
     1
 92
        0
176
     1
 66
   257
176
     1
 43
1.0
176
     1
 76
     1
176
     1
 77
     6
176
     1
 78
     2
176
     1
 67
     7
176
     1
 79
     5
176
     1
170
     0
176
     1
171
     0
176
     1
290
     0
176
     1
 93
       13
176
     1
 44
0.0
176
     1
173
     0
176
     1
  0
VISUALSTYLE
  5
2D
102
{ACAD_REACTORS
330
2A
102
}
102
{ACAD_XDICTIONARY
360
32B
102
}
330
2A
100
AcDbVisualStyle
  2
Gouraud
 70
     2
177
     2
291
     1
 71
     2
176
     1
 72
     2
176
     1
 73
     1
176
     1
 90
        2
176
     1
 40
0.6
176
     1
 41
30.0
176
     1
 62
     5
 63
     7
421
 16777215
176
     1
 74
     0
176
     1
 91
        0
176
     1
 64
     7
176
     1
 65
   257
176
     1
 75
     1
176
     1
175
     1
176
     1
 42
1.0
176
     1
 92
        0
176
     1
 66
     7
176
     1
 43
1.0
176
     1
 76
     1
176
     1
 77
     6
176
     1
 78
     2
176
     1
 67
     7
176
     1
 79
     5
176
     1
170
     0
176
     1
171
     0
176
     1
290
     0
176
     1
 93
       13
176
     1
 44
0.0
176
     1
173
     0
176
     1
  0
VISUALSTYLE
  5
2E
102
{ACAD_REACTORS
330
2A
102
}
102
{ACAD_XDICTIONARY
360
32D
102
}
330
2A
100
AcDbVisualStyle
  2
GouraudWithEdges
 70
     3
177
     2
291
     1
 71
     2
176
     1
 72
     2
176
     1
 73
     1
176
     1
 90
        2
176
     1
 40
0.6
176
     1
 41
30.0
176
     1
 62
     5
 63
     7
421
 16777215
176
     1
 74
     1
176
     1
 91
        0
176
     1
 64
     7
176
     1
 65
   257
176
     1
 75
     1
176
     1
175
     1
176
     1
 42
1.0
176
     1
 92
        0
176
     1
 66
   257
176
     1
 43
1.0
176
     1
 76
     1
176
     1
 77
     6
176
     1
 78
     2
176
     1
 67
     7
176
     1
 79
     5
176
     1
170
     0
176
     1
171
     0
176
     1
290
     0
176
     1
 93
       13
176
     1
 44
0.0
176
     1
173
     0
176
     1
  0
VISUALSTYLE
  5
31
102
{ACAD_REACTORS
330
2A
102
}
102
{ACAD_XDICTIONARY
360
333
102
}
330
2A
100
AcDbVisualStyle
  2
Hidden
 70
     6
177
     2
291
     0
 71
     1
176
     1
 72
     2
176
     1
 73
     2
176
     1
 90
        0
176
     1
 40
0.6
176
     1
 41
30.0
176
     1
 62
     5
 63
     7
421
 16777215
176
     1
 74
     2
176
     1
 91
        2
176
     1
 64
     7
176
     1
 65
   257
176
     1
 75
     2
176
     1
175
     1
176
     1
 42
40.0
176
     1
 92
        0
176
     1
 66
   257
176
     1
 43
1.0
176
     1
 76
     1
176
     1
 77
     6
176
     1
 78
     2
176
     1
 67
     7
176
     1
 79
     3
176
     1
170
     0
176
     1
171
     0
176
     1
290
     0
176
     1
 93
        1
176
     1
 44
0.0
176
     1
173
     0
176
     1
  0
VISUALSTYLE
  5
3B
102
{ACAD_REACTORS
330
2A
102
}
102
{ACAD_XDICTIONARY
360
347
102
}
330
2A
100
AcDbVisualStyle
  2
JitterOff
 70
    20
177
     2
291
     1
 71
     2
176
     0
 72
     2
176
     0
 73
     0
176
     0
 90
        0
176
     0
 40
0.6
176
     0
 41
30.0
176
     0
 62
     5
 63
     7
421
 16777215
176
     0
 74
     1
176
     0
 91
        4
176
     0
 64
     7
176
     0
 65
   257
176
     0
 75
     1
176
     0
175
     1
176
     0
 42
1.0
176
     0
 92
       10
176
     2
 66
     7
176
     0
 43
1.0
176
     0
 76
     1
176
     0
 77
     6
176
     0
 78
     2
176
     0
 67
     7
176
     0
 79
     5
176
     0
170
     0
176
     0
171
     0
176
     0
290
     0
176
     0
 93
        1
176
     0
 44
0.0
176
     0
173
     0
176
     0
  0
VISUALSTYLE
  5
38
102
{ACAD_REACTORS
330
2A
102
}
102
{ACAD_XDICTIONARY
360
341
102
}
330
2A
100
AcDbVisualStyle
  2
Linepattern
 70
    14
177
     2
291
     1
 71
     2
176
     1
 72
     2
176
     1
 73
     0
176
     1
 90
        0
176
     1
 40
0.6
176
     1
 41
30.0
176
     1
 62
     5
 63
     7
421
 16777215
176
     1
 74
     1
176
     1
 91
        4
176
     1
 64
     7
176
     1
 65
   257
176
     1
 75
     7
176
     1
175
     7
176
     1
 42
1.0
176
     1
 92
        8
176
     1
 66
     7
176
     1
 43
1.0
176
     1
 76
     1
176
     1
 77
     6
176
     1
 78
     2
176
     1
 67
     7
176
     1
 79
     5
176
     1
170
     0
176
     1
171
     0
176
     1
290
     0
176
     1
 93
        1
176
     1
 44
0.0
176
     1
173
     0
176
     1
  0
VISUALSTYLE
  5
3C
102
{ACAD_REACTORS
330
2A
102
}
102
{ACAD_XDICTIONARY
360
349
102
}
330
2A
100
AcDbVisualStyle
  2
OverhangOff
 70
    21
177
     2
291
     1
 71
     2
176
     0
 72
     2
176
     0
 73
     0
176
     0
 90
        0
176
     0
 40
0.6
176
     0
 41
30.0
176
     0
 62
     5
 63
     7
421
 16777215
176
     0
 74
     1
176
     0
 91
        4
176
     0
 64
     7
176
     0
 65
   257
176
     0
 75
     1
176
     0
175
     1
176
     0
 42
1.0
176
     0
 92
        9
176
     2
 66
     7
176
     0
 43
1.0
176
     0
 76
     1
176
     0
 77
     6
176
     0
 78
     2
176
     0
 67
     7
176
     0
 79
     5
176
     0
170
     0
176
     0
171
     0
176
     0
290
     0
176
     0
 93
        1
176
     0
 44
0.0
176
     0
173
     0
176
     0
  0
VISUALSTYLE
  5
33
102
{ACAD_REACTORS
330
2A
102
}
102
{ACAD_XDICTIONARY
360
337
102
}
330
2A
100
AcDbVisualStyle
  2
Realistic
 70
     8
177
     2
291
     0
 71
     2
176
     1
 72
     3
176
     1
 73
     0
176
     1
 90
        2
176
     1
 40
0.6
176
     1
 41
30.0
176
     1
 62
     5
 63
     7
421
 16777215
176
     1
 74
     0
176
     1
 91
        0
176
     1
 64
     7
176
     1
 65
   257
176
     1
 75
     1
176
     1
175
     1
176
     1
 42
1.0
176
     1
 92
        8
176
     1
 66
   257
176
     1
 43
1.0
176
     1
 76
     1
176
     1
 77
     6
176
     1
 78
     2
176
     1
 67
     7
176
     1
 79
     3
176
     1
170
     0
176
     1
171
     0
176
     1
290
     0
176
     1
 93
       13
176
     1
 44
0.0
176
     1
173
     0
176
     1
  0
VISUALSTYLE
  5
42
102
{ACAD_REACTORS
330
2A
102
}
102
{ACAD_XDICTIONARY
360
355
102
}
330
2A
100
AcDbVisualStyle
  2
Shaded
 70
    27
177
     2
291
     0
 71
     2
176
     1
 72
     2
176
     1
 73
     1
176
     1
 90
        2
176
     1
 40
0.6
176
     1
 41
30.0
176
     1
 62
     5
 63
     7
421
 16777215
176
     1
 74
     0
176
     1
 91
        4
176
     1
 64
     7
176
     1
 65
   257
176
     1
 75
     1
176
     1
175
     1
176
     1
 42
1.0
176
     1
 92
        8
176
     1
 66
   257
176
     1
 43
1.0
176
     1
 76
     1
176
     1
 77
     6
176
     1
 78
     2
176
     1
 67
     8
425
  7895160
176
     1
 79
     3
176
     1
170
     0
176
     1
171
     0
176
     1
290
     0
176
     1
 93
        5
176
     1
 44
0.0
176
     1
173
     0
176
     1
  0
VISUALSTYLE
  5
41
102
{ACAD_REACTORS
330
2A
102
}
102
{ACAD_XDICTIONARY
360
353
102
}
330
2A
100
AcDbVisualStyle
  2
Shaded with edges
 70
    26
177
     2
291
     0
 71
     2
176
     1
 72
     2
176
     1
 73
     1
176
     1
 90
        2
176
     1
 40
0.6
176
     1
 41
30.0
176
     1
 62
     5
 63
     7
421
 16777215
176
     1
 74
     1
176
     1
 91
       10
176
     1
 64
     7
176
     1
 65
   257
176
     1
 75
     2
176
     1
175
     1
176
     1
 42
1.0
176
     1
 92
        8
176
     1
 66
   257
176
     1
 43
1.0
176
     1
 76
     1
176
     1
 77
     6
176
     1
 78
     2
176
     1
 67
     7
176
     1
 79
     3
176
     1
170
     0
176
     1
171
     0
176
     1
290
     0
176
     1
 93
        5
176
     1
 44
0.0
176
     1
173
     0
176
     1
  0
VISUALSTYLE
  5
3E
102
{ACAD_REACTORS
330
2A
102
}
102
{ACAD_XDICTIONARY
360
34D
102
}
330
2A
100
AcDbVisualStyle
  2
Shades of Gray
 70
    23
177
     2
291
     0
 71
     2
176
     1
 72
     2
176
     1
 73
     3
176
     1
 90
        0
176
     1
 40
0.6
176
     1
 41
30.0
176
     1
 62
     5
 63
     7
421
 16777215
176
     1
 74
     2
176
     1
 91
        2
176
     1
 64
     7
176
     1
 65
     7
176
     1
 75
     1
176
     1
175
     1
176
     1
 42
40.0
176
     1
 92
        8
176
     1
 66
     7
176
     1
 43
1.0
176
     1
 76
     1
176
     1
 77
     6
176
     1
 78
     2
176
     1
 67
     7
176
     1
 79
     3
176
     1
170
     0
176
     1
171
     0
176
     1
290
     0
176
     1
 93
        1
176
     1
 44
0.0
176
     1
173
     0
176
     1
  0
VISUALSTYLE
  5
3F
102
{ACAD_REACTORS
330
2A
102
}
102
{ACAD_XDICTIONARY
360
34F
102
}
330
2A
100
AcDbVisualStyle
  2
Sketchy
 70
    24
177
     2
291
     0
 71
     1
176
     1
 72
     2
176
     1
 73
     2
176
     1
 90
        0
176
     1
 40
0.6
176
     1
 41
30.0
176
     1
 62
     5
 63
     7
421
 16777215
176
     1
 74
     2
176
     1
 91
        2
176
     1
 64
     7
176
     1
 65
     7
176
     1
 75
     1
176
     1
175
     1
176
     1
 42
40.0
176
     1
 92
       11
176
     1
 66
     7
176
     1
 43
1.0
176
     1
 76
     1
176
     1
 77
     6
176
     1
 78
     2
176
     1
 67
     7
176
     1
 79
     6
176
     1
170
     0
176
     1
171
     0
176
     1
290
     0
176
     1
 93
        1
176
     1
 44
0.0
176
     1
173
     0
176
     1
  0
VISUALSTYLE
  5
37
102
{ACAD_REACTORS
330
2A
102
}
102
{ACAD_XDICTIONARY
360
33F
102
}
330
2A
100
AcDbVisualStyle
  2
Thicken
 70
    13
177
     2
291
     1
 71
     2
176
     1
 72
     2
176
     1
 73
     0
176
     1
 90
        0
176
     1
 40
0.6
176
     1
 41
30.0
176
     1
 62
     5
 63
     7
421
 16777215
176
     1
 74
     1
176
     1
 91
        4
176
     1
 64
     7
176
     1
 65
   257
176
     1
 75
     1
176
     1
175
     1
176
     1
 42
1.0
176
     1
 92
       12
176
     1
 66
     7
176
     1
 43
1.0
176
     1
 76
     1
176
     1
 77
     6
176
     1
 78
     2
176
     1
 67
     7
176
     1
 79
     5
176
     1
170
     0
176
     1
171
     0
176
     1
290
     0
176
     1
 93
        1
176
     1
 44
0.0
176
     1
173
     0
176
     1
  0
VISUALSTYLE
  5
30
102
{ACAD_REACTORS
330
2A
102
}
102
{ACAD_XDICTIONARY
360
331
102
}
330
2A
100
AcDbVisualStyle
  2
Wireframe
 70
     5
177
     2
291
     0
 71
     0
176
     1
 72
     2
176
     1
 73
     0
176
     1
 90
        0
176
     1
 40
0.6
176
     1
 41
30.0
176
     1
 62
     5
 63
     7
421
 16777215
176
     1
 74
     1
176
     1
 91
        4
176
     1
 64
     7
176
     1
 65
   257
176
     1
 75
     1
176
     1
175
     1
176
     1
 42
1.0
176
     1
 92
        0
176
     1
 66
   257
176
     1
 43
1.0
176
     1
 76
     1
176
     1
 77
     6
176
     1
 78
     2
176
     1
 67
     7
176
     1
 79
     3
176
     1
170
     0
176
     1
171
     0
176
     1
290
     0
176
     1
 93
        1
176
     1
 44
0.0
176
     1
173
     0
176
     1
  0
VISUALSTYLE
  5
40
102
{ACAD_REACTORS
330
2A
102
}
102
{ACAD_XDICTIONARY
360
351
102
}
330
2A
100
AcDbVisualStyle
  2
X-Ray
 70
    25
177
     2
291
     0
 71
     2
176
     1
 72
     2
176
     1
 73
     1
176
     1
 90
        1
176
     1
 40
0.5
176
     1
 41
30.0
176
     1
 62
     5
 63
     7
421
 16777215
176
     1
 74
     1
176
     1
 91
        0
176
     1
 64
     7
176
     1
 65
   257
176
     1
 75
     1
176
     1
175
     1
176
     1
 42
1.0
176
     1
 92
        8
176
     1
 66
     7
176
     1
 43
1.0
176
     1
 76
     1
176
     1
 77
     6
176
     1
 78
     2
176
     1
 67
     7
176
     1
 79
     3
176
     1
170
     0
176
     1
171
     0
176
     1
290
     0
176
     1
 93
       13
176
     1
 44
0.0
176
     1
173
     0
176
     1
  0
DICTIONARYVAR
  5
326
102
{ACAD_REACTORS
330
325
102
}
330
325
100
DictionaryVariables
280
     0
  1
1:1
  0
DICTIONARYVAR
  5
360
102
{ACAD_REACTORS
330
325
102
}
330
325
100
DictionaryVariables
280
     0
  1
3.500000
  0
DICTIONARYVAR
  5
361
102
{ACAD_REACTORS
330
325
102
}
330
325
100
DictionaryVariables
280
     0
  1
acadiso.lin
  0
DICTIONARYVAR
  5
35C
102
{ACAD_REACTORS
330
325
102
}
330
325
100
DictionaryVariables
280
     0
  1
Standard
  0
DICTIONARYVAR
  5
35B
102
{ACAD_REACTORS
330
325
102
}
330
325
100
DictionaryVariables
280
     0
  1
Standard
  0
DICTIONARYVAR
  5
35F
102
{ACAD_REACTORS
330
325
102
}
330
325
100
DictionaryVariables
280
     0
  1
0
  0
DICTIONARY
  5
357
330
5A
100
AcDbDictionary
280
     1
281
     1
  3
ACAD_ROUNDTRIP_2008_TABLESTYLE_CELLSTYLEMAP
360
358
  0
DICTIONARY
  5
32F
330
2F
100
AcDbDictionary
280
     1
281
     1
  3
ACAD_XREC_ROUNDTRIP
360
330
  0
DICTIONARY
  5
335
330
32
100
AcDbDictionary
280
     1
281
     1
  3
ACAD_XREC_ROUNDTRIP
360
336
  0
DICTIONARY
  5
33D
330
36
100
AcDbDictionary
280
     1
281
     1
  3
ACAD_XREC_ROUNDTRIP
360
33E
  0
DICTIONARY
  5
345
330
3A
100
AcDbDictionary
280
     1
281
     1
  3
ACAD_XREC_ROUNDTRIP
360
346
  0
DICTIONARY
  5
339
330
34
100
AcDbDictionary
280
     1
281
     1
  3
ACAD_XREC_ROUNDTRIP
360
33A
  0
DICTIONARY
  5
33B
330
35
100
AcDbDictionary
280
     1
281
     1
  3
ACAD_XREC_ROUNDTRIP
360
33C
  0
DICTIONARY
  5
34B
330
3D
100
AcDbDictionary
280
     1
281
     1
  3
ACAD_XREC_ROUNDTRIP
360
34C
  0
DICTIONARY
  5
343
330
39
100
AcDbDictionary
280
     1
281
     1
  3
ACAD_XREC_ROUNDTRIP
360
344
  0
DICTIONARY
  5
327
330
2B
100
AcDbDictionary
280
     1
281
     1
  3
ACAD_XREC_ROUNDTRIP
360
328
  0
DICTIONARY
  5
329
330
2C
100
AcDbDictionary
280
     1
281
     1
  3
ACAD_XREC_ROUNDTRIP
360
32A
  0
DICTIONARY
  5
32B
330
2D
100
AcDbDictionary
280
     1
281
     1
  3
ACAD_XREC_ROUNDTRIP
360
32C
  0
DICTIONARY
  5
32D
330
2E
100
AcDbDictionary
280
     1
281
     1
  3
ACAD_XREC_ROUNDTRIP
360
32E
  0
DICTIONARY
  5
333
330
31
100
AcDbDictionary
280
     1
281
     1
  3
ACAD_XREC_ROUNDTRIP
360
334
  0
DICTIONARY
  5
347
330
3B
100
AcDbDictionary
280
     1
281
     1
  3
ACAD_XREC_ROUNDTRIP
360
348
  0
DICTIONARY
  5
341
330
38
100
AcDbDictionary
280
     1
281
     1
  3
ACAD_XREC_ROUNDTRIP
360
342
  0
DICTIONARY
  5
349
330
3C
100
AcDbDictionary
280
     1
281
     1
  3
ACAD_XREC_ROUNDTRIP
360
34A
  0
DICTIONARY
  5
337
330
33
100
AcDbDictionary
280
     1
281
     1
  3
ACAD_XREC_ROUNDTRIP
360
338
  0
DICTIONARY
  5
355
330
42
100
AcDbDictionary
280
     1
281
     1
  3
ACAD_XREC_ROUNDTRIP
360
356
  0
DICTIONARY
  5
353
330
41
100
AcDbDictionary
280
     1
281
     1
  3
ACAD_XREC_ROUNDTRIP
360
354
  0
DICTIONARY
  5
34D
330
3E
100
AcDbDictionary
280
     1
281
     1
  3
ACAD_XREC_ROUNDTRIP
360
34E
  0
DICTIONARY
  5
34F
330
3F
100
AcDbDictionary
280
     1
281
     1
  3
ACAD_XREC_ROUNDTRIP
360
350
  0
DICTIONARY
  5
33F
330
37
100
AcDbDictionary
280
     1
281
     1
  3
ACAD_XREC_ROUNDTRIP
360
340
  0
DICTIONARY
  5
331
330
30
100
AcDbDictionary
280
     1
281
     1
  3
ACAD_XREC_ROUNDTRIP
360
332
  0
DICTIONARY
  5
351
330
40
100
AcDbDictionary
280
     1
281
     1
  3
ACAD_XREC_ROUNDTRIP
360
352
  0
CELLSTYLEMAP
  5
358
102
{ACAD_REACTORS
330
357
102
}
330
357
100
AcDbCellStyleMap
 90
        3
300
CELLSTYLE
  1
TABLEFORMAT_BEGIN
 90
        5
170
     1
 91
        0
 92
    32768
 62
   257
 93
        1
300
CONTENTFORMAT
  1
CONTENTFORMAT_BEGIN
 90
        0
 91
        0
 92
        4
 93
        0
300

 40
0.0
140
1.0
 94
        5
 62
     0
340
11
144
6.0
309
CONTENTFORMAT_END
171
     1
301
MARGIN
  1
CELLMARGIN_BEGIN
 40
1.5
 40
1.5
 40
1.5
 40
1.5
 40
1.5
 40
1.5
309
CELLMARGIN_END
 94
        6
 95
        1
302
GRIDFORMAT
  1
GRIDFORMAT_BEGIN
 90
        0
 91
        1
 62
     0
 92
       -2
340
14
 93
        0
 40
0.045
309
GRIDFORMAT_END
 95
        2
302
GRIDFORMAT
  1
GRIDFORMAT_BEGIN
 90
        0
 91
        1
 62
     0
 92
       -2
340
14
 93
        0
 40
0.045
309
GRIDFORMAT_END
 95
        4
302
GRIDFORMAT
  1
GRIDFORMAT_BEGIN
 90
        0
 91
        1
 62
     0
 92
       -2
340
14
 93
        0
 40
0.045
309
GRIDFORMAT_END
 95
        8
302
GRIDFORMAT
  1
GRIDFORMAT_BEGIN
 90
        0
 91
        1
 62
     0
 92
       -2
340
14
 93
        0
 40
0.045
309
GRIDFORMAT_END
 95
       16
302
GRIDFORMAT
  1
GRIDFORMAT_BEGIN
 90
        0
 91
        1
 62
     0
 92
       -2
340
14
 93
        0
 40
0.045
309
GRIDFORMAT_END
 95
       32
302
GRIDFORMAT
  1
GRIDFORMAT_BEGIN
 90
        0
 91
        1
 62
     0
 92
       -2
340
14
 93
        0
 40
0.045
309
GRIDFORMAT_END
309
TABLEFORMAT_END
  1
CELLSTYLE_BEGIN
 90
        1
 91
        1
300
_TITLE
309
CELLSTYLE_END
300
CELLSTYLE
  1
TABLEFORMAT_BEGIN
 90
        5
170
     1
 91
        0
 92
        0
 62
   257
 93
        1
300
CONTENTFORMAT
  1
CONTENTFORMAT_BEGIN
 90
        0
 91
        0
 92
        4
 93
        0
300

 40
0.0
140
1.0
 94
        5
 62
     0
340
11
144
4.5
309
CONTENTFORMAT_END
171
     1
301
MARGIN
  1
CELLMARGIN_BEGIN
 40
1.5
 40
1.5
 40
1.5
 40
1.5
 40
1.5
 40
1.5
309
CELLMARGIN_END
 94
        6
 95
        1
302
GRIDFORMAT
  1
GRIDFORMAT_BEGIN
 90
        0
 91
        1
 62
     0
 92
       -2
340
14
 93
        0
 40
0.045
309
GRIDFORMAT_END
 95
        2
302
GRIDFORMAT
  1
GRIDFORMAT_BEGIN
 90
        0
 91
        1
 62
     0
 92
       -2
340
14
 93
        0
 40
0.045
309
GRIDFORMAT_END
 95
        4
302
GRIDFORMAT
  1
GRIDFORMAT_BEGIN
 90
        0
 91
        1
 62
     0
 92
       -2
340
14
 93
        0
 40
0.045
309
GRIDFORMAT_END
 95
        8
302
GRIDFORMAT
  1
GRIDFORMAT_BEGIN
 90
        0
 91
        1
 62
     0
 92
       -2
340
14
 93
        0
 40
0.045
309
GRIDFORMAT_END
 95
       16
302
GRIDFORMAT
  1
GRIDFORMAT_BEGIN
 90
        0
 91
        1
 62
     0
 92
       -2
340
14
 93
        0
 40
0.045
309
GRIDFORMAT_END
 95
       32
302
GRIDFORMAT
  1
GRIDFORMAT_BEGIN
 90
        0
 91
        1
 62
     0
 92
       -2
340
14
 93
        0
 40
0.045
309
GRIDFORMAT_END
309
TABLEFORMAT_END
  1
CELLSTYLE_BEGIN
 90
        2
 91
        1
300
_HEADER
309
CELLSTYLE_END
300
CELLSTYLE
  1
TABLEFORMAT_BEGIN
 90
        5
170
     1
 91
        0
 92
        0
 62
   257
 93
        1
300
CONTENTFORMAT
  1
CONTENTFORMAT_BEGIN
 90
        0
 91
        0
 92
        4
 93
        0
300

 40
0.0
140
1.0
 94
        2
 62
     0
340
11
144
4.5
309
CONTENTFORMAT_END
171
     1
301
MARGIN
  1
CELLMARGIN_BEGIN
 40
1.5
 40
1.5
 40
1.5
 40
1.5
 40
1.5
 40
1.5
309
CELLMARGIN_END
 94
        6
 95
        1
302
GRIDFORMAT
  1
GRIDFORMAT_BEGIN
 90
        0
 91
        1
 62
     0
 92
       -2
340
14
 93
        0
 40
0.045
309
GRIDFORMAT_END
 95
        2
302
GRIDFORMAT
  1
GRIDFORMAT_BEGIN
 90
        0
 91
        1
 62
     0
 92
       -2
340
14
 93
        0
 40
0.045
309
GRIDFORMAT_END
 95
        4
302
GRIDFORMAT
  1
GRIDFORMAT_BEGIN
 90
        0
 91
        1
 62
     0
 92
       -2
340
14
 93
        0
 40
0.045
309
GRIDFORMAT_END
 95
        8
302
GRIDFORMAT
  1
GRIDFORMAT_BEGIN
 90
        0
 91
        1
 62
     0
 92
       -2
340
14
 93
        0
 40
0.045
309
GRIDFORMAT_END
 95
       16
302
GRIDFORMAT
  1
GRIDFORMAT_BEGIN
 90
        0
 91
        1
 62
     0
 92
       -2
340
14
 93
        0
 40
0.045
309
GRIDFORMAT_END
 95
       32
302
GRIDFORMAT
  1
GRIDFORMAT_BEGIN
 90
        0
 91
        1
 62
     0
 92
       -2
340
14
 93
        0
 40
0.045
309
GRIDFORMAT_END
309
TABLEFORMAT_END
  1
CELLSTYLE_BEGIN
 90
        3
 91
        2
300
_DATA
309
CELLSTYLE_END
  0
XRECORD
  5
330
102
{ACAD_REACTORS
330
32F
102
}
330
32F
100
AcDbXrecord
280
     1
102
RTVSPost2010Prop28
280
     1
102
RTVSPost2010PropOp28
 70
     1
102
RTVSPost2010Prop29
280
     1
102
RTVSPost2010PropOp29
 70
     1
102
RTVSPost2010Prop30
280
     0
102
RTVSPost2010PropOp30
 70
     1
102
RTVSPost2010Prop31
280
     0
102
RTVSPost2010PropOp31
 70
     1
102
RTVSPost2010Prop32
280
     0
102
RTVSPost2010PropOp32
 70
     1
102
RTVSPost2010Prop33
280
     0
102
RTVSPost2010PropOp33
 70
     1
102
RTVSPost2010Prop34
280
     0
102
RTVSPost2010PropOp34
 70
     1
102
RTVSPost2010Prop35
280
     0
102
RTVSPost2010PropOp35
 70
     1
102
RTVSPost2010Prop36
280
     0
102
RTVSPost2010PropOp36
 70
     1
102
RTVSPost2010Prop37
 90
       50
102
RTVSPost2010PropOp37
 70
     1
102
RTVSPost2010Prop38
140
0.0
102
RTVSPost2010PropOp38
 70
     1
102
RTVSPost2010Prop39
140
1.0
102
RTVSPost2010PropOp39
 70
     1
102
RTVSPost2010Prop40
 90
        0
102
RTVSPost2010PropOp40
 70
     1
102
RTVSPost2010Prop41ColorIndex
 90
       18
102
RTVSPost2010Prop41ColorRGB
 90
        0
102
RTVSPost2010PropOp41
 70
     1
102
RTVSPost2010Prop42
 90
       50
102
RTVSPost2010PropOp42
 70
     1
102
RTVSPost2010Prop43
 90
        3
102
RTVSPost2010PropOp43
 70
     1
102
RTVSPost2010Prop44ColorIndex
 90
        5
102
RTVSPost2010Prop44ColorRGB
 90
      255
102
RTVSPost2010PropOp44
 70
     1
102
RTVSPost2010Prop45
280
     0
102
RTVSPost2010PropOp45
 70
     1
102
RTVSPost2010Prop46
 90
       50
102
RTVSPost2010PropOp46
 70
     1
102
RTVSPost2010Prop47
 90
       50
102
RTVSPost2010PropOp47
 70
     1
102
RTVSPost2010Prop48
 90
       50
102
RTVSPost2010PropOp48
 70
     1
102
RTVSPost2010Prop49
280
     0
102
RTVSPost2010PropOp49
 70
     1
102
RTVSPost2010Prop50
 90
       50
102
RTVSPost2010PropOp50
 70
     1
102
RTVSPost2010Prop51ColorIndex
 90
      256
102
RTVSPost2010Prop51ColorRGB
 90
-16777216
102
RTVSPost2010PropOp51
 70
     0
102
RTVSPost2010Prop52
140
1.0
102
RTVSPost2010PropOp52
 70
     0
102
RTVSPost2010Prop53
 90
        2
102
RTVSPost2010PropOp53
 70
     1
102
RTVSPost2010Prop54
  1
strokes_ogs.tif
102
RTVSPost2010PropOp54
 70
     1
102
RTVSPost2010Prop55
280
     0
102
RTVSPost2010PropOp55
 70
     1
102
RTVSPost2010Prop56
140
1.0
102
RTVSPost2010PropOp56
 70
     1
102
RTVSPost2010Prop57
140
1.0
102
RTVSPost2010PropOp57
 70
     1
  0
XRECORD
  5
336
102
{ACAD_REACTORS
330
335
102
}
330
335
100
AcDbXrecord
280
     1
102
RTVSPost2010Prop28
280
     0
102
RTVSPost2010PropOp28
 70
     1
102
RTVSPost2010Prop29
280
     1
102
RTVSPost2010PropOp29
 70
     1
102
RTVSPost2010Prop30
280
     1
102
RTVSPost2010PropOp30
 70
     1
102
RTVSPost2010Prop31
280
     0
102
RTVSPost2010PropOp31
 70
     1
102
RTVSPost2010Prop32
280
     0
102
RTVSPost2010PropOp32
 70
     1
102
RTVSPost2010Prop33
280
     0
102
RTVSPost2010PropOp33
 70
     1
102
RTVSPost2010Prop34
280
     0
102
RTVSPost2010PropOp34
 70
     1
102
RTVSPost2010Prop35
280
     0
102
RTVSPost2010PropOp35
 70
     1
102
RTVSPost2010Prop36
280
     0
102
RTVSPost2010PropOp36
 70
     1
102
RTVSPost2010Prop37
 90
       50
102
RTVSPost2010PropOp37
 70
     1
102
RTVSPost2010Prop38
140
0.0
102
RTVSPost2010PropOp38
 70
     1
102
RTVSPost2010Prop39
140
1.0
102
RTVSPost2010PropOp39
 70
     1
102
RTVSPost2010Prop40
 90
        0
102
RTVSPost2010PropOp40
 70
     1
102
RTVSPost2010Prop41ColorIndex
 90
       18
102
RTVSPost2010Prop41ColorRGB
 90
        0
102
RTVSPost2010PropOp41
 70
     1
102
RTVSPost2010Prop42
 90
       50
102
RTVSPost2010PropOp42
 70
     1
102
RTVSPost2010Prop43
 90
        3
102
RTVSPost2010PropOp43
 70
     1
102
RTVSPost2010Prop44ColorIndex
 90
        5
102
RTVSPost2010Prop44ColorRGB
 90
      255
102
RTVSPost2010PropOp44
 70
     1
102
RTVSPost2010Prop45
280
     0
102
RTVSPost2010PropOp45
 70
     1
102
RTVSPost2010Prop46
 90
       50
102
RTVSPost2010PropOp46
 70
     1
102
RTVSPost2010Prop47
 90
       50
102
RTVSPost2010PropOp47
 70
     1
102
RTVSPost2010Prop48
 90
       50
102
RTVSPost2010PropOp48
 70
     1
102
RTVSPost2010Prop49
280
     0
102
RTVSPost2010PropOp49
 70
     1
102
RTVSPost2010Prop50
 90
       50
102
RTVSPost2010PropOp50
 70
     1
102
RTVSPost2010Prop51ColorIndex
 90
      256
102
RTVSPost2010Prop51ColorRGB
 90
-16777216
102
RTVSPost2010PropOp51
 70
     0
102
RTVSPost2010Prop52
140
1.0
102
RTVSPost2010PropOp52
 70
     0
102
RTVSPost2010Prop53
 90
        2
102
RTVSPost2010PropOp53
 70
     1
102
RTVSPost2010Prop54
  1
strokes_ogs.tif
102
RTVSPost2010PropOp54
 70
     1
102
RTVSPost2010Prop55
280
     0
102
RTVSPost2010PropOp55
 70
     1
102
RTVSPost2010Prop56
140
1.0
102
RTVSPost2010PropOp56
 70
     1
102
RTVSPost2010Prop57
140
1.0
102
RTVSPost2010PropOp57
 70
     1
  0
XRECORD
  5
33E
102
{ACAD_REACTORS
330
33D
102
}
330
33D
100
AcDbXrecord
280
     1
102
RTVSPost2010Prop28
280
     0
102
RTVSPost2010PropOp28
 70
     1
102
RTVSPost2010Prop29
280
     1
102
RTVSPost2010PropOp29
 70
     1
102
RTVSPost2010Prop30
280
     1
102
RTVSPost2010PropOp30
 70
     1
102
RTVSPost2010Prop31
280
     0
102
RTVSPost2010PropOp31
 70
     1
102
RTVSPost2010Prop32
280
     0
102
RTVSPost2010PropOp32
 70
     1
102
RTVSPost2010Prop33
280
     0
102
RTVSPost2010PropOp33
 70
     1
102
RTVSPost2010Prop34
280
     0
102
RTVSPost2010PropOp34
 70
     1
102
RTVSPost2010Prop35
280
     0
102
RTVSPost2010PropOp35
 70
     1
102
RTVSPost2010Prop36
280
     0
102
RTVSPost2010PropOp36
 70
     1
102
RTVSPost2010Prop37
 90
       50
102
RTVSPost2010PropOp37
 70
     1
102
RTVSPost2010Prop38
140
0.0
102
RTVSPost2010PropOp38
 70
     1
102
RTVSPost2010Prop39
140
1.0
102
RTVSPost2010PropOp39
 70
     1
102
RTVSPost2010Prop40
 90
        0
102
RTVSPost2010PropOp40
 70
     1
102
RTVSPost2010Prop41ColorIndex
 90
       18
102
RTVSPost2010Prop41ColorRGB
 90
        0
102
RTVSPost2010PropOp41
 70
     1
102
RTVSPost2010Prop42
 90
       50
102
RTVSPost2010PropOp42
 70
     1
102
RTVSPost2010Prop43
 90
        3
102
RTVSPost2010PropOp43
 70
     1
102
RTVSPost2010Prop44ColorIndex
 90
        5
102
RTVSPost2010Prop44ColorRGB
 90
      255
102
RTVSPost2010PropOp44
 70
     1
102
RTVSPost2010Prop45
280
     0
102
RTVSPost2010PropOp45
 70
     1
102
RTVSPost2010Prop46
 90
       50
102
RTVSPost2010PropOp46
 70
     1
102
RTVSPost2010Prop47
 90
       50
102
RTVSPost2010PropOp47
 70
     1
102
RTVSPost2010Prop48
 90
       50
102
RTVSPost2010PropOp48
 70
     1
102
RTVSPost2010Prop49
280
     0
102
RTVSPost2010PropOp49
 70
     1
102
RTVSPost2010Prop50
 90
       50
102
RTVSPost2010PropOp50
 70
     1
102
RTVSPost2010Prop51ColorIndex
 90
      256
102
RTVSPost2010Prop51ColorRGB
 90
-16777216
102
RTVSPost2010PropOp51
 70
     0
102
RTVSPost2010Prop52
140
1.0
102
RTVSPost2010PropOp52
 70
     0
102
RTVSPost2010Prop53
 90
        2
102
RTVSPost2010PropOp53
 70
     1
102
RTVSPost2010Prop54
  1
strokes_ogs.tif
102
RTVSPost2010PropOp54
 70
     1
102
RTVSPost2010Prop55
280
     0
102
RTVSPost2010PropOp55
 70
     1
102
RTVSPost2010Prop56
140
1.0
102
RTVSPost2010PropOp56
 70
     1
102
RTVSPost2010Prop57
140
1.0
102
RTVSPost2010PropOp57
 70
     1
  0
XRECORD
  5
346
102
{ACAD_REACTORS
330
345
102
}
330
345
100
AcDbXrecord
280
     1
102
RTVSPost2010Prop28
280
     0
102
RTVSPost2010PropOp28
 70
     1
102
RTVSPost2010Prop29
280
     1
102
RTVSPost2010PropOp29
 70
     1
102
RTVSPost2010Prop30
280
     1
102
RTVSPost2010PropOp30
 70
     1
102
RTVSPost2010Prop31
280
     0
102
RTVSPost2010PropOp31
 70
     1
102
RTVSPost2010Prop32
280
     0
102
RTVSPost2010PropOp32
 70
     1
102
RTVSPost2010Prop33
280
     0
102
RTVSPost2010PropOp33
 70
     1
102
RTVSPost2010Prop34
280
     0
102
RTVSPost2010PropOp34
 70
     1
102
RTVSPost2010Prop35
280
     0
102
RTVSPost2010PropOp35
 70
     1
102
RTVSPost2010Prop36
280
     0
102
RTVSPost2010PropOp36
 70
     1
102
RTVSPost2010Prop37
 90
       50
102
RTVSPost2010PropOp37
 70
     1
102
RTVSPost2010Prop38
140
0.0
102
RTVSPost2010PropOp38
 70
     1
102
RTVSPost2010Prop39
140
1.0
102
RTVSPost2010PropOp39
 70
     1
102
RTVSPost2010Prop40
 90
        0
102
RTVSPost2010PropOp40
 70
     1
102
RTVSPost2010Prop41ColorIndex
 90
       18
102
RTVSPost2010Prop41ColorRGB
 90
        0
102
RTVSPost2010PropOp41
 70
     1
102
RTVSPost2010Prop42
 90
       50
102
RTVSPost2010PropOp42
 70
     1
102
RTVSPost2010Prop43
 90
        3
102
RTVSPost2010PropOp43
 70
     1
102
RTVSPost2010Prop44ColorIndex
 90
        5
102
RTVSPost2010Prop44ColorRGB
 90
      255
102
RTVSPost2010PropOp44
 70
     1
102
RTVSPost2010Prop45
280
     0
102
RTVSPost2010PropOp45
 70
     1
102
RTVSPost2010Prop46
 90
       50
102
RTVSPost2010PropOp46
 70
     1
102
RTVSPost2010Prop47
 90
       50
102
RTVSPost2010PropOp47
 70
     1
102
RTVSPost2010Prop48
 90
       50
102
RTVSPost2010PropOp48
 70
     1
102
RTVSPost2010Prop49
280
     0
102
RTVSPost2010PropOp49
 70
     1
102
RTVSPost2010Prop50
 90
       50
102
RTVSPost2010PropOp50
 70
     1
102
RTVSPost2010Prop51ColorIndex
 90
      256
102
RTVSPost2010Prop51ColorRGB
 90
-16777216
102
RTVSPost2010PropOp51
 70
     0
102
RTVSPost2010Prop52
140
1.0
102
RTVSPost2010PropOp52
 70
     0
102
RTVSPost2010Prop53
 90
        2
102
RTVSPost2010PropOp53
 70
     1
102
RTVSPost2010Prop54
  1
strokes_ogs.tif
102
RTVSPost2010PropOp54
 70
     1
102
RTVSPost2010Prop55
280
     0
102
RTVSPost2010PropOp55
 70
     1
102
RTVSPost2010Prop56
140
1.0
102
RTVSPost2010PropOp56
 70
     1
102
RTVSPost2010Prop57
140
1.0
102
RTVSPost2010PropOp57
 70
     1
  0
XRECORD
  5
33A
102
{ACAD_REACTORS
330
339
102
}
330
339
100
AcDbXrecord
280
     1
102
RTVSPost2010Prop28
280
     0
102
RTVSPost2010PropOp28
 70
     1
102
RTVSPost2010Prop29
280
     1
102
RTVSPost2010PropOp29
 70
     1
102
RTVSPost2010Prop30
280
     1
102
RTVSPost2010PropOp30
 70
     1
102
RTVSPost2010Prop31
280
     0
102
RTVSPost2010PropOp31
 70
     1
102
RTVSPost2010Prop32
280
     0
102
RTVSPost2010PropOp32
 70
     1
102
RTVSPost2010Prop33
280
     0
102
RTVSPost2010PropOp33
 70
     1
102
RTVSPost2010Prop34
280
     0
102
RTVSPost2010PropOp34
 70
     1
102
RTVSPost2010Prop35
280
     0
102
RTVSPost2010PropOp35
 70
     1
102
RTVSPost2010Prop36
280
     0
102
RTVSPost2010PropOp36
 70
     1
102
RTVSPost2010Prop37
 90
       50
102
RTVSPost2010PropOp37
 70
     1
102
RTVSPost2010Prop38
140
0.0
102
RTVSPost2010PropOp38
 70
     1
102
RTVSPost2010Prop39
140
1.0
102
RTVSPost2010PropOp39
 70
     1
102
RTVSPost2010Prop40
 90
        0
102
RTVSPost2010PropOp40
 70
     1
102
RTVSPost2010Prop41ColorIndex
 90
       18
102
RTVSPost2010Prop41ColorRGB
 90
        0
102
RTVSPost2010PropOp41
 70
     1
102
RTVSPost2010Prop42
 90
       50
102
RTVSPost2010PropOp42
 70
     1
102
RTVSPost2010Prop43
 90
        3
102
RTVSPost2010PropOp43
 70
     1
102
RTVSPost2010Prop44ColorIndex
 90
        5
102
RTVSPost2010Prop44ColorRGB
 90
      255
102
RTVSPost2010PropOp44
 70
     1
102
RTVSPost2010Prop45
280
     0
102
RTVSPost2010PropOp45
 70
     1
102
RTVSPost2010Prop46
 90
       50
102
RTVSPost2010PropOp46
 70
     1
102
RTVSPost2010Prop47
 90
       50
102
RTVSPost2010PropOp47
 70
     1
102
RTVSPost2010Prop48
 90
       50
102
RTVSPost2010PropOp48
 70
     1
102
RTVSPost2010Prop49
280
     0
102
RTVSPost2010PropOp49
 70
     1
102
RTVSPost2010Prop50
 90
       50
102
RTVSPost2010PropOp50
 70
     1
102
RTVSPost2010Prop51ColorIndex
 90
      256
102
RTVSPost2010Prop51ColorRGB
 90
-16777216
102
RTVSPost2010PropOp51
 70
     0
102
RTVSPost2010Prop52
140
1.0
102
RTVSPost2010PropOp52
 70
     0
102
RTVSPost2010Prop53
 90
        2
102
RTVSPost2010PropOp53
 70
     1
102
RTVSPost2010Prop54
  1
strokes_ogs.tif
102
RTVSPost2010PropOp54
 70
     1
102
RTVSPost2010Prop55
280
     0
102
RTVSPost2010PropOp55
 70
     1
102
RTVSPost2010Prop56
140
1.0
102
RTVSPost2010PropOp56
 70
     1
102
RTVSPost2010Prop57
140
1.0
102
RTVSPost2010PropOp57
 70
     1
  0
XRECORD
  5
33C
102
{ACAD_REACTORS
330
33B
102
}
330
33B
100
AcDbXrecord
280
     1
102
RTVSPost2010Prop28
280
     0
102
RTVSPost2010PropOp28
 70
     1
102
RTVSPost2010Prop29
280
     1
102
RTVSPost2010PropOp29
 70
     1
102
RTVSPost2010Prop30
280
     1
102
RTVSPost2010PropOp30
 70
     1
102
RTVSPost2010Prop31
280
     0
102
RTVSPost2010PropOp31
 70
     1
102
RTVSPost2010Prop32
280
     0
102
RTVSPost2010PropOp32
 70
     1
102
RTVSPost2010Prop33
280
     0
102
RTVSPost2010PropOp33
 70
     1
102
RTVSPost2010Prop34
280
     0
102
RTVSPost2010PropOp34
 70
     1
102
RTVSPost2010Prop35
280
     0
102
RTVSPost2010PropOp35
 70
     1
102
RTVSPost2010Prop36
280
     0
102
RTVSPost2010PropOp36
 70
     1
102
RTVSPost2010Prop37
 90
       50
102
RTVSPost2010PropOp37
 70
     1
102
RTVSPost2010Prop38
140
0.0
102
RTVSPost2010PropOp38
 70
     1
102
RTVSPost2010Prop39
140
1.0
102
RTVSPost2010PropOp39
 70
     1
102
RTVSPost2010Prop40
 90
        0
102
RTVSPost2010PropOp40
 70
     1
102
RTVSPost2010Prop41ColorIndex
 90
       18
102
RTVSPost2010Prop41ColorRGB
 90
        0
102
RTVSPost2010PropOp41
 70
     1
102
RTVSPost2010Prop42
 90
       50
102
RTVSPost2010PropOp42
 70
     1
102
RTVSPost2010Prop43
 90
        3
102
RTVSPost2010PropOp43
 70
     1
102
RTVSPost2010Prop44ColorIndex
 90
        5
102
RTVSPost2010Prop44ColorRGB
 90
      255
102
RTVSPost2010PropOp44
 70
     1
102
RTVSPost2010Prop45
280
     0
102
RTVSPost2010PropOp45
 70
     1
102
RTVSPost2010Prop46
 90
       50
102
RTVSPost2010PropOp46
 70
     1
102
RTVSPost2010Prop47
 90
       50
102
RTVSPost2010PropOp47
 70
     1
102
RTVSPost2010Prop48
 90
       50
102
RTVSPost2010PropOp48
 70
     1
102
RTVSPost2010Prop49
280
     0
102
RTVSPost2010PropOp49
 70
     1
102
RTVSPost2010Prop50
 90
       50
102
RTVSPost2010PropOp50
 70
     1
102
RTVSPost2010Prop51ColorIndex
 90
      256
102
RTVSPost2010Prop51ColorRGB
 90
-16777216
102
RTVSPost2010PropOp51
 70
     0
102
RTVSPost2010Prop52
140
1.0
102
RTVSPost2010PropOp52
 70
     0
102
RTVSPost2010Prop53
 90
        2
102
RTVSPost2010PropOp53
 70
     1
102
RTVSPost2010Prop54
  1
strokes_ogs.tif
102
RTVSPost2010PropOp54
 70
     1
102
RTVSPost2010Prop55
280
     0
102
RTVSPost2010PropOp55
 70
     1
102
RTVSPost2010Prop56
140
1.0
102
RTVSPost2010PropOp56
 70
     1
102
RTVSPost2010Prop57
140
1.0
102
RTVSPost2010PropOp57
 70
     1
  0
XRECORD
  5
34C
102
{ACAD_REACTORS
330
34B
102
}
330
34B
100
AcDbXrecord
280
     1
102
RTVSPost2010Prop28
280
     0
102
RTVSPost2010PropOp28
 70
     0
102
RTVSPost2010Prop29
280
     1
102
RTVSPost2010PropOp29
 70
     0
102
RTVSPost2010Prop30
280
     1
102
RTVSPost2010PropOp30
 70
     0
102
RTVSPost2010Prop31
280
     0
102
RTVSPost2010PropOp31
 70
     0
102
RTVSPost2010Prop32
280
     0
102
RTVSPost2010PropOp32
 70
     0
102
RTVSPost2010Prop33
280
     0
102
RTVSPost2010PropOp33
 70
     0
102
RTVSPost2010Prop34
280
     0
102
RTVSPost2010PropOp34
 70
     0
102
RTVSPost2010Prop35
280
     0
102
RTVSPost2010PropOp35
 70
     0
102
RTVSPost2010Prop36
280
     0
102
RTVSPost2010PropOp36
 70
     0
102
RTVSPost2010Prop37
 90
       50
102
RTVSPost2010PropOp37
 70
     0
102
RTVSPost2010Prop38
140
0.0
102
RTVSPost2010PropOp38
 70
     0
102
RTVSPost2010Prop39
140
1.0
102
RTVSPost2010PropOp39
 70
     0
102
RTVSPost2010Prop40
 90
        0
102
RTVSPost2010PropOp40
 70
     0
102
RTVSPost2010Prop41ColorIndex
 90
       18
102
RTVSPost2010Prop41ColorRGB
 90
        0
102
RTVSPost2010PropOp41
 70
     0
102
RTVSPost2010Prop42
 90
       50
102
RTVSPost2010PropOp42
 70
     0
102
RTVSPost2010Prop43
 90
        3
102
RTVSPost2010PropOp43
 70
     0
102
RTVSPost2010Prop44ColorIndex
 90
        5
102
RTVSPost2010Prop44ColorRGB
 90
      255
102
RTVSPost2010PropOp44
 70
     0
102
RTVSPost2010Prop45
280
     0
102
RTVSPost2010PropOp45
 70
     0
102
RTVSPost2010Prop46
 90
       50
102
RTVSPost2010PropOp46
 70
     0
102
RTVSPost2010Prop47
 90
       50
102
RTVSPost2010PropOp47
 70
     0
102
RTVSPost2010Prop48
 90
       50
102
RTVSPost2010PropOp48
 70
     0
102
RTVSPost2010Prop49
280
     0
102
RTVSPost2010PropOp49
 70
     0
102
RTVSPost2010Prop50
 90
       50
102
RTVSPost2010PropOp50
 70
     0
102
RTVSPost2010Prop51ColorIndex
 90
      256
102
RTVSPost2010Prop51ColorRGB
 90
-16777216
102
RTVSPost2010PropOp51
 70
     0
102
RTVSPost2010Prop52
140
1.0
102
RTVSPost2010PropOp52
 70
     0
102
RTVSPost2010Prop53
 90
        2
102
RTVSPost2010PropOp53
 70
     0
102
RTVSPost2010Prop54
  1
strokes_ogs.tif
102
RTVSPost2010PropOp54
 70
     0
102
RTVSPost2010Prop55
280
     0
102
RTVSPost2010PropOp55
 70
     0
102
RTVSPost2010Prop56
140
1.0
102
RTVSPost2010PropOp56
 70
     0
102
RTVSPost2010Prop57
140
1.0
102
RTVSPost2010PropOp57
 70
     0
  0
XRECORD
  5
344
102
{ACAD_REACTORS
330
343
102
}
330
343
100
AcDbXrecord
280
     1
102
RTVSPost2010Prop28
280
     0
102
RTVSPost2010PropOp28
 70
     1
102
RTVSPost2010Prop29
280
     1
102
RTVSPost2010PropOp29
 70
     1
102
RTVSPost2010Prop30
280
     1
102
RTVSPost2010PropOp30
 70
     1
102
RTVSPost2010Prop31
280
     0
102
RTVSPost2010PropOp31
 70
     1
102
RTVSPost2010Prop32
280
     0
102
RTVSPost2010PropOp32
 70
     1
102
RTVSPost2010Prop33
280
     0
102
RTVSPost2010PropOp33
 70
     1
102
RTVSPost2010Prop34
280
     0
102
RTVSPost2010PropOp34
 70
     1
102
RTVSPost2010Prop35
280
     0
102
RTVSPost2010PropOp35
 70
     1
102
RTVSPost2010Prop36
280
     0
102
RTVSPost2010PropOp36
 70
     1
102
RTVSPost2010Prop37
 90
       50
102
RTVSPost2010PropOp37
 70
     1
102
RTVSPost2010Prop38
140
0.0
102
RTVSPost2010PropOp38
 70
     1
102
RTVSPost2010Prop39
140
1.0
102
RTVSPost2010PropOp39
 70
     1
102
RTVSPost2010Prop40
 90
        0
102
RTVSPost2010PropOp40
 70
     1
102
RTVSPost2010Prop41ColorIndex
 90
       18
102
RTVSPost2010Prop41ColorRGB
 90
        0
102
RTVSPost2010PropOp41
 70
     1
102
RTVSPost2010Prop42
 90
       50
102
RTVSPost2010PropOp42
 70
     1
102
RTVSPost2010Prop43
 90
        3
102
RTVSPost2010PropOp43
 70
     1
102
RTVSPost2010Prop44ColorIndex
 90
        5
102
RTVSPost2010Prop44ColorRGB
 90
      255
102
RTVSPost2010PropOp44
 70
     1
102
RTVSPost2010Prop45
280
     0
102
RTVSPost2010PropOp45
 70
     1
102
RTVSPost2010Prop46
 90
       50
102
RTVSPost2010PropOp46
 70
     1
102
RTVSPost2010Prop47
 90
       50
102
RTVSPost2010PropOp47
 70
     1
102
RTVSPost2010Prop48
 90
       50
102
RTVSPost2010PropOp48
 70
     1
102
RTVSPost2010Prop49
280
     0
102
RTVSPost2010PropOp49
 70
     1
102
RTVSPost2010Prop50
 90
       50
102
RTVSPost2010PropOp50
 70
     1
102
RTVSPost2010Prop51ColorIndex
 90
      256
102
RTVSPost2010Prop51ColorRGB
 90
-16777216
102
RTVSPost2010PropOp51
 70
     0
102
RTVSPost2010Prop52
140
1.0
102
RTVSPost2010PropOp52
 70
     0
102
RTVSPost2010Prop53
 90
        2
102
RTVSPost2010PropOp53
 70
     1
102
RTVSPost2010Prop54
  1
strokes_ogs.tif
102
RTVSPost2010PropOp54
 70
     1
102
RTVSPost2010Prop55
280
     0
102
RTVSPost2010PropOp55
 70
     1
102
RTVSPost2010Prop56
140
1.0
102
RTVSPost2010PropOp56
 70
     1
102
RTVSPost2010Prop57
140
1.0
102
RTVSPost2010PropOp57
 70
     1
  0
XRECORD
  5
328
102
{ACAD_REACTORS
330
327
102
}
330
327
100
AcDbXrecord
280
     1
102
RTVSPost2010Prop28
280
     0
102
RTVSPost2010PropOp28
 70
     1
102
RTVSPost2010Prop29
280
     1
102
RTVSPost2010PropOp29
 70
     1
102
RTVSPost2010Prop30
280
     1
102
RTVSPost2010PropOp30
 70
     1
102
RTVSPost2010Prop31
280
     0
102
RTVSPost2010PropOp31
 70
     1
102
RTVSPost2010Prop32
280
     0
102
RTVSPost2010PropOp32
 70
     1
102
RTVSPost2010Prop33
280
     0
102
RTVSPost2010PropOp33
 70
     1
102
RTVSPost2010Prop34
280
     0
102
RTVSPost2010PropOp34
 70
     1
102
RTVSPost2010Prop35
280
     0
102
RTVSPost2010PropOp35
 70
     1
102
RTVSPost2010Prop36
280
     0
102
RTVSPost2010PropOp36
 70
     1
102
RTVSPost2010Prop37
 90
       50
102
RTVSPost2010PropOp37
 70
     1
102
RTVSPost2010Prop38
140
0.0
102
RTVSPost2010PropOp38
 70
     1
102
RTVSPost2010Prop39
140
1.0
102
RTVSPost2010PropOp39
 70
     1
102
RTVSPost2010Prop40
 90
        0
102
RTVSPost2010PropOp40
 70
     1
102
RTVSPost2010Prop41ColorIndex
 90
       18
102
RTVSPost2010Prop41ColorRGB
 90
        0
102
RTVSPost2010PropOp41
 70
     1
102
RTVSPost2010Prop42
 90
       50
102
RTVSPost2010PropOp42
 70
     1
102
RTVSPost2010Prop43
 90
        3
102
RTVSPost2010PropOp43
 70
     1
102
RTVSPost2010Prop44ColorIndex
 90
        5
102
RTVSPost2010Prop44ColorRGB
 90
      255
102
RTVSPost2010PropOp44
 70
     1
102
RTVSPost2010Prop45
280
     0
102
RTVSPost2010PropOp45
 70
     1
102
RTVSPost2010Prop46
 90
       50
102
RTVSPost2010PropOp46
 70
     1
102
RTVSPost2010Prop47
 90
       50
102
RTVSPost2010PropOp47
 70
     1
102
RTVSPost2010Prop48
 90
       50
102
RTVSPost2010PropOp48
 70
     1
102
RTVSPost2010Prop49
280
     0
102
RTVSPost2010PropOp49
 70
     1
102
RTVSPost2010Prop50
 90
       50
102
RTVSPost2010PropOp50
 70
     1
102
RTVSPost2010Prop51ColorIndex
 90
      256
102
RTVSPost2010Prop51ColorRGB
 90
-16777216
102
RTVSPost2010PropOp51
 70
     0
102
RTVSPost2010Prop52
140
1.0
102
RTVSPost2010PropOp52
 70
     0
102
RTVSPost2010Prop53
 90
        2
102
RTVSPost2010PropOp53
 70
     1
102
RTVSPost2010Prop54
  1
strokes_ogs.tif
102
RTVSPost2010PropOp54
 70
     1
102
RTVSPost2010Prop55
280
     0
102
RTVSPost2010PropOp55
 70
     1
102
RTVSPost2010Prop56
140
1.0
102
RTVSPost2010PropOp56
 70
     1
102
RTVSPost2010Prop57
140
1.0
102
RTVSPost2010PropOp57
 70
     1
  0
XRECORD
  5
32A
102
{ACAD_REACTORS
330
329
102
}
330
329
100
AcDbXrecord
280
     1
102
RTVSPost2010Prop28
280
     0
102
RTVSPost2010PropOp28
 70
     1
102
RTVSPost2010Prop29
280
     1
102
RTVSPost2010PropOp29
 70
     1
102
RTVSPost2010Prop30
280
     1
102
RTVSPost2010PropOp30
 70
     1
102
RTVSPost2010Prop31
280
     0
102
RTVSPost2010PropOp31
 70
     1
102
RTVSPost2010Prop32
280
     0
102
RTVSPost2010PropOp32
 70
     1
102
RTVSPost2010Prop33
280
     0
102
RTVSPost2010PropOp33
 70
     1
102
RTVSPost2010Prop34
280
     0
102
RTVSPost2010PropOp34
 70
     1
102
RTVSPost2010Prop35
280
     0
102
RTVSPost2010PropOp35
 70
     1
102
RTVSPost2010Prop36
280
     0
102
RTVSPost2010PropOp36
 70
     1
102
RTVSPost2010Prop37
 90
       50
102
RTVSPost2010PropOp37
 70
     1
102
RTVSPost2010Prop38
140
0.0
102
RTVSPost2010PropOp38
 70
     1
102
RTVSPost2010Prop39
140
1.0
102
RTVSPost2010PropOp39
 70
     1
102
RTVSPost2010Prop40
 90
        0
102
RTVSPost2010PropOp40
 70
     1
102
RTVSPost2010Prop41ColorIndex
 90
       18
102
RTVSPost2010Prop41ColorRGB
 90
        0
102
RTVSPost2010PropOp41
 70
     1
102
RTVSPost2010Prop42
 90
       50
102
RTVSPost2010PropOp42
 70
     1
102
RTVSPost2010Prop43
 90
        3
102
RTVSPost2010PropOp43
 70
     1
102
RTVSPost2010Prop44ColorIndex
 90
        5
102
RTVSPost2010Prop44ColorRGB
 90
      255
102
RTVSPost2010PropOp44
 70
     1
102
RTVSPost2010Prop45
280
     0
102
RTVSPost2010PropOp45
 70
     1
102
RTVSPost2010Prop46
 90
       50
102
RTVSPost2010PropOp46
 70
     1
102
RTVSPost2010Prop47
 90
       50
102
RTVSPost2010PropOp47
 70
     1
102
RTVSPost2010Prop48
 90
       50
102
RTVSPost2010PropOp48
 70
     1
102
RTVSPost2010Prop49
280
     0
102
RTVSPost2010PropOp49
 70
     1
102
RTVSPost2010Prop50
 90
       50
102
RTVSPost2010PropOp50
 70
     1
102
RTVSPost2010Prop51ColorIndex
 90
      256
102
RTVSPost2010Prop51ColorRGB
 90
-16777216
102
RTVSPost2010PropOp51
 70
     0
102
RTVSPost2010Prop52
140
1.0
102
RTVSPost2010PropOp52
 70
     0
102
RTVSPost2010Prop53
 90
        2
102
RTVSPost2010PropOp53
 70
     1
102
RTVSPost2010Prop54
  1
strokes_ogs.tif
102
RTVSPost2010PropOp54
 70
     1
102
RTVSPost2010Prop55
280
     0
102
RTVSPost2010PropOp55
 70
     1
102
RTVSPost2010Prop56
140
1.0
102
RTVSPost2010PropOp56
 70
     1
102
RTVSPost2010Prop57
140
1.0
102
RTVSPost2010PropOp57
 70
     1
  0
XRECORD
  5
32C
102
{ACAD_REACTORS
330
32B
102
}
330
32B
100
AcDbXrecord
280
     1
102
RTVSPost2010Prop28
280
     0
102
RTVSPost2010PropOp28
 70
     1
102
RTVSPost2010Prop29
280
     1
102
RTVSPost2010PropOp29
 70
     1
102
RTVSPost2010Prop30
280
     1
102
RTVSPost2010PropOp30
 70
     1
102
RTVSPost2010Prop31
280
     0
102
RTVSPost2010PropOp31
 70
     1
102
RTVSPost2010Prop32
280
     0
102
RTVSPost2010PropOp32
 70
     1
102
RTVSPost2010Prop33
280
     0
102
RTVSPost2010PropOp33
 70
     1
102
RTVSPost2010Prop34
280
     0
102
RTVSPost2010PropOp34
 70
     1
102
RTVSPost2010Prop35
280
     0
102
RTVSPost2010PropOp35
 70
     1
102
RTVSPost2010Prop36
280
     0
102
RTVSPost2010PropOp36
 70
     1
102
RTVSPost2010Prop37
 90
       50
102
RTVSPost2010PropOp37
 70
     1
102
RTVSPost2010Prop38
140
0.0
102
RTVSPost2010PropOp38
 70
     1
102
RTVSPost2010Prop39
140
1.0
102
RTVSPost2010PropOp39
 70
     1
102
RTVSPost2010Prop40
 90
        0
102
RTVSPost2010PropOp40
 70
     1
102
RTVSPost2010Prop41ColorIndex
 90
       18
102
RTVSPost2010Prop41ColorRGB
 90
        0
102
RTVSPost2010PropOp41
 70
     1
102
RTVSPost2010Prop42
 90
       50
102
RTVSPost2010PropOp42
 70
     1
102
RTVSPost2010Prop43
 90
        3
102
RTVSPost2010PropOp43
 70
     1
102
RTVSPost2010Prop44ColorIndex
 90
        5
102
RTVSPost2010Prop44ColorRGB
 90
      255
102
RTVSPost2010PropOp44
 70
     1
102
RTVSPost2010Prop45
280
     0
102
RTVSPost2010PropOp45
 70
     1
102
RTVSPost2010Prop46
 90
       50
102
RTVSPost2010PropOp46
 70
     1
102
RTVSPost2010Prop47
 90
       50
102
RTVSPost2010PropOp47
 70
     1
102
RTVSPost2010Prop48
 90
       50
102
RTVSPost2010PropOp48
 70
     1
102
RTVSPost2010Prop49
280
     0
102
RTVSPost2010PropOp49
 70
     1
102
RTVSPost2010Prop50
 90
       50
102
RTVSPost2010PropOp50
 70
     1
102
RTVSPost2010Prop51ColorIndex
 90
      256
102
RTVSPost2010Prop51ColorRGB
 90
-16777216
102
RTVSPost2010PropOp51
 70
     0
102
RTVSPost2010Prop52
140
1.0
102
RTVSPost2010PropOp52
 70
     0
102
RTVSPost2010Prop53
 90
        2
102
RTVSPost2010PropOp53
 70
     1
102
RTVSPost2010Prop54
  1
strokes_ogs.tif
102
RTVSPost2010PropOp54
 70
     1
102
RTVSPost2010Prop55
280
     0
102
RTVSPost2010PropOp55
 70
     1
102
RTVSPost2010Prop56
140
1.0
102
RTVSPost2010PropOp56
 70
     1
102
RTVSPost2010Prop57
140
1.0
102
RTVSPost2010PropOp57
 70
     1
  0
XRECORD
  5
32E
102
{ACAD_REACTORS
330
32D
102
}
330
32D
100
AcDbXrecord
280
     1
102
RTVSPost2010Prop28
280
     0
102
RTVSPost2010PropOp28
 70
     1
102
RTVSPost2010Prop29
280
     1
102
RTVSPost2010PropOp29
 70
     1
102
RTVSPost2010Prop30
280
     1
102
RTVSPost2010PropOp30
 70
     1
102
RTVSPost2010Prop31
280
     0
102
RTVSPost2010PropOp31
 70
     1
102
RTVSPost2010Prop32
280
     0
102
RTVSPost2010PropOp32
 70
     1
102
RTVSPost2010Prop33
280
     0
102
RTVSPost2010PropOp33
 70
     1
102
RTVSPost2010Prop34
280
     0
102
RTVSPost2010PropOp34
 70
     1
102
RTVSPost2010Prop35
280
     0
102
RTVSPost2010PropOp35
 70
     1
102
RTVSPost2010Prop36
280
     0
102
RTVSPost2010PropOp36
 70
     1
102
RTVSPost2010Prop37
 90
       50
102
RTVSPost2010PropOp37
 70
     1
102
RTVSPost2010Prop38
140
0.0
102
RTVSPost2010PropOp38
 70
     1
102
RTVSPost2010Prop39
140
1.0
102
RTVSPost2010PropOp39
 70
     1
102
RTVSPost2010Prop40
 90
        0
102
RTVSPost2010PropOp40
 70
     1
102
RTVSPost2010Prop41ColorIndex
 90
       18
102
RTVSPost2010Prop41ColorRGB
 90
        0
102
RTVSPost2010PropOp41
 70
     1
102
RTVSPost2010Prop42
 90
       50
102
RTVSPost2010PropOp42
 70
     1
102
RTVSPost2010Prop43
 90
        3
102
RTVSPost2010PropOp43
 70
     1
102
RTVSPost2010Prop44ColorIndex
 90
        5
102
RTVSPost2010Prop44ColorRGB
 90
      255
102
RTVSPost2010PropOp44
 70
     1
102
RTVSPost2010Prop45
280
     0
102
RTVSPost2010PropOp45
 70
     1
102
RTVSPost2010Prop46
 90
       50
102
RTVSPost2010PropOp46
 70
     1
102
RTVSPost2010Prop47
 90
       50
102
RTVSPost2010PropOp47
 70
     1
102
RTVSPost2010Prop48
 90
       50
102
RTVSPost2010PropOp48
 70
     1
102
RTVSPost2010Prop49
280
     0
102
RTVSPost2010PropOp49
 70
     1
102
RTVSPost2010Prop50
 90
       50
102
RTVSPost2010PropOp50
 70
     1
102
RTVSPost2010Prop51ColorIndex
 90
      256
102
RTVSPost2010Prop51ColorRGB
 90
-16777216
102
RTVSPost2010PropOp51
 70
     0
102
RTVSPost2010Prop52
140
1.0
102
RTVSPost2010PropOp52
 70
     0
102
RTVSPost2010Prop53
 90
        2
102
RTVSPost2010PropOp53
 70
     1
102
RTVSPost2010Prop54
  1
strokes_ogs.tif
102
RTVSPost2010PropOp54
 70
     1
102
RTVSPost2010Prop55
280
     0
102
RTVSPost2010PropOp55
 70
     1
102
RTVSPost2010Prop56
140
1.0
102
RTVSPost2010PropOp56
 70
     1
102
RTVSPost2010Prop57
140
1.0
102
RTVSPost2010PropOp57
 70
     1
  0
XRECORD
  5
334
102
{ACAD_REACTORS
330
333
102
}
330
333
100
AcDbXrecord
280
     1
102
RTVSPost2010Prop28
280
     0
102
RTVSPost2010PropOp28
 70
     1
102
RTVSPost2010Prop29
280
     1
102
RTVSPost2010PropOp29
 70
     1
102
RTVSPost2010Prop30
280
     1
102
RTVSPost2010PropOp30
 70
     1
102
RTVSPost2010Prop31
280
     0
102
RTVSPost2010PropOp31
 70
     1
102
RTVSPost2010Prop32
280
     0
102
RTVSPost2010PropOp32
 70
     1
102
RTVSPost2010Prop33
280
     0
102
RTVSPost2010PropOp33
 70
     1
102
RTVSPost2010Prop34
280
     0
102
RTVSPost2010PropOp34
 70
     1
102
RTVSPost2010Prop35
280
     0
102
RTVSPost2010PropOp35
 70
     1
102
RTVSPost2010Prop36
280
     0
102
RTVSPost2010PropOp36
 70
     1
102
RTVSPost2010Prop37
 90
       50
102
RTVSPost2010PropOp37
 70
     1
102
RTVSPost2010Prop38
140
0.0
102
RTVSPost2010PropOp38
 70
     1
102
RTVSPost2010Prop39
140
1.0
102
RTVSPost2010PropOp39
 70
     1
102
RTVSPost2010Prop40
 90
        0
102
RTVSPost2010PropOp40
 70
     1
102
RTVSPost2010Prop41ColorIndex
 90
       18
102
RTVSPost2010Prop41ColorRGB
 90
        0
102
RTVSPost2010PropOp41
 70
     1
102
RTVSPost2010Prop42
 90
       50
102
RTVSPost2010PropOp42
 70
     1
102
RTVSPost2010Prop43
 90
        3
102
RTVSPost2010PropOp43
 70
     1
102
RTVSPost2010Prop44ColorIndex
 90
        5
102
RTVSPost2010Prop44ColorRGB
 90
      255
102
RTVSPost2010PropOp44
 70
     1
102
RTVSPost2010Prop45
280
     0
102
RTVSPost2010PropOp45
 70
     1
102
RTVSPost2010Prop46
 90
       50
102
RTVSPost2010PropOp46
 70
     1
102
RTVSPost2010Prop47
 90
       50
102
RTVSPost2010PropOp47
 70
     1
102
RTVSPost2010Prop48
 90
       50
102
RTVSPost2010PropOp48
 70
     1
102
RTVSPost2010Prop49
280
     0
102
RTVSPost2010PropOp49
 70
     1
102
RTVSPost2010Prop50
 90
       50
102
RTVSPost2010PropOp50
 70
     1
102
RTVSPost2010Prop51ColorIndex
 90
      256
102
RTVSPost2010Prop51ColorRGB
 90
-16777216
102
RTVSPost2010PropOp51
 70
     0
102
RTVSPost2010Prop52
140
1.0
102
RTVSPost2010PropOp52
 70
     0
102
RTVSPost2010Prop53
 90
        2
102
RTVSPost2010PropOp53
 70
     1
102
RTVSPost2010Prop54
  1
strokes_ogs.tif
102
RTVSPost2010PropOp54
 70
     1
102
RTVSPost2010Prop55
280
     0
102
RTVSPost2010PropOp55
 70
     1
102
RTVSPost2010Prop56
140
1.0
102
RTVSPost2010PropOp56
 70
     1
102
RTVSPost2010Prop57
140
1.0
102
RTVSPost2010PropOp57
 70
     1
  0
XRECORD
  5
348
102
{ACAD_REACTORS
330
347
102
}
330
347
100
AcDbXrecord
280
     1
102
RTVSPost2010Prop28
280
     0
102
RTVSPost2010PropOp28
 70
     0
102
RTVSPost2010Prop29
280
     1
102
RTVSPost2010PropOp29
 70
     0
102
RTVSPost2010Prop30
280
     1
102
RTVSPost2010PropOp30
 70
     0
102
RTVSPost2010Prop31
280
     0
102
RTVSPost2010PropOp31
 70
     0
102
RTVSPost2010Prop32
280
     0
102
RTVSPost2010PropOp32
 70
     0
102
RTVSPost2010Prop33
280
     0
102
RTVSPost2010PropOp33
 70
     0
102
RTVSPost2010Prop34
280
     0
102
RTVSPost2010PropOp34
 70
     0
102
RTVSPost2010Prop35
280
     0
102
RTVSPost2010PropOp35
 70
     0
102
RTVSPost2010Prop36
280
     0
102
RTVSPost2010PropOp36
 70
     0
102
RTVSPost2010Prop37
 90
       50
102
RTVSPost2010PropOp37
 70
     0
102
RTVSPost2010Prop38
140
0.0
102
RTVSPost2010PropOp38
 70
     0
102
RTVSPost2010Prop39
140
1.0
102
RTVSPost2010PropOp39
 70
     0
102
RTVSPost2010Prop40
 90
        0
102
RTVSPost2010PropOp40
 70
     0
102
RTVSPost2010Prop41ColorIndex
 90
       18
102
RTVSPost2010Prop41ColorRGB
 90
        0
102
RTVSPost2010PropOp41
 70
     0
102
RTVSPost2010Prop42
 90
       50
102
RTVSPost2010PropOp42
 70
     0
102
RTVSPost2010Prop43
 90
        3
102
RTVSPost2010PropOp43
 70
     0
102
RTVSPost2010Prop44ColorIndex
 90
        5
102
RTVSPost2010Prop44ColorRGB
 90
      255
102
RTVSPost2010PropOp44
 70
     0
102
RTVSPost2010Prop45
280
     0
102
RTVSPost2010PropOp45
 70
     0
102
RTVSPost2010Prop46
 90
       50
102
RTVSPost2010PropOp46
 70
     0
102
RTVSPost2010Prop47
 90
       50
102
RTVSPost2010PropOp47
 70
     0
102
RTVSPost2010Prop48
 90
       50
102
RTVSPost2010PropOp48
 70
     0
102
RTVSPost2010Prop49
280
     0
102
RTVSPost2010PropOp49
 70
     0
102
RTVSPost2010Prop50
 90
       50
102
RTVSPost2010PropOp50
 70
     0
102
RTVSPost2010Prop51ColorIndex
 90
      256
102
RTVSPost2010Prop51ColorRGB
 90
-16777216
102
RTVSPost2010PropOp51
 70
     0
102
RTVSPost2010Prop52
140
1.0
102
RTVSPost2010PropOp52
 70
     0
102
RTVSPost2010Prop53
 90
        2
102
RTVSPost2010PropOp53
 70
     0
102
RTVSPost2010Prop54
  1
strokes_ogs.tif
102
RTVSPost2010PropOp54
 70
     0
102
RTVSPost2010Prop55
280
     0
102
RTVSPost2010PropOp55
 70
     0
102
RTVSPost2010Prop56
140
1.0
102
RTVSPost2010PropOp56
 70
     0
102
RTVSPost2010Prop57
140
1.0
102
RTVSPost2010PropOp57
 70
     0
  0
XRECORD
  5
342
102
{ACAD_REACTORS
330
341
102
}
330
341
100
AcDbXrecord
280
     1
102
RTVSPost2010Prop28
280
     0
102
RTVSPost2010PropOp28
 70
     1
102
RTVSPost2010Prop29
280
     1
102
RTVSPost2010PropOp29
 70
     1
102
RTVSPost2010Prop30
280
     1
102
RTVSPost2010PropOp30
 70
     1
102
RTVSPost2010Prop31
280
     0
102
RTVSPost2010PropOp31
 70
     1
102
RTVSPost2010Prop32
280
     0
102
RTVSPost2010PropOp32
 70
     1
102
RTVSPost2010Prop33
280
     0
102
RTVSPost2010PropOp33
 70
     1
102
RTVSPost2010Prop34
280
     0
102
RTVSPost2010PropOp34
 70
     1
102
RTVSPost2010Prop35
280
     0
102
RTVSPost2010PropOp35
 70
     1
102
RTVSPost2010Prop36
280
     0
102
RTVSPost2010PropOp36
 70
     1
102
RTVSPost2010Prop37
 90
       50
102
RTVSPost2010PropOp37
 70
     1
102
RTVSPost2010Prop38
140
0.0
102
RTVSPost2010PropOp38
 70
     1
102
RTVSPost2010Prop39
140
1.0
102
RTVSPost2010PropOp39
 70
     1
102
RTVSPost2010Prop40
 90
        0
102
RTVSPost2010PropOp40
 70
     1
102
RTVSPost2010Prop41ColorIndex
 90
       18
102
RTVSPost2010Prop41ColorRGB
 90
        0
102
RTVSPost2010PropOp41
 70
     1
102
RTVSPost2010Prop42
 90
       50
102
RTVSPost2010PropOp42
 70
     1
102
RTVSPost2010Prop43
 90
        3
102
RTVSPost2010PropOp43
 70
     1
102
RTVSPost2010Prop44ColorIndex
 90
        5
102
RTVSPost2010Prop44ColorRGB
 90
      255
102
RTVSPost2010PropOp44
 70
     1
102
RTVSPost2010Prop45
280
     0
102
RTVSPost2010PropOp45
 70
     1
102
RTVSPost2010Prop46
 90
       50
102
RTVSPost2010PropOp46
 70
     1
102
RTVSPost2010Prop47
 90
       50
102
RTVSPost2010PropOp47
 70
     1
102
RTVSPost2010Prop48
 90
       50
102
RTVSPost2010PropOp48
 70
     1
102
RTVSPost2010Prop49
280
     0
102
RTVSPost2010PropOp49
 70
     1
102
RTVSPost2010Prop50
 90
       50
102
RTVSPost2010PropOp50
 70
     1
102
RTVSPost2010Prop51ColorIndex
 90
      256
102
RTVSPost2010Prop51ColorRGB
 90
-16777216
102
RTVSPost2010PropOp51
 70
     0
102
RTVSPost2010Prop52
140
1.0
102
RTVSPost2010PropOp52
 70
     0
102
RTVSPost2010Prop53
 90
        2
102
RTVSPost2010PropOp53
 70
     1
102
RTVSPost2010Prop54
  1
strokes_ogs.tif
102
RTVSPost2010PropOp54
 70
     1
102
RTVSPost2010Prop55
280
     0
102
RTVSPost2010PropOp55
 70
     1
102
RTVSPost2010Prop56
140
1.0
102
RTVSPost2010PropOp56
 70
     1
102
RTVSPost2010Prop57
140
1.0
102
RTVSPost2010PropOp57
 70
     1
  0
XRECORD
  5
34A
102
{ACAD_REACTORS
330
349
102
}
330
349
100
AcDbXrecord
280
     1
102
RTVSPost2010Prop28
280
     0
102
RTVSPost2010PropOp28
 70
     0
102
RTVSPost2010Prop29
280
     1
102
RTVSPost2010PropOp29
 70
     0
102
RTVSPost2010Prop30
280
     1
102
RTVSPost2010PropOp30
 70
     0
102
RTVSPost2010Prop31
280
     0
102
RTVSPost2010PropOp31
 70
     0
102
RTVSPost2010Prop32
280
     0
102
RTVSPost2010PropOp32
 70
     0
102
RTVSPost2010Prop33
280
     0
102
RTVSPost2010PropOp33
 70
     0
102
RTVSPost2010Prop34
280
     0
102
RTVSPost2010PropOp34
 70
     0
102
RTVSPost2010Prop35
280
     0
102
RTVSPost2010PropOp35
 70
     0
102
RTVSPost2010Prop36
280
     0
102
RTVSPost2010PropOp36
 70
     0
102
RTVSPost2010Prop37
 90
       50
102
RTVSPost2010PropOp37
 70
     0
102
RTVSPost2010Prop38
140
0.0
102
RTVSPost2010PropOp38
 70
     0
102
RTVSPost2010Prop39
140
1.0
102
RTVSPost2010PropOp39
 70
     0
102
RTVSPost2010Prop40
 90
        0
102
RTVSPost2010PropOp40
 70
     0
102
RTVSPost2010Prop41ColorIndex
 90
       18
102
RTVSPost2010Prop41ColorRGB
 90
        0
102
RTVSPost2010PropOp41
 70
     0
102
RTVSPost2010Prop42
 90
       50
102
RTVSPost2010PropOp42
 70
     0
102
RTVSPost2010Prop43
 90
        3
102
RTVSPost2010PropOp43
 70
     0
102
RTVSPost2010Prop44ColorIndex
 90
        5
102
RTVSPost2010Prop44ColorRGB
 90
      255
102
RTVSPost2010PropOp44
 70
     0
102
RTVSPost2010Prop45
280
     0
102
RTVSPost2010PropOp45
 70
     0
102
RTVSPost2010Prop46
 90
       50
102
RTVSPost2010PropOp46
 70
     0
102
RTVSPost2010Prop47
 90
       50
102
RTVSPost2010PropOp47
 70
     0
102
RTVSPost2010Prop48
 90
       50
102
RTVSPost2010PropOp48
 70
     0
102
RTVSPost2010Prop49
280
     0
102
RTVSPost2010PropOp49
 70
     0
102
RTVSPost2010Prop50
 90
       50
102
RTVSPost2010PropOp50
 70
     0
102
RTVSPost2010Prop51ColorIndex
 90
      256
102
RTVSPost2010Prop51ColorRGB
 90
-16777216
102
RTVSPost2010PropOp51
 70
     0
102
RTVSPost2010Prop52
140
1.0
102
RTVSPost2010PropOp52
 70
     0
102
RTVSPost2010Prop53
 90
        2
102
RTVSPost2010PropOp53
 70
     0
102
RTVSPost2010Prop54
  1
strokes_ogs.tif
102
RTVSPost2010PropOp54
 70
     0
102
RTVSPost2010Prop55
280
     0
102
RTVSPost2010PropOp55
 70
     0
102
RTVSPost2010Prop56
140
1.0
102
RTVSPost2010PropOp56
 70
     0
102
RTVSPost2010Prop57
140
1.0
102
RTVSPost2010PropOp57
 70
     0
  0
XRECORD
  5
338
102
{ACAD_REACTORS
330
337
102
}
330
337
100
AcDbXrecord
280
     1
102
RTVSPost2010Prop28
280
     0
102
RTVSPost2010PropOp28
 70
     1
102
RTVSPost2010Prop29
280
     1
102
RTVSPost2010PropOp29
 70
     1
102
RTVSPost2010Prop30
280
     1
102
RTVSPost2010PropOp30
 70
     1
102
RTVSPost2010Prop31
280
     0
102
RTVSPost2010PropOp31
 70
     1
102
RTVSPost2010Prop32
280
     0
102
RTVSPost2010PropOp32
 70
     1
102
RTVSPost2010Prop33
280
     0
102
RTVSPost2010PropOp33
 70
     1
102
RTVSPost2010Prop34
280
     0
102
RTVSPost2010PropOp34
 70
     1
102
RTVSPost2010Prop35
280
     0
102
RTVSPost2010PropOp35
 70
     1
102
RTVSPost2010Prop36
280
     0
102
RTVSPost2010PropOp36
 70
     1
102
RTVSPost2010Prop37
 90
       50
102
RTVSPost2010PropOp37
 70
     1
102
RTVSPost2010Prop38
140
0.0
102
RTVSPost2010PropOp38
 70
     1
102
RTVSPost2010Prop39
140
1.0
102
RTVSPost2010PropOp39
 70
     1
102
RTVSPost2010Prop40
 90
        0
102
RTVSPost2010PropOp40
 70
     1
102
RTVSPost2010Prop41ColorIndex
 90
       18
102
RTVSPost2010Prop41ColorRGB
 90
        0
102
RTVSPost2010PropOp41
 70
     1
102
RTVSPost2010Prop42
 90
       50
102
RTVSPost2010PropOp42
 70
     1
102
RTVSPost2010Prop43
 90
        3
102
RTVSPost2010PropOp43
 70
     1
102
RTVSPost2010Prop44ColorIndex
 90
        5
102
RTVSPost2010Prop44ColorRGB
 90
      255
102
RTVSPost2010PropOp44
 70
     1
102
RTVSPost2010Prop45
280
     0
102
RTVSPost2010PropOp45
 70
     1
102
RTVSPost2010Prop46
 90
       50
102
RTVSPost2010PropOp46
 70
     1
102
RTVSPost2010Prop47
 90
       50
102
RTVSPost2010PropOp47
 70
     1
102
RTVSPost2010Prop48
 90
       50
102
RTVSPost2010PropOp48
 70
     1
102
RTVSPost2010Prop49
280
     0
102
RTVSPost2010PropOp49
 70
     1
102
RTVSPost2010Prop50
 90
       50
102
RTVSPost2010PropOp50
 70
     1
102
RTVSPost2010Prop51ColorIndex
 90
      256
102
RTVSPost2010Prop51ColorRGB
 90
-16777216
102
RTVSPost2010PropOp51
 70
     0
102
RTVSPost2010Prop52
140
1.0
102
RTVSPost2010PropOp52
 70
     0
102
RTVSPost2010Prop53
 90
        2
102
RTVSPost2010PropOp53
 70
     1
102
RTVSPost2010Prop54
  1
strokes_ogs.tif
102
RTVSPost2010PropOp54
 70
     1
102
RTVSPost2010Prop55
280
     0
102
RTVSPost2010PropOp55
 70
     1
102
RTVSPost2010Prop56
140
1.0
102
RTVSPost2010PropOp56
 70
     1
102
RTVSPost2010Prop57
140
1.0
102
RTVSPost2010PropOp57
 70
     1
  0
XRECORD
  5
356
102
{ACAD_REACTORS
330
355
102
}
330
355
100
AcDbXrecord
280
     1
102
RTVSPost2010Prop28
280
     0
102
RTVSPost2010PropOp28
 70
     1
102
RTVSPost2010Prop29
280
     1
102
RTVSPost2010PropOp29
 70
     1
102
RTVSPost2010Prop30
280
     1
102
RTVSPost2010PropOp30
 70
     1
102
RTVSPost2010Prop31
280
     0
102
RTVSPost2010PropOp31
 70
     1
102
RTVSPost2010Prop32
280
     0
102
RTVSPost2010PropOp32
 70
     1
102
RTVSPost2010Prop33
280
     0
102
RTVSPost2010PropOp33
 70
     1
102
RTVSPost2010Prop34
280
     0
102
RTVSPost2010PropOp34
 70
     1
102
RTVSPost2010Prop35
280
     0
102
RTVSPost2010PropOp35
 70
     1
102
RTVSPost2010Prop36
280
     0
102
RTVSPost2010PropOp36
 70
     1
102
RTVSPost2010Prop37
 90
       50
102
RTVSPost2010PropOp37
 70
     1
102
RTVSPost2010Prop38
140
0.0
102
RTVSPost2010PropOp38
 70
     1
102
RTVSPost2010Prop39
140
1.0
102
RTVSPost2010PropOp39
 70
     1
102
RTVSPost2010Prop40
 90
        0
102
RTVSPost2010PropOp40
 70
     1
102
RTVSPost2010Prop41ColorIndex
 90
       18
102
RTVSPost2010Prop41ColorRGB
 90
        0
102
RTVSPost2010PropOp41
 70
     1
102
RTVSPost2010Prop42
 90
       50
102
RTVSPost2010PropOp42
 70
     1
102
RTVSPost2010Prop43
 90
        3
102
RTVSPost2010PropOp43
 70
     1
102
RTVSPost2010Prop44ColorIndex
 90
        5
102
RTVSPost2010Prop44ColorRGB
 90
      255
102
RTVSPost2010PropOp44
 70
     1
102
RTVSPost2010Prop45
280
     0
102
RTVSPost2010PropOp45
 70
     1
102
RTVSPost2010Prop46
 90
       50
102
RTVSPost2010PropOp46
 70
     1
102
RTVSPost2010Prop47
 90
       50
102
RTVSPost2010PropOp47
 70
     1
102
RTVSPost2010Prop48
 90
       50
102
RTVSPost2010PropOp48
 70
     1
102
RTVSPost2010Prop49
280
     0
102
RTVSPost2010PropOp49
 70
     1
102
RTVSPost2010Prop50
 90
       50
102
RTVSPost2010PropOp50
 70
     1
102
RTVSPost2010Prop51ColorIndex
 90
      256
102
RTVSPost2010Prop51ColorRGB
 90
-16777216
102
RTVSPost2010PropOp51
 70
     0
102
RTVSPost2010Prop52
140
1.0
102
RTVSPost2010PropOp52
 70
     0
102
RTVSPost2010Prop53
 90
        2
102
RTVSPost2010PropOp53
 70
     1
102
RTVSPost2010Prop54
  1
strokes_ogs.tif
102
RTVSPost2010PropOp54
 70
     1
102
RTVSPost2010Prop55
280
     0
102
RTVSPost2010PropOp55
 70
     1
102
RTVSPost2010Prop56
140
1.0
102
RTVSPost2010PropOp56
 70
     1
102
RTVSPost2010Prop57
140
1.0
102
RTVSPost2010PropOp57
 70
     1
  0
XRECORD
  5
354
102
{ACAD_REACTORS
330
353
102
}
330
353
100
AcDbXrecord
280
     1
102
RTVSPost2010Prop28
280
     0
102
RTVSPost2010PropOp28
 70
     1
102
RTVSPost2010Prop29
280
     1
102
RTVSPost2010PropOp29
 70
     1
102
RTVSPost2010Prop30
280
     1
102
RTVSPost2010PropOp30
 70
     1
102
RTVSPost2010Prop31
280
     0
102
RTVSPost2010PropOp31
 70
     1
102
RTVSPost2010Prop32
280
     0
102
RTVSPost2010PropOp32
 70
     1
102
RTVSPost2010Prop33
280
     0
102
RTVSPost2010PropOp33
 70
     1
102
RTVSPost2010Prop34
280
     0
102
RTVSPost2010PropOp34
 70
     1
102
RTVSPost2010Prop35
280
     0
102
RTVSPost2010PropOp35
 70
     1
102
RTVSPost2010Prop36
280
     0
102
RTVSPost2010PropOp36
 70
     1
102
RTVSPost2010Prop37
 90
       50
102
RTVSPost2010PropOp37
 70
     1
102
RTVSPost2010Prop38
140
0.0
102
RTVSPost2010PropOp38
 70
     1
102
RTVSPost2010Prop39
140
1.0
102
RTVSPost2010PropOp39
 70
     1
102
RTVSPost2010Prop40
 90
        0
102
RTVSPost2010PropOp40
 70
     1
102
RTVSPost2010Prop41ColorIndex
 90
       18
102
RTVSPost2010Prop41ColorRGB
 90
        0
102
RTVSPost2010PropOp41
 70
     1
102
RTVSPost2010Prop42
 90
       50
102
RTVSPost2010PropOp42
 70
     1
102
RTVSPost2010Prop43
 90
        3
102
RTVSPost2010PropOp43
 70
     1
102
RTVSPost2010Prop44ColorIndex
 90
        5
102
RTVSPost2010Prop44ColorRGB
 90
      255
102
RTVSPost2010PropOp44
 70
     1
102
RTVSPost2010Prop45
280
     0
102
RTVSPost2010PropOp45
 70
     1
102
RTVSPost2010Prop46
 90
       50
102
RTVSPost2010PropOp46
 70
     1
102
RTVSPost2010Prop47
 90
       50
102
RTVSPost2010PropOp47
 70
     1
102
RTVSPost2010Prop48
 90
       50
102
RTVSPost2010PropOp48
 70
     1
102
RTVSPost2010Prop49
280
     0
102
RTVSPost2010PropOp49
 70
     1
102
RTVSPost2010Prop50
 90
       50
102
RTVSPost2010PropOp50
 70
     1
102
RTVSPost2010Prop51ColorIndex
 90
      256
102
RTVSPost2010Prop51ColorRGB
 90
-16777216
102
RTVSPost2010PropOp51
 70
     0
102
RTVSPost2010Prop52
140
1.0
102
RTVSPost2010PropOp52
 70
     0
102
RTVSPost2010Prop53
 90
        2
102
RTVSPost2010PropOp53
 70
     1
102
RTVSPost2010Prop54
  1
strokes_ogs.tif
102
RTVSPost2010PropOp54
 70
     1
102
RTVSPost2010Prop55
280
     0
102
RTVSPost2010PropOp55
 70
     1
102
RTVSPost2010Prop56
140
1.0
102
RTVSPost2010PropOp56
 70
     1
102
RTVSPost2010Prop57
140
1.0
102
RTVSPost2010PropOp57
 70
     1
  0
XRECORD
  5
34E
102
{ACAD_REACTORS
330
34D
102
}
330
34D
100
AcDbXrecord
280
     1
102
RTVSPost2010Prop28
280
     0
102
RTVSPost2010PropOp28
 70
     1
102
RTVSPost2010Prop29
280
     1
102
RTVSPost2010PropOp29
 70
     1
102
RTVSPost2010Prop30
280
     1
102
RTVSPost2010PropOp30
 70
     1
102
RTVSPost2010Prop31
280
     0
102
RTVSPost2010PropOp31
 70
     1
102
RTVSPost2010Prop32
280
     0
102
RTVSPost2010PropOp32
 70
     1
102
RTVSPost2010Prop33
280
     0
102
RTVSPost2010PropOp33
 70
     1
102
RTVSPost2010Prop34
280
     0
102
RTVSPost2010PropOp34
 70
     1
102
RTVSPost2010Prop35
280
     0
102
RTVSPost2010PropOp35
 70
     1
102
RTVSPost2010Prop36
280
     0
102
RTVSPost2010PropOp36
 70
     1
102
RTVSPost2010Prop37
 90
       50
102
RTVSPost2010PropOp37
 70
     1
102
RTVSPost2010Prop38
140
0.0
102
RTVSPost2010PropOp38
 70
     1
102
RTVSPost2010Prop39
140
1.0
102
RTVSPost2010PropOp39
 70
     1
102
RTVSPost2010Prop40
 90
        0
102
RTVSPost2010PropOp40
 70
     1
102
RTVSPost2010Prop41ColorIndex
 90
       18
102
RTVSPost2010Prop41ColorRGB
 90
        0
102
RTVSPost2010PropOp41
 70
     1
102
RTVSPost2010Prop42
 90
       50
102
RTVSPost2010PropOp42
 70
     1
102
RTVSPost2010Prop43
 90
        3
102
RTVSPost2010PropOp43
 70
     1
102
RTVSPost2010Prop44ColorIndex
 90
        5
102
RTVSPost2010Prop44ColorRGB
 90
      255
102
RTVSPost2010PropOp44
 70
     1
102
RTVSPost2010Prop45
280
     0
102
RTVSPost2010PropOp45
 70
     1
102
RTVSPost2010Prop46
 90
       50
102
RTVSPost2010PropOp46
 70
     1
102
RTVSPost2010Prop47
 90
       50
102
RTVSPost2010PropOp47
 70
     1
102
RTVSPost2010Prop48
 90
       50
102
RTVSPost2010PropOp48
 70
     1
102
RTVSPost2010Prop49
280
     0
102
RTVSPost2010PropOp49
 70
     1
102
RTVSPost2010Prop50
 90
       50
102
RTVSPost2010PropOp50
 70
     1
102
RTVSPost2010Prop51ColorIndex
 90
      256
102
RTVSPost2010Prop51ColorRGB
 90
-16777216
102
RTVSPost2010PropOp51
 70
     0
102
RTVSPost2010Prop52
140
1.0
102
RTVSPost2010PropOp52
 70
     0
102
RTVSPost2010Prop53
 90
        2
102
RTVSPost2010PropOp53
 70
     1
102
RTVSPost2010Prop54
  1
strokes_ogs.tif
102
RTVSPost2010PropOp54
 70
     1
102
RTVSPost2010Prop55
280
     0
102
RTVSPost2010PropOp55
 70
     1
102
RTVSPost2010Prop56
140
1.0
102
RTVSPost2010PropOp56
 70
     1
102
RTVSPost2010Prop57
140
1.0
102
RTVSPost2010PropOp57
 70
     1
  0
XRECORD
  5
350
102
{ACAD_REACTORS
330
34F
102
}
330
34F
100
AcDbXrecord
280
     1
102
RTVSPost2010Prop28
280
     0
102
RTVSPost2010PropOp28
 70
     1
102
RTVSPost2010Prop29
280
     1
102
RTVSPost2010PropOp29
 70
     1
102
RTVSPost2010Prop30
280
     1
102
RTVSPost2010PropOp30
 70
     1
102
RTVSPost2010Prop31
280
     0
102
RTVSPost2010PropOp31
 70
     1
102
RTVSPost2010Prop32
280
     0
102
RTVSPost2010PropOp32
 70
     1
102
RTVSPost2010Prop33
280
     0
102
RTVSPost2010PropOp33
 70
     1
102
RTVSPost2010Prop34
280
     0
102
RTVSPost2010PropOp34
 70
     1
102
RTVSPost2010Prop35
280
     0
102
RTVSPost2010PropOp35
 70
     1
102
RTVSPost2010Prop36
280
     0
102
RTVSPost2010PropOp36
 70
     1
102
RTVSPost2010Prop37
 90
       50
102
RTVSPost2010PropOp37
 70
     1
102
RTVSPost2010Prop38
140
0.0
102
RTVSPost2010PropOp38
 70
     1
102
RTVSPost2010Prop39
140
1.0
102
RTVSPost2010PropOp39
 70
     1
102
RTVSPost2010Prop40
 90
        0
102
RTVSPost2010PropOp40
 70
     1
102
RTVSPost2010Prop41ColorIndex
 90
       18
102
RTVSPost2010Prop41ColorRGB
 90
        0
102
RTVSPost2010PropOp41
 70
     1
102
RTVSPost2010Prop42
 90
       50
102
RTVSPost2010PropOp42
 70
     1
102
RTVSPost2010Prop43
 90
        3
102
RTVSPost2010PropOp43
 70
     1
102
RTVSPost2010Prop44ColorIndex
 90
        5
102
RTVSPost2010Prop44ColorRGB
 90
      255
102
RTVSPost2010PropOp44
 70
     1
102
RTVSPost2010Prop45
280
     0
102
RTVSPost2010PropOp45
 70
     1
102
RTVSPost2010Prop46
 90
       50
102
RTVSPost2010PropOp46
 70
     1
102
RTVSPost2010Prop47
 90
       50
102
RTVSPost2010PropOp47
 70
     1
102
RTVSPost2010Prop48
 90
       50
102
RTVSPost2010PropOp48
 70
     1
102
RTVSPost2010Prop49
280
     0
102
RTVSPost2010PropOp49
 70
     1
102
RTVSPost2010Prop50
 90
       50
102
RTVSPost2010PropOp50
 70
     1
102
RTVSPost2010Prop51ColorIndex
 90
      256
102
RTVSPost2010Prop51ColorRGB
 90
-16777216
102
RTVSPost2010PropOp51
 70
     0
102
RTVSPost2010Prop52
140
1.0
102
RTVSPost2010PropOp52
 70
     0
102
RTVSPost2010Prop53
 90
        2
102
RTVSPost2010PropOp53
 70
     1
102
RTVSPost2010Prop54
  1
strokes_ogs.tif
102
RTVSPost2010PropOp54
 70
     1
102
RTVSPost2010Prop55
280
     0
102
RTVSPost2010PropOp55
 70
     1
102
RTVSPost2010Prop56
140
1.0
102
RTVSPost2010PropOp56
 70
     1
102
RTVSPost2010Prop57
140
1.0
102
RTVSPost2010PropOp57
 70
     1
  0
XRECORD
  5
340
102
{ACAD_REACTORS
330
33F
102
}
330
33F
100
AcDbXrecord
280
     1
102
RTVSPost2010Prop28
280
     0
102
RTVSPost2010PropOp28
 70
     1
102
RTVSPost2010Prop29
280
     1
102
RTVSPost2010PropOp29
 70
     1
102
RTVSPost2010Prop30
280
     1
102
RTVSPost2010PropOp30
 70
     1
102
RTVSPost2010Prop31
280
     0
102
RTVSPost2010PropOp31
 70
     1
102
RTVSPost2010Prop32
280
     0
102
RTVSPost2010PropOp32
 70
     1
102
RTVSPost2010Prop33
280
     0
102
RTVSPost2010PropOp33
 70
     1
102
RTVSPost2010Prop34
280
     0
102
RTVSPost2010PropOp34
 70
     1
102
RTVSPost2010Prop35
280
     0
102
RTVSPost2010PropOp35
 70
     1
102
RTVSPost2010Prop36
280
     0
102
RTVSPost2010PropOp36
 70
     1
102
RTVSPost2010Prop37
 90
       50
102
RTVSPost2010PropOp37
 70
     1
102
RTVSPost2010Prop38
140
0.0
102
RTVSPost2010PropOp38
 70
     1
102
RTVSPost2010Prop39
140
1.0
102
RTVSPost2010PropOp39
 70
     1
102
RTVSPost2010Prop40
 90
        0
102
RTVSPost2010PropOp40
 70
     1
102
RTVSPost2010Prop41ColorIndex
 90
       18
102
RTVSPost2010Prop41ColorRGB
 90
        0
102
RTVSPost2010PropOp41
 70
     1
102
RTVSPost2010Prop42
 90
       50
102
RTVSPost2010PropOp42
 70
     1
102
RTVSPost2010Prop43
 90
        3
102
RTVSPost2010PropOp43
 70
     1
102
RTVSPost2010Prop44ColorIndex
 90
        5
102
RTVSPost2010Prop44ColorRGB
 90
      255
102
RTVSPost2010PropOp44
 70
     1
102
RTVSPost2010Prop45
280
     0
102
RTVSPost2010PropOp45
 70
     1
102
RTVSPost2010Prop46
 90
       50
102
RTVSPost2010PropOp46
 70
     1
102
RTVSPost2010Prop47
 90
       50
102
RTVSPost2010PropOp47
 70
     1
102
RTVSPost2010Prop48
 90
       50
102
RTVSPost2010PropOp48
 70
     1
102
RTVSPost2010Prop49
280
     0
102
RTVSPost2010PropOp49
 70
     1
102
RTVSPost2010Prop50
 90
       50
102
RTVSPost2010PropOp50
 70
     1
102
RTVSPost2010Prop51ColorIndex
 90
      256
102
RTVSPost2010Prop51ColorRGB
 90
-16777216
102
RTVSPost2010PropOp51
 70
     0
102
RTVSPost2010Prop52
140
1.0
102
RTVSPost2010PropOp52
 70
     0
102
RTVSPost2010Prop53
 90
        2
102
RTVSPost2010PropOp53
 70
     1
102
RTVSPost2010Prop54
  1
strokes_ogs.tif
102
RTVSPost2010PropOp54
 70
     1
102
RTVSPost2010Prop55
280
     0
102
RTVSPost2010PropOp55
 70
     1
102
RTVSPost2010Prop56
140
1.0
102
RTVSPost2010PropOp56
 70
     1
102
RTVSPost2010Prop57
140
1.0
102
RTVSPost2010PropOp57
 70
     1
  0
XRECORD
  5
332
102
{ACAD_REACTORS
330
331
102
}
330
331
100
AcDbXrecord
280
     1
102
RTVSPost2010Prop28
280
     0
102
RTVSPost2010PropOp28
 70
     1
102
RTVSPost2010Prop29
280
     1
102
RTVSPost2010PropOp29
 70
     1
102
RTVSPost2010Prop30
280
     1
102
RTVSPost2010PropOp30
 70
     1
102
RTVSPost2010Prop31
280
     0
102
RTVSPost2010PropOp31
 70
     1
102
RTVSPost2010Prop32
280
     0
102
RTVSPost2010PropOp32
 70
     1
102
RTVSPost2010Prop33
280
     0
102
RTVSPost2010PropOp33
 70
     1
102
RTVSPost2010Prop34
280
     0
102
RTVSPost2010PropOp34
 70
     1
102
RTVSPost2010Prop35
280
     0
102
RTVSPost2010PropOp35
 70
     1
102
RTVSPost2010Prop36
280
     0
102
RTVSPost2010PropOp36
 70
     1
102
RTVSPost2010Prop37
 90
       50
102
RTVSPost2010PropOp37
 70
     1
102
RTVSPost2010Prop38
140
0.0
102
RTVSPost2010PropOp38
 70
     1
102
RTVSPost2010Prop39
140
1.0
102
RTVSPost2010PropOp39
 70
     1
102
RTVSPost2010Prop40
 90
        0
102
RTVSPost2010PropOp40
 70
     1
102
RTVSPost2010Prop41ColorIndex
 90
       18
102
RTVSPost2010Prop41ColorRGB
 90
        0
102
RTVSPost2010PropOp41
 70
     1
102
RTVSPost2010Prop42
 90
       50
102
RTVSPost2010PropOp42
 70
     1
102
RTVSPost2010Prop43
 90
        3
102
RTVSPost2010PropOp43
 70
     1
102
RTVSPost2010Prop44ColorIndex
 90
        5
102
RTVSPost2010Prop44ColorRGB
 90
      255
102
RTVSPost2010PropOp44
 70
     1
102
RTVSPost2010Prop45
280
     0
102
RTVSPost2010PropOp45
 70
     1
102
RTVSPost2010Prop46
 90
       50
102
RTVSPost2010PropOp46
 70
     1
102
RTVSPost2010Prop47
 90
       50
102
RTVSPost2010PropOp47
 70
     1
102
RTVSPost2010Prop48
 90
       50
102
RTVSPost2010PropOp48
 70
     1
102
RTVSPost2010Prop49
280
     0
102
RTVSPost2010PropOp49
 70
     1
102
RTVSPost2010Prop50
 90
       50
102
RTVSPost2010PropOp50
 70
     1
102
RTVSPost2010Prop51ColorIndex
 90
      256
102
RTVSPost2010Prop51ColorRGB
 90
-16777216
102
RTVSPost2010PropOp51
 70
     0
102
RTVSPost2010Prop52
140
1.0
102
RTVSPost2010PropOp52
 70
     0
102
RTVSPost2010Prop53
 90
        2
102
RTVSPost2010PropOp53
 70
     1
102
RTVSPost2010Prop54
  1
strokes_ogs.tif
102
RTVSPost2010PropOp54
 70
     1
102
RTVSPost2010Prop55
280
     0
102
RTVSPost2010PropOp55
 70
     1
102
RTVSPost2010Prop56
140
1.0
102
RTVSPost2010PropOp56
 70
     1
102
RTVSPost2010Prop57
140
1.0
102
RTVSPost2010PropOp57
 70
     1
  0
XRECORD
  5
352
102
{ACAD_REACTORS
330
351
102
}
330
351
100
AcDbXrecord
280
     1
102
RTVSPost2010Prop28
280
     0
102
RTVSPost2010PropOp28
 70
     1
102
RTVSPost2010Prop29
280
     1
102
RTVSPost2010PropOp29
 70
     1
102
RTVSPost2010Prop30
280
     1
102
RTVSPost2010PropOp30
 70
     1
102
RTVSPost2010Prop31
280
     0
102
RTVSPost2010PropOp31
 70
     1
102
RTVSPost2010Prop32
280
     0
102
RTVSPost2010PropOp32
 70
     1
102
RTVSPost2010Prop33
280
     0
102
RTVSPost2010PropOp33
 70
     1
102
RTVSPost2010Prop34
280
     0
102
RTVSPost2010PropOp34
 70
     1
102
RTVSPost2010Prop35
280
     0
102
RTVSPost2010PropOp35
 70
     1
102
RTVSPost2010Prop36
280
     0
102
RTVSPost2010PropOp36
 70
     1
102
RTVSPost2010Prop37
 90
       50
102
RTVSPost2010PropOp37
 70
     1
102
RTVSPost2010Prop38
140
0.0
102
RTVSPost2010PropOp38
 70
     1
102
RTVSPost2010Prop39
140
1.0
102
RTVSPost2010PropOp39
 70
     1
102
RTVSPost2010Prop40
 90
        0
102
RTVSPost2010PropOp40
 70
     1
102
RTVSPost2010Prop41ColorIndex
 90
       18
102
RTVSPost2010Prop41ColorRGB
 90
        0
102
RTVSPost2010PropOp41
 70
     1
102
RTVSPost2010Prop42
 90
       50
102
RTVSPost2010PropOp42
 70
     1
102
RTVSPost2010Prop43
 90
        3
102
RTVSPost2010PropOp43
 70
     1
102
RTVSPost2010Prop44ColorIndex
 90
        5
102
RTVSPost2010Prop44ColorRGB
 90
      255
102
RTVSPost2010PropOp44
 70
     1
102
RTVSPost2010Prop45
280
     0
102
RTVSPost2010PropOp45
 70
     1
102
RTVSPost2010Prop46
 90
       50
102
RTVSPost2010PropOp46
 70
     1
102
RTVSPost2010Prop47
 90
       50
102
RTVSPost2010PropOp47
 70
     1
102
RTVSPost2010Prop48
 90
       50
102
RTVSPost2010PropOp48
 70
     1
102
RTVSPost2010Prop49
280
     0
102
RTVSPost2010PropOp49
 70
     1
102
RTVSPost2010Prop50
 90
       50
102
RTVSPost2010PropOp50
 70
     1
102
RTVSPost2010Prop51ColorIndex
 90
      256
102
RTVSPost2010Prop51ColorRGB
 90
-16777216
102
RTVSPost2010PropOp51
 70
     0
102
RTVSPost2010Prop52
140
1.0
102
RTVSPost2010PropOp52
 70
     0
102
RTVSPost2010Prop53
 90
        2
102
RTVSPost2010PropOp53
 70
     1
102
RTVSPost2010Prop54
  1
strokes_ogs.tif
102
RTVSPost2010PropOp54
 70
     1
102
RTVSPost2010Prop55
280
     0
102
RTVSPost2010PropOp55
 70
     1
102
RTVSPost2010Prop56
140
1.0
102
RTVSPost2010PropOp56
 70
     1
102
RTVSPost2010Prop57
140
1.0
102
RTVSPost2010PropOp57
 70
     1
  0
ENDSEC
  0
EOF
