  0
SECTION
  2
HEADER
  9
$ACADVER
  1
AC1014
  9
$ACADMAINTVER
 70
     9
  9
$DWGCODEPAGE
  3
ANSI_1252
  9
$INSBASE
 10
0.0
 20
0.0
 30
0.0
  9
$EXTMIN
 10
1.000000000000000E+20
 20
1.000000000000000E+20
 30
1.000000000000000E+20
  9
$EXTMAX
 10
-1.000000000000000E+20
 20
-1.000000000000000E+20
 30
-1.000000000000000E+20
  9
$LIMMIN
 10
-1.18187747945775
 20
-3.71145753637372
  9
$LIMMAX
 10
278.2181225205423
 20
212.1885424636263
  9
$ORTHOMODE
 70
     0
  9
$REGENMODE
 70
     1
  9
$FILLMODE
 70
     1
  9
$QTEXTMODE
 70
     0
  9
$MIRRTEXT
 70
     0
  9
$DRAGMODE
 70
     2
  9
$LTSCALE
 40
1.0
  9
$OSMODE
 70
    37
  9
$ATTMODE
 70
     1
  9
$TEXTSIZE
 40
5.0
  9
$TRACEWID
 40
1.0
  9
$TEXTSTYLE
  7
STANDARD
  9
$CLAYER
  8
0
  9
$CELTYPE
  6
BYLAYER
  9
$CECOLOR
 62
     7
  9
$CELTSCALE
 40
1.0
  9
$DELOBJ
 70
     1
  9
$DISPSILH
 70
     0
  9
$DIMSCALE
 40
1.0
  9
$DIMASZ
 40
3.0
  9
$DIMEXO
 40
1.0
  9
$DIMDLI
 40
7.5
  9
$DIMRND
 40
0.2
  9
$DIMDLE
 40
0.0
  9
$DIMEXE
 40
2.0
  9
$DIMTP
 40
0.0
  9
$DIMTM
 40
0.0
  9
$DIMTXT
 40
3.0
  9
$DIMCEN
 40
0.0
  9
$DIMTSZ
 40
0.0
  9
$DIMTOL
 70
     0
  9
$DIMLIM
 70
     0
  9
$DIMTIH
 70
     1
  9
$DIMTOH
 70
     0
  9
$DIMSE1
 70
     0
  9
$DIMSE2
 70
     0
  9
$DIMTAD
 70
     1
  9
$DIMZIN
 70
     1
  9
$DIMBLK
  1

  9
$DIMASO
 70
     1
  9
$DIMSHO
 70
     1
  9
$DIMPOST
  1
 mm
  9
$DIMAPOST
  1
 mm
  9
$DIMALT
 70
     0
  9
$DIMALTD
 70
     2
  9
$DIMALTF
 40
1.0
  9
$DIMLFAC
 40
1.0
  9
$DIMTOFL
 70
     1
  9
$DIMTVP
 40
0.0
  9
$DIMTIX
 70
     0
  9
$DIMSOXD
 70
     0
  9
$DIMSAH
 70
     0
  9
$DIMBLK1
  1

  9
$DIMBLK2
  1

  9
$DIMSTYLE
  2
STANDARD
  9
$DIMCLRD
 70
     7
  9
$DIMCLRE
 70
     7
  9
$DIMCLRT
 70
     7
  9
$DIMTFAC
 40
1.0
  9
$DIMGAP
 40
2.0
  9
$DIMJUST
 70
     0
  9
$DIMSD1
 70
     0
  9
$DIMSD2
 70
     0
  9
$DIMTOLJ
 70
     1
  9
$DIMTZIN
 70
     0
  9
$DIMALTZ
 70
     0
  9
$DIMALTTZ
 70
     0
  9
$DIMFIT
 70
     3
  9
$DIMUPT
 70
     0
  9
$DIMUNIT
 70
     2
  9
$DIMDEC
 70
     2
  9
$DIMTDEC
 70
     3
  9
$DIMALTU
 70
     2
  9
$DIMALTTD
 70
     2
  9
$DIMTXSTY
  7
STANDARD
  9
$DIMAUNIT
 70
     0
  9
$LUNITS
 70
     2
  9
$LUPREC
 70
     2
  9
$SKETCHINC
 40
1.0
  9
$FILLETRAD
 40
5.0
  9
$AUNITS
 70
     0
  9
$AUPREC
 70
     3
  9
$MENU
  1
.
  9
$ELEVATION
 40
0.0
  9
$PELEVATION
 40
0.0
  9
$THICKNESS
 40
0.0
  9
$LIMCHECK
 70
     0
  9
$CHAMFERA
 40
0.5
  9
$CHAMFERB
 40
0.5
  9
$CHAMFERC
 40
1.0
  9
$CHAMFERD
 40
0.0
  9
$SKPOLY
 70
     0
  9
$TDCREATE
 40
2458225.416404942
  9
$TDUPDATE
 40
2458225.416404954
  9
$TDINDWG
 40
0.0
  9
$TDUSRTIMER
 40
0.0
  9
$USRTIMER
 70
     1
  9
$ANGBASE
 50
0.0
  9
$ANGDIR
 70
     0
  9
$PDMODE
 70
     0
  9
$PDSIZE
 40
0.0
  9
$PLINEWID
 40
0.0
  9
$COORDS
 70
     1
  9
$SPLFRAME
 70
     0
  9
$SPLINETYPE
 70
     5
  9
$SPLINESEGS
 70
    20
  9
$ATTDIA
 70
     0
  9
$ATTREQ
 70
     1
  9
$HANDLING
 70
     1
  9
$HANDSEED
  5
2B9
  9
$SURFTAB1
 70
     6
  9
$SURFTAB2
 70
     6
  9
$SURFTYPE
 70
     6
  9
$SURFU
 70
     6
  9
$SURFV
 70
     6
  9
$UCSNAME
  2

  9
$UCSORG
 10
0.0
 20
0.0
 30
0.0
  9
$UCSXDIR
 10
1.0
 20
0.0
 30
0.0
  9
$UCSYDIR
 10
0.0
 20
1.0
 30
0.0
  9
$PUCSNAME
  2

  9
$PUCSORG
 10
0.0
 20
0.0
 30
0.0
  9
$PUCSXDIR
 10
1.0
 20
0.0
 30
0.0
  9
$PUCSYDIR
 10
0.0
 20
1.0
 30
0.0
  9
$USERI1
 70
     0
  9
$USERI2
 70
     0
  9
$USERI3
 70
     0
  9
$USERI4
 70
     0
  9
$USERI5
 70
     0
  9
$USERR1
 40
0.0
  9
$USERR2
 40
0.0
  9
$USERR3
 40
0.0
  9
$USERR4
 40
0.0
  9
$USERR5
 40
0.0
  9
$WORLDVIEW
 70
     1
  9
$SHADEDGE
 70
     3
  9
$SHADEDIF
 70
    70
  9
$TILEMODE
 70
     0
  9
$MAXACTVP
 70
    64
  9
$PINSBASE
 10
0.0
 20
0.0
 30
0.0
  9
$PLIMCHECK
 70
     0
  9
$PEXTMIN
 10
-20.25
 20
-14.21136363636363
 30
0.0
  9
$PEXTMAX
 10
317.2499999999999
 20
224.425
 30
0.0
  9
$PLIMMIN
 10
-20.25
 20
-14.21136363636363
  9
$PLIMMAX
 10
317.2499999999999
 20
224.425
  9
$UNITMODE
 70
     0
  9
$VISRETAIN
 70
     1
  9
$PLINEGEN
 70
     0
  9
$PSLTSCALE
 70
     1
  9
$TREEDEPTH
 70
  3020
  9
$PICKSTYLE
 70
     1
  9
$CMLSTYLE
  2
STANDARD
  9
$CMLJUST
 70
     0
  9
$CMLSCALE
 40
1.0
  9
$PROXYGRAPHICS
 70
     1
  9
$MEASUREMENT
 70
     0
  0
ENDSEC
  0
SECTION
  2
CLASSES
  0
CLASS
  1
ACDBDICTIONARYWDFLT
  2
AcDbDictionaryWithDefault
  3
ObjectDBX Classes
 90
        0
280
     0
281
     0
  0
CLASS
  1
VISUALSTYLE
  2
AcDbVisualStyle
  3
ObjectDBX Classes
 90
     4095
280
     0
281
     0
  0
CLASS
  1
MATERIAL
  2
AcDbMaterial
  3
ObjectDBX Classes
 90
     1153
280
     0
281
     0
  0
CLASS
  1
AEC_VARS_DWG_SETUP
  2
AecDbVarsDwgSetup
  3
AecBase60
 90
      129
280
     0
281
     0
  0
CLASS
  1
AEC_DISP_REP_2D_SECTION
  2
AecDbDispRep2dSection
  3
AecBase60
 90
      129
280
     0
281
     0
  0
CLASS
  1
AEC_DISP_PROPS_2D_SECTION
  2
AecDbDispProps2dSection
  3
AecBase60
 90
      129
280
     0
281
     0
  0
CLASS
  1
AEC_DISP_REP_CLIP_VOLUME_MODEL
  2
AecDbDispRepClipVolModel
  3
AecBase60
 90
      129
280
     0
281
     0
  0
CLASS
  1
AEC_DISP_PROPS_CLIP_VOLUME
  2
AecDbDispPropsClipVol
  3
AecBase60
 90
      129
280
     0
281
     0
  0
CLASS
  1
AEC_DISP_REP_CLIP_VOLUME_PLAN
  2
AecDbDispRepClipVolPlan
  3
AecBase60
 90
      129
280
     0
281
     0
  0
CLASS
  1
AEC_DISP_REP_CLIP_VOLUME_RESULT
  2
AecDbDispRepClipVolResult
  3
AecBase60
 90
      129
280
     0
281
     0
  0
CLASS
  1
AEC_DISP_REP_CLIP_VOLUME_RESULT_SUBDIV
  2
AecDbDispRepClipVolResSubDiv
  3
AecBase60
 90
      129
280
     0
281
     0
  0
CLASS
  1
AEC_DISP_PROPS_CLIP_VOLUME_RESULT
  2
AecDbDispPropsClipVolResSubDiv
  3
AecBase60
 90
      129
280
     0
281
     0
  0
CLASS
  1
AEC_DISP_REP_DISPLAYTHEME
  2
AecDbDispRepDisplayTheme
  3
AecBase60
 90
      129
280
     0
281
     0
  0
CLASS
  1
AEC_DISP_REP_ENT_REF
  2
AecDbDispRepEntRef
  3
AecBase60
 90
      129
280
     0
281
     0
  0
CLASS
  1
AEC_DISP_PROPS_ENT_REF
  2
AecDbDispPropsEntRef
  3
AecBase60
 90
      129
280
     0
281
     0
  0
CLASS
  1
AEC_DISP_REP_LAYOUT_CURVE
  2
AecDbDispRepLayoutCurve
  3
AecBase60
 90
      129
280
     0
281
     0
  0
CLASS
  1
AEC_DISP_PROPS_LAYOUT_CURVE
  2
AecDbDispPropsLayoutCurve
  3
AecBase60
 90
      129
280
     0
281
     0
  0
CLASS
  1
AEC_DISP_REP_LAYOUT_GRID2D
  2
AecDbDispRepLayoutGrid2d
  3
AecBase60
 90
      129
280
     0
281
     0
  0
CLASS
  1
AEC_DISP_PROPS_LAYOUT_GRID2D
  2
AecDbDispPropsLayoutGrid2d
  3
AecBase60
 90
      129
280
     0
281
     0
  0
CLASS
  1
AEC_DISP_REP_LAYOUT_GRID3D
  2
AecDbDispRepLayoutGrid3d
  3
AecBase60
 90
      129
280
     0
281
     0
  0
CLASS
  1
AEC_DISP_PROPS_LAYOUT_GRID3D
  2
AecDbDispPropsLayoutGrid3d
  3
AecBase60
 90
      129
280
     0
281
     0
  0
CLASS
  1
AEC_DISP_REP_MASKBLOCK_REF
  2
AecDbDispRepMaskBlockRef
  3
AecBase60
 90
      129
280
     0
281
     0
  0
CLASS
  1
AEC_DISP_PROPS_MASKBLOCK
  2
AecDbDispPropsMaskBlock
  3
AecBase60
 90
      129
280
     0
281
     0
  0
CLASS
  1
AEC_DISP_REP_MASKBLOCK_REF_RCP
  2
AecDbDispRepMaskBlockRefRcp
  3
AecArchBase60
 90
      129
280
     0
281
     0
  0
CLASS
  1
AEC_DISP_REP_MASS_ELEM_MODEL
  2
AecDbDispRepMassElemModel
  3
AecBase60
 90
      129
280
     0
281
     0
  0
CLASS
  1
AEC_DISP_PROPS_MASS_ELEM_MODEL
  2
AecDbDispPropsMassElem
  3
AecBase60
 90
      129
280
     0
281
     0
  0
CLASS
  1
AEC_DISP_REP_MASS_ELEM_SCHEM
  2
AecDbDispRepMassElemSchem
  3
AecBase60
 90
      129
280
     0
281
     0
  0
CLASS
  1
AEC_DISPREPAECDBDISPREPMASSELEMPLAN50
  2
AecDbDispRepMassElemPlan50
  3
AecArchDACHBase60
 90
      129
280
     0
281
     0
  0
CLASS
  1
AEC_DISPROPSMASSELEMPLANCOMMON
  2
AecDbDispPropsMassElemPlanCommon
  3
AecArchDACHBase60
 90
      129
280
     0
281
     0
  0
CLASS
  1
AEC_DISPREPAECDBDISPREPMASSELEMPLAN100
  2
AecDbDispRepMassElemPlan100
  3
AecArchDACHBase60
 90
      129
280
     0
281
     0
  0
CLASS
  1
AEC_DISP_REP_MASS_ELEM_RCP
  2
AecDbDispRepMassElemRcp
  3
AecArchBase60
 90
      129
280
     0
281
     0
  0
CLASS
  1
AEC_DISP_REP_MASS_GROUP_MODEL
  2
AecDbDispRepMassGroupModel
  3
AecBase60
 90
      129
280
     0
281
     0
  0
CLASS
  1
AEC_DISP_PROPS_MASS_GROUP
  2
AecDbDispPropsMassGroup
  3
AecBase60
 90
      129
280
     0
281
     0
  0
CLASS
  1
AEC_DISP_REP_MASS_GROUP_PLAN
  2
AecDbDispRepMassGroupPlan
  3
AecBase60
 90
      129
280
     0
281
     0
  0
CLASS
  1
AEC_DISPREPAECDBDISPREPMASSGROUPPLAN50
  2
AecDbDispRepMassGroupPlan50
  3
AecArchDACHBase60
 90
      129
280
     0
281
     0
  0
CLASS
  1
AEC_DISPROPSMASSGROUPPLANCOMMON
  2
AecDbDispPropsMassGroupPlanCommon
  3
AecArchDACHBase60
 90
      129
280
     0
281
     0
  0
CLASS
  1
AEC_DISPREPAECDBDISPREPMASSGROUPPLAN100
  2
AecDbDispRepMassGroupPlan100
  3
AecArchDACHBase60
 90
      129
280
     0
281
     0
  0
CLASS
  1
AEC_DISP_REP_MASS_GROUP_RCP
  2
AecDbDispRepMassGroupRcp
  3
AecArchBase60
 90
      129
280
     0
281
     0
  0
CLASS
  1
AEC_DISP_REP_MVBLOCK_REF
  2
AecDbDispRepMvBlockRef
  3
AecBase60
 90
      129
280
     0
281
     0
  0
CLASS
  1
AEC_DISP_REP_MVBLOCK_REF_MODEL
  2
AecDbDispRepMvBlockRefModel
  3
AecBase60
 90
      129
280
     0
281
     0
  0
CLASS
  1
AEC_AECDBDISPREPMVBLOCKREFPLAN100
  2
AecDbDispRepMvBlockRefPlan100
  3
AecBase60
 90
      129
280
     0
281
     0
  0
CLASS
  1
AEC_AECDBDISPREPMVBLOCKREFPLAN50
  2
AecDbDispRepMvBlockRefPlan50
  3
AecBase60
 90
      129
280
     0
281
     0
  0
CLASS
  1
AEC_DISP_REP_POLYGON_MODEL
  2
AecDbDispRepPolygonModel
  3
AecBase60
 90
      129
280
     0
281
     0
  0
CLASS
  1
AEC_DISP_PROPS_POLYGON_MODEL
  2
AecDbDispPropsPolygonModel
  3
AecBase60
 90
      129
280
     0
281
     0
  0
CLASS
  1
AEC_DISP_REP_POLYGON_TRUECOLOUR
  2
AecDbDispRepPolygonTrueColour
  3
AecBase60
 90
      129
280
     0
281
     0
  0
CLASS
  1
AEC_DISP_PROPS_POLYGON_TRUECOLOUR
  2
AecDbDispPropsPolygonTrueColour
  3
AecBase60
 90
      129
280
     0
281
     0
  0
CLASS
  1
AEC_DISP_REP_SLICE
  2
AecDbDispRepSlice
  3
AecBase60
 90
      129
280
     0
281
     0
  0
CLASS
  1
AEC_DISP_PROPS_SLICE
  2
AecDbDispPropsSlice
  3
AecBase60
 90
      129
280
     0
281
     0
  0
CLASS
  1
AEC_DISP_REP_ANCHOR
  2
AecDbDispRepAnchor
  3
AecBase60
 90
      129
280
     0
281
     0
  0
CLASS
  1
AEC_DISP_REP_ANCHOR_ENT_TO_NODE
  2
AecDbDispRepAnchorEntToNode
  3
AecBase60
 90
      129
280
     0
281
     0
  0
CLASS
  1
AEC_DISP_PROPS_ENT
  2
AecDbDispPropsEnt
  3
AecBase60
 90
      129
280
     0
281
     0
  0
CLASS
  1
AEC_DISP_REP_MATERIAL
  2
AecDbDispRepMaterial
  3
AecBase60
 90
      129
280
     0
281
     0
  0
CLASS
  1
AEC_DISP_PROPS_MATERIAL
  2
AecDbDispPropsMaterial
  3
AecBase60
 90
      129
280
     0
281
     0
  0
CLASS
  1
AEC_DISP_REP_EDITINPLACEPROFILE
  2
AecDbDispRepEditInPlaceProfile
  3
AecBase60
 90
      129
280
     0
281
     0
  0
CLASS
  1
AEC_DISP_PROPS_EDITINPLACEPROFILE_MODEL
  2
AecDbDispPropsEditInPlaceProfile
  3
AecBase60
 90
      129
280
     0
281
     0
  0
CLASS
  1
AEC_VARS_ARCHBASE
  2
AecDbVarsArchBase
  3
AecArchBase60
 90
      129
280
     0
281
     0
  0
CLASS
  1
AEC_DISP_REP_BDG_ELEVLINE_PLAN
  2
AecDbDispRepBdgElevLinePlan
  3
AecArchBase60
 90
      129
280
     0
281
     0
  0
CLASS
  1
AEC_DISP_REP_BDG_ELEVLINE_MODEL
  2
AecDbDispRepBdgElevLineModel
  3
AecArchBase60
 90
      129
280
     0
281
     0
  0
CLASS
  1
AEC_DISP_REP_BDG_ELEVLINE_RCP
  2
AecDbDispRepBdgElevLineRcp
  3
AecArchBase60
 90
      129
280
     0
281
     0
  0
CLASS
  1
AEC_AECDBDISPREPBDGELEVLINEPLAN100
  2
AecDbDispRepBdgElevLinePlan100
  3
AecBase60
 90
      129
280
     0
281
     0
  0
CLASS
  1
AEC_AECDBDISPREPBDGELEVLINEPLAN50
  2
AecDbDispRepBdgElevLinePlan50
  3
AecBase60
 90
      129
280
     0
281
     0
  0
CLASS
  1
AEC_DISP_REP_BDG_SECTIONLINE_MODEL
  2
AecDbDispRepBdgSectionLineModel
  3
AecArchBase60
 90
      129
280
     0
281
     0
  0
CLASS
  1
AEC_DISP_REP_BDG_SECTIONLINE_PLAN
  2
AecDbDispRepBdgSectionLinePlan
  3
AecArchBase60
 90
      129
280
     0
281
     0
  0
CLASS
  1
AEC_DISP_REP_BDG_SECTIONLINE_RCP
  2
AecDbDispRepBdgSectionLineRcp
  3
AecArchBase60
 90
      129
280
     0
281
     0
  0
CLASS
  1
AEC_AECDBDISPREPBDGSECTIONLINEPLAN100
  2
AecDbDispRepBdgSectionLinePlan100
  3
AecBase60
 90
      129
280
     0
281
     0
  0
CLASS
  1
AEC_AECDBDISPREPBDGSECTIONLINEPLAN50
  2
AecDbDispRepBdgSectionLinePlan50
  3
AecBase60
 90
      129
280
     0
281
     0
  0
CLASS
  1
AEC_DISP_REP_BDG_SECTION_SUBDIV
  2
AecDbDispRepBdgSectionSubDiv
  3
AecArchBase60
 90
      129
280
     0
281
     0
  0
CLASS
  1
AEC_DISP_REP_BDG_SECTION_MODEL
  2
AecDbDispRepBdgSectionModel
  3
AecArchBase60
 90
      129
280
     0
281
     0
  0
CLASS
  1
AEC_DISP_REP_CEILING_GRID
  2
AecDbDispRepCeilingGrid
  3
AecArchBase60
 90
      893
280
     0
281
     0
  0
CLASS
  1
AEC_DISP_REP_CEILING_GRID_MODEL
  2
AecDbDispRepCeilingGridModel
  3
AecArchBase60
 90
      129
280
     0
281
     0
  0
CLASS
  1
AEC_DISP_REP_CEILING_GRID_RCP
  2
AecDbDispRepCeilingGridRcp
  3
AecArchBase60
 90
      129
280
     0
281
     0
  0
CLASS
  1
AEC_AECDBDISPREPCEILINGGRIDPLAN100
  2
AecDbDispRepCeilingGridPlan100
  3
AecBase60
 90
      129
280
     0
281
     0
  0
CLASS
  1
AEC_AECDBDISPREPCEILINGGRIDPLAN50
  2
AecDbDispRepCeilingGridPlan50
  3
AecBase60
 90
      129
280
     0
281
     0
  0
CLASS
  1
AEC_DISP_REP_CURTAIN_WALL_LAYOUT_MODEL
  2
AecDbDispRepCurtainWallLayoutModel
  3
AecArchBase60
 90
      129
280
     0
281
     0
  0
CLASS
  1
AEC_DISP_PROPS_GRID_ASSEMBLY_MODEL
  2
AecDbDispPropsGridAssemblyModel
  3
AecArchBase60
 90
      129
280
     0
281
     0
  0
CLASS
  1
AEC_DISP_REP_CURTAIN_WALL_LAYOUT_PLAN
  2
AecDbDispRepCurtainWallLayoutPlan
  3
AecArchBase60
 90
      129
280
     0
281
     0
  0
CLASS
  1
AEC_DISP_PROPS_GRID_ASSEMBLY_PLAN
  2
AecDbDispPropsGridAssemblyPlan
  3
AecArchBase60
 90
      129
280
     0
281
     0
  0
CLASS
  1
AEC_AECDBDISPREPCURTAINWALLLAYOUTPLAN100
  2
AecDbDispRepCurtainWallLayoutPlan100
  3
AecBase60
 90
      129
280
     0
281
     0
  0
CLASS
  1
AEC_AECDBDISPREPCURTAINWALLLAYOUTPLAN50
  2
AecDbDispRepCurtainWallLayoutPlan50
  3
AecBase60
 90
      129
280
     0
281
     0
  0
CLASS
  1
AEC_DISP_REP_CURTAIN_WALL_UNIT_MODEL
  2
AecDbDispRepCurtainWallUnitModel
  3
AecArchBase60
 90
      129
280
     0
281
     0
  0
CLASS
  1
AEC_DISP_REP_CURTAIN_WALL_UNIT_PLAN
  2
AecDbDispRepCurtainWallUnitPlan
  3
AecArchBase60
 90
      129
280
     0
281
     0
  0
CLASS
  1
AEC_AECDBDISPREPCURTAINWALLUNITPLAN100
  2
AecDbDispRepCurtainWallUnitPlan100
  3
AecBase60
 90
      129
280
     0
281
     0
  0
CLASS
  1
AEC_AECDBDISPREPCURTAINWALLUNITPLAN50
  2
AecDbDispRepCurtainWallUnitPlan50
  3
AecBase60
 90
      129
280
     0
281
     0
  0
CLASS
  1
AEC_DISP_REP_DOOR_MODEL
  2
AecDbDispRepDoorModel
  3
AecArchBase60
 90
      129
280
     0
281
     0
  0
CLASS
  1
AEC_DISP_PROPS_DOOR
  2
AecDbDispPropsDoor
  3
AecArchBase60
 90
      129
280
     0
281
     0
  0
CLASS
  1
AEC_DISP_REP_DOOR_ELEV
  2
AecDbDispRepDoorElev
  3
AecArchBase60
 90
      129
280
     0
281
     0
  0
CLASS
  1
AEC_DISP_REP_DOOR_PLAN
  2
AecDbDispRepDoorPlan
  3
AecArchBase60
 90
      129
280
     0
281
     0
  0
CLASS
  1
AEC_DISP_REP_DOOR_NOMINAL
  2
AecDbDispRepDoorNominal
  3
AecArchBase60
 90
      129
280
     0
281
     0
  0
CLASS
  1
AEC_DISP_PROPS_DOOR_NOMINAL
  2
AecDbDispPropsDoorNominal
  3
AecArchBase60
 90
      129
280
     0
281
     0
  0
CLASS
  1
AEC_DISP_REP_DOOR_THRESHOLD_PLAN
  2
AecDbDispRepDoorThresholdPlan
  3
AecArchBase60
 90
      129
280
     0
281
     0
  0
CLASS
  1
AEC_DISP_PROPS_DOOR_THRESHOLD_PLAN
  2
AecDbDispPropsDoorThresholdPlan
  3
AecArchBase60
 90
      129
280
     0
281
     0
  0
CLASS
  1
AEC_DISP_REP_DOOR_PLAN_50
  2
AecDbDispRepDoorPlan50
  3
AecArchDACHBase60
 90
      129
280
     0
281
     0
  0
CLASS
  1
AEC_DISP_PROPS_DOOR_PLAN_50
  2
AecDbDispPropsDoorPlan50
  3
AecArchDACHBase60
 90
      129
280
     0
281
     0
  0
CLASS
  1
AEC_DISP_REP_DOOR_PLAN_HEKTO
  2
AecDbDispRepDoorPlanHekto
  3
AecArchDACHBase60
 90
      129
280
     0
281
     0
  0
CLASS
  1
AEC_DISP_PROPS_DOOR_PLAN_100
  2
AecDbDispPropsDoorPlan100
  3
AecArchDACHBase60
 90
      129
280
     0
281
     0
  0
CLASS
  1
AEC_DISP_REP_DOOR_RCP
  2
AecDbDispRepDoorRcp
  3
AecArchBase60
 90
      129
280
     0
281
     0
  0
CLASS
  1
AEC_DISP_REP_DOOR_THRESHOLD_SYMBOL_PLAN
  2
AecDbDispRepDoorThresholdSymbolPlan
  3
AecArchDACHBase60
 90
      129
280
     0
281
     0
  0
CLASS
  1
AEC_DISP_PROPS_DOOR_THRESHOLD_SYMBOL_PLAN
  2
AecDbDispPropsDoorThresholdSymbolPlan
  3
AecArchDACHBase60
 90
      129
280
     0
281
     0
  0
CLASS
  1
AEC_DISP_REP_OPENING
  2
AecDbDispRepOpening
  3
AecArchBase60
 90
      129
280
     0
281
     0
  0
CLASS
  1
AEC_DISP_PROPS_OPENING
  2
AecDbDispPropsOpening
  3
AecArchBase60
 90
      129
280
     0
281
     0
  0
CLASS
  1
AEC_DISP_REP_OPENING_MODEL
  2
AecDbDispRepOpeningModel
  3
AecArchBase60
 90
      129
280
     0
281
     0
  0
CLASS
  1
AEC_DISPREPAECDBDISPREPOPENINGPLAN100
  2
AecDbDispRepOpeningPlan100
  3
AecArchDACHBase60
 90
      129
280
     0
281
     0
  0
CLASS
  1
AEC_DISPROPSOPENINGPLANCOMMONHATCHED
  2
AecDbDispPropsOpeningPlanCommonHatched
  3
AecArchDACHBase60
 90
      129
280
     0
281
     0
  0
CLASS
  1
AEC_DISPREPAECDBDISPREPOPENINGPLAN50
  2
AecDbDispRepOpeningPlan50
  3
AecArchDACHBase60
 90
      129
280
     0
281
     0
  0
CLASS
  1
AEC_DISPREPAECDBDISPREPOPENINGPLANREFLECTED
  2
AecDbDispRepOpeningPlanReflected
  3
AecArchDACHBase60
 90
      129
280
     0
281
     0
  0
CLASS
  1
AEC_DISPROPSOPENINGPLANCOMMON
  2
AecDbDispPropsOpeningPlanCommon
  3
AecArchDACHBase60
 90
      129
280
     0
281
     0
  0
CLASS
  1
AEC_DISPREPAECDBDISPREPOPENINGSILLPLAN
  2
AecDbDispRepOpeningSillPlan
  3
AecArchDACHBase60
 90
      129
280
     0
281
     0
  0
CLASS
  1
AEC_DISPROPSOPENINGSILLPLAN
  2
AecDbDispPropsOpeningSillPlan
  3
AecArchDACHBase60
 90
      129
280
     0
281
     0
  0
CLASS
  1
AEC_DISP_REP_RAILING_MODEL
  2
AecDbDispRepRailingModel
  3
AecArchBase60
 90
      129
280
     0
281
     0
  0
CLASS
  1
AEC_DISP_PROPS_RAILING_MODEL
  2
AecDbDispPropsRailingModel
  3
AecArchBase60
 90
      129
280
     0
281
     0
  0
CLASS
  1
AEC_DISP_REP_RAILING_PLAN
  2
AecDbDispRepRailingPlan
  3
AecArchBase60
 90
      129
280
     0
281
     0
  0
CLASS
  1
AEC_DISP_PROPS_RAILING_PLAN
  2
AecDbDispPropsRailingPlan
  3
AecArchBase60
 90
      129
280
     0
281
     0
  0
CLASS
  1
AEC_DISP_REP_RAILING_PLAN_100
  2
AecDbDispRepRailingPlan100
  3
AecArchDACHBase60
 90
      129
280
     0
281
     0
  0
CLASS
  1
AEC_DISP_ROPS_RAILING_PLAN_100
  2
AecDbDispPropsRailingPlan100
  3
AecArchDACHBase60
 90
      129
280
     0
281
     0
  0
CLASS
  1
AEC_DISP_REP_RAILING_PLAN_50
  2
AecDbDispRepRailingPlan50
  3
AecArchDACHBase60
 90
      129
280
     0
281
     0
  0
CLASS
  1
AEC_DISP_ROPS_RAILING_PLAN_50
  2
AecDbDispPropsRailingPlan50
  3
AecArchDACHBase60
 90
      129
280
     0
281
     0
  0
CLASS
  1
AEC_DISP_REP_ROOF_MODEL
  2
AecDbDispRepRoofModel
  3
AecArchBase60
 90
      129
280
     0
281
     0
  0
CLASS
  1
AEC_DISP_PROPS_ROOF
  2
AecDbDispPropsRoof
  3
AecArchBase60
 90
      129
280
     0
281
     0
  0
CLASS
  1
AEC_DISP_REP_ROOF_PLAN
  2
AecDbDispRepRoofPlan
  3
AecArchBase60
 90
      129
280
     0
281
     0
  0
CLASS
  1
AEC_DISP_REP_ROOF_RCP
  2
AecDbDispRepRoofRcp
  3
AecArchBase60
 90
      129
280
     0
281
     0
  0
CLASS
  1
AEC_AECDBDISPREPROOFPLAN100
  2
AecDbDispRepRoofPlan100
  3
AecBase60
 90
      129
280
     0
281
     0
  0
CLASS
  1
AEC_AECDBDISPREPROOFPLAN50
  2
AecDbDispRepRoofPlan50
  3
AecBase60
 90
      129
280
     0
281
     0
  0
CLASS
  1
AEC_DISP_REP_ROOFSLAB_MODEL
  2
AecDbDispRepRoofSlabModel
  3
AecArchBase60
 90
      129
280
     0
281
     0
  0
CLASS
  1
AEC_DISP_PROPS_ROOFSLAB
  2
AecDbDispPropsRoofSlab
  3
AecArchBase60
 90
      129
280
     0
281
     0
  0
CLASS
  1
AEC_DISP_REP_ROOFSLAB_PLAN
  2
AecDbDispRepRoofSlabPlan
  3
AecArchBase60
 90
      129
280
     0
281
     0
  0
CLASS
  1
AEC_DISP_PROPS_ROOFSLAB_PLAN
  2
AecDbDispPropsRoofSlabPlan
  3
AecArchBase60
 90
      129
280
     0
281
     0
  0
CLASS
  1
AEC_AECDBDISPREPROOFSLABPLAN100
  2
AecDbDispRepRoofSlabPlan100
  3
AecBase60
 90
      129
280
     0
281
     0
  0
CLASS
  1
AEC_AECDBDISPREPROOFSLABPLAN50
  2
AecDbDispRepRoofSlabPlan50
  3
AecBase60
 90
      129
280
     0
281
     0
  0
CLASS
  1
AEC_DISP_REP_SLAB_MODEL
  2
AecDbDispRepSlabModel
  3
AecArchBase60
 90
      129
280
     0
281
     0
  0
CLASS
  1
AEC_DISP_PROPS_SLAB
  2
AecDbDispPropsSlab
  3
AecArchBase60
 90
      129
280
     0
281
     0
  0
CLASS
  1
AEC_DISP_REP_SLAB_PLAN
  2
AecDbDispRepSlabPlan
  3
AecArchBase60
 90
      129
280
     0
281
     0
  0
CLASS
  1
AEC_DISP_PROPS_SLAB_PLAN
  2
AecDbDispPropsSlabPlan
  3
AecArchBase60
 90
      129
280
     0
281
     0
  0
CLASS
  1
AEC_AECDBDISPREPSLABPLAN100
  2
AecDbDispRepSlabPlan100
  3
AecBase60
 90
      129
280
     0
281
     0
  0
CLASS
  1
AEC_AECDBDISPREPSLABPLAN50
  2
AecDbDispRepSlabPlan50
  3
AecBase60
 90
      129
280
     0
281
     0
  0
CLASS
  1
AEC_DISP_REP_SPACE_MODEL
  2
AecDbDispRepSpaceModel
  3
AecArchBase60
 90
      129
280
     0
281
     0
  0
CLASS
  1
AEC_DISP_PROPS_SPACE_MODEL
  2
AecDbDispPropsSpaceModel
  3
AecArchBase60
 90
      129
280
     0
281
     0
  0
CLASS
  1
AEC_DISP_REP_SPACE_PLAN
  2
AecDbDispRepSpacePlan
  3
AecArchBase60
 90
      129
280
     0
281
     0
  0
CLASS
  1
AEC_DISP_PROPS_SPACE_PLAN
  2
AecDbDispPropsSpacePlan
  3
AecArchBase60
 90
      129
280
     0
281
     0
  0
CLASS
  1
AEC_DISP_REP_SPACE_RCP
  2
AecDbDispRepSpaceRcp
  3
AecArchBase60
 90
      129
280
     0
281
     0
  0
CLASS
  1
AEC_DISP_REP_SPACE_VOLUME
  2
AecDbDispRepSpaceVolume
  3
AecArchBase60
 90
      129
280
     0
281
     0
  0
CLASS
  1
AEC_DISP_REP_SPACE_DECOMPOSED
  2
AecDbDispRepSpaceDecomposed
  3
AecArchBase60
 90
      129
280
     0
281
     0
  0
CLASS
  1
AEC_DISP_PROPS_SPACE_DECOMPOSED
  2
AecDbDispPropsSpaceDecomposed
  3
AecArchBase60
 90
      129
280
     0
281
     0
  0
CLASS
  1
AEC_AECDBDISPREPSPACEPLAN100
  2
AecDbDispRepSpacePlan100
  3
AecBase60
 90
      129
280
     0
281
     0
  0
CLASS
  1
AEC_AECDBDISPREPSPACEPLAN50
  2
AecDbDispRepSpacePlan50
  3
AecBase60
 90
      129
280
     0
281
     0
  0
CLASS
  1
AEC_DISP_REP_STAIR_MODEL
  2
AecDbDispRepStairModel
  3
AecArchBase60
 90
      129
280
     0
281
     0
  0
CLASS
  1
AEC_DISP_PROPS_STAIR_MODEL
  2
AecDbDispPropsStairModel
  3
AecArchBase60
 90
      129
280
     0
281
     0
  0
CLASS
  1
AEC_DISP_REP_STAIR_PLAN
  2
AecDbDispRepStairPlan
  3
AecArchBase60
 90
      129
280
     0
281
     0
  0
CLASS
  1
AEC_DISP_PROPS_STAIR_PLAN
  2
AecDbDispPropsStairPlan
  3
AecArchBase60
 90
      129
280
     0
281
     0
  0
CLASS
  1
AEC_DISP_REP_STAIR_RCP
  2
AecDbDispRepStairRcp
  3
AecArchBase60
 90
      129
280
     0
281
     0
  0
CLASS
  1
AEC_DISP_REP_STAIR_PLAN_100
  2
AecDbDispRepStairPlan100
  3
AecArchDACHBase60
 90
      129
280
     0
281
     0
  0
CLASS
  1
AEC_DISP_ROPS_STAIR_PLAN_100
  2
AecDbDispPropsStairPlan100
  3
AecArchDACHBase60
 90
      129
280
     0
281
     0
  0
CLASS
  1
AEC_DISP_REP_STAIR_PLAN_50
  2
AecDbDispRepStairPlan50
  3
AecArchDACHBase60
 90
      129
280
     0
281
     0
  0
CLASS
  1
AEC_DISP_ROPS_STAIR_PLAN_50
  2
AecDbDispPropsStairPlan50
  3
AecArchDACHBase60
 90
      129
280
     0
281
     0
  0
CLASS
  1
AEC_DISP_REP_STAIR_PLAN_OVERLAPPING
  2
AecDbDispRepStairPlanOverlapping
  3
AecArchBase60
 90
      129
280
     0
281
     0
  0
CLASS
  1
AEC_DISP_PROPS_STAIR_PLAN_OVERLAPPING
  2
AecDbDispPropsStairPlanOverlapping
  3
AecArchBase60
 90
      129
280
     0
281
     0
  0
CLASS
  1
AEC_DISP_REP_WALL_GRAPH
  2
AecDbDispRepWallGraph
  3
AecArchBase60
 90
      129
280
     0
281
     0
  0
CLASS
  1
AEC_DISP_PROPS_WALL_GRAPH
  2
AecDbDispPropsWallGraph
  3
AecArchBase60
 90
      129
280
     0
281
     0
  0
CLASS
  1
AEC_DISP_REP_WALL_MODEL
  2
AecDbDispRepWallModel
  3
AecArchBase60
 90
      129
280
     0
281
     0
  0
CLASS
  1
AEC_DISP_PROPS_WALL_MODEL
  2
AecDbDispPropsWallModel
  3
AecArchBase60
 90
      129
280
     0
281
     0
  0
CLASS
  1
AEC_DISP_REP_WALL_PLAN
  2
AecDbDispRepWallPlan
  3
AecArchBase60
 90
      129
280
     0
281
     0
  0
CLASS
  1
AEC_DISP_PROPS_WALL_PLAN
  2
AecDbDispPropsWallPlan
  3
AecArchBase60
 90
      129
280
     0
281
     0
  0
CLASS
  1
AEC_DISP_REP_WALL_RCP
  2
AecDbDispRepWallRcp
  3
AecArchBase60
 90
      129
280
     0
281
     0
  0
CLASS
  1
AEC_DISP_REP_WALL_SCHEM
  2
AecDbDispRepWallSchem
  3
AecArchBase60
 90
      129
280
     0
281
     0
  0
CLASS
  1
AEC_DISP_PROPS_WALL_SCHEM
  2
AecDbDispPropsWallSchem
  3
AecArchBase60
 90
      129
280
     0
281
     0
  0
CLASS
  1
AEC_AECDBDISPREPWALLPLAN100
  2
AecDbDispRepWallPlan100
  3
AecBase60
 90
      129
280
     0
281
     0
  0
CLASS
  1
AEC_AECDBDISPREPWALLPLAN50
  2
AecDbDispRepWallPlan50
  3
AecBase60
 90
      129
280
     0
281
     0
  0
CLASS
  1
AEC_DISP_REP_WINDOW_MODEL
  2
AecDbDispRepWindowModel
  3
AecArchBase60
 90
      129
280
     0
281
     0
  0
CLASS
  1
AEC_DISP_PROPS_WINDOW
  2
AecDbDispPropsWindow
  3
AecArchBase60
 90
      129
280
     0
281
     0
  0
CLASS
  1
AEC_DISP_REP_WINDOW_ELEV
  2
AecDbDispRepWindowElev
  3
AecArchBase60
 90
      129
280
     0
281
     0
  0
CLASS
  1
AEC_DISP_REP_WINDOW_PLAN
  2
AecDbDispRepWindowPlan
  3
AecArchBase60
 90
      129
280
     0
281
     0
  0
CLASS
  1
AEC_DISP_REP_WINDOW_NOMINAL
  2
AecDbDispRepWindowNominal
  3
AecArchBase60
 90
      129
280
     0
281
     0
  0
CLASS
  1
AEC_DISP_PROPS_WINDOW_NOMINAL
  2
AecDbDispPropsWindowNominal
  3
AecArchBase60
 90
      129
280
     0
281
     0
  0
CLASS
  1
AEC_DISP_REP_WINDOW_RCP
  2
AecDbDispRepWindowRcp
  3
AecArchBase60
 90
      129
280
     0
281
     0
  0
CLASS
  1
AEC_DISP_REP_WINDOW_SILL_PLAN
  2
AecDbDispRepWindowSillPlan
  3
AecArchBase60
 90
      129
280
     0
281
     0
  0
CLASS
  1
AEC_DISP_PROPS_WINDOW_SILL_PLAN
  2
AecDbDispPropsWindowSillPlan
  3
AecArchBase60
 90
      129
280
     0
281
     0
  0
CLASS
  1
AEC_DISP_REP_WINDOW_PLAN_100
  2
AecDbDispRepWindowPlan100
  3
AecArchDACHBase60
 90
      129
280
     0
281
     0
  0
CLASS
  1
AEC_DISP_PROPS_WINDOW_PLAN_100
  2
AecDbDispPropsWindowPlan100
  3
AecArchDACHBase60
 90
      129
280
     0
281
     0
  0
CLASS
  1
AEC_DISP_REP_WINDOW_PLAN_50
  2
AecDbDispRepWindowPlan50
  3
AecArchDACHBase60
 90
      129
280
     0
281
     0
  0
CLASS
  1
AEC_DISP_PROPS_WINDOW_PLAN_50
  2
AecDbDispPropsWindowPlan50
  3
AecArchDACHBase60
 90
      129
280
     0
281
     0
  0
CLASS
  1
AEC_DISP_REP_WINDOW_ASSEMBLY_MODEL
  2
AecDbDispRepWindowAssemblyModel
  3
AecArchBase60
 90
      129
280
     0
281
     0
  0
CLASS
  1
AEC_DISP_REP_WINDOW_ASSEMBLY_PLAN
  2
AecDbDispRepWindowAssemblyPlan
  3
AecArchBase60
 90
      129
280
     0
281
     0
  0
CLASS
  1
AEC_DISP_REP_WINDOWASSEMBLY_SILL_PLAN
  2
AecDbDispRepWindowAssemblySillPlan
  3
AecArchBase60
 90
      129
280
     0
281
     0
  0
CLASS
  1
AEC_DISP_PROPS_WINDOW_ASSEMBLY_SILL_PLAN
  2
AecDbDispPropsWindowAssemblySillPlan
  3
AecArchBase60
 90
      129
280
     0
281
     0
  0
CLASS
  1
AEC_AECDBDISPREPWINDOWASSEMBLYPLAN100
  2
AecDbDispRepWindowAssemblyPlan100
  3
AecBase60
 90
      129
280
     0
281
     0
  0
CLASS
  1
AEC_AECDBDISPREPWINDOWASSEMBLYPLAN50
  2
AecDbDispRepWindowAssemblyPlan50
  3
AecBase60
 90
      129
280
     0
281
     0
  0
CLASS
  1
AEC_DB_DISP_REP_DIM_GROUP_PLAN
  2
AecDbDispRepDimGroupPlan
  3
AecArchDACHBase60
 90
      129
280
     0
281
     0
  0
CLASS
  1
AEC_DISP_PROPS_DIM
  2
AecDbDispPropsDimGroup
  3
AecArchDACHBase60
 90
      129
280
     0
281
     0
  0
CLASS
  1
AEC_DB_DISP_REP_DIM_GROUP_PLAN100
  2
AecDbDispRepDimGroupPlan100
  3
AecArchDACHBase60
 90
      129
280
     0
281
     0
  0
CLASS
  1
AEC_DB_DISP_REP_DIM_GROUP_PLAN50
  2
AecDbDispRepDimGroupPlan50
  3
AecArchDACHBase60
 90
      129
280
     0
281
     0
  0
CLASS
  1
AEC_DISP_REP_SCHEDULE_TABLE
  2
AecDbDispRepScheduleTable
  3
AecSchedule50
 90
      129
280
     0
281
     0
  0
CLASS
  1
AEC_DISP_PROPS_SCHEDULE_TABLE
  2
AecDbDispPropsScheduleTable
  3
AecSchedule50
 90
      129
280
     0
281
     0
  0
CLASS
  1
AEC_DISP_REP_ANCHOR_TAG_TO_ENT
  2
AecDbDispRepAnchorTagToEnt
  3
AecScheduleData60
 90
      129
280
     0
281
     0
  0
CLASS
  1
AEC_DISP_REP_ANCHOR_EXT_TAG_TO_ENT
  2
AecDbDispRepAnchorExtendedTagToEnt
  3
AecScheduleData60
 90
      129
280
     0
281
     0
  0
CLASS
  1
AEC_DISP_REP_SET
  2
AecDbDispRepSet
  3
AecBase60
 90
      129
280
     0
281
     0
  0
CLASS
  1
AECS_DISP_REP_MEMBER_MODEL_DESIGN
  2
AecsDbDispRepMemberModelDesign
  3
AecStructureBase60
 90
      129
280
     0
281
     0
  0
CLASS
  1
AECS_DISP_PROPS_MEMBER
  2
AecsDbDispPropsMember
  3
AecStructureBase60
 90
      129
280
     0
281
     0
  0
CLASS
  1
AECS_DISP_REP_MEMBER_PLAN_DESIGN
  2
AecsDbDispRepMemberPlanDesign
  3
AecStructureBase60
 90
      129
280
     0
281
     0
  0
CLASS
  1
AECS_DISP_PROPS_MEMBER_PLAN
  2
AecsDbDispPropsMemberPlan
  3
AecStructureBase60
 90
      129
280
     0
281
     0
  0
CLASS
  1
AEC_DISP_REP_CONFIG
  2
AecDbDispRepConfig
  3
AecBase60
 90
      129
280
     0
281
     0
  0
CLASS
  1
MLEADERSTYLE
  2
AcDbMLeaderStyle
  3
ACDB_MLEADERSTYLE_CLASS
 90
     4095
280
     0
281
     0
  0
CLASS
  1
AEC_WALL_STYLE
  2
AecDbWallStyle
  3
AecArchBase60
 90
      129
280
     0
281
     0
  0
CLASS
  1
AEC_CLEANUP_GROUP_DEF
  2
AecDbCleanupGroupDef
  3
AecArchBase60
 90
      129
280
     0
281
     0
  0
CLASS
  1
AEC_ENDCAP_STYLE
  2
AecDbEndcapStyle
  3
AecArchBase60
 90
      129
280
     0
281
     0
  0
CLASS
  1
AEC_FRAME_DEF
  2
AecDbOpeningEndcapStyle
  3
AecArchBase60
 90
      129
280
     0
281
     0
  0
CLASS
  1
AEC_MATERIAL_DEF
  2
AecDbMaterialDef
  3
AecBase60
 90
      129
280
     0
281
     0
  0
CLASS
  1
TABLESTYLE
  2
AcDbTableStyle
  3
ObjectDBX Classes
 90
     4095
280
     0
281
     0
  0
CLASS
  1
TCOPTIONALDATA
  2
TcOptionalData
  3
ExTcadCustObjs|Description: TurboCAD extension data object
 90
     4095
280
     0
281
     0
  0
CLASS
  1
DIMASSOC
  2
AcDbDimAssoc
  3
"AcDbDimAssoc|Product Desc:     AcDim ARX App For Dimension|Company:          Autodesk, Inc.|WEB Address:      www.autodesk.com"
 90
        0
280
     0
281
     0
  0
CLASS
  1
DICTIONARYVAR
  2
AcDbDictionaryVar
  3
ObjectDBX Classes
 90
        0
280
     0
281
     0
  0
CLASS
  1
XRECORD
  2
AcDbXrecord
  3
AutoCAD 2000
 90
        0
280
     0
281
     0
  0
CLASS
  1
LWPOLYLINE
  2
AcDbPolyline
  3
AutoCAD 2000
 90
        0
280
     0
281
     1
  0
CLASS
  1
HATCH
  2
AcDbHatch
  3
AutoCAD 2000
 90
        0
280
     0
281
     1
  0
CLASS
  1
ACDBPLACEHOLDER
  2
AcDbPlaceHolder
  3
ObjectDBX Classes
 90
        0
280
     0
281
     0
  0
CLASS
  1
LAYOUT
  2
AcDbLayout
  3
ObjectDBX Classes
 90
        0
280
     0
281
     0
  0
ENDSEC
  0
SECTION
  2
TABLES
  0
TABLE
  2
VPORT
  5
8
330
0
100
AcDbSymbolTable
 70
     1
  0
VPORT
  5
29
330
8
100
AcDbSymbolTableRecord
100
AcDbViewportTableRecord
  2
*ACTIVE
 70
     0
 10
0.0
 20
0.0
 11
1.0
 21
1.0
 12
0.0000000000000355
 22
0.0
 13
0.0
 23
0.0
 14
5.0
 24
5.0
 15
5.0
 25
5.0
 16
0.0
 26
0.0
 36
1.0
 17
30.01968797822694
 27
94.2710214238925
 37
0.0
 40
71.71320442982223
 41
1.599755201958384
 42
50.0
 43
0.0
 44
0.0
 50
0.0
 51
0.0
 71
     0
 72
   100
 73
     1
 74
     3
 75
     0
 76
     0
 77
     0
 78
     0
  0
ENDTAB
  0
TABLE
  2
LTYPE
  5
5
330
0
100
AcDbSymbolTable
 70
    23
  0
LTYPE
  5
14
330
5
100
AcDbSymbolTableRecord
100
AcDbLinetypeTableRecord
  2
BYBLOCK
 70
     0
  3

 72
    65
 73
     0
 40
0.0
  0
LTYPE
  5
15
330
5
100
AcDbSymbolTableRecord
100
AcDbLinetypeTableRecord
  2
BYLAYER
 70
     0
  3

 72
    65
 73
     0
 40
0.0
  0
LTYPE
  5
16
330
5
100
AcDbSymbolTableRecord
100
AcDbLinetypeTableRecord
  2
CONTINUOUS
 70
     0
  3
Solid line
 72
    65
 73
     0
 40
0.0
  0
LTYPE
  5
14F
330
5
100
AcDbSymbolTableRecord
100
AcDbLinetypeTableRecord
  2
DURCHGEHEND
 70
     0
  3
Durchgehend
 72
    65
 73
     0
 40
0.0
  0
LTYPE
  5
150
330
5
100
AcDbSymbolTableRecord
100
AcDbLinetypeTableRecord
  2
RAND
 70
     0
  3
Rand
 72
    65
 73
     6
 40
1.75
 49
0.5
 74
     0
 49
-0.25
 74
     0
 49
0.5
 74
     0
 49
-0.25
 74
     0
 49
0.0
 74
     0
 49
-0.25
 74
     0
  0
LTYPE
  5
151
330
5
100
AcDbSymbolTableRecord
100
AcDbLinetypeTableRecord
  2
MITTE
 70
     0
  3
Mitte
 72
    65
 73
     4
 40
2.0
 49
1.25
 74
     0
 49
-0.25
 74
     0
 49
0.25
 74
     0
 49
-0.25
 74
     0
  0
LTYPE
  5
152
330
5
100
AcDbSymbolTableRecord
100
AcDbLinetypeTableRecord
  2
STRICHPUNKT
 70
     0
  3
Strichpunkt
 72
    65
 73
     4
 40
1.0
 49
0.5
 74
     0
 49
-0.25
 74
     0
 49
0.0
 74
     0
 49
-0.25
 74
     0
  0
LTYPE
  5
153
330
5
100
AcDbSymbolTableRecord
100
AcDbLinetypeTableRecord
  2
GESTRICHELT
 70
     0
  3
Gestrichelt
 72
    65
 73
     2
 40
0.75
 49
0.5
 74
     0
 49
-0.25
 74
     0
  0
LTYPE
  5
154
330
5
100
AcDbSymbolTableRecord
100
AcDbLinetypeTableRecord
  2
GETEILT
 70
     0
  3
Geteilt
 72
    65
 73
     6
 40
1.25
 49
0.5
 74
     0
 49
-0.25
 74
     0
 49
0.0
 74
     0
 49
-0.25
 74
     0
 49
0.0
 74
     0
 49
-0.25
 74
     0
  0
LTYPE
  5
155
330
5
100
AcDbSymbolTableRecord
100
AcDbLinetypeTableRecord
  2
PUNKT
 70
     0
  3
Punkt
 72
    65
 73
     2
 40
0.25
 49
0.0
 74
     0
 49
-0.25
 74
     0
  0
LTYPE
  5
156
330
5
100
AcDbSymbolTableRecord
100
AcDbLinetypeTableRecord
  2
VERDECKT
 70
     0
  3
Verdeckt
 72
    65
 73
     2
 40
0.375
 49
0.25
 74
     0
 49
-0.125
 74
     0
  0
LTYPE
  5
157
330
5
100
AcDbSymbolTableRecord
100
AcDbLinetypeTableRecord
  2
$INVISIBLE
 70
     0
  3
$INVISIBLE
 72
    65
 73
     2
 40
200.0
 49
-100.0
 74
     0
 49
-100.0
 74
     0
  0
LTYPE
  5
158
330
5
100
AcDbSymbolTableRecord
100
AcDbLinetypeTableRecord
  2
TEILEN
 70
     0
  3
TEILEN
 72
    65
 73
     6
 40
1.25
 49
0.5
 74
     0
 49
-0.25
 74
     0
 49
0.0
 74
     0
 49
-0.25
 74
     0
 49
0.0
 74
     0
 49
-0.25
 74
     0
  0
LTYPE
  5
159
330
5
100
AcDbSymbolTableRecord
100
AcDbLinetypeTableRecord
  2
FORTLAUFEND
 70
     0
  3
FORTLAUFEND
 72
    65
 73
     0
 40
0.0
  0
LTYPE
  5
15A
330
5
100
AcDbSymbolTableRecord
100
AcDbLinetypeTableRecord
  2
BORDER
 70
     0
  3
BORDER
 72
    65
 73
     6
 40
1.75
 49
0.5
 74
     0
 49
-0.25
 74
     0
 49
0.5
 74
     0
 49
-0.25
 74
     0
 49
0.0
 74
     0
 49
-0.25
 74
     0
  0
LTYPE
  5
15B
330
5
100
AcDbSymbolTableRecord
100
AcDbLinetypeTableRecord
  2
CENTER
 70
     0
  3
CENTER
 72
    65
 73
     4
 40
2.0
 49
1.25
 74
     0
 49
-0.25
 74
     0
 49
0.25
 74
     0
 49
-0.25
 74
     0
  0
LTYPE
  5
15C
330
5
100
AcDbSymbolTableRecord
100
AcDbLinetypeTableRecord
  2
DASHDOT
 70
     0
  3
DASHDOT
 72
    65
 73
     4
 40
1.0
 49
0.5
 74
     0
 49
-0.25
 74
     0
 49
0.0
 74
     0
 49
-0.25
 74
     0
  0
LTYPE
  5
15D
330
5
100
AcDbSymbolTableRecord
100
AcDbLinetypeTableRecord
  2
DASHED
 70
     0
  3
DASHED
 72
    65
 73
     2
 40
0.75
 49
0.5
 74
     0
 49
-0.25
 74
     0
  0
LTYPE
  5
15E
330
5
100
AcDbSymbolTableRecord
100
AcDbLinetypeTableRecord
  2
DIVIDE
 70
     0
  3
DIVIDE
 72
    65
 73
     6
 40
1.25
 49
0.5
 74
     0
 49
-0.25
 74
     0
 49
0.0
 74
     0
 49
-0.25
 74
     0
 49
0.0
 74
     0
 49
-0.25
 74
     0
  0
LTYPE
  5
15F
330
5
100
AcDbSymbolTableRecord
100
AcDbLinetypeTableRecord
  2
DOT
 70
     0
  3
DOT
 72
    65
 73
     2
 40
0.25
 49
0.0
 74
     0
 49
-0.25
 74
     0
  0
LTYPE
  5
160
330
5
100
AcDbSymbolTableRecord
100
AcDbLinetypeTableRecord
  2
HIDDEN
 70
     0
  3
HIDDEN
 72
    65
 73
     2
 40
0.375
 49
0.25
 74
     0
 49
-0.125
 74
     0
  0
LTYPE
  5
161
330
5
100
AcDbSymbolTableRecord
100
AcDbLinetypeTableRecord
  2
PHANTOM
 70
     0
  3
PHANTOM
 72
    65
 73
     6
 40
2.5
 49
1.25
 74
     0
 49
-0.25
 74
     0
 49
0.25
 74
     0
 49
-0.25
 74
     0
 49
0.25
 74
     0
 49
-0.25
 74
     0
  0
LTYPE
  5
162
330
5
100
AcDbSymbolTableRecord
100
AcDbLinetypeTableRecord
  2
$AUXILIARY
 70
     0
  3
$AUXILIARY
 72
    65
 73
     2
 40
0.1
 49
0.05
 74
     0
 49
-0.05
 74
     0
  0
LTYPE
  5
163
330
5
100
AcDbSymbolTableRecord
100
AcDbLinetypeTableRecord
  2
$CONSTRUCTION
 70
     0
  3
$CONSTRUCTION
 72
    65
 73
     4
 40
0.3
 49
0.2
 74
     0
 49
-0.05
 74
     0
 49
0.0
 74
     0
 49
-0.05
 74
     0
  0
LTYPE
  5
164
330
5
100
AcDbSymbolTableRecord
100
AcDbLinetypeTableRecord
  2
$SNAPEXT
 70
     0
  3
$SNAPEXT
 72
    65
 73
     2
 40
0.04
 49
0.02
 74
     0
 49
-0.02
 74
     0
  0
ENDTAB
  0
TABLE
  2
LAYER
  5
2
330
0
100
AcDbSymbolTable
 70
     2
  0
LAYER
  5
10
330
2
100
AcDbSymbolTableRecord
100
AcDbLayerTableRecord
  2
0
 70
     0
 62
   251
  6
DURCHGEHEND
  0
LAYER
  5
165
330
2
100
AcDbSymbolTableRecord
100
AcDbLayerTableRecord
  2
DEFPOINTS
 70
     0
 62
     7
  6
CONTINUOUS
  0
ENDTAB
  0
TABLE
  2
STYLE
  5
3
330
0
100
AcDbSymbolTable
 70
     3
  0
STYLE
  5
11
330
3
100
AcDbSymbolTableRecord
100
AcDbTextStyleTableRecord
  2
STANDARD
 70
     0
 40
0.0
 41
1.0
 50
0.0
 71
     0
 42
3.0
  3
times.ttf
  4

1001
ACAD
1000
Times New Roman
1071
      290
  0
STYLE
  5
220
330
3
100
AcDbSymbolTableRecord
100
AcDbTextStyleTableRecord
  2
_TCW_TXTSTY_1
 70
     0
 40
1.5
 41
1.0
 50
0.0
 71
     0
 42
1.5
  3
TBOld.ttf
  4

1001
ACAD
1000
Technobox Old
1071
       34
  0
STYLE
  5
23A
330
3
100
AcDbSymbolTableRecord
100
AcDbTextStyleTableRecord
  2
_TCW_TXTSTY_2
 70
     0
 40
1.5
 41
1.0
 50
0.0
 71
     0
 42
1.5
  3

  4

1001
ACAD
1000
Technobox Old
1071
       34
  0
ENDTAB
  0
TABLE
  2
VIEW
  5
6
330
0
100
AcDbSymbolTable
 70
     1
  0
VIEW
  5
166
330
6
100
AcDbSymbolTableRecord
100
AcDbViewTableRecord
  2
ANSICHT_0
 70
     0
 40
210.0
 10
148.5
 20
105.0
 41
297.0
 11
0.0
 21
0.0
 31
1.0
 12
0.0
 22
0.0
 32
0.0
 42
50.0
 43
0.0
 44
0.0
 50
0.0
 71
     0
  0
ENDTAB
  0
TABLE
  2
UCS
  5
7
330
0
100
AcDbSymbolTable
 70
     1
  0
UCS
  5
168
330
7
100
AcDbSymbolTableRecord
100
AcDbUCSTableRecord
  2
PREVIOUS
 70
     0
 10
0.0
 20
0.0
 30
0.0
 11
1.0
 21
0.0
 31
0.0
 12
0.0
 22
1.0
 32
0.0
  0
ENDTAB
  0
TABLE
  2
APPID
  5
9
330
0
100
AcDbSymbolTable
 70
     6
  0
APPID
  5
12
330
9
100
AcDbSymbolTableRecord
100
AcDbRegAppTableRecord
  2
ACAD
 70
     0
  0
APPID
  5
3F
330
9
100
AcDbSymbolTableRecord
100
AcDbRegAppTableRecord
  2
TCAD
 70
     0
  0
APPID
  5
40
330
9
100
AcDbSymbolTableRecord
100
AcDbRegAppTableRecord
  2
AECBASE
 70
     0
  0
APPID
  5
41
330
9
100
AcDbSymbolTableRecord
100
AcDbRegAppTableRecord
  2
AEC_2DSECTION_XDATA
 70
     0
  0
APPID
  5
42
330
9
100
AcDbSymbolTableRecord
100
AcDbRegAppTableRecord
  2
AEC_MASSGROUP_XDADA
 70
     0
  0
APPID
  5
16C
330
9
100
AcDbSymbolTableRecord
100
AcDbRegAppTableRecord
  2
ACAD_MLEADERVER
 70
     0
  0
ENDTAB
  0
TABLE
  2
DIMSTYLE
  5
A
330
0
100
AcDbSymbolTable
 70
     2
  0
DIMSTYLE
105
27
102
{ACAD_REACTORS
330
1C9
330
1E9
330
1FB
330
20D
330
22C
330
243
330
253
330
263
330
275
102
}
330
A
100
AcDbSymbolTableRecord
100
AcDbDimStyleTableRecord
  2
STANDARD
 70
     0
  3
 mm
  4
 mm
  5

  6

  7

 40
1.0
 41
3.0
 42
1.0
 43
7.5
 44
2.0
 45
0.2
 46
0.0
 47
0.0
 48
0.0
140
3.0
141
0.0
142
0.0
143
1.0
144
1.0
145
0.0
146
1.0
147
2.0
 71
     0
 72
     0
 73
     1
 74
     0
 75
     0
 76
     0
 77
     1
 78
     1
170
     0
171
     2
172
     1
173
     0
174
     0
175
     0
176
     7
177
     7
178
     7
270
     2
271
     2
272
     3
273
     2
274
     2
340
11
275
     0
280
     0
281
     0
282
     0
283
     1
284
     0
285
     0
286
     0
287
     3
288
     0
  0
DIMSTYLE
105
167
330
A
100
AcDbSymbolTableRecord
100
AcDbDimStyleTableRecord
  2
ALLGEMEINER_BEMAßUNGSSTIL_
 70
     0
  3
 mm
  4
 mm
  5

  6

  7

 40
1.0
 41
3.0
 42
1.0
 43
7.5
 44
2.0
 45
0.2
 46
0.0
 47
0.0
 48
0.0
140
3.0
141
0.0
142
0.0
143
1.0
144
1.0
145
0.0
146
1.0
147
2.0
 71
     0
 72
     0
 73
     1
 74
     0
 75
     0
 76
     0
 77
     1
 78
     1
170
     0
171
     2
172
     1
173
     0
174
     0
175
     0
176
     7
177
     7
178
     7
270
     2
271
     2
272
     3
273
     2
274
     2
340
11
275
     0
280
     0
281
     0
282
     0
283
     1
284
     0
285
     0
286
     0
287
     3
288
     0
  0
ENDTAB
  0
TABLE
  2
BLOCK_RECORD
  5
1
330
0
100
AcDbSymbolTable
 70
    11
  0
BLOCK_RECORD
  5
1F
330
1
100
AcDbSymbolTableRecord
100
AcDbBlockTableRecord
  2
*MODEL_SPACE
  0
BLOCK_RECORD
  5
1B
330
1
100
AcDbSymbolTableRecord
100
AcDbBlockTableRecord
  2
*PAPER_SPACE
  0
BLOCK_RECORD
  5
1CA
330
1
100
AcDbSymbolTableRecord
100
AcDbBlockTableRecord
  2
*D2
  0
BLOCK_RECORD
  5
1EB
330
1
100
AcDbSymbolTableRecord
100
AcDbBlockTableRecord
  2
*D3
  0
BLOCK_RECORD
  5
1FD
330
1
100
AcDbSymbolTableRecord
100
AcDbBlockTableRecord
  2
*D4
  0
BLOCK_RECORD
  5
20F
330
1
100
AcDbSymbolTableRecord
100
AcDbBlockTableRecord
  2
*D5
  0
BLOCK_RECORD
  5
22E
330
1
100
AcDbSymbolTableRecord
100
AcDbBlockTableRecord
  2
*D6
  0
BLOCK_RECORD
  5
245
330
1
100
AcDbSymbolTableRecord
100
AcDbBlockTableRecord
  2
*D7
  0
BLOCK_RECORD
  5
255
330
1
100
AcDbSymbolTableRecord
100
AcDbBlockTableRecord
  2
*D8
  0
BLOCK_RECORD
  5
264
330
1
100
AcDbSymbolTableRecord
100
AcDbBlockTableRecord
  2
*D9
  0
BLOCK_RECORD
  5
277
330
1
100
AcDbSymbolTableRecord
100
AcDbBlockTableRecord
  2
*D10
  0
ENDTAB
  0
ENDSEC
  0
SECTION
  2
BLOCKS
  0
BLOCK
  5
20
330
1F
100
AcDbEntity
  8
0
100
AcDbBlockBegin
  2
*MODEL_SPACE
 70
     0
 10
0.0
 20
0.0
 30
0.0
  3
*MODEL_SPACE
  1

  0
ENDBLK
  5
21
330
1F
100
AcDbEntity
  8
0
100
AcDbBlockEnd
  0
BLOCK
  5
1C
330
1B
100
AcDbEntity
 67
     1
  8
0
100
AcDbBlockBegin
  2
*PAPER_SPACE
 70
     0
 10
0.0
 20
0.0
 30
0.0
  3
*PAPER_SPACE
  1

  0
ENDBLK
  5
1D
330
1B
100
AcDbEntity
 67
     1
  8
0
100
AcDbBlockEnd
  0
BLOCK
  5
1D6
330
1CA
100
AcDbEntity
  8
0
100
AcDbBlockBegin
  2
*D2
 70
     1
 10
0.0
 20
0.0
 30
0.0
  3
*D2
  1

  0
LINE
  5
1CB
330
1CA
100
AcDbEntity
  8
0
  6
BYBLOCK
 62
     7
100
AcDbLine
 10
161.6477852828197
 20
120.066508906932
 30
0.0
 11
185.0740442136106
 21
120.066508906932
 31
0.0
  0
LINE
  5
1CC
330
1CA
100
AcDbEntity
  8
0
  6
BYBLOCK
 62
     7
100
AcDbLine
 10
170.9292349312184
 20
124.8985468278275
 30
0.0
 11
185.0740442136106
 21
124.8985468278275
 31
0.0
  0
LINE
  5
1CD
330
1CA
100
AcDbEntity
  8
0
  6
BYBLOCK
 62
     7
100
AcDbLine
 10
184.0740442136106
 20
120.066508906932
 30
0.0
 11
184.0740442136106
 21
124.8985468278275
 31
0.0
  0
LINE
  5
1CE
330
1CA
100
AcDbEntity
  8
0
  6
BYBLOCK
 62
     7
100
AcDbLine
 10
184.0740442136106
 20
117.566508906932
 30
0.0
 11
184.0740442136106
 21
115.066508906932
 31
0.0
  0
LINE
  5
1CF
330
1CA
100
AcDbEntity
  8
0
  6
BYBLOCK
 62
     7
100
AcDbLine
 10
184.0740442136106
 20
127.3985468278275
 30
0.0
 11
184.0740442136106
 21
129.8985468278275
 31
0.0
  0
SOLID
  5
1D0
330
1CA
100
AcDbEntity
  8
0
 62
     7
100
AcDbTrace
 10
184.4907108802772
 20
117.566508906932
 30
0.0
 11
183.6573775469439
 21
117.566508906932
 31
0.0
 12
184.0740442136106
 22
120.066508906932
 32
0.0
 13
184.0740442136106
 23
120.066508906932
 33
0.0
  0
SOLID
  5
1D1
330
1CA
100
AcDbEntity
  8
0
 62
     7
100
AcDbTrace
 10
183.6573775469439
 20
127.3985468278275
 30
0.0
 11
184.4907108802772
 21
127.3985468278275
 31
0.0
 12
184.0740442136106
 22
124.8985468278275
 32
0.0
 13
184.0740442136106
 23
124.8985468278275
 33
0.0
  0
MTEXT
  5
1D2
330
1CA
100
AcDbEntity
  8
0
 62
     7
100
AcDbMText
 10
182.1504331024995
 20
122.4825278673798
 30
0.0
 40
1.847222222222222
 41
0.0
 71
     5
 72
     1
  1
\A1;x
 11
0.0
 21
1.0
 31
0.0
  0
POINT
  5
1D3
330
1CA
100
AcDbEntity
  8
DEFPOINTS
 62
     0
100
AcDbPoint
 10
161.1477852828197
 20
120.066508906932
 30
0.0
  0
POINT
  5
1D4
330
1CA
100
AcDbEntity
  8
DEFPOINTS
 62
     0
100
AcDbPoint
 10
170.4292349312184
 20
124.8985468278275
 30
0.0
  0
POINT
  5
1D5
330
1CA
100
AcDbEntity
  8
DEFPOINTS
 62
     0
100
AcDbPoint
 10
184.0740442136106
 20
124.8985468278275
 30
0.0
  0
ENDBLK
  5
1D7
330
1CA
100
AcDbEntity
  8
0
100
AcDbBlockEnd
  0
BLOCK
  5
1F7
330
1EB
100
AcDbEntity
  8
0
100
AcDbBlockBegin
  2
*D3
 70
     1
 10
0.0
 20
0.0
 30
0.0
  3
*D3
  1

  0
LINE
  5
1EC
330
1EB
100
AcDbEntity
  8
0
  6
BYBLOCK
 62
     7
100
AcDbLine
 10
164.4292349312184
 20
178.6225005477013
 30
0.0
 11
164.4292349312184
 21
150.2461687744082
 31
0.0
  0
LINE
  5
1ED
330
1EB
100
AcDbEntity
  8
0
  6
BYBLOCK
 62
     7
100
AcDbLine
 10
170.4292349312184
 20
125.3985468278275
 30
0.0
 11
170.4292349312184
 21
152.2461687744082
 31
0.0
  0
LINE
  5
1EE
330
1EB
100
AcDbEntity
  8
0
  6
BYBLOCK
 62
     7
100
AcDbLine
 10
164.4292349312184
 20
151.2461687744082
 30
0.0
 11
170.4292349312184
 21
151.2461687744082
 31
0.0
  0
LINE
  5
1EF
330
1EB
100
AcDbEntity
  8
0
  6
BYBLOCK
 62
     7
100
AcDbLine
 10
161.9292349312184
 20
151.2461687744082
 30
0.0
 11
159.4292349312184
 21
151.2461687744082
 31
0.0
  0
LINE
  5
1F0
330
1EB
100
AcDbEntity
  8
0
  6
BYBLOCK
 62
     7
100
AcDbLine
 10
172.9292349312184
 20
151.2461687744082
 30
0.0
 11
175.4292349312184
 21
151.2461687744082
 31
0.0
  0
SOLID
  5
1F1
330
1EB
100
AcDbEntity
  8
0
 62
     7
100
AcDbTrace
 10
161.9292349312184
 20
150.8295021077415
 30
0.0
 11
161.9292349312184
 21
151.6628354410749
 31
0.0
 12
164.4292349312184
 22
151.2461687744082
 32
0.0
 13
164.4292349312184
 23
151.2461687744082
 33
0.0
  0
SOLID
  5
1F2
330
1EB
100
AcDbEntity
  8
0
 62
     7
100
AcDbTrace
 10
172.9292349312184
 20
151.6628354410749
 30
0.0
 11
172.9292349312184
 21
150.8295021077415
 31
0.0
 12
170.4292349312184
 22
151.2461687744082
 32
0.0
 13
170.4292349312184
 23
151.2461687744082
 33
0.0
  0
MTEXT
  5
1F3
330
1EB
100
AcDbEntity
  8
0
 62
     7
100
AcDbMText
 10
167.4292349312184
 20
153.008931537171
 30
0.0
 40
1.5
 41
0.0
 71
     5
 72
     1
  1
\A1;6
  0
POINT
  5
1F4
330
1EB
100
AcDbEntity
  8
DEFPOINTS
 62
     0
100
AcDbPoint
 10
164.4292349312184
 20
179.1225005477013
 30
0.0
  0
POINT
  5
1F5
330
1EB
100
AcDbEntity
  8
DEFPOINTS
 62
     0
100
AcDbPoint
 10
170.4292349312184
 20
124.8985468278275
 30
0.0
  0
POINT
  5
1F6
330
1EB
100
AcDbEntity
  8
DEFPOINTS
 62
     0
100
AcDbPoint
 10
170.4292349312184
 20
151.2461687744082
 30
0.0
  0
ENDBLK
  5
1F8
330
1EB
100
AcDbEntity
  8
0
100
AcDbBlockEnd
  0
BLOCK
  5
209
330
1FD
100
AcDbEntity
  8
0
100
AcDbBlockBegin
  2
*D4
 70
     1
 10
0.0
 20
0.0
 30
0.0
  3
*D4
  1

  0
LINE
  5
1FE
330
1FD
100
AcDbEntity
  8
0
  6
BYBLOCK
 62
     7
100
AcDbLine
 10
58.31056306535007
 20
168.2144262762882
 30
0.0
 11
63.47101058779028
 21
179.2810417010876
 31
0.0
  0
LINE
  5
1FF
330
1FD
100
AcDbEntity
  8
0
  6
BYBLOCK
 62
     7
100
AcDbLine
 10
48.77310077137972
 20
168.2612723827699
 30
0.0
 11
48.77310077137972
 21
182.5394898593931
 31
0.0
  0
ARC
  5
200
330
1FD
100
AcDbEntity
  8
0
  6
BYBLOCK
 62
     7
100
AcDbCircle
 10
48.77310077137972
 20
147.7612723827699
 30
0.0
 40
33.77821747662322
100
AcDbArc
 50
69.24155485071209
 51
85.75844514928784
  0
SOLID
  5
201
330
1FD
100
AcDbEntity
  8
0
 62
     7
100
AcDbTrace
 10
60.58308040959101
 20
178.9628225686588
 30
0.0
 11
60.90707196873186
 21
179.7305946142882
 31
0.0
 12
63.04839232604958
 22
178.374733914051
 32
0.0
 13
63.04839232604958
 23
178.374733914051
 33
0.0
  0
SOLID
  5
202
330
1FD
100
AcDbEntity
  8
0
 62
     7
100
AcDbTrace
 10
51.28680757805366
 20
181.8633558829155
 30
0.0
 11
51.25596916370016
 21
181.0305933497498
 31
0.0
 12
48.77310077137972
 22
181.5394898593931
 32
0.0
 13
48.77310077137972
 23
181.5394898593931
 33
0.0
  0
MTEXT
  5
203
330
1FD
100
AcDbEntity
  8
0
 62
     7
100
AcDbMText
 10
56.46606428998216
 20
182.4619883444918
 30
0.0
 40
1.5
 41
0.0
 71
     5
 72
     1
  1
w2=\A1;25%%d
 11
0.9762960071199333
 21
-0.2164396139381036
 31
0.0
  0
POINT
  5
204
330
1FD
100
AcDbEntity
  8
DEFPOINTS
 62
     0
100
AcDbPoint
 10
58.46080273889354
 20
180.1204504700867
 30
0.0
  0
POINT
  5
205
330
1FD
100
AcDbEntity
  8
DEFPOINTS
 62
     0
100
AcDbPoint
 10
48.77310077137972
 20
147.7612723827699
 30
0.0
  0
POINT
  5
206
330
1FD
100
AcDbEntity
  8
DEFPOINTS
 62
     0
100
AcDbPoint
 10
48.77310077137972
 20
147.7612723827699
 30
0.0
  0
POINT
  5
207
330
1FD
100
AcDbEntity
  8
DEFPOINTS
 62
     0
100
AcDbPoint
 10
48.77310077137972
 20
167.7612723827699
 30
0.0
  0
POINT
  5
208
330
1FD
100
AcDbEntity
  8
DEFPOINTS
 62
     0
100
AcDbPoint
 10
58.09925393447972
 20
167.7612723827699
 30
0.0
  0
ENDBLK
  5
20A
330
1FD
100
AcDbEntity
  8
0
100
AcDbBlockEnd
  0
BLOCK
  5
21B
330
20F
100
AcDbEntity
  8
0
100
AcDbBlockBegin
  2
*D5
 70
     1
 10
0.0
 20
0.0
 30
0.0
  3
*D5
  1

  0
LINE
  5
210
330
20F
100
AcDbEntity
  8
0
  6
BYBLOCK
 62
     7
100
AcDbLine
 10
48.77310077137972
 20
168.2612723827699
 30
0.0
 11
48.77310077137972
 21
182.5394898593931
 31
0.0
  0
LINE
  5
211
330
20F
100
AcDbEntity
  8
0
  6
BYBLOCK
 62
     7
100
AcDbLine
 10
24.55500669793602
 20
168.0826661876132
 30
0.0
 11
22.13144053182917
 21
170.1162796637272
 31
0.0
  0
ARC
  5
212
330
20F
100
AcDbEntity
  8
0
  6
BYBLOCK
 62
     7
100
AcDbCircle
 10
48.77310077137972
 20
147.7612723827699
 30
0.0
 40
33.77821747662321
100
AcDbArc
 50
94.24155485071216
 51
135.7584451492878
  0
SOLID
  5
213
330
20F
100
AcDbEntity
  8
0
 62
     7
100
AcDbTrace
 10
46.29023237905927
 20
181.0305933497498
 30
0.0
 11
46.25939396470577
 21
181.8633558829155
 31
0.0
 12
48.77310077137972
 22
181.5394898593931
 32
0.0
 13
48.77310077137972
 23
181.5394898593931
 33
0.0
  0
SOLID
  5
214
330
20F
100
AcDbEntity
  8
0
 62
     7
100
AcDbTrace
 10
24.26516879702853
 20
171.6072802520422
 30
0.0
 11
24.88327935734901
 21
171.048367217962
 31
0.0
 12
22.89748497494815
 22
169.4734920540406
 32
0.0
 13
22.89748497494815
 23
169.4734920540406
 33
0.0
  0
MTEXT
  5
215
330
20F
100
AcDbEntity
  8
0
 62
     7
100
AcDbMText
 10
33.75188163911801
 20
179.9743807663957
 30
0.0
 40
1.5
 41
0.0
 71
     5
 72
     1
  1
w1=\A1;50%%d
 11
0.90630778703665
 21
0.4226182617406997
 31
0.0
  0
POINT
  5
216
330
20F
100
AcDbEntity
  8
DEFPOINTS
 62
     0
100
AcDbPoint
 10
39.08539880386593
 20
180.1204504700867
 30
0.0
  0
POINT
  5
217
330
20F
100
AcDbEntity
  8
DEFPOINTS
 62
     0
100
AcDbPoint
 10
48.77310077137972
 20
147.7612723827699
 30
0.0
  0
POINT
  5
218
330
20F
100
AcDbEntity
  8
DEFPOINTS
 62
     0
100
AcDbPoint
 10
48.77310077137972
 20
147.7612723827699
 30
0.0
  0
POINT
  5
219
330
20F
100
AcDbEntity
  8
DEFPOINTS
 62
     0
100
AcDbPoint
 10
24.93802891949551
 20
167.7612723827699
 30
0.0
  0
POINT
  5
21A
330
20F
100
AcDbEntity
  8
DEFPOINTS
 62
     0
100
AcDbPoint
 10
48.77310077137972
 20
167.7612723827699
 30
0.0
  0
ENDBLK
  5
21C
330
20F
100
AcDbEntity
  8
0
100
AcDbBlockEnd
  0
BLOCK
  5
238
330
22E
100
AcDbEntity
  8
0
100
AcDbBlockBegin
  2
*D6
 70
     1
 10
0.0
 20
0.0
 30
0.0
  3
*D6
  1

  0
LINE
  5
22F
330
22E
100
AcDbEntity
  8
0
  6
BYBLOCK
 62
     7
100
AcDbLine
 10
49.27310077137972
 20
147.7612723827699
 30
0.0
 11
67.75711136290249
 21
147.7612723827699
 31
0.0
  0
LINE
  5
230
330
22E
100
AcDbEntity
  8
0
  6
BYBLOCK
 62
     7
100
AcDbLine
 10
58.59925393447972
 20
167.7612723827699
 30
0.0
 11
67.75711136290249
 21
167.7612723827699
 31
0.0
  0
LINE
  5
231
330
22E
100
AcDbEntity
  8
0
  6
BYBLOCK
 62
     7
100
AcDbLine
 10
66.75711136290249
 20
150.2612723827699
 30
0.0
 11
66.75711136290249
 21
165.2612723827699
 31
0.0
  0
SOLID
  5
232
330
22E
100
AcDbEntity
  8
0
 62
     7
100
AcDbTrace
 10
66.34044469623582
 20
150.2612723827699
 30
0.0
 11
67.17377802956916
 21
150.2612723827699
 31
0.0
 12
66.75711136290249
 22
147.7612723827699
 32
0.0
 13
66.75711136290249
 23
147.7612723827699
 33
0.0
  0
SOLID
  5
233
330
22E
100
AcDbEntity
  8
0
 62
     7
100
AcDbTrace
 10
67.17377802956916
 20
165.2612723827699
 30
0.0
 11
66.34044469623582
 21
165.2612723827699
 31
0.0
 12
66.75711136290249
 22
167.7612723827699
 32
0.0
 13
66.75711136290249
 23
167.7612723827699
 33
0.0
  0
MTEXT
  5
234
330
22E
100
AcDbEntity
  8
0
 62
     7
100
AcDbMText
 10
64.9748290806202
 20
157.7612723827699
 30
0.0
 40
1.5
 41
0.0
 71
     5
 72
     1
  1
h=\A1;20
 11
0.0
 21
1.0
 31
0.0
  0
POINT
  5
235
330
22E
100
AcDbEntity
  8
DEFPOINTS
 62
     0
100
AcDbPoint
 10
48.77310077137972
 20
147.7612723827699
 30
0.0
  0
POINT
  5
236
330
22E
100
AcDbEntity
  8
DEFPOINTS
 62
     0
100
AcDbPoint
 10
58.09925393447972
 20
167.7612723827699
 30
0.0
  0
POINT
  5
237
330
22E
100
AcDbEntity
  8
DEFPOINTS
 62
     0
100
AcDbPoint
 10
66.75711136290249
 20
167.7612723827699
 30
0.0
  0
ENDBLK
  5
239
330
22E
100
AcDbEntity
  8
0
100
AcDbBlockEnd
  0
BLOCK
  5
24F
330
245
100
AcDbEntity
  8
0
100
AcDbBlockBegin
  2
*D7
 70
     1
 10
0.0
 20
0.0
 30
0.0
  3
*D7
  1

  0
LINE
  5
246
330
245
100
AcDbEntity
  8
0
  6
BYBLOCK
 62
     7
100
AcDbLine
 10
158.7482574613346
 20
135.3138905605368
 30
0.0
 11
160.7813123892983
 21
140.8609289721465
 31
0.0
  0
LINE
  5
247
330
245
100
AcDbEntity
  8
0
  6
BYBLOCK
 62
     7
100
AcDbLine
 10
172.8321071194404
 20
130.1519937378676
 30
0.0
 11
174.8651620474041
 21
135.6990321494773
 31
0.0
  0
LINE
  5
248
330
245
100
AcDbEntity
  8
0
  6
BYBLOCK
 62
     7
100
AcDbLine
 10
162.7844942108046
 20
139.0616895244946
 30
0.0
 11
172.1737273162086
 21
135.6204249760484
 31
0.0
  0
SOLID
  5
249
330
245
100
AcDbEntity
  8
0
 62
     7
100
AcDbTrace
 10
162.9278802336566
 20
139.4529075705531
 30
0.0
 11
162.6411081879527
 21
138.6704714784361
 31
0.0
 12
160.4371859344537
 22
139.9220056616061
 32
0.0
 13
160.4371859344537
 23
139.9220056616061
 33
0.0
  0
SOLID
  5
24A
330
245
100
AcDbEntity
  8
0
 62
     7
100
AcDbTrace
 10
172.0303412933567
 20
135.2292069299899
 30
0.0
 11
172.3171133390605
 21
136.0116430221069
 31
0.0
 12
174.5210355925595
 22
134.7601088389369
 32
0.0
 13
174.5210355925595
 23
134.7601088389369
 33
0.0
  0
MTEXT
  5
24B
330
245
100
AcDbEntity
  8
0
 62
     7
100
AcDbMText
 10
168.0857240637883
 20
138.996156299182
 30
0.0
 40
1.5
 41
0.0
 71
     5
 72
     1
  1
\A1;15
 11
0.9389233105403674
 21
-0.3441264548446065
 31
0.0
  0
POINT
  5
24C
330
245
100
AcDbEntity
  8
DEFPOINTS
 62
     0
100
AcDbPoint
 10
158.5761942339123
 20
134.8444289052666
 30
0.0
  0
POINT
  5
24D
330
245
100
AcDbEntity
  8
DEFPOINTS
 62
     0
100
AcDbPoint
 10
172.6600438920181
 20
129.6825320825974
 30
0.0
  0
POINT
  5
24E
330
245
100
AcDbEntity
  8
DEFPOINTS
 62
     0
100
AcDbPoint
 10
174.5210355925595
 20
134.7601088389369
 30
0.0
  0
ENDBLK
  5
250
330
245
100
AcDbEntity
  8
0
100
AcDbBlockEnd
  0
BLOCK
  5
25F
330
255
100
AcDbEntity
  8
0
100
AcDbBlockBegin
  2
*D8
 70
     1
 10
0.0
 20
0.0
 30
0.0
  3
*D8
  1

  0
LINE
  5
256
330
255
100
AcDbEntity
  8
0
  6
BYBLOCK
 62
     7
100
AcDbLine
 10
44.90729108052234
 20
134.7739827921837
 30
0.0
 11
44.90729108052234
 21
137.5392675816883
 31
0.0
  0
LINE
  5
257
330
255
100
AcDbEntity
  8
0
  6
BYBLOCK
 62
     7
100
AcDbLine
 10
52.40729108052234
 20
134.7739827921837
 30
0.0
 11
52.40729108052234
 21
137.5392675816883
 31
0.0
  0
LINE
  5
258
330
255
100
AcDbEntity
  8
0
  6
BYBLOCK
 62
     7
100
AcDbLine
 10
47.40729108052234
 20
136.5392675816883
 30
0.0
 11
49.90729108052234
 21
136.5392675816883
 31
0.0
  0
SOLID
  5
259
330
255
100
AcDbEntity
  8
0
 62
     7
100
AcDbTrace
 10
47.40729108052234
 20
136.955934248355
 30
0.0
 11
47.40729108052234
 21
136.1226009150216
 31
0.0
 12
44.90729108052234
 22
136.5392675816883
 32
0.0
 13
44.90729108052234
 23
136.5392675816883
 33
0.0
  0
SOLID
  5
25A
330
255
100
AcDbEntity
  8
0
 62
     7
100
AcDbTrace
 10
49.90729108052234
 20
136.1226009150216
 30
0.0
 11
49.90729108052234
 21
136.955934248355
 31
0.0
 12
52.40729108052234
 22
136.5392675816883
 32
0.0
 13
52.40729108052234
 23
136.5392675816883
 33
0.0
  0
MTEXT
  5
25B
330
255
100
AcDbEntity
  8
0
 62
     7
100
AcDbMText
 10
48.65729108052234
 20
138.3042825967033
 30
0.0
 40
1.5
 41
0.0
 71
     5
 72
     1
  1
\A1;7.5
  0
POINT
  5
25C
330
255
100
AcDbEntity
  8
DEFPOINTS
 62
     0
100
AcDbPoint
 10
44.90729108052234
 20
134.2739827921837
 30
0.0
  0
POINT
  5
25D
330
255
100
AcDbEntity
  8
DEFPOINTS
 62
     0
100
AcDbPoint
 10
52.40729108052234
 20
134.2739827921837
 30
0.0
  0
POINT
  5
25E
330
255
100
AcDbEntity
  8
DEFPOINTS
 62
     0
100
AcDbPoint
 10
52.40729108052234
 20
136.5392675816883
 30
0.0
  0
ENDBLK
  5
260
330
255
100
AcDbEntity
  8
0
100
AcDbBlockEnd
  0
BLOCK
  5
26E
330
264
100
AcDbEntity
  8
0
100
AcDbBlockBegin
  2
*D9
 70
     1
 10
0.0
 20
0.0
 30
0.0
  3
*D9
  1

  0
LINE
  5
265
330
264
100
AcDbEntity
  8
0
  6
BYBLOCK
 62
     7
100
AcDbLine
 10
37.40729108052236
 20
134.7739827921837
 30
0.0
 11
37.40729108052236
 21
137.5392675816883
 31
0.0
  0
LINE
  5
266
330
264
100
AcDbEntity
  8
0
  6
BYBLOCK
 62
     7
100
AcDbLine
 10
44.90729108052236
 20
134.7739827921837
 30
0.0
 11
44.90729108052236
 21
137.5392675816883
 31
0.0
  0
LINE
  5
267
330
264
100
AcDbEntity
  8
0
  6
BYBLOCK
 62
     7
100
AcDbLine
 10
39.90729108052236
 20
136.5392675816883
 30
0.0
 11
42.40729108052236
 21
136.5392675816883
 31
0.0
  0
SOLID
  5
268
330
264
100
AcDbEntity
  8
0
 62
     7
100
AcDbTrace
 10
39.90729108052236
 20
136.955934248355
 30
0.0
 11
39.90729108052236
 21
136.1226009150216
 31
0.0
 12
37.40729108052236
 22
136.5392675816883
 32
0.0
 13
37.40729108052236
 23
136.5392675816883
 33
0.0
  0
SOLID
  5
269
330
264
100
AcDbEntity
  8
0
 62
     7
100
AcDbTrace
 10
42.40729108052236
 20
136.1226009150216
 30
0.0
 11
42.40729108052236
 21
136.955934248355
 31
0.0
 12
44.90729108052236
 22
136.5392675816883
 32
0.0
 13
44.90729108052236
 23
136.5392675816883
 33
0.0
  0
MTEXT
  5
26A
330
264
100
AcDbEntity
  8
0
 62
     7
100
AcDbMText
 10
41.15729108052236
 20
138.3042825967033
 30
0.0
 40
1.5
 41
0.0
 71
     5
 72
     1
  1
\A1;7.5
  0
POINT
  5
26B
330
264
100
AcDbEntity
  8
DEFPOINTS
 62
     0
100
AcDbPoint
 10
37.40729108052236
 20
134.2739827921837
 30
0.0
  0
POINT
  5
26C
330
264
100
AcDbEntity
  8
DEFPOINTS
 62
     0
100
AcDbPoint
 10
44.90729108052236
 20
134.2739827921837
 30
0.0
  0
POINT
  5
26D
330
264
100
AcDbEntity
  8
DEFPOINTS
 62
     0
100
AcDbPoint
 10
44.90729108052236
 20
136.5392675816883
 30
0.0
  0
ENDBLK
  5
26F
330
264
100
AcDbEntity
  8
0
100
AcDbBlockEnd
  0
BLOCK
  5
281
330
277
100
AcDbEntity
  8
0
100
AcDbBlockBegin
  2
*D10
 70
     1
 10
0.0
 20
0.0
 30
0.0
  3
*D10
  1

  0
LINE
  5
278
330
277
100
AcDbEntity
  8
0
  6
BYBLOCK
 62
     7
100
AcDbLine
 10
107.8987989787219
 20
194.3590624744707
 30
0.0
 11
107.8987989787219
 21
195.8047646829798
 31
0.0
  0
LINE
  5
279
330
277
100
AcDbEntity
  8
0
  6
BYBLOCK
 62
     7
100
AcDbLine
 10
122.8987989787218
 20
194.3590624744707
 30
0.0
 11
122.8987989787218
 21
195.8047646829798
 31
0.0
  0
LINE
  5
27A
330
277
100
AcDbEntity
  8
0
  6
BYBLOCK
 62
     7
100
AcDbLine
 10
110.3987989787219
 20
194.8047646829798
 30
0.0
 11
120.3987989787218
 21
194.8047646829798
 31
0.0
  0
SOLID
  5
27B
330
277
100
AcDbEntity
  8
0
 62
     7
100
AcDbTrace
 10
110.3987989787219
 20
195.2214313496465
 30
0.0
 11
110.3987989787219
 21
194.3880980163131
 31
0.0
 12
107.8987989787219
 22
194.8047646829798
 32
0.0
 13
107.8987989787219
 23
194.8047646829798
 33
0.0
  0
SOLID
  5
27C
330
277
100
AcDbEntity
  8
0
 62
     7
100
AcDbTrace
 10
120.3987989787218
 20
194.3880980163131
 30
0.0
 11
120.3987989787218
 21
195.2214313496465
 31
0.0
 12
122.8987989787218
 22
194.8047646829798
 32
0.0
 13
122.8987989787218
 23
194.8047646829798
 33
0.0
  0
MTEXT
  5
27D
330
277
100
AcDbEntity
  8
0
 62
     7
100
AcDbMText
 10
115.3987989787219
 20
196.5675274457426
 30
0.0
 40
1.5
 41
0.0
 71
     5
 72
     1
  1
\A1;15
  0
POINT
  5
27E
330
277
100
AcDbEntity
  8
DEFPOINTS
 62
     0
100
AcDbPoint
 10
107.8987989787219
 20
193.8590624744707
 30
0.0
  0
POINT
  5
27F
330
277
100
AcDbEntity
  8
DEFPOINTS
 62
     0
100
AcDbPoint
 10
122.8987989787218
 20
193.8590624744707
 30
0.0
  0
POINT
  5
280
330
277
100
AcDbEntity
  8
DEFPOINTS
 62
     0
100
AcDbPoint
 10
122.8987989787218
 20
194.8047646829798
 30
0.0
  0
ENDBLK
  5
282
330
277
100
AcDbEntity
  8
0
100
AcDbBlockEnd
  0
ENDSEC
  0
SECTION
  2
ENTITIES
  0
VIEWPORT
  5
17E
330
1B
100
AcDbEntity
 67
     1
  8
0
100
AcDbViewport
 10
98.5549571724816
 20
148.1783965664303
 30
0.0
 40
176.4989375639032
 41
110.328716135967
 68
     1
 69
     1
1001
ACAD
1000
MVIEW
1002
{
1070
    16
1010
0.0
1020
0.0
1030
0.0
1010
0.0
1020
0.0
1030
1.0
1040
0.0
1040
110.328716135967
1040
98.5549571724816
1040
148.1783965664303
1040
50.0
1040
0.0
1040
0.0
1070
     0
1070
  1000
1070
     0
1070
     1
1070
     0
1070
     0
1070
     0
1070
     0
1040
0.0
1040
0.0
1040
0.0
1040
5.0
1040
5.0
1040
5.0
1040
5.0
1070
     0
1002
{
1002
}
1002
}
  0
ARC
  5
181
102
{ACAD_REACTORS
330
244
330
244
102
}
102
{ACAD_XDICTIONARY
360
17F
102
}
330
1B
100
AcDbEntity
 67
     1
  8
0
  6
DURCHGEHEND
 62
   150
100
AcDbCircle
 10
161.1477852828196
 20
120.066508906932
 30
0.0
 40
14.99999999999995
100
AcDbArc
 50
99.87151955033285
 51
39.87151955033131
  0
LINE
  5
184
102
{ACAD_XDICTIONARY
360
182
102
}
330
1B
100
AcDbEntity
 67
     1
  8
0
  6
DURCHGEHEND
 62
     7
100
AcDbLine
 10
170.4292349312184
 20
124.8985468278275
 30
0.0
 11
179.7553880943185
 21
144.8985468278275
 31
0.0
  0
LINE
  5
187
102
{ACAD_REACTORS
330
1EA
102
}
102
{ACAD_XDICTIONARY
360
185
102
}
330
1B
100
AcDbEntity
 67
     1
  8
0
  6
DURCHGEHEND
 62
     7
100
AcDbLine
 10
170.4292349312184
 20
124.8985468278275
 30
0.0
 11
146.5941630793342
 21
144.8985468278275
 31
0.0
  0
LINE
  5
18A
102
{ACAD_XDICTIONARY
360
188
102
}
330
1B
100
AcDbEntity
 67
     1
  8
0
  6
DURCHGEHEND
 62
     7
100
AcDbLine
 10
146.5941630793342
 20
144.8985468278275
 30
0.0
 11
179.7553880943185
 21
144.8985468278275
 31
0.0
  0
ARC
  5
18D
102
{ACAD_XDICTIONARY
360
18B
102
}
330
1B
100
AcDbEntity
 67
     1
  8
0
  6
DURCHGEHEND
 62
   150
100
AcDbCircle
 10
115.3987989787218
 20
175.1788299144626
 30
0.0
 40
14.99999999999993
100
AcDbArc
 50
119.9999999999999
 51
59.99999999999836
  0
LINE
  5
190
102
{ACAD_XDICTIONARY
360
18E
102
}
330
1B
100
AcDbEntity
 67
     1
  8
0
  6
DURCHGEHEND
 62
     7
100
AcDbLine
 10
118.6802486271206
 20
179.1225005477013
 30
0.0
 11
128.0064017902206
 21
199.1225005477013
 31
0.0
  0
LINE
  5
193
102
{ACAD_XDICTIONARY
360
191
102
}
330
1B
100
AcDbEntity
 67
     1
  8
0
  6
DURCHGEHEND
 62
     7
100
AcDbLine
 10
118.6802486271206
 20
179.1225005477013
 30
0.0
 11
94.84517677523638
 21
199.1225005477013
 31
0.0
  0
LINE
  5
196
102
{ACAD_XDICTIONARY
360
194
102
}
330
1B
100
AcDbEntity
 67
     1
  8
0
  6
DURCHGEHEND
 62
     7
100
AcDbLine
 10
94.84517677523638
 20
199.1225005477013
 30
0.0
 11
128.0064017902206
 21
199.1225005477013
 31
0.0
  0
ARC
  5
199
102
{ACAD_XDICTIONARY
360
197
102
}
330
1B
100
AcDbEntity
 67
     1
  8
0
  6
DASHED
 62
    84
 48
0.300000011920929
100
AcDbCircle
 10
115.3987989787218
 20
175.1788299144626
 30
0.0
 40
14.99999999999994
100
AcDbArc
 50
59.99999999999828
 51
119.9999999999999
  0
CIRCLE
  5
19C
102
{ACAD_XDICTIONARY
360
19A
102
}
330
1B
100
AcDbEntity
 67
     1
  8
0
  6
DURCHGEHEND
 62
   150
100
AcDbCircle
 10
44.90729108052234
 20
115.5937502321756
 30
0.0
 40
14.9999999999999
  0
LINE
  5
19F
102
{ACAD_XDICTIONARY
360
19D
102
}
330
1B
100
AcDbEntity
 67
     1
  8
0
  6
DASHDOT
 62
    84
 48
0.8500000238418579
100
AcDbLine
 10
44.90729108052234
 20
138.7467414669401
 30
0.0
 11
44.90729108052234
 21
101.3862763469239
 31
0.0
  0
LINE
  5
1A2
102
{ACAD_XDICTIONARY
360
1A0
102
}
330
1B
100
AcDbEntity
 67
     1
  8
0
  6
DASHDOT
 62
    84
 48
0.8500000238418579
100
AcDbLine
 10
26.22705852051426
 20
115.5937502321756
 30
0.0
 11
63.58752364053041
 21
115.5937502321756
 31
0.0
  0
LINE
  5
1A5
102
{ACAD_REACTORS
330
254
102
}
102
{ACAD_XDICTIONARY
360
1A3
102
}
330
1B
100
AcDbEntity
 67
     1
  8
0
  6
DURCHGEHEND
 62
    84
100
AcDbLine
 10
52.40729108052234
 20
134.2739827921837
 30
0.0
 11
52.40729108052234
 21
125.704016472437
 31
0.0
  0
LINE
  5
1A8
102
{ACAD_XDICTIONARY
360
1A6
102
}
330
1B
100
AcDbEntity
 67
     1
  8
0
  6
DURCHGEHEND
 62
    84
100
AcDbLine
 10
37.40729108052236
 20
134.2739827921837
 30
0.0
 11
37.40729108052236
 21
125.704016472437
 31
0.0
  0
LINE
  5
1AB
102
{ACAD_REACTORS
330
1FC
330
1FC
330
22D
330
22D
102
}
102
{ACAD_XDICTIONARY
360
1A9
102
}
330
1B
100
AcDbEntity
 67
     1
  8
0
  6
DURCHGEHEND
 62
     7
100
AcDbLine
 10
48.77310077137972
 20
147.7612723827699
 30
0.0
 11
58.09925393447972
 21
167.7612723827699
 31
0.0
  0
LINE
  5
1AE
102
{ACAD_REACTORS
330
20E
330
20E
102
}
102
{ACAD_XDICTIONARY
360
1AC
102
}
330
1B
100
AcDbEntity
 67
     1
  8
0
  6
DURCHGEHEND
 62
     7
100
AcDbLine
 10
48.77310077137972
 20
147.7612723827699
 30
0.0
 11
24.93802891949551
 21
167.7612723827699
 31
0.0
  0
LINE
  5
1B1
102
{ACAD_REACTORS
330
1FC
330
1FC
330
20E
330
20E
102
}
102
{ACAD_XDICTIONARY
360
1AF
102
}
330
1B
100
AcDbEntity
 67
     1
  8
0
  6
DURCHGEHEND
 62
    84
100
AcDbLine
 10
48.77310077137972
 20
147.7612723827699
 30
0.0
 11
48.77310077137972
 21
167.7612723827699
 31
0.0
  0
LINE
  5
1B4
102
{ACAD_XDICTIONARY
360
1B2
102
}
330
1B
100
AcDbEntity
 67
     1
  8
0
  6
DURCHGEHEND
 62
     7
100
AcDbLine
 10
24.93802891949551
 20
167.7612723827699
 30
0.0
 11
58.09925393447972
 21
167.7612723827699
 31
0.0
  0
LINE
  5
1B7
102
{ACAD_XDICTIONARY
360
1B5
102
}
330
1B
100
AcDbEntity
 67
     1
  8
0
  6
DASHDOT
 62
    84
 48
0.8500000238418579
100
AcDbLine
 10
115.3987989787218
 20
193.8590624744707
 30
0.0
 11
115.3987989787218
 21
156.4985973544545
 31
0.0
  0
LINE
  5
1BA
102
{ACAD_XDICTIONARY
360
1B8
102
}
330
1B
100
AcDbEntity
 67
     1
  8
0
  6
DASHDOT
 62
    84
 48
0.8500000238418579
100
AcDbLine
 10
96.71856641871375
 20
175.1788299144626
 30
0.0
 11
134.0790315387299
 21
175.1788299144626
 31
0.0
  0
LINE
  5
1BD
102
{ACAD_XDICTIONARY
360
1BB
102
}
330
1B
100
AcDbEntity
 67
     1
  8
0
  6
DURCHGEHEND
 62
    84
100
AcDbLine
 10
161.1477852828197
 20
117.6588502064206
 30
0.0
 11
161.1477852828197
 21
122.4741676074434
 31
0.0
  0
LINE
  5
1C0
102
{ACAD_XDICTIONARY
360
1BE
102
}
330
1B
100
AcDbEntity
 67
     1
  8
0
  6
DURCHGEHEND
 62
    84
100
AcDbLine
 10
163.555443983331
 20
120.066508906932
 30
0.0
 11
158.7401265823083
 21
120.066508906932
 31
0.0
  0
LINE
  5
1C3
102
{ACAD_REACTORS
330
276
102
}
102
{ACAD_XDICTIONARY
360
1C1
102
}
330
1B
100
AcDbEntity
 67
     1
  8
0
  6
DURCHGEHEND
 62
    84
100
AcDbLine
 10
122.8987989787218
 20
193.8590624744707
 30
0.0
 11
122.8987989787218
 21
185.289096154724
 31
0.0
  0
LINE
  5
1C6
102
{ACAD_REACTORS
330
276
102
}
102
{ACAD_XDICTIONARY
360
1C4
102
}
330
1B
100
AcDbEntity
 67
     1
  8
0
  6
DURCHGEHEND
 62
    84
100
AcDbLine
 10
107.8987989787219
 20
193.8590624744707
 30
0.0
 11
107.8987989787219
 21
185.289096154724
 31
0.0
  0
DIMENSION
  5
1C9
102
{ACAD_XDICTIONARY
360
1C7
102
}
330
1B
100
AcDbEntity
 67
     1
  8
0
  6
DURCHGEHEND
 62
     7
100
AcDbDimension
  2
*D2
 10
184.0740442136106
 20
124.8985468278275
 30
0.0
 11
182.1504331024995
 21
122.4825278673798
 31
0.0
 70
    32
  1
x
  3
STANDARD
100
AcDbAlignedDimension
 13
161.1477852828197
 23
120.066508906932
 33
0.0
 14
170.4292349312184
 24
124.8985468278275
 34
0.0
 50
90.0
100
AcDbRotatedDimension
1001
ACAD
1000
DSTYLE
1002
{
1070
   179
1070
     3
1070
   148
1040
0.0000001
1070
    41
1040
5.0
1070
   271
1070
     3
1070
    43
1040
5.0
1070
     3
1000

1070
    45
1040
0.0001
1070
    40
1040
0.5
1070
    73
1070
     0
1070
   174
1070
     1
1070
   140
1040
3.694444444444445
1070
    78
1070
     9
1002
}
  0
ARC
  5
1DA
102
{ACAD_XDICTIONARY
360
1D8
102
}
330
1B
100
AcDbEntity
 67
     1
  8
0
  6
DURCHGEHEND
 62
   150
100
AcDbCircle
 10
161.1477852828196
 20
175.1788299144626
 30
0.0
 40
14.99999999999992
100
AcDbArc
 50
119.9999999999999
 51
59.99999999999831
  0
LINE
  5
1DD
102
{ACAD_XDICTIONARY
360
1DB
102
}
330
1B
100
AcDbEntity
 67
     1
  8
0
  6
DURCHGEHEND
 62
     7
100
AcDbLine
 10
164.4292349312184
 20
179.1225005477013
 30
0.0
 11
173.7553880943184
 21
199.1225005477013
 31
0.0
  0
LINE
  5
1E0
102
{ACAD_REACTORS
330
1EA
102
}
102
{ACAD_XDICTIONARY
360
1DE
102
}
330
1B
100
AcDbEntity
 67
     1
  8
0
  6
DURCHGEHEND
 62
     7
100
AcDbLine
 10
164.4292349312184
 20
179.1225005477013
 30
0.0
 11
140.5941630793342
 21
199.1225005477013
 31
0.0
  0
LINE
  5
1E3
102
{ACAD_XDICTIONARY
360
1E1
102
}
330
1B
100
AcDbEntity
 67
     1
  8
0
  6
DURCHGEHEND
 62
     7
100
AcDbLine
 10
140.5941630793342
 20
199.1225005477013
 30
0.0
 11
173.7553880943184
 21
199.1225005477013
 31
0.0
  0
ARC
  5
1E6
102
{ACAD_XDICTIONARY
360
1E4
102
}
330
1B
100
AcDbEntity
 67
     1
  8
0
  6
DASHED
 62
    84
 48
0.300000011920929
100
AcDbCircle
 10
161.1477852828196
 20
175.1788299144626
 30
0.0
 40
14.99999999999994
100
AcDbArc
 50
59.99999999999824
 51
119.9999999999999
  0
DIMENSION
  5
1E9
102
{ACAD_REACTORS
330
1EA
102
}
102
{ACAD_XDICTIONARY
360
1E7
102
}
330
1B
100
AcDbEntity
 67
     1
  8
0
  6
DURCHGEHEND
 62
     7
100
AcDbDimension
  2
*D3
 10
170.4292349312184
 20
151.2461687744082
 30
0.0
 11
167.4292349312184
 21
153.008931537171
 31
0.0
 70
    32
  1
<>
  3
STANDARD
100
AcDbAlignedDimension
 13
164.4292349312184
 23
179.1225005477013
 33
0.0
 14
170.4292349312184
 24
124.8985468278275
 34
0.0
100
AcDbRotatedDimension
1001
ACAD
1000
DSTYLE
1002
{
1070
   179
1070
     3
1070
   148
1040
0.0000001
1070
    41
1040
5.0
1070
   271
1070
     3
1070
    43
1040
5.0
1070
     3
1000

1070
    45
1040
0.0001
1070
    40
1040
0.5
1070
    73
1070
     0
1070
   174
1070
     1
1070
    78
1070
     9
1002
}
  0
DIMENSION
  5
1FB
102
{ACAD_REACTORS
330
1FC
102
}
102
{ACAD_XDICTIONARY
360
1F9
102
}
330
1B
100
AcDbEntity
 67
     1
  8
0
  6
DURCHGEHEND
 62
     7
100
AcDbDimension
  2
*D4
 10
58.09925393447972
 20
167.7612723827699
 30
0.0
 11
56.46606428998216
 21
182.4619883444918
 31
0.0
 70
    34
  1
w2=<>
  3
STANDARD
100
AcDb2LineAngularDimension
 13
48.77310077137972
 23
147.7612723827699
 33
0.0
 14
48.77310077137972
 24
167.7612723827699
 34
0.0
 15
48.77310077137972
 25
147.7612723827699
 35
0.0
 16
58.46080273889354
 26
180.1204504700867
 36
0.0
1001
ACAD
1000
DSTYLE
1002
{
1070
   148
1040
0.0000001
1070
     4
1000

1070
    41
1040
5.0
1070
    43
1040
5.0
1070
     3
1000

1070
    45
1040
0.0001
1070
    40
1040
0.5
1070
    73
1070
     0
1070
   174
1070
     1
1070
    78
1070
     9
1002
}
  0
DIMENSION
  5
20D
102
{ACAD_REACTORS
330
20E
102
}
102
{ACAD_XDICTIONARY
360
20B
102
}
330
1B
100
AcDbEntity
 67
     1
  8
0
  6
DURCHGEHEND
 62
     7
100
AcDbDimension
  2
*D5
 10
48.77310077137972
 20
167.7612723827699
 30
0.0
 11
33.75188163911801
 21
179.9743807663957
 31
0.0
 70
    34
  1
w1=<>
  3
STANDARD
100
AcDb2LineAngularDimension
 13
48.77310077137972
 23
147.7612723827699
 33
0.0
 14
24.93802891949551
 24
167.7612723827699
 34
0.0
 15
48.77310077137972
 25
147.7612723827699
 35
0.0
 16
39.08539880386593
 26
180.1204504700867
 36
0.0
1001
ACAD
1000
DSTYLE
1002
{
1070
   148
1040
0.0000001
1070
     4
1000

1070
    41
1040
5.0
1070
    43
1040
5.0
1070
     3
1000

1070
    45
1040
0.0001
1070
    40
1040
0.5
1070
    73
1070
     0
1070
   174
1070
     1
1070
    78
1070
     9
1002
}
  0
LWPOLYLINE
  5
21F
102
{ACAD_XDICTIONARY
360
21D
102
}
330
1B
100
AcDbEntity
 67
     1
  8
0
  6
DURCHGEHEND
 62
     1
100
AcDbPolyline
 90
        4
 70
   129
 43
0.0
 10
12.03587013135258
 20
199.1772915233811
 10
77.93499599409017
 20
199.1772915233811
 10
77.93499599409017
 20
97.17950160947943
 10
12.03587013135258
 20
97.17950160947943
  0
MTEXT
  5
223
102
{ACAD_XDICTIONARY
360
221
102
}
330
1B
100
AcDbEntity
 67
     1
  8
0
  6
DURCHGEHEND
 62
     7
100
AcDbMText
 10
15.64643331916287
 20
186.0465070522618
 30
0.0
 40
1.5
 41
0.0
 71
     7
 72
     1
  1
Gegeben:\P- Ungleichseitiges Dreieck mit w1 & w2 & h\P- Kreis mit r=15mm\P- 2 Schnittpunkte auf dem Kreis mit jeweils\P  7,5mm Abstand
  7
_TCW_TXTSTY_1
  0
TEXT
  5
226
102
{ACAD_XDICTIONARY
360
224
102
}
330
1B
100
AcDbEntity
 67
     1
  8
0
  6
DURCHGEHEND
 62
     7
100
AcDbText
 10
61.22875789627047
 20
126.4622220071628
 30
0.0
 40
1.5
  1
R=15
 50
30.73648675613296
  7
_TCW_TXTSTY_1
100
AcDbText
  0
LWPOLYLINE
  5
227
330
1B
100
AcDbEntity
 67
     1
  8
0
  6
DURCHGEHEND
 62
    84
100
AcDbPolyline
 90
        3
 70
   128
 43
0.0
 10
59.94901316713795
 20
124.5378318881656
 10
62.09783060808304
 20
125.8155578390214
 10
66.50479497109944
 20
128.4360190395996
  0
LWPOLYLINE
  5
228
330
1B
100
AcDbEntity
 67
     1
  8
0
 62
    84
100
AcDbPolyline
 90
        3
 70
   129
 43
0.0
 10
57.80019572619285
 20
123.2601059373099
 10
60.1151175407492
 20
124.2584856208428
 10
59.7829087935267
 20
124.8171781554885
  0
SOLID
  5
229
330
1B
100
AcDbEntity
 67
     1
  8
0
  6
$INVISIBLE
 62
    84
100
AcDbTrace
 10
59.94901316713795
 20
124.5378318881656
 30
0.0
 11
57.80019572619285
 21
123.2601059373099
 31
0.0
 12
59.7829087935267
 22
124.8171781554885
 32
0.0
 13
60.1151175407492
 23
124.2584856208428
 33
0.0
  0
DIMENSION
  5
22C
102
{ACAD_REACTORS
330
22D
102
}
102
{ACAD_XDICTIONARY
360
22A
102
}
330
1B
100
AcDbEntity
 67
     1
  8
0
  6
DURCHGEHEND
 62
     7
100
AcDbDimension
  2
*D6
 10
66.75711136290249
 20
167.7612723827699
 30
0.0
 11
64.9748290806202
 21
157.7612723827699
 31
0.0
 70
    32
  1
h=<>
  3
STANDARD
100
AcDbAlignedDimension
 13
48.77310077137972
 23
147.7612723827699
 33
0.0
 14
58.09925393447972
 24
167.7612723827699
 34
0.0
 50
90.0
100
AcDbRotatedDimension
1001
ACAD
1000
DSTYLE
1002
{
1070
   179
1070
     3
1070
   148
1040
0.0000001
1070
    41
1040
5.0
1070
   271
1070
     3
1070
    43
1040
5.0
1070
     3
1000

1070
    45
1040
0.0001
1070
    40
1040
0.5
1070
    73
1070
     0
1070
   172
1070
     0
1070
    78
1070
     9
1002
}
  0
MTEXT
  5
23D
102
{ACAD_XDICTIONARY
360
23B
102
}
330
1B
100
AcDbEntity
 67
     1
  8
0
  6
DURCHGEHEND
 62
     7
100
AcDbMText
 10
88.5015881874873
 20
143.6765879840103
 30
0.0
 40
1.5
 41
0.0
 71
     7
 72
     1
  1
Startzeichnung erstellen:\PDreieck so auf dem Kreis positionieren\Pdas 2 Seiten, wie gezeichnet, durch\Pdie Schnittpunkte auf dem Kreis gehen
  7
_TCW_TXTSTY_2
  0
MTEXT
  5
240
102
{ACAD_XDICTIONARY
360
23E
102
}
330
1B
100
AcDbEntity
 67
     1
  8
0
  6
DURCHGEHEND
 62
     7
100
AcDbMText
 10
88.5015881874873
 20
119.7447778983691
 30
0.0
 40
1.5
 41
0.0
 71
     7
 72
     1
  3
Ausgehend von der momentanen\PPosition des Dreiecks dieses um 6mm\Pnach rechts versetzen und die Vertikal-\Pposition anpassen damit die, auf dem\PKreis, neu entstehenden Schnittpunkte\Pwieder einen Abstand von 15mm haben\P\PGesucht ist die Hilfsgeom
  1
etrie und das\Pvertikale Maß x
  7
_TCW_TXTSTY_2
  0
DIMENSION
  5
243
102
{ACAD_REACTORS
330
244
102
}
102
{ACAD_XDICTIONARY
360
241
102
}
330
1B
100
AcDbEntity
 67
     1
  8
0
  6
DURCHGEHEND
 62
     7
100
AcDbDimension
  2
*D7
 10
174.5210355925595
 20
134.7601088389369
 30
0.0
 11
168.0857240637883
 21
138.996156299182
 31
0.0
 70
    33
  1
<>
  3
STANDARD
100
AcDbAlignedDimension
 13
158.5761942339123
 23
134.8444289052666
 33
0.0
 14
172.6600438920181
 24
129.6825320825974
 34
0.0
1001
ACAD
1000
DSTYLE
1002
{
1070
   179
1070
     3
1070
   148
1040
0.0000001
1070
    41
1040
5.0
1070
   271
1070
     3
1070
    43
1040
5.0
1070
     3
1000

1070
    45
1040
0.0001
1070
    40
1040
0.5
1070
    73
1070
     0
1070
   172
1070
     0
1070
    78
1070
     9
1002
}
  0
DIMENSION
  5
253
102
{ACAD_REACTORS
330
254
102
}
102
{ACAD_XDICTIONARY
360
251
102
}
330
1B
100
AcDbEntity
 67
     1
  8
0
  6
DURCHGEHEND
 62
     7
100
AcDbDimension
  2
*D8
 10
52.40729108052234
 20
136.5392675816883
 30
0.0
 11
48.65729108052234
 21
138.3042825967033
 31
0.0
 70
    33
  1
<>
  3
STANDARD
100
AcDbAlignedDimension
 13
44.90729108052234
 23
134.2739827921837
 33
0.0
 14
52.40729108052234
 24
134.2739827921837
 34
0.0
1001
ACAD
1000
DSTYLE
1002
{
1070
   179
1070
     3
1070
   148
1040
0.0000001
1070
    41
1040
5.0
1070
   271
1070
     3
1070
    43
1040
5.0
1070
     3
1000

1070
    45
1040
0.0001
1070
    40
1040
0.5
1070
    73
1070
     0
1070
   174
1070
     1
1070
   172
1070
     0
1070
    78
1070
     9
1002
}
  0
DIMENSION
  5
263
102
{ACAD_XDICTIONARY
360
261
102
}
330
1B
100
AcDbEntity
 67
     1
  8
0
  6
DURCHGEHEND
 62
     7
100
AcDbDimension
  2
*D9
 10
44.90729108052236
 20
136.5392675816883
 30
0.0
 11
41.15729108052236
 21
138.3042825967033
 31
0.0
 70
    33
  1
<>
  3
STANDARD
100
AcDbAlignedDimension
 13
37.40729108052236
 23
134.2739827921837
 33
0.0
 14
44.90729108052236
 24
134.2739827921837
 34
0.0
1001
ACAD
1000
DSTYLE
1002
{
1070
   179
1070
     3
1070
   148
1040
0.0000001
1070
    41
1040
5.0
1070
   271
1070
     3
1070
    43
1040
5.0
1070
     3
1000

1070
    45
1040
0.0001
1070
    40
1040
0.5
1070
    73
1070
     0
1070
   174
1070
     1
1070
   172
1070
     0
1070
    78
1070
     9
1002
}
  0
LINE
  5
272
102
{ACAD_XDICTIONARY
360
270
102
}
330
1B
100
AcDbEntity
 67
     1
  8
0
  6
DASHED
 62
     1
 48
0.300000011920929
100
AcDbLine
 10
158.5761942339123
 20
134.8444289052666
 30
0.0
 11
172.6600438920181
 21
129.6825320825974
 31
0.0
  0
DIMENSION
  5
275
102
{ACAD_REACTORS
330
276
102
}
102
{ACAD_XDICTIONARY
360
273
102
}
330
1B
100
AcDbEntity
 67
     1
  8
0
  6
DURCHGEHEND
 62
     7
100
AcDbDimension
  2
*D10
 10
122.8987989787218
 20
194.8047646829798
 30
0.0
 11
115.3987989787219
 21
196.5675274457426
 31
0.0
 70
    33
  1
<>
  3
STANDARD
100
AcDbAlignedDimension
 13
107.8987989787219
 23
193.8590624744707
 33
0.0
 14
122.8987989787218
 24
193.8590624744707
 34
0.0
1001
ACAD
1000
DSTYLE
1002
{
1070
   179
1070
     3
1070
   148
1040
0.0000001
1070
    41
1040
5.0
1070
   271
1070
     3
1070
    43
1040
5.0
1070
     3
1000

1070
    45
1040
0.0001
1070
    40
1040
0.5
1070
    73
1070
     0
1070
   174
1070
     1
1070
   172
1070
     0
1070
    78
1070
     9
1002
}
  0
CIRCLE
  5
283
102
{ACAD_REACTORS
330
285
102
}
330
1B
100
AcDbEntity
 67
     1
  8
0
  6
CONTINUOUS
 62
   150
100
AcDbCircle
 10
154.8687001140541
 20
114.5518577372794
 30
0.0
 40
2.5
  0
TEXT
  5
284
102
{ACAD_REACTORS
330
285
102
}
330
1B
100
AcDbEntity
 67
     1
  8
0
  6
DURCHGEHEND
 62
     7
100
AcDbText
 10
154.1547001140541
 20
113.8018577372794
 30
0.0
 40
1.5
  1
2
  7
_TCW_TXTSTY_2
 72
     1
 11
154.8687001140541
 21
114.5518577372794
 31
0.0
100
AcDbText
 73
     2
  0
CIRCLE
  5
286
102
{ACAD_REACTORS
330
288
102
}
330
1B
100
AcDbEntity
 67
     1
  8
0
  6
CONTINUOUS
 62
   150
100
AcDbCircle
 10
109.1197138099563
 20
169.66417874481
 30
0.0
 40
2.500000000000007
  0
TEXT
  5
287
102
{ACAD_REACTORS
330
288
102
}
330
1B
100
AcDbEntity
 67
     1
  8
0
  6
DURCHGEHEND
 62
     7
100
AcDbText
 10
108.4057138099563
 20
168.91417874481
 30
0.0
 40
1.5
  1
1
  7
_TCW_TXTSTY_2
 72
     1
 11
109.1197138099563
 21
169.66417874481
 31
0.0
100
AcDbText
 73
     2
  0
CIRCLE
  5
289
102
{ACAD_REACTORS
330
28B
102
}
330
1B
100
AcDbEntity
 67
     1
  8
0
  6
CONTINUOUS
 62
   150
100
AcDbCircle
 10
83.59062054175325
 20
148.1152831322333
 30
0.0
 40
2.5
  0
TEXT
  5
28A
102
{ACAD_REACTORS
330
28B
102
}
330
1B
100
AcDbEntity
 67
     1
  8
0
  6
DURCHGEHEND
 62
     7
100
AcDbText
 10
82.87662054175325
 20
147.3652831322333
 30
0.0
 40
1.5
  1
1
  7
_TCW_TXTSTY_2
 72
     1
 11
83.59062054175325
 21
148.1152831322333
 31
0.0
100
AcDbText
 73
     2
  0
CIRCLE
  5
28C
102
{ACAD_REACTORS
330
28E
102
}
330
1B
100
AcDbEntity
 67
     1
  8
0
  6
CONTINUOUS
 62
   150
100
AcDbCircle
 10
83.59062054175325
 20
130.5122808357454
 30
0.0
 40
2.5
  0
TEXT
  5
28D
102
{ACAD_REACTORS
330
28E
102
}
330
1B
100
AcDbEntity
 67
     1
  8
0
  6
DURCHGEHEND
 62
     7
100
AcDbText
 10
82.87662054175325
 20
129.7622808357454
 30
0.0
 40
1.5
  1
2
  7
_TCW_TXTSTY_2
 72
     1
 11
83.59062054175325
 21
130.5122808357454
 31
0.0
100
AcDbText
 73
     2
  0
ENDSEC
  0
SECTION
  2
OBJECTS
  0
DICTIONARY
  5
C
330
0
100
AcDbDictionary
  3
ACAD_GROUP
350
D
  3
ACAD_LAYOUT
350
1A
  3
ACAD_MATERIAL
350
3B
  3
ACAD_MLEADERSTYLE
350
16A
  3
ACAD_MLINESTYLE
350
17
  3
ACAD_PLOTSETTINGS
350
19
  3
ACAD_VISUALSTYLE
350
2A
  3
ACDBHEADERROUNDTRIPXREC
350
28F
  3
ACDBVARIABLEDICTIONARY
350
2AF
  3
TC_CUSTOM_TABLES
350
169
  0
DICTIONARY
  5
17F
330
181
100
AcDbDictionary
280
     1
  3
TC_EXTENDED_DATA
360
180
  0
DICTIONARY
  5
182
330
184
100
AcDbDictionary
280
     1
  3
TC_EXTENDED_DATA
360
183
  0
DICTIONARY
  5
185
330
187
100
AcDbDictionary
280
     1
  3
TC_EXTENDED_DATA
360
186
  0
DICTIONARY
  5
188
330
18A
100
AcDbDictionary
280
     1
  3
TC_EXTENDED_DATA
360
189
  0
DICTIONARY
  5
18B
330
18D
100
AcDbDictionary
280
     1
  3
TC_EXTENDED_DATA
360
18C
  0
DICTIONARY
  5
18E
330
190
100
AcDbDictionary
280
     1
  3
TC_EXTENDED_DATA
360
18F
  0
DICTIONARY
  5
191
330
193
100
AcDbDictionary
280
     1
  3
TC_EXTENDED_DATA
360
192
  0
DICTIONARY
  5
194
330
196
100
AcDbDictionary
280
     1
  3
TC_EXTENDED_DATA
360
195
  0
DICTIONARY
  5
197
330
199
100
AcDbDictionary
280
     1
  3
TC_EXTENDED_DATA
360
198
  0
DICTIONARY
  5
19A
330
19C
100
AcDbDictionary
280
     1
  3
TC_EXTENDED_DATA
360
19B
  0
DICTIONARY
  5
19D
330
19F
100
AcDbDictionary
280
     1
  3
TC_EXTENDED_DATA
360
19E
  0
DICTIONARY
  5
1A0
330
1A2
100
AcDbDictionary
280
     1
  3
TC_EXTENDED_DATA
360
1A1
  0
DICTIONARY
  5
1A3
330
1A5
100
AcDbDictionary
280
     1
  3
TC_EXTENDED_DATA
360
1A4
  0
DICTIONARY
  5
1A6
330
1A8
100
AcDbDictionary
280
     1
  3
TC_EXTENDED_DATA
360
1A7
  0
DICTIONARY
  5
1A9
330
1AB
100
AcDbDictionary
280
     1
  3
TC_EXTENDED_DATA
360
1AA
  0
DICTIONARY
  5
1AC
330
1AE
100
AcDbDictionary
280
     1
  3
TC_EXTENDED_DATA
360
1AD
  0
DICTIONARY
  5
1AF
330
1B1
100
AcDbDictionary
280
     1
  3
TC_EXTENDED_DATA
360
1B0
  0
DICTIONARY
  5
1B2
330
1B4
100
AcDbDictionary
280
     1
  3
TC_EXTENDED_DATA
360
1B3
  0
DICTIONARY
  5
1B5
330
1B7
100
AcDbDictionary
280
     1
  3
TC_EXTENDED_DATA
360
1B6
  0
DICTIONARY
  5
1B8
330
1BA
100
AcDbDictionary
280
     1
  3
TC_EXTENDED_DATA
360
1B9
  0
DICTIONARY
  5
1BB
330
1BD
100
AcDbDictionary
280
     1
  3
TC_EXTENDED_DATA
360
1BC
  0
DICTIONARY
  5
1BE
330
1C0
100
AcDbDictionary
280
     1
  3
TC_EXTENDED_DATA
360
1BF
  0
DICTIONARY
  5
1C1
330
1C3
100
AcDbDictionary
280
     1
  3
TC_EXTENDED_DATA
360
1C2
  0
DICTIONARY
  5
1C4
330
1C6
100
AcDbDictionary
280
     1
  3
TC_EXTENDED_DATA
360
1C5
  0
DICTIONARY
  5
1C7
330
1C9
100
AcDbDictionary
280
     1
  3
TC_EXTENDED_DATA
360
1C8
  0
DICTIONARY
  5
1D8
330
1DA
100
AcDbDictionary
280
     1
  3
TC_EXTENDED_DATA
360
1D9
  0
DICTIONARY
  5
1DB
330
1DD
100
AcDbDictionary
280
     1
  3
TC_EXTENDED_DATA
360
1DC
  0
DICTIONARY
  5
1DE
330
1E0
100
AcDbDictionary
280
     1
  3
TC_EXTENDED_DATA
360
1DF
  0
DICTIONARY
  5
1E1
330
1E3
100
AcDbDictionary
280
     1
  3
TC_EXTENDED_DATA
360
1E2
  0
DICTIONARY
  5
1E4
330
1E6
100
AcDbDictionary
280
     1
  3
TC_EXTENDED_DATA
360
1E5
  0
DICTIONARY
  5
1E7
330
1E9
100
AcDbDictionary
280
     1
  3
ACAD_DIMASSOC
360
1EA
  3
TC_EXTENDED_DATA
360
1E8
  0
DICTIONARY
  5
1F9
330
1FB
100
AcDbDictionary
280
     1
  3
ACAD_DIMASSOC
360
1FC
  3
TC_EXTENDED_DATA
360
1FA
  0
DICTIONARY
  5
20B
330
20D
100
AcDbDictionary
280
     1
  3
ACAD_DIMASSOC
360
20E
  3
TC_EXTENDED_DATA
360
20C
  0
DICTIONARY
  5
21D
330
21F
100
AcDbDictionary
280
     1
  3
TC_EXTENDED_DATA
360
21E
  0
DICTIONARY
  5
221
330
223
100
AcDbDictionary
280
     1
  3
TC_EXTENDED_DATA
360
222
  0
DICTIONARY
  5
224
330
226
100
AcDbDictionary
280
     1
  3
TC_EXTENDED_DATA
360
225
  0
DICTIONARY
  5
22A
330
22C
100
AcDbDictionary
280
     1
  3
ACAD_DIMASSOC
360
22D
  3
TC_EXTENDED_DATA
360
22B
  0
DICTIONARY
  5
23B
330
23D
100
AcDbDictionary
280
     1
  3
TC_EXTENDED_DATA
360
23C
  0
DICTIONARY
  5
23E
330
240
100
AcDbDictionary
280
     1
  3
TC_EXTENDED_DATA
360
23F
  0
DICTIONARY
  5
241
330
243
100
AcDbDictionary
280
     1
  3
ACAD_DIMASSOC
360
244
  3
TC_EXTENDED_DATA
360
242
  0
DICTIONARY
  5
251
330
253
100
AcDbDictionary
280
     1
  3
ACAD_DIMASSOC
360
254
  3
TC_EXTENDED_DATA
360
252
  0
DICTIONARY
  5
261
330
263
100
AcDbDictionary
280
     1
  3
TC_EXTENDED_DATA
360
262
  0
DICTIONARY
  5
270
330
272
100
AcDbDictionary
280
     1
  3
TC_EXTENDED_DATA
360
271
  0
DICTIONARY
  5
273
330
275
100
AcDbDictionary
280
     1
  3
ACAD_DIMASSOC
360
276
  3
TC_EXTENDED_DATA
360
274
  0
DICTIONARY
  5
D
102
{ACAD_REACTORS
330
C
102
}
330
C
100
AcDbDictionary
  3
2
350
285
  3
2_1
350
288
  3
2_2
350
28B
  3
2_3
350
28E
  0
DICTIONARY
  5
1A
102
{ACAD_REACTORS
330
C
102
}
330
C
100
AcDbDictionary
  0
DICTIONARY
  5
3B
102
{ACAD_REACTORS
330
C
102
}
330
C
100
AcDbDictionary
  3
BYBLOCK
350
3D
  3
BYLAYER
350
3C
  3
GLOBAL
350
3E
  0
DICTIONARY
  5
16A
102
{ACAD_REACTORS
330
C
102
}
330
C
100
AcDbDictionary
  3
STANDARD
350
16B
  0
DICTIONARY
  5
17
102
{ACAD_REACTORS
330
C
102
}
330
C
100
AcDbDictionary
  3
STANDARD
350
18
  0
DICTIONARY
  5
19
102
{ACAD_REACTORS
330
C
102
}
330
C
100
AcDbDictionary
  0
DICTIONARY
  5
2A
102
{ACAD_REACTORS
330
C
102
}
330
C
100
AcDbDictionary
  3
2DWIREFRAME
350
2F
  3
3D_HIDDEN
350
31
  3
3DWIREFRAME
350
30
  3
BASIC
350
32
  3
BRIGHTEN
350
36
  3
COLORCHANGE
350
3A
  3
CONCEPTUAL
350
34
  3
DIM
350
35
  3
FACEPATTERN
350
39
  3
FLAT
350
2B
  3
FLATWITHEDGES
350
2C
  3
GOURAUD
350
2D
  3
GOURAUDWITHEDGES
350
2E
  3
LINEPATTERN
350
38
  3
REALISTIC
350
33
  3
THICKEN
350
37
  0
DICTIONARY
  5
28F
102
{ACAD_REACTORS
330
C
102
}
330
C
100
AcDbDictionary
  3
CEPSNTYPE
350
298
  3
DIMSTYLEDATA
350
2AE
  3
FINGERPRINTGUID
350
299
  3
HYPERLINKBASE
350
292
  3
INSUNITS
350
297
  3
LAYOUTDICT
350
294
  3
LWETCUNION
350
296
  3
PLOTSETDICT
350
295
  3
PSVPSCALE
350
29B
  3
PUCSBASE
350
29E
  3
PUCSORGBACK
350
2A4
  3
PUCSORGBOTTOM
350
2A0
  3
PUCSORGFRONT
350
2A3
  3
PUCSORGLEFT
350
2A1
  3
PUCSORGRIGHT
350
2A2
  3
PUCSORGTOP
350
29F
  3
PUCSORTHOREF
350
29C
  3
PUCSORTHOVIEW
350
29D
  3
STYLESHEET
350
293
  3
TSTACKALIGN
350
290
  3
TSTACKSIZE
350
291
  3
UCSBASE
350
2A7
  3
UCSORGBACK
350
2AD
  3
UCSORGBOTTOM
350
2A9
  3
UCSORGFRONT
350
2AC
  3
UCSORGLEFT
350
2AA
  3
UCSORGRIGHT
350
2AB
  3
UCSORGTOP
350
2A8
  3
UCSORTHOREF
350
2A5
  3
UCSORTHOVIEW
350
2A6
  3
VERSIONGUID
350
29A
  0
DICTIONARY
  5
2AF
102
{ACAD_REACTORS
330
C
102
}
330
C
100
AcDbDictionary
  3
DIMASSOC
350
2B1
  3
HIDETEXT
350
2B2
  0
DICTIONARY
  5
169
102
{ACAD_REACTORS
330
C
102
}
330
C
100
AcDbDictionary
  0
TCOPTIONALDATA
  5
180
102
{ACAD_REACTORS
330
17F
102
}
330
17F
100
TcOptionalData
 70
     2
 70
   128
 90
        1
  1
#$AUX@_ToolInfo Properties
 70
     8
 90
       16
310
434D445F43454E544552505441524340
  0
TCOPTIONALDATA
  5
183
102
{ACAD_REACTORS
330
182
102
}
330
182
100
TcOptionalData
 70
     2
 70
   128
 90
        1
  1
#$AUX@_ToolInfo Properties
 70
     8
 90
       17
310
434D445F4D454554324C494E45535F5640
  0
TCOPTIONALDATA
  5
186
102
{ACAD_REACTORS
330
185
102
}
330
185
100
TcOptionalData
 70
     2
 70
   128
 90
        1
  1
#$AUX@_ToolInfo Properties
 70
     8
 90
       17
310
434D445F4D454554324C494E45535F5640
  0
TCOPTIONALDATA
  5
189
102
{ACAD_REACTORS
330
188
102
}
330
188
100
TcOptionalData
 70
     2
 70
   128
 90
        1
  1
#$AUX@_ToolInfo Properties
 70
     8
 90
       17
310
434D445F4D454554324C494E45535F5640
  0
TCOPTIONALDATA
  5
18C
102
{ACAD_REACTORS
330
18B
102
}
330
18B
100
TcOptionalData
 70
     2
 70
   130
 10
191.1477852828195
 20
175.1788299144626
 30
0.0
 90
        1
  1
#$AUX@_ToolInfo Properties
 70
     8
 90
       16
310
434D445F43454E544552505441524340
  0
TCOPTIONALDATA
  5
18F
102
{ACAD_REACTORS
330
18E
102
}
330
18E
100
TcOptionalData
 70
     2
 70
   128
 90
        1
  1
#$AUX@_ToolInfo Properties
 70
     8
 90
       17
310
434D445F4D454554324C494E45535F5640
  0
TCOPTIONALDATA
  5
192
102
{ACAD_REACTORS
330
191
102
}
330
191
100
TcOptionalData
 70
     2
 70
   128
 90
        1
  1
#$AUX@_ToolInfo Properties
 70
     8
 90
       17
310
434D445F4D454554324C494E45535F5640
  0
TCOPTIONALDATA
  5
195
102
{ACAD_REACTORS
330
194
102
}
330
194
100
TcOptionalData
 70
     2
 70
   128
 90
        1
  1
#$AUX@_ToolInfo Properties
 70
     8
 90
       17
310
434D445F4D454554324C494E45535F5640
  0
TCOPTIONALDATA
  5
198
102
{ACAD_REACTORS
330
197
102
}
330
197
100
TcOptionalData
 70
     2
 70
   128
 90
        1
  1
#$AUX@_ToolInfo Properties
 70
     8
 90
       16
310
434D445F43454E544552505441524340
  0
TCOPTIONALDATA
  5
19B
102
{ACAD_REACTORS
330
19A
102
}
330
19A
100
TcOptionalData
 70
     2
 70
   130
 10
120.65627738462
 20
115.5937502321756
 30
0.0
 90
        1
  1
#$AUX@_ToolInfo Properties
 70
     8
 90
       16
310
434D445F43454E544552505441524340
  0
TCOPTIONALDATA
  5
19E
102
{ACAD_REACTORS
330
19D
102
}
330
19D
100
TcOptionalData
 70
     2
 70
   128
 90
        1
  1
#$AUX@_ToolInfo Properties
 70
     8
 90
        9
310
434D445F4C494E4540
  0
TCOPTIONALDATA
  5
1A1
102
{ACAD_REACTORS
330
1A0
102
}
330
1A0
100
TcOptionalData
 70
     2
 70
   128
 90
        1
  1
#$AUX@_ToolInfo Properties
 70
     8
 90
        9
310
434D445F4C494E4540
  0
TCOPTIONALDATA
  5
1A4
102
{ACAD_REACTORS
330
1A3
102
}
330
1A3
100
TcOptionalData
 70
     2
 70
   128
 90
        1
  1
#$AUX@_ToolInfo Properties
 70
     8
 90
       17
310
434D445F504152414C4C454C4C494E4540
  0
TCOPTIONALDATA
  5
1A7
102
{ACAD_REACTORS
330
1A6
102
}
330
1A6
100
TcOptionalData
 70
     2
 70
   128
 90
        1
  1
#$AUX@_ToolInfo Properties
 70
     8
 90
       17
310
434D445F504152414C4C454C4C494E4540
  0
TCOPTIONALDATA
  5
1AA
102
{ACAD_REACTORS
330
1A9
102
}
330
1A9
100
TcOptionalData
 70
     2
 70
   128
 90
        1
  1
#$AUX@_ToolInfo Properties
 70
     8
 90
       17
310
434D445F4D454554324C494E45535F5640
  0
TCOPTIONALDATA
  5
1AD
102
{ACAD_REACTORS
330
1AC
102
}
330
1AC
100
TcOptionalData
 70
     2
 70
   128
 90
        1
  1
#$AUX@_ToolInfo Properties
 70
     8
 90
       17
310
434D445F4D454554324C494E45535F5640
  0
TCOPTIONALDATA
  5
1B0
102
{ACAD_REACTORS
330
1AF
102
}
330
1AF
100
TcOptionalData
 70
     2
 70
   128
 90
        1
  1
#$AUX@_ToolInfo Properties
 70
     8
 90
        9
310
434D445F4C494E4540
  0
TCOPTIONALDATA
  5
1B3
102
{ACAD_REACTORS
330
1B2
102
}
330
1B2
100
TcOptionalData
 70
     2
 70
   128
 90
        1
  1
#$AUX@_ToolInfo Properties
 70
     8
 90
       17
310
434D445F4D454554324C494E45535F5640
  0
TCOPTIONALDATA
  5
1B6
102
{ACAD_REACTORS
330
1B5
102
}
330
1B5
100
TcOptionalData
 70
     2
 70
   128
 90
        1
  1
#$AUX@_ToolInfo Properties
 70
     8
 90
        9
310
434D445F4C494E4540
  0
TCOPTIONALDATA
  5
1B9
102
{ACAD_REACTORS
330
1B8
102
}
330
1B8
100
TcOptionalData
 70
     2
 70
   128
 90
        1
  1
#$AUX@_ToolInfo Properties
 70
     8
 90
        9
310
434D445F4C494E4540
  0
TCOPTIONALDATA
  5
1BC
102
{ACAD_REACTORS
330
1BB
102
}
330
1BB
100
TcOptionalData
 70
     2
 70
   128
 90
        1
  1
#$AUX@_ToolInfo Properties
 70
     8
 90
        9
310
434D445F4C494E4540
  0
TCOPTIONALDATA
  5
1BF
102
{ACAD_REACTORS
330
1BE
102
}
330
1BE
100
TcOptionalData
 70
     2
 70
   128
 90
        1
  1
#$AUX@_ToolInfo Properties
 70
     8
 90
        9
310
434D445F4C494E4540
  0
TCOPTIONALDATA
  5
1C2
102
{ACAD_REACTORS
330
1C1
102
}
330
1C1
100
TcOptionalData
 70
     2
 70
   128
 90
        1
  1
#$AUX@_ToolInfo Properties
 70
     8
 90
       17
310
434D445F504152414C4C454C4C494E4540
  0
TCOPTIONALDATA
  5
1C5
102
{ACAD_REACTORS
330
1C4
102
}
330
1C4
100
TcOptionalData
 70
     2
 70
   128
 90
        1
  1
#$AUX@_ToolInfo Properties
 70
     8
 90
       17
310
434D445F504152414C4C454C4C494E4540
  0
TCOPTIONALDATA
  5
1C8
102
{ACAD_REACTORS
330
1C7
102
}
330
1C7
100
TcOptionalData
 70
     2
 70
   130
 10
161.1477852828196
 20
120.066508906932
 30
0.0
 90
        1
  1
#$AUX@_ToolInfo Properties
 70
     8
 90
       18
310
434D445F4F5254484F474F4E414C44494D40
  0
TCOPTIONALDATA
  5
1D9
102
{ACAD_REACTORS
330
1D8
102
}
330
1D8
100
TcOptionalData
 70
     2
 70
   130
 10
236.8967715869173
 20
175.1788299144626
 30
0.0
 90
        1
  1
#$AUX@_ToolInfo Properties
 70
     8
 90
       16
310
434D445F43454E544552505441524340
  0
TCOPTIONALDATA
  5
1DC
102
{ACAD_REACTORS
330
1DB
102
}
330
1DB
100
TcOptionalData
 70
     2
 70
   128
 90
        1
  1
#$AUX@_ToolInfo Properties
 70
     8
 90
       17
310
434D445F4D454554324C494E45535F5640
  0
TCOPTIONALDATA
  5
1DF
102
{ACAD_REACTORS
330
1DE
102
}
330
1DE
100
TcOptionalData
 70
     2
 70
   128
 90
        1
  1
#$AUX@_ToolInfo Properties
 70
     8
 90
       17
310
434D445F4D454554324C494E45535F5640
  0
TCOPTIONALDATA
  5
1E2
102
{ACAD_REACTORS
330
1E1
102
}
330
1E1
100
TcOptionalData
 70
     2
 70
   128
 90
        1
  1
#$AUX@_ToolInfo Properties
 70
     8
 90
       17
310
434D445F4D454554324C494E45535F5640
  0
TCOPTIONALDATA
  5
1E5
102
{ACAD_REACTORS
330
1E4
102
}
330
1E4
100
TcOptionalData
 70
     2
 70
   128
 90
        1
  1
#$AUX@_ToolInfo Properties
 70
     8
 90
       16
310
434D445F43454E544552505441524340
  0
DIMASSOC
  5
1EA
102
{ACAD_REACTORS
330
1E7
102
}
330
1E7
100
AcDbDimAssoc
330
1E9
 90
        3
 70
     0
 71
     1
  1
AcDbOsnapPointRef
 72
    13
331
187
 73
     2
 91
        0
 40
13.0
 10
0.0
 20
0.0
 30
2.000000000000000E+50
 75
     0
  1
AcDbOsnapPointRef
 72
    13
331
1E0
 73
     2
 91
        0
 40
13.0
 10
0.0
 20
0.0
 30
2.000000000000000E+50
 75
     0
  0
TCOPTIONALDATA
  5
1E8
102
{ACAD_REACTORS
330
1E7
102
}
330
1E7
100
TcOptionalData
 70
     2
 70
   128
 90
        1
  1
#$AUX@_ToolInfo Properties
 70
     8
 90
       18
310
434D445F4F5254484F474F4E414C44494D40
  0
DIMASSOC
  5
1FC
102
{ACAD_REACTORS
330
1F9
102
}
330
1F9
100
AcDbDimAssoc
330
1FB
 90
       15
 70
     0
 71
     1
  1
AcDbOsnapPointRef
 72
    13
331
1B1
 73
     2
 91
        0
 40
13.0
 10
0.0
 20
0.0
 30
2.000000000000000E+50
 75
     0
  1
AcDbOsnapPointRef
 72
     1
331
1B1
 73
     2
 91
        0
 40
1.0
 10
0.0
 20
0.0
 30
2.000000000000000E+50
 75
     0
  1
AcDbOsnapPointRef
 72
    13
331
1AB
 73
     2
 91
        0
 40
13.0
 10
0.0
 20
0.0
 30
2.000000000000000E+50
 75
     0
  1
AcDbOsnapPointRef
 72
     1
331
1AB
 73
     2
 91
        0
 40
1.0
 10
0.0
 20
0.0
 30
2.000000000000000E+50
 75
     0
  0
TCOPTIONALDATA
  5
1FA
102
{ACAD_REACTORS
330
1F9
102
}
330
1F9
100
TcOptionalData
 70
     2
 70
   128
 90
        1
  1
#$AUX@_ToolInfo Properties
 70
     8
 90
       15
310
434D445F414E47554C415244494D40
  0
DIMASSOC
  5
20E
102
{ACAD_REACTORS
330
20B
102
}
330
20B
100
AcDbDimAssoc
330
20D
 90
       15
 70
     0
 71
     1
  1
AcDbOsnapPointRef
 72
    13
331
1B1
 73
     2
 91
        0
 40
13.0
 10
0.0
 20
0.0
 30
2.000000000000000E+50
 75
     0
  1
AcDbOsnapPointRef
 72
     1
331
1B1
 73
     2
 91
        0
 40
1.0
 10
0.0
 20
0.0
 30
2.000000000000000E+50
 75
     0
  1
AcDbOsnapPointRef
 72
    13
331
1AE
 73
     2
 91
        0
 40
13.0
 10
0.0
 20
0.0
 30
2.000000000000000E+50
 75
     0
  1
AcDbOsnapPointRef
 72
     1
331
1AE
 73
     2
 91
        0
 40
1.0
 10
0.0
 20
0.0
 30
2.000000000000000E+50
 75
     0
  0
TCOPTIONALDATA
  5
20C
102
{ACAD_REACTORS
330
20B
102
}
330
20B
100
TcOptionalData
 70
     2
 70
   128
 90
        1
  1
#$AUX@_ToolInfo Properties
 70
     8
 90
       15
310
434D445F414E47554C415244494D40
  0
TCOPTIONALDATA
  5
21E
102
{ACAD_REACTORS
330
21D
102
}
330
21D
100
TcOptionalData
 70
     2
 70
   128
 90
        1
  1
#$AUX@_ToolInfo Properties
 70
     8
 90
       14
310
434D445F52454354414E474C4540
  0
TCOPTIONALDATA
  5
222
102
{ACAD_REACTORS
330
221
102
}
330
221
100
TcOptionalData
 70
     2
 70
   130
 10
15.64643331916287
 20
185.5465070522618
 30
0.0
 90
        1
  1
#$AUX@_ToolInfo Properties
 70
     8
 90
        9
310
434D445F5445585440
  0
TCOPTIONALDATA
  5
225
102
{ACAD_REACTORS
330
224
102
}
330
224
100
TcOptionalData
 70
     2
 70
    18
 10
65.28728566325113
 20
127.7120658510207
 30
0.0
  1
Technobox Old
 70
     0
  0
DIMASSOC
  5
22D
102
{ACAD_REACTORS
330
22A
102
}
330
22A
100
AcDbDimAssoc
330
22C
 90
        3
 70
     0
 71
     1
  1
AcDbOsnapPointRef
 72
    13
331
1AB
 73
     2
 91
        0
 40
13.0
 10
0.0
 20
0.0
 30
2.000000000000000E+50
 75
     0
  1
AcDbOsnapPointRef
 72
     1
331
1AB
 73
     2
 91
        0
 40
1.0
 10
0.0
 20
0.0
 30
2.000000000000000E+50
 75
     0
  0
TCOPTIONALDATA
  5
22B
102
{ACAD_REACTORS
330
22A
102
}
330
22A
100
TcOptionalData
 70
     2
 70
   128
 90
        1
  1
#$AUX@_ToolInfo Properties
 70
     8
 90
       18
310
434D445F4F5254484F474F4E414C44494D40
  0
TCOPTIONALDATA
  5
23C
102
{ACAD_REACTORS
330
23B
102
}
330
23B
100
TcOptionalData
 70
     2
 70
   130
 10
88.5015881874873
 20
143.1765879840103
 30
0.0
 90
        1
  1
#$AUX@_ToolInfo Properties
 70
     8
 90
        9
310
434D445F5445585440
  0
TCOPTIONALDATA
  5
23F
102
{ACAD_REACTORS
330
23E
102
}
330
23E
100
TcOptionalData
 70
     2
 70
   130
 10
88.5015881874873
 20
119.2447778983691
 30
0.0
 90
        1
  1
#$AUX@_ToolInfo Properties
 70
     8
 90
        9
310
434D445F5445585440
  0
DIMASSOC
  5
244
102
{ACAD_REACTORS
330
241
102
}
330
241
100
AcDbDimAssoc
330
243
 90
        3
 70
     0
 71
     1
  1
AcDbOsnapPointRef
 72
    13
331
181
 73
     2
 91
        0
 40
13.0
 10
0.0
 20
0.0
 30
2.000000000000000E+50
 75
     0
  1
AcDbOsnapPointRef
 72
     1
331
181
 73
     2
 91
        0
 40
1.0
 10
0.0
 20
0.0
 30
2.000000000000000E+50
 75
     0
  0
TCOPTIONALDATA
  5
242
102
{ACAD_REACTORS
330
241
102
}
330
241
100
TcOptionalData
 70
     2
 70
   128
 90
        1
  1
#$AUX@_ToolInfo Properties
 70
     8
 90
       16
310
434D445F504152414C4C454C44494D40
  0
DIMASSOC
  5
254
102
{ACAD_REACTORS
330
251
102
}
330
251
100
AcDbDimAssoc
330
253
 90
        1
 70
     0
 71
     1
  1
AcDbOsnapPointRef
 72
    13
331
1A5
 73
     2
 91
        0
 40
13.0
 10
0.0
 20
0.0
 30
2.000000000000000E+50
 75
     0
  0
TCOPTIONALDATA
  5
252
102
{ACAD_REACTORS
330
251
102
}
330
251
100
TcOptionalData
 70
     2
 70
   130
 10
44.90729108052234
 20
134.2739827921837
 30
0.0
 90
        1
  1
#$AUX@_ToolInfo Properties
 70
     8
 90
       18
310
434D445F4F5254484F474F4E414C44494D40
  0
TCOPTIONALDATA
  5
262
102
{ACAD_REACTORS
330
261
102
}
330
261
100
TcOptionalData
 70
     2
 70
   130
 10
37.40729108052236
 20
134.2739827921837
 30
0.0
 90
        1
  1
#$AUX@_ToolInfo Properties
 70
     8
 90
       18
310
434D445F4F5254484F474F4E414C44494D40
  0
TCOPTIONALDATA
  5
271
102
{ACAD_REACTORS
330
270
102
}
330
270
100
TcOptionalData
 70
     2
 70
   128
 90
        1
  1
#$AUX@_ToolInfo Properties
 70
     8
 90
        9
310
434D445F4C494E4540
  0
DIMASSOC
  5
276
102
{ACAD_REACTORS
330
273
102
}
330
273
100
AcDbDimAssoc
330
275
 90
        3
 70
     0
 71
     1
  1
AcDbOsnapPointRef
 72
    13
331
1C3
 73
     2
 91
        0
 40
13.0
 10
0.0
 20
0.0
 30
2.000000000000000E+50
 75
     0
  1
AcDbOsnapPointRef
 72
    13
331
1C6
 73
     2
 91
        0
 40
13.0
 10
0.0
 20
0.0
 30
2.000000000000000E+50
 75
     0
  0
TCOPTIONALDATA
  5
274
102
{ACAD_REACTORS
330
273
102
}
330
273
100
TcOptionalData
 70
     2
 70
   128
 90
        1
  1
#$AUX@_ToolInfo Properties
 70
     8
 90
       18
310
434D445F4F5254484F474F4E414C44494D40
  0
GROUP
  5
285
102
{ACAD_REACTORS
330
D
102
}
330
D
100
AcDbGroup
300

 70
     0
 71
     1
340
283
340
284
  0
GROUP
  5
288
102
{ACAD_REACTORS
330
D
102
}
330
D
100
AcDbGroup
300

 70
     0
 71
     1
340
286
340
287
  0
GROUP
  5
28B
102
{ACAD_REACTORS
330
D
102
}
330
D
100
AcDbGroup
300

 70
     0
 71
     1
340
289
340
28A
  0
GROUP
  5
28E
102
{ACAD_REACTORS
330
D
102
}
330
D
100
AcDbGroup
300

 70
     0
 71
     1
340
28C
340
28D
  0
MATERIAL
  5
3D
102
{ACAD_REACTORS
330
3B
102
}
102
{ACAD_XDICTIONARY
360
2B5
102
}
330
3B
100
AcDbMaterial
  1
ByBlock
  0
MATERIAL
  5
3C
102
{ACAD_REACTORS
330
3B
102
}
102
{ACAD_XDICTIONARY
360
2B3
102
}
330
3B
100
AcDbMaterial
  1
ByLayer
  0
MATERIAL
  5
3E
102
{ACAD_REACTORS
330
3B
102
}
102
{ACAD_XDICTIONARY
360
2B7
102
}
330
3B
100
AcDbMaterial
  1
Global
  0
ACAD_PROXY_OBJECT
  5
16B
102
{ACAD_REACTORS
330
16A
102
}
330
16A
100
AcDbProxyObject
 90
      499
 91
      699
 93
      538
310
40901902A4063FBFFFFFE0000000000000420400000000000008408000000000000084090140501A0000000000000210002B5E8DC0F42B1CFE5764000000000000300FC0
340
14
340
0
340
11
340
0
 94
        0
1001
ACAD_MLEADERVER
1070
     2
  0
MLINESTYLE
  5
18
102
{ACAD_REACTORS
330
17
102
}
330
17
100
AcDbMlineStyle
  2
Standard
 70
     0
  3

 62
   256
 51
90.0
 52
90.0
 71
     7
 49
0.5
 62
   256
  6
BYLAYER
 49
-0.5
 62
   256
  6
BYLAYER
 49
0.5
 62
   256
  6
BYLAYER
 49
-0.5
 62
   256
  6
BYLAYER
 49
5.0
 62
     0
  6
BYLAYER
 49
0.0
 62
     0
  6
BYLAYER
 49
-5.0
 62
     0
  6
BYLAYER
  0
ACAD_PROXY_OBJECT
  5
2F
102
{ACAD_REACTORS
330
2A
102
}
330
2A
100
AcDbProxyObject
 90
      499
 91
      501
 93
      436
310
42CC9915DA5C99599C985B595049028333333333333E3BF0000000000000FB0107901411070040501600405405064090741402480A0340
1001
ACAD
1000
AcDbSavedByObjectVersion
1070
     0
  0
ACAD_PROXY_OBJECT
  5
31
102
{ACAD_REACTORS
330
2A
102
}
330
2A
100
AcDbProxyObject
 90
      499
 91
      501
 93
      500
310
424CD108121A5919195B90640502408333333333333E3BF0000000000000FB01079024090700405020000000000001110200405405064090740C02480A0340
1001
ACAD
1000
AcDbSavedByObjectVersion
1070
     0
  0
ACAD_PROXY_OBJECT
  5
30
102
{ACAD_REACTORS
330
2A
102
}
330
2A
100
AcDbProxyObject
 90
      499
 91
      501
 93
      436
310
42CCD915DA5C99599C985B595059028333333333333E3BF0000000000000FB0107901411070040501600405405064090741402480A0340
1001
ACAD
1000
AcDbSavedByObjectVersion
1070
     0
  0
ACAD_PROXY_OBJECT
  5
32
102
{ACAD_REACTORS
330
2A
102
}
330
2A
100
AcDbProxyObject
 90
      499
 91
      501
 93
      388
310
4150985CDA58D07406404333333333333E3BF0000000000000FB0107A41107004050150841D405064090741402480A0350
1001
ACAD
1000
AcDbSavedByObjectVersion
1070
     0
  0
ACAD_PROXY_OBJECT
  5
36
102
{ACAD_REACTORS
330
2A
102
}
330
2A
100
AcDbProxyObject
 90
      499
 91
      501
 93
      428
310
42109C9A59DA1D195B90C409028333333333333E3BF0000000000000FB010790141107004050150841D405064090741402480A029950
1001
ACAD
1000
AcDbSavedByObjectVersion
1070
     0
  0
ACAD_PROXY_OBJECT
  5
3A
102
{ACAD_REACTORS
330
2A
102
}
330
2A
100
AcDbProxyObject
 90
      499
 91
      501
 93
      452
310
42D0DBDB1BDC90DA185B99D95104090240C333333333333E3BF0000000000000FB0108901411070040501508421405064090741402480A0350
1001
ACAD
1000
AcDbSavedByObjectVersion
1070
     0
  0
ACAD_PROXY_OBJECT
  5
34
102
{ACAD_REACTORS
330
2A
102
}
330
2A
100
AcDbProxyObject
 90
      499
 91
      501
 93
      500
310
4290DBDB98D95C1D1D585B10940D028333333333333E3BF0000000000000FB0107902409070040501000000000000111010841D405064090740C02480A0340
1001
ACAD
1000
AcDbSavedByObjectVersion
1070
     0
  0
ACAD_PROXY_OBJECT
  5
35
102
{ACAD_REACTORS
330
2A
102
}
330
2A
100
AcDbProxyObject
 90
      499
 91
      501
 93
      412
310
40D11A5B50B409028333333333333E3BF0000000000000FB010790141107004050150841D405064090741402480A02677FFFFFD0
1001
ACAD
1000
AcDbSavedByObjectVersion
1070
     0
  0
ACAD_PROXY_OBJECT
  5
39
102
{ACAD_REACTORS
330
2A
102
}
330
2A
100
AcDbProxyObject
 90
      499
 91
      501
 93
      444
310
42D19858D95C185D1D195C9B90F409028333333333333E3BF0000000000000FB010790141107004050150841D405064090741402480A0350
1001
ACAD
1000
AcDbSavedByObjectVersion
1070
     0
  0
ACAD_PROXY_OBJECT
  5
2B
102
{ACAD_REACTORS
330
2A
102
}
330
2A
100
AcDbProxyObject
 90
      499
 91
      501
 93
      388
310
41119B185D240901404333333333333E3BF0000000000000F9010740A41107004050150841D405064090741402480A1B50
1001
ACAD
1000
AcDbSavedByObjectVersion
1070
     0
  0
ACAD_PROXY_OBJECT
  5
2C
102
{ACAD_REACTORS
330
2A
102
}
330
2A
100
AcDbProxyObject
 90
      499
 91
      501
 93
      476
310
43519B185D15DA5D1A115919D95CD0140901404333333333333E3BF0000000000000F9010740901411070040501600405405064090741402480A1B50
1001
ACAD
1000
AcDbSavedByObjectVersion
1070
     0
  0
ACAD_PROXY_OBJECT
  5
2D
102
{ACAD_REACTORS
330
2A
102
}
330
2A
100
AcDbProxyObject
 90
      499
 91
      501
 93
      412
310
41D1DBDD5C985D5910240902404333333333333E3BF0000000000000F9010740A411070040501641D405064090741402480A1B50
1001
ACAD
1000
AcDbSavedByObjectVersion
1070
     0
  0
ACAD_PROXY_OBJECT
  5
2E
102
{ACAD_REACTORS
330
2A
102
}
330
2A
100
AcDbProxyObject
 90
      499
 91
      501
 93
      500
310
4411DBDD5C985D5915DA5D1A115919D95CD0340902404333333333333E3BF0000000000000F9010740901411070040501600405405064090741402480A1B50
1001
ACAD
1000
AcDbSavedByObjectVersion
1070
     0
  0
ACAD_PROXY_OBJECT
  5
38
102
{ACAD_REACTORS
330
2A
102
}
330
2A
100
AcDbProxyObject
 90
      499
 91
      501
 93
      444
310
42D31A5B995C185D1D195C9B90E409028333333333333E3BF0000000000000FB010790141107004050750841D405064090741402483A0350
1001
ACAD
1000
AcDbSavedByObjectVersion
1070
     0
  0
ACAD_PROXY_OBJECT
  5
33
102
{ACAD_REACTORS
330
2A
102
}
330
2A
100
AcDbProxyObject
 90
      499
 91
      501
 93
      420
310
425499585B1A5CDD1A58D08409028333333333333E3BF0000000000000FB01079019070040501508421405064090741402480A1B40
1001
ACAD
1000
AcDbSavedByObjectVersion
1070
     0
  0
ACAD_PROXY_OBJECT
  5
37
102
{ACAD_REACTORS
330
2A
102
}
330
2A
100
AcDbProxyObject
 90
      499
 91
      501
 93
      412
310
41D51A1A58DAD95B90D409028333333333333E3BF0000000000000FB010790141107004050150C41D405064090741402480A0350
1001
ACAD
1000
AcDbSavedByObjectVersion
1070
     0
  0
XRECORD
  5
298
102
{ACAD_REACTORS
330
28F
102
}
330
28F
100
AcDbXrecord
 90
        0
  0
XRECORD
  5
2AE
102
{ACAD_REACTORS
330
28F
102
}
330
28F
100
AcDbXrecord
1000
DSTYLE
1002
{
1070
   143
 40
1.0
1070
     4
  1
 mm
1070
    41
 40
3.0
1070
   141
 40
0.0
1070
   176
 70
     7
1070
   177
 70
     7
1070
   178
 70
     7
1070
   271
 70
     2
1070
    43
 40
7.5
1070
    44
 40
2.0
1070
    42
 40
1.0
1070
   147
 40
2.0
1070
     3
  1
 mm
1070
    45
 40
0.2
1070
    77
 70
     1
1070
   272
 70
     3
1070
   172
 70
     1
1070
    74
 70
     0
1070
   340
340
11
1070
   140
 40
3.0
1070
    78
 70
     1
1070
   345
340
14
1070
   346
340
14
1070
   347
340
14
1002
}
  0
XRECORD
  5
299
102
{ACAD_REACTORS
330
28F
102
}
330
28F
100
AcDbXrecord
  1
{CCAE84EB-FD4C-4897-8213-B7AD25004F24}
  0
XRECORD
  5
292
102
{ACAD_REACTORS
330
28F
102
}
330
28F
100
AcDbXrecord
  1

  0
XRECORD
  5
297
102
{ACAD_REACTORS
330
28F
102
}
330
28F
100
AcDbXrecord
 90
        1
  0
XRECORD
  5
294
102
{ACAD_REACTORS
330
28F
102
}
330
28F
100
AcDbXrecord
340
1A
  0
XRECORD
  5
296
102
{ACAD_REACTORS
330
28F
102
}
330
28F
100
AcDbXrecord
 90
    10781
  0
XRECORD
  5
295
102
{ACAD_REACTORS
330
28F
102
}
330
28F
100
AcDbXrecord
340
19
  0
XRECORD
  5
29B
102
{ACAD_REACTORS
330
28F
102
}
330
28F
100
AcDbXrecord
 40
0.0
  0
XRECORD
  5
29E
102
{ACAD_REACTORS
330
28F
102
}
330
28F
100
AcDbXrecord
340
0
  0
XRECORD
  5
2A4
102
{ACAD_REACTORS
330
28F
102
}
330
28F
100
AcDbXrecord
 10
0.0
 20
0.0
 30
0.0
  0
XRECORD
  5
2A0
102
{ACAD_REACTORS
330
28F
102
}
330
28F
100
AcDbXrecord
 10
0.0
 20
0.0
 30
0.0
  0
XRECORD
  5
2A3
102
{ACAD_REACTORS
330
28F
102
}
330
28F
100
AcDbXrecord
 10
0.0
 20
0.0
 30
0.0
  0
XRECORD
  5
2A1
102
{ACAD_REACTORS
330
28F
102
}
330
28F
100
AcDbXrecord
 10
0.0
 20
0.0
 30
0.0
  0
XRECORD
  5
2A2
102
{ACAD_REACTORS
330
28F
102
}
330
28F
100
AcDbXrecord
 10
0.0
 20
0.0
 30
0.0
  0
XRECORD
  5
29F
102
{ACAD_REACTORS
330
28F
102
}
330
28F
100
AcDbXrecord
 10
0.0
 20
0.0
 30
0.0
  0
XRECORD
  5
29C
102
{ACAD_REACTORS
330
28F
102
}
330
28F
100
AcDbXrecord
340
0
  0
XRECORD
  5
29D
102
{ACAD_REACTORS
330
28F
102
}
330
28F
100
AcDbXrecord
 70
     0
  0
XRECORD
  5
293
102
{ACAD_REACTORS
330
28F
102
}
330
28F
100
AcDbXrecord
  1

  0
XRECORD
  5
290
102
{ACAD_REACTORS
330
28F
102
}
330
28F
100
AcDbXrecord
 90
        1
  0
XRECORD
  5
291
102
{ACAD_REACTORS
330
28F
102
}
330
28F
100
AcDbXrecord
 90
       70
  0
XRECORD
  5
2A7
102
{ACAD_REACTORS
330
28F
102
}
330
28F
100
AcDbXrecord
340
0
  0
XRECORD
  5
2AD
102
{ACAD_REACTORS
330
28F
102
}
330
28F
100
AcDbXrecord
 10
0.0
 20
0.0
 30
0.0
  0
XRECORD
  5
2A9
102
{ACAD_REACTORS
330
28F
102
}
330
28F
100
AcDbXrecord
 10
0.0
 20
0.0
 30
0.0
  0
XRECORD
  5
2AC
102
{ACAD_REACTORS
330
28F
102
}
330
28F
100
AcDbXrecord
 10
0.0
 20
0.0
 30
0.0
  0
XRECORD
  5
2AA
102
{ACAD_REACTORS
330
28F
102
}
330
28F
100
AcDbXrecord
 10
0.0
 20
0.0
 30
0.0
  0
XRECORD
  5
2AB
102
{ACAD_REACTORS
330
28F
102
}
330
28F
100
AcDbXrecord
 10
0.0
 20
0.0
 30
0.0
  0
XRECORD
  5
2A8
102
{ACAD_REACTORS
330
28F
102
}
330
28F
100
AcDbXrecord
 10
0.0
 20
0.0
 30
0.0
  0
XRECORD
  5
2A5
102
{ACAD_REACTORS
330
28F
102
}
330
28F
100
AcDbXrecord
340
0
  0
XRECORD
  5
2A6
102
{ACAD_REACTORS
330
28F
102
}
330
28F
100
AcDbXrecord
 70
     0
  0
XRECORD
  5
29A
102
{ACAD_REACTORS
330
28F
102
}
330
28F
100
AcDbXrecord
  1
{FAEB1C32-E019-11D5-929B-00C0DF256EC4}
  0
DICTIONARYVAR
  5
2B1
102
{ACAD_REACTORS
330
2AF
102
}
330
2AF
100
DictionaryVariables
280
     0
  1
2
  0
DICTIONARYVAR
  5
2B2
102
{ACAD_REACTORS
330
2AF
102
}
330
2AF
100
DictionaryVariables
280
     0
  1
1
  0
DICTIONARY
  5
2B5
330
3D
100
AcDbDictionary
280
     1
  3
ACAD_XREC_ROUNDTRIP
360
2B6
  0
DICTIONARY
  5
2B3
330
3C
100
AcDbDictionary
280
     1
  3
ACAD_XREC_ROUNDTRIP
360
2B4
  0
DICTIONARY
  5
2B7
330
3E
100
AcDbDictionary
280
     1
  3
ACAD_XREC_ROUNDTRIP
360
2B8
  0
XRECORD
  5
2B6
102
{ACAD_REACTORS
330
2B5
102
}
330
2B5
100
AcDbXrecord
102
MATERIAL
148
0.0
149
0.0
149
0.0
 93
        0
 94
      127
282
     0
 72
     1
 77
     1
171
     1
175
     1
179
     1
273
     0
  0
XRECORD
  5
2B4
102
{ACAD_REACTORS
330
2B3
102
}
330
2B3
100
AcDbXrecord
102
MATERIAL
148
0.0
149
0.0
149
0.0
 93
        0
 94
      127
282
     0
 72
     1
 77
     1
171
     1
175
     1
179
     1
273
     0
  0
XRECORD
  5
2B8
102
{ACAD_REACTORS
330
2B7
102
}
330
2B7
100
AcDbXrecord
102
MATERIAL
148
0.0
149
0.0
149
0.0
 93
        0
 94
      127
282
     0
 72
     1
 77
     1
171
     1
175
     1
179
     1
273
     0
  0
ENDSEC
  0
EOF
