  0
SECTION
  2
HEADER
  9
$ACADVER
  1
AC1024
  9
$ACADMAINTVER
 70
     6
  9
$DWGCODEPAGE
  3
ANSI_1252
  9
$INSBASE
 10
0.0
 20
0.0
 30
0.0
  9
$EXTMIN
 10
-97.911022532408
 20
-29.763317108603
 30
0.0
  9
$EXTMAX
 10
447.728576523782
 20
188.036682891397
 30
0.0
  9
$LIMMIN
 10
0.0
 20
0.0
  9
$LIMMAX
 10
420.0
 20
297.0
  9
$ORTHOMODE
 70
     0
  9
$REGENMODE
 70
     1
  9
$FILLMODE
 70
     1
  9
$QTEXTMODE
 70
     0
  9
$MIRRTEXT
 70
     1
  9
$LTSCALE
 40
5.0
  9
$ATTMODE
 70
     1
  9
$TEXTSIZE
 40
2.5
  9
$TRACEWID
 40
1.0
  9
$TEXTSTYLE
  7
Standard
  9
$CLAYER
  8
0
  9
$CELTYPE
  6
ByLayer
  9
$CECOLOR
 62
   256
  9
$CELTSCALE
 40
1.0
  9
$DISPSILH
 70
     0
  9
$DIMSCALE
 40
1.0
  9
$DIMASZ
 40
2.5
  9
$DIMEXO
 40
0.625
  9
$DIMDLI
 40
3.75
  9
$DIMRND
 40
0.0
  9
$DIMDLE
 40
0.0
  9
$DIMEXE
 40
1.25
  9
$DIMTP
 40
0.0
  9
$DIMTM
 40
0.0
  9
$DIMTXT
 40
2.5
  9
$DIMCEN
 40
2.5
  9
$DIMTSZ
 40
0.0
  9
$DIMTOL
 70
     0
  9
$DIMLIM
 70
     0
  9
$DIMTIH
 70
     0
  9
$DIMTOH
 70
     0
  9
$DIMSE1
 70
     0
  9
$DIMSE2
 70
     0
  9
$DIMTAD
 70
     1
  9
$DIMZIN
 70
     8
  9
$DIMBLK
  1

  9
$DIMASO
 70
     1
  9
$DIMSHO
 70
     1
  9
$DIMPOST
  1

  9
$DIMAPOST
  1

  9
$DIMALT
 70
     0
  9
$DIMALTD
 70
     3
  9
$DIMALTF
 40
0.03937007874
  9
$DIMLFAC
 40
1.0
  9
$DIMTOFL
 70
     1
  9
$DIMTVP
 40
0.0
  9
$DIMTIX
 70
     0
  9
$DIMSOXD
 70
     0
  9
$DIMSAH
 70
     0
  9
$DIMBLK1
  1

  9
$DIMBLK2
  1

  9
$DIMSTYLE
  2
ISO-25
  9
$DIMCLRD
 70
     0
  9
$DIMCLRE
 70
     0
  9
$DIMCLRT
 70
     0
  9
$DIMTFAC
 40
1.0
  9
$DIMGAP
 40
0.625
  9
$DIMJUST
 70
     0
  9
$DIMSD1
 70
     0
  9
$DIMSD2
 70
     0
  9
$DIMTOLJ
 70
     0
  9
$DIMTZIN
 70
     8
  9
$DIMALTZ
 70
     0
  9
$DIMALTTZ
 70
     0
  9
$DIMUPT
 70
     0
  9
$DIMDEC
 70
     2
  9
$DIMTDEC
 70
     2
  9
$DIMALTU
 70
     2
  9
$DIMALTTD
 70
     3
  9
$DIMTXSTY
  7
Standard
  9
$DIMAUNIT
 70
     0
  9
$DIMADEC
 70
     0
  9
$DIMALTRND
 40
0.0
  9
$DIMAZIN
 70
     0
  9
$DIMDSEP
 70
    44
  9
$DIMATFIT
 70
     3
  9
$DIMFRAC
 70
     0
  9
$DIMLDRBLK
  1

  9
$DIMLUNIT
 70
     2
  9
$DIMLWD
 70
    -2
  9
$DIMLWE
 70
    -2
  9
$DIMTMOVE
 70
     0
  9
$DIMFXL
 40
1.0
  9
$DIMFXLON
 70
     0
  9
$DIMJOGANG
 40
0.785398163397
  9
$DIMTFILL
 70
     0
  9
$DIMTFILLCLR
 70
     0
  9
$DIMARCSYM
 70
     0
  9
$DIMLTYPE
  6

  9
$DIMLTEX1
  6

  9
$DIMLTEX2
  6

  9
$DIMTXTDIRECTION
 70
     0
  9
$LUNITS
 70
     2
  9
$LUPREC
 70
     4
  9
$SKETCHINC
 40
1.0
  9
$FILLETRAD
 40
10.0
  9
$AUNITS
 70
     0
  9
$AUPREC
 70
     0
  9
$MENU
  1
.
  9
$ELEVATION
 40
0.0
  9
$PELEVATION
 40
0.0
  9
$THICKNESS
 40
0.0
  9
$LIMCHECK
 70
     0
  9
$CHAMFERA
 40
0.0
  9
$CHAMFERB
 40
0.0
  9
$CHAMFERC
 40
0.0
  9
$CHAMFERD
 40
0.0
  9
$SKPOLY
 70
     0
  9
$TDCREATE
 40
2457059.609906053
  9
$TDUCREATE
 40
2457059.568239387
  9
$TDUPDATE
 40
2457059.609938785
  9
$TDUUPDATE
 40
2457059.568272118
  9
$TDINDWG
 40
0.0000000116
  9
$TDUSRTIMER
 40
0.0000000116
  9
$USRTIMER
 70
     1
  9
$ANGBASE
 50
0.0
  9
$ANGDIR
 70
     0
  9
$PDMODE
 70
     2
  9
$PDSIZE
 40
1.0
  9
$PLINEWID
 40
0.0
  9
$SPLFRAME
 70
     0
  9
$SPLINETYPE
 70
     6
  9
$SPLINESEGS
 70
     8
  9
$HANDSEED
  5
272
  9
$SURFTAB1
 70
     6
  9
$SURFTAB2
 70
     6
  9
$SURFTYPE
 70
     6
  9
$SURFU
 70
     6
  9
$SURFV
 70
     6
  9
$UCSBASE
  2

  9
$UCSNAME
  2

  9
$UCSORG
 10
0.0
 20
0.0
 30
0.0
  9
$UCSXDIR
 10
1.0
 20
0.0
 30
0.0
  9
$UCSYDIR
 10
0.0
 20
1.0
 30
0.0
  9
$UCSORTHOREF
  2

  9
$UCSORTHOVIEW
 70
     0
  9
$UCSORGTOP
 10
0.0
 20
0.0
 30
0.0
  9
$UCSORGBOTTOM
 10
0.0
 20
0.0
 30
0.0
  9
$UCSORGLEFT
 10
0.0
 20
0.0
 30
0.0
  9
$UCSORGRIGHT
 10
0.0
 20
0.0
 30
0.0
  9
$UCSORGFRONT
 10
0.0
 20
0.0
 30
0.0
  9
$UCSORGBACK
 10
0.0
 20
0.0
 30
0.0
  9
$PUCSBASE
  2

  9
$PUCSNAME
  2

  9
$PUCSORG
 10
0.0
 20
0.0
 30
0.0
  9
$PUCSXDIR
 10
1.0
 20
0.0
 30
0.0
  9
$PUCSYDIR
 10
0.0
 20
1.0
 30
0.0
  9
$PUCSORTHOREF
  2

  9
$PUCSORTHOVIEW
 70
     0
  9
$PUCSORGTOP
 10
0.0
 20
0.0
 30
0.0
  9
$PUCSORGBOTTOM
 10
0.0
 20
0.0
 30
0.0
  9
$PUCSORGLEFT
 10
0.0
 20
0.0
 30
0.0
  9
$PUCSORGRIGHT
 10
0.0
 20
0.0
 30
0.0
  9
$PUCSORGFRONT
 10
0.0
 20
0.0
 30
0.0
  9
$PUCSORGBACK
 10
0.0
 20
0.0
 30
0.0
  9
$USERI1
 70
     0
  9
$USERI2
 70
     0
  9
$USERI3
 70
     0
  9
$USERI4
 70
     0
  9
$USERI5
 70
     0
  9
$USERR1
 40
0.0
  9
$USERR2
 40
0.0
  9
$USERR3
 40
0.0
  9
$USERR4
 40
0.0
  9
$USERR5
 40
0.0
  9
$WORLDVIEW
 70
     1
  9
$SHADEDGE
 70
     3
  9
$SHADEDIF
 70
    70
  9
$TILEMODE
 70
     1
  9
$MAXACTVP
 70
    64
  9
$PINSBASE
 10
0.0
 20
0.0
 30
0.0
  9
$PLIMCHECK
 70
     0
  9
$PEXTMIN
 10
1.000000000000E+20
 20
1.000000000000E+20
 30
1.000000000000E+20
  9
$PEXTMAX
 10
-1.000000000000E+20
 20
-1.000000000000E+20
 30
-1.000000000000E+20
  9
$PLIMMIN
 10
0.0
 20
0.0
  9
$PLIMMAX
 10
420.0
 20
297.0
  9
$UNITMODE
 70
     0
  9
$VISRETAIN
 70
     1
  9
$PLINEGEN
 70
     0
  9
$PSLTSCALE
 70
     1
  9
$TREEDEPTH
 70
  3020
  9
$CMLSTYLE
  2
Standard
  9
$CMLJUST
 70
     0
  9
$CMLSCALE
 40
20.0
  9
$PROXYGRAPHICS
 70
     1
  9
$MEASUREMENT
 70
     1
  9
$CELWEIGHT
370
    -1
  9
$ENDCAPS
280
     0
  9
$JOINSTYLE
280
     0
  9
$LWDISPLAY
290
     0
  9
$INSUNITS
 70
     4
  9
$HYPERLINKBASE
  1

  9
$STYLESHEET
  1

  9
$XEDIT
290
     1
  9
$CEPSNTYPE
380
     0
  9
$PSTYLEMODE
290
     1
  9
$FINGERPRINTGUID
  2
{EE3FB73F-2A6E-417B-817A-25D42F9A7EEF}
  9
$VERSIONGUID
  2
{FAEB1C32-E019-11D5-929B-00C0DF256EC4}
  9
$EXTNAMES
290
     1
  9
$PSVPSCALE
 40
0.0
  9
$OLESTARTUP
290
     0
  9
$SORTENTS
280
   127
  9
$INDEXCTL
280
     0
  9
$HIDETEXT
280
     1
  9
$XCLIPFRAME
280
     2
  9
$HALOGAP
280
     0
  9
$OBSCOLOR
 70
   257
  9
$OBSLTYPE
280
     0
  9
$INTERSECTIONDISPLAY
280
     0
  9
$INTERSECTIONCOLOR
 70
   257
  9
$DIMASSOC
280
     2
  9
$PROJECTNAME
  1

  9
$CAMERADISPLAY
290
     0
  9
$LENSLENGTH
 40
50.0
  9
$CAMERAHEIGHT
 40
0.0
  9
$STEPSPERSEC
 40
2.0
  9
$STEPSIZE
 40
6.0
  9
$3DDWFPREC
 40
2.0
  9
$PSOLWIDTH
 40
5.0
  9
$PSOLHEIGHT
 40
80.0
  9
$LOFTANG1
 40
1.570796326795
  9
$LOFTANG2
 40
1.570796326795
  9
$LOFTMAG1
 40
0.0
  9
$LOFTMAG2
 40
0.0
  9
$LOFTPARAM
 70
     7
  9
$LOFTNORMALS
280
     1
  9
$LATITUDE
 40
37.795
  9
$LONGITUDE
 40
-122.394
  9
$NORTHDIRECTION
 40
0.0
  9
$TIMEZONE
 70
 -8000
  9
$LIGHTGLYPHDISPLAY
280
     1
  9
$TILEMODELIGHTSYNCH
280
     1
  9
$CMATERIAL
347
44
  9
$SOLIDHIST
280
     1
  9
$SHOWHIST
280
     1
  9
$DWFFRAME
280
     2
  9
$DGNFRAME
280
     2
  9
$REALWORLDSCALE
290
     1
  9
$INTERFERECOLOR
 62
   256
  9
$CSHADOW
280
     0
  9
$SHADOWPLANELOCATION
 40
0.0
  0
ENDSEC
  0
SECTION
  2
CLASSES
  0
CLASS
  1
ACDBDICTIONARYWDFLT
  2
AcDbDictionaryWithDefault
  3
ObjectDBX Classes
 90
        0
 91
        4
280
     0
281
     0
  0
CLASS
  1
VISUALSTYLE
  2
AcDbVisualStyle
  3
ObjectDBX Classes
 90
     4095
 91
        4
280
     0
281
     0
  0
CLASS
  1
MATERIAL
  2
AcDbMaterial
  3
ObjectDBX Classes
 90
     1153
 91
        4
280
     0
281
     0
  0
CLASS
  1
SCALE
  2
AcDbScale
  3
ObjectDBX Classes
 90
     1153
 91
        4
280
     0
281
     0
  0
CLASS
  1
SUN
  2
AcDbSun
  3
SCENEOE
 90
     1153
 91
        4
280
     0
281
     0
  0
CLASS
  1
WIPEOUTVARIABLES
  2
AcDbWipeoutVariables
  3
WipeOut|AutoCAD Express Tool|expresstools@autodesk.com
 90
        0
 91
        4
280
     0
281
     0
  0
CLASS
  1
DICTIONARYVAR
  2
AcDbDictionaryVar
  3
ObjectDBX Classes
 90
        0
 91
        4
280
     0
281
     0
  0
ENDSEC
  0
SECTION
  2
TABLES
  0
TABLE
  2
VPORT
  5
8
330
0
100
AcDbSymbolTable
 70
     1
  0
VPORT
  5
29
330
8
100
AcDbSymbolTableRecord
100
AcDbViewportTableRecord
  2
*Active
 70
     0
 10
0.0
 20
0.0
 11
1.0
 21
1.0
 12
174.908776995687
 22
79.136682891397
 13
0.0
 23
0.0
 14
10.0
 24
10.0
 15
10.0
 25
10.0
 16
0.0
 26
0.0
 36
1.0
 17
0.0
 27
0.0
 37
0.0
 40
217.8
 41
2.505232318899
 42
50.0
 43
0.0
 44
0.0
 50
0.0
 51
0.0
 71
     0
 72
   100
 73
     1
 74
     3
 75
     0
 76
     0
 77
     0
 78
     0
281
     0
 65
     1
110
0.0
120
0.0
130
0.0
111
1.0
121
0.0
131
0.0
112
0.0
122
1.0
132
0.0
 79
     0
146
0.0
 60
     3
 61
     5
292
     1
282
     1
141
0.0
142
0.0
 63
   250
361
69
  0
ENDTAB
  0
TABLE
  2
LTYPE
  5
5
330
0
100
AcDbSymbolTable
 70
     3
  0
LTYPE
  5
14
330
5
100
AcDbSymbolTableRecord
100
AcDbLinetypeTableRecord
  2
ByBlock
 70
     0
  3

 72
    65
 73
     0
 40
0.0
  0
LTYPE
  5
15
330
5
100
AcDbSymbolTableRecord
100
AcDbLinetypeTableRecord
  2
ByLayer
 70
     0
  3

 72
    65
 73
     0
 40
0.0
  0
LTYPE
  5
16
330
5
100
AcDbSymbolTableRecord
100
AcDbLinetypeTableRecord
  2
Continuous
 70
     0
  3
Solid line
 72
    65
 73
     0
 40
0.0
  0
LTYPE
  5
6B
330
5
100
AcDbSymbolTableRecord
100
AcDbLinetypeTableRecord
  2
AUSGEZOGEN
 70
     0
  3

 72
    65
 73
     0
 40
0.0
  0
LTYPE
  5
6D
330
5
100
AcDbSymbolTableRecord
100
AcDbLinetypeTableRecord
  2
DASHDOT
 70
     0
  3

 72
    65
 73
     4
 40
1.0
 49
0.5
 74
     0
 49
-0.25
 74
     0
 49
0.0
 74
     0
 49
-0.25
 74
     0
  0
ENDTAB
  0
TABLE
  2
LAYER
  5
2
330
0
100
AcDbSymbolTable
 70
     8
  0
LAYER
  5
10
330
2
100
AcDbSymbolTableRecord
100
AcDbLayerTableRecord
  2
0
 70
     0
 62
     7
  6
Continuous
370
    -3
390
F
347
46
  0
LAYER
  5
6F
330
2
100
AcDbSymbolTableRecord
100
AcDbLayerTableRecord
  2
Vorlageblatt
 70
     0
 62
     7
  6
Continuous
370
    -3
390
F
347
46
  0
LAYER
  5
70
330
2
100
AcDbSymbolTableRecord
100
AcDbLayerTableRecord
  2
Layer1
 70
     0
 62
     7
  6
Continuous
370
    -3
390
F
347
46
  0
LAYER
  5
71
330
2
100
AcDbSymbolTableRecord
100
AcDbLayerTableRecord
  2
Layer5
 70
     0
 62
     7
  6
Continuous
370
    -3
390
F
347
46
  0
LAYER
  5
72
330
2
100
AcDbSymbolTableRecord
100
AcDbLayerTableRecord
  2
Layer8
 70
     0
 62
     7
  6
Continuous
370
    -3
390
F
347
46
  0
LAYER
  5
73
330
2
100
AcDbSymbolTableRecord
100
AcDbLayerTableRecord
  2
Layer9
 70
     0
 62
     7
  6
Continuous
370
    -3
390
F
347
46
  0
LAYER
  5
74
330
2
100
AcDbSymbolTableRecord
100
AcDbLayerTableRecord
  2
Möbelbau - Grundriss_ Möbelschnitt
 70
     0
 62
     7
  6
Continuous
370
    -3
390
F
347
46
  0
LAYER
  5
75
330
2
100
AcDbSymbolTableRecord
100
AcDbLayerTableRecord
  2
Bemaßungen
 70
     0
 62
     7
  6
Continuous
370
    -3
390
F
347
46
  0
ENDTAB
  0
TABLE
  2
STYLE
  5
3
330
0
100
AcDbSymbolTable
 70
     3
  0
STYLE
  5
11
330
3
100
AcDbSymbolTableRecord
100
AcDbTextStyleTableRecord
  2
Standard
 70
     0
 40
0.0
 41
1.0
 50
0.0
 71
     0
 42
2.5
  3
txt
  4

  0
STYLE
  5
6C
330
3
100
AcDbSymbolTableRecord
100
AcDbTextStyleTableRecord
  2
Arial
 70
     0
 40
0.0
 41
1.0
 50
0.0
 71
     0
 42
2.5
  3
arial.ttf
  4

1001
ACAD
1000
Arial
1071
        0
  0
STYLE
  5
6E
330
3
100
AcDbSymbolTableRecord
100
AcDbTextStyleTableRecord
  2
Toleranzfont
 70
     0
 40
0.0
 41
1.0
 50
0.0
 71
     0
 42
2.5
  3
IGES1003.SHX
  4

  0
ENDTAB
  0
TABLE
  2
VIEW
  5
6
330
0
100
AcDbSymbolTable
 70
     0
  0
ENDTAB
  0
TABLE
  2
UCS
  5
7
330
0
100
AcDbSymbolTable
 70
     0
  0
ENDTAB
  0
TABLE
  2
APPID
  5
9
330
0
100
AcDbSymbolTable
 70
     1
  0
APPID
  5
12
330
9
100
AcDbSymbolTableRecord
100
AcDbRegAppTableRecord
  2
ACAD
 70
     0
  0
ENDTAB
  0
TABLE
  2
DIMSTYLE
  5
A
330
0
100
AcDbSymbolTable
 70
     1
100
AcDbDimStyleTable
  0
DIMSTYLE
105
27
102
{ACAD_REACTORS
330
1FA
330
205
330
20F
330
227
330
231
330
23B
102
}
330
A
100
AcDbSymbolTableRecord
100
AcDbDimStyleTableRecord
  2
ISO-25
 70
     0
 41
2.5
 42
0.625
 43
3.75
 44
1.25
 73
     0
 74
     0
 77
     1
 78
     8
140
2.5
141
2.5
143
0.03937007874
147
0.625
171
     3
172
     1
178
     0
271
     2
272
     2
274
     3
278
    44
283
     0
284
     8
340
11
  0
ENDTAB
  0
TABLE
  2
BLOCK_RECORD
  5
1
330
0
100
AcDbSymbolTable
 70
    12
  0
BLOCK_RECORD
  5
1F
330
1
100
AcDbSymbolTableRecord
100
AcDbBlockTableRecord
  2
*Model_Space
340
22
 70
     0
280
     1
281
     0
  0
BLOCK_RECORD
  5
1B
330
1
100
AcDbSymbolTableRecord
100
AcDbBlockTableRecord
  2
*Paper_Space
340
1E
 70
     0
280
     1
281
     0
  0
BLOCK_RECORD
  5
23
330
1
100
AcDbSymbolTableRecord
100
AcDbBlockTableRecord
  2
*Paper_Space0
340
26
 70
     0
280
     1
281
     0
  0
BLOCK_RECORD
  5
76
330
1
100
AcDbSymbolTableRecord
100
AcDbBlockTableRecord
  2
Draufsicht_nNn00
340
0
102
{BLKREFS
331
9C
102
}
 70
     0
280
     1
281
     0
  0
BLOCK_RECORD
  5
79
330
1
100
AcDbSymbolTableRecord
100
AcDbBlockTableRecord
  2
A-A_nNn01
340
0
102
{BLKREFS
331
88
102
}
 70
     0
280
     1
281
     0
  0
BLOCK_RECORD
  5
9D
330
1
100
AcDbSymbolTableRecord
100
AcDbBlockTableRecord
  2
Draufsicht-A-A_nNn02
340
0
102
{BLKREFS
331
1EF
102
}
 70
     0
280
     1
281
     0
  0
BLOCK_RECORD
  5
A0
330
1
100
AcDbSymbolTableRecord
100
AcDbBlockTableRecord
  2
*X4
340
0
102
{BLKREFS
331
1DF
102
}
 70
     0
280
     1
281
     0
  0
BLOCK_RECORD
  5
1F1
330
1
100
AcDbSymbolTableRecord
100
AcDbBlockTableRecord
  2
*D5
340
0
 70
     0
280
     1
281
     0
  0
BLOCK_RECORD
  5
1FB
330
1
100
AcDbSymbolTableRecord
100
AcDbBlockTableRecord
  2
*D6
340
0
 70
     0
280
     1
281
     0
  0
BLOCK_RECORD
  5
206
330
1
100
AcDbSymbolTableRecord
100
AcDbBlockTableRecord
  2
*D7
340
0
 70
     0
280
     1
281
     0
  0
BLOCK_RECORD
  5
212
330
1
100
AcDbSymbolTableRecord
100
AcDbBlockTableRecord
  2
DIN A4 quer_nNn07
340
0
102
{BLKREFS
331
21D
102
}
 70
     0
280
     1
281
     0
  0
BLOCK_RECORD
  5
21E
330
1
100
AcDbSymbolTableRecord
100
AcDbBlockTableRecord
  2
*D9
340
0
 70
     0
280
     1
281
     0
  0
BLOCK_RECORD
  5
228
330
1
100
AcDbSymbolTableRecord
100
AcDbBlockTableRecord
  2
*D10
340
0
 70
     0
280
     1
281
     0
  0
BLOCK_RECORD
  5
232
330
1
100
AcDbSymbolTableRecord
100
AcDbBlockTableRecord
  2
*D11
340
0
 70
     0
280
     1
281
     0
  0
ENDTAB
  0
ENDSEC
  0
SECTION
  2
BLOCKS
  0
BLOCK
  5
20
330
1F
100
AcDbEntity
  8
0
100
AcDbBlockBegin
  2
*Model_Space
 70
     0
 10
0.0
 20
0.0
 30
0.0
  3
*Model_Space
  1
*Model_Space
  0
ENDBLK
  5
21
330
1F
100
AcDbEntity
  8
0
100
AcDbBlockEnd
  0
BLOCK
  5
1C
330
1B
100
AcDbEntity
 67
     1
  8
0
100
AcDbBlockBegin
  2
*Paper_Space
 70
     0
 10
0.0
 20
0.0
 30
0.0
  3
*Paper_Space
  1
*Paper_Space
  0
ENDBLK
  5
1D
330
1B
100
AcDbEntity
 67
     1
  8
0
100
AcDbBlockEnd
  0
BLOCK
  5
24
330
23
100
AcDbEntity
  8
0
100
AcDbBlockBegin
  2
*Paper_Space0
 70
     0
 10
0.0
 20
0.0
 30
0.0
  3
*Paper_Space0
  1
*Paper_Space0
  0
ENDBLK
  5
25
330
23
100
AcDbEntity
  8
0
100
AcDbBlockEnd
  0
BLOCK
  5
77
330
76
100
AcDbEntity
  8
0
100
AcDbBlockBegin
  2
Draufsicht_nNn00
 70
     0
 10
0.0
 20
0.0
 30
0.0
  3
Draufsicht_nNn00
  1
Draufsicht_nNn00
  0
INSERT
  5
88
330
76
100
AcDbEntity
  8
0
100
AcDbBlockReference
  2
A-A_nNn01
 10
0.0
 20
0.0
 30
0.0
  0
LINE
  5
89
330
76
100
AcDbEntity
  8
Layer9
  6
AUSGEZOGEN
 62
    18
420
        0
370
    18
100
AcDbLine
 10
200.886293488903
 20
103.09271719409
 30
0.0
 11
200.886293488903
 21
123.09271719409
 31
0.0
  0
LINE
  5
8A
330
76
100
AcDbEntity
  8
Layer9
  6
AUSGEZOGEN
 62
    18
420
        0
370
    18
100
AcDbLine
 10
200.886293488903
 20
123.09271719409
 30
0.0
 11
140.886293488903
 21
123.09271719409
 31
0.0
  0
LINE
  5
8B
330
76
100
AcDbEntity
  8
Layer9
  6
AUSGEZOGEN
 62
    18
420
        0
370
    18
100
AcDbLine
 10
140.886293488903
 20
123.09271719409
 30
0.0
 11
140.886293488903
 21
103.09271719409
 31
0.0
  0
LINE
  5
8C
330
76
100
AcDbEntity
  8
Layer9
  6
AUSGEZOGEN
 62
    18
420
        0
370
    18
100
AcDbLine
 10
140.886293488903
 20
103.09271719409
 30
0.0
 11
200.886293488903
 21
103.09271719409
 31
0.0
  0
CIRCLE
  5
8D
330
76
100
AcDbEntity
  8
Layer9
  6
AUSGEZOGEN
 62
    18
420
        0
370
    18
100
AcDbCircle
 10
170.886293488903
 20
113.09271719409
 30
0.0
 40
4.4
  0
CIRCLE
  5
8E
330
76
100
AcDbEntity
  8
Layer9
  6
AUSGEZOGEN
 62
    18
420
        0
370
    18
100
AcDbCircle
 10
170.886293488903
 20
113.09271719409
 30
0.0
 40
3.4
  0
ARC
  5
8F
330
76
100
AcDbEntity
  8
Vorlageblatt
  6
AUSGEZOGEN
 62
     2
420
 16776960
370
    18
100
AcDbCircle
 10
170.886293488903
 20
113.09271719409
 30
0.0
 40
4.0
100
AcDbArc
 50
264.270422048692
 51
174.270422048692
  0
LINE
  5
90
330
76
100
AcDbEntity
  8
Vorlageblatt
  6
AUSGEZOGEN
 62
     2
420
 16776960
370
    18
100
AcDbLine
 10
170.886293488903
 20
113.09271719409
 30
0.0
 11
171.986293488903
 21
113.09271719409
 31
0.0
  0
LINE
  5
91
330
76
100
AcDbEntity
  8
Vorlageblatt
  6
AUSGEZOGEN
 62
     2
420
 16776960
370
    18
100
AcDbLine
 10
172.426293488903
 20
113.09271719409
 30
0.0
 11
172.866293488903
 21
113.09271719409
 31
0.0
  0
LINE
  5
92
330
76
100
AcDbEntity
  8
Vorlageblatt
  6
AUSGEZOGEN
 62
     2
420
 16776960
370
    18
100
AcDbLine
 10
173.306293488903
 20
113.09271719409
 30
0.0
 11
175.946293488903
 21
113.09271719409
 31
0.0
  0
LINE
  5
93
330
76
100
AcDbEntity
  8
Vorlageblatt
  6
AUSGEZOGEN
 62
     2
420
 16776960
370
    18
100
AcDbLine
 10
170.886293488903
 20
113.09271719409
 30
0.0
 11
170.886293488903
 21
114.19271719409
 31
0.0
  0
LINE
  5
94
330
76
100
AcDbEntity
  8
Vorlageblatt
  6
AUSGEZOGEN
 62
     2
420
 16776960
370
    18
100
AcDbLine
 10
170.886293488903
 20
114.63271719409
 30
0.0
 11
170.886293488903
 21
115.07271719409
 31
0.0
  0
LINE
  5
95
330
76
100
AcDbEntity
  8
Vorlageblatt
  6
AUSGEZOGEN
 62
     2
420
 16776960
370
    18
100
AcDbLine
 10
170.886293488903
 20
115.51271719409
 30
0.0
 11
170.886293488903
 21
118.15271719409
 31
0.0
  0
LINE
  5
96
330
76
100
AcDbEntity
  8
Vorlageblatt
  6
AUSGEZOGEN
 62
     2
420
 16776960
370
    18
100
AcDbLine
 10
170.886293488903
 20
113.09271719409
 30
0.0
 11
169.786293488903
 21
113.09271719409
 31
0.0
  0
LINE
  5
97
330
76
100
AcDbEntity
  8
Vorlageblatt
  6
AUSGEZOGEN
 62
     2
420
 16776960
370
    18
100
AcDbLine
 10
169.346293488903
 20
113.09271719409
 30
0.0
 11
168.906293488903
 21
113.09271719409
 31
0.0
  0
LINE
  5
98
330
76
100
AcDbEntity
  8
Vorlageblatt
  6
AUSGEZOGEN
 62
     2
420
 16776960
370
    18
100
AcDbLine
 10
168.466293488903
 20
113.09271719409
 30
0.0
 11
165.826293488903
 21
113.09271719409
 31
0.0
  0
LINE
  5
99
330
76
100
AcDbEntity
  8
Vorlageblatt
  6
AUSGEZOGEN
 62
     2
420
 16776960
370
    18
100
AcDbLine
 10
170.886293488903
 20
113.09271719409
 30
0.0
 11
170.886293488903
 21
111.99271719409
 31
0.0
  0
LINE
  5
9A
330
76
100
AcDbEntity
  8
Vorlageblatt
  6
AUSGEZOGEN
 62
     2
420
 16776960
370
    18
100
AcDbLine
 10
170.886293488903
 20
111.55271719409
 30
0.0
 11
170.886293488903
 21
111.11271719409
 31
0.0
  0
LINE
  5
9B
330
76
100
AcDbEntity
  8
Vorlageblatt
  6
AUSGEZOGEN
 62
     2
420
 16776960
370
    18
100
AcDbLine
 10
170.886293488903
 20
110.67271719409
 30
0.0
 11
170.886293488903
 21
108.03271719409
 31
0.0
  0
ENDBLK
  5
78
330
76
100
AcDbEntity
  8
0
100
AcDbBlockEnd
  0
BLOCK
  5
7A
330
79
100
AcDbEntity
  8
0
100
AcDbBlockBegin
  2
A-A_nNn01
 70
     0
 10
0.0
 20
0.0
 30
0.0
  3
A-A_nNn01
  1
A-A_nNn01
  0
HATCH
  5
7C
330
79
100
AcDbEntity
  8
Layer8
  6
AUSGEZOGEN
 62
    56
420
  8421376
370
    18
100
AcDbHatch
 10
0.0
 20
0.0
 30
0.0
210
0.0
220
0.0
230
1.0
  2
SOLID
 70
     1
 71
     0
 91
        1
 92
        2
 72
     0
 73
     1
 93
        4
 10
139.4862934889034
 20
113.59271719409
 10
139.6112934889034
 20
113.59271719409
 10
139.4862934889034
 20
113.09271719409
 10
139.3612934889034
 20
113.59271719409
 97
        0
 75
     0
 76
     1
 98
        0
  0
LWPOLYLINE
  5
7D
330
79
100
AcDbEntity
  8
Layer8
  6
AUSGEZOGEN
 62
    56
420
  8421376
370
    18
100
AcDbPolyline
 90
        2
 70
     0
 43
0.0
 10
139.486293488903
 20
113.59271719409
 10
139.486293488903
 20
116.09271719409
  0
TEXT
  5
7E
330
79
100
AcDbEntity
  8
Layer5
  6
AUSGEZOGEN
 62
   136
420
    32896
370
    18
100
AcDbText
 10
135.950583585315
 20
111.89271719409
 30
0.0
 40
2.4
  1
A
 41
0.751879699248
  7
Arial
 72
     5
 11
137.630583585315
 21
111.89271719409
 31
0.0
100
AcDbText
  0
HATCH
  5
7F
330
79
100
AcDbEntity
  8
Layer8
  6
AUSGEZOGEN
 62
    56
420
  8421376
370
    18
100
AcDbHatch
 10
0.0
 20
0.0
 30
0.0
210
0.0
220
0.0
230
1.0
  2
SOLID
 70
     1
 71
     0
 91
        1
 92
        2
 72
     0
 73
     1
 93
        4
 10
202.2862934889034
 20
113.59271719409
 10
202.4112934889034
 20
113.59271719409
 10
202.2862934889034
 20
113.09271719409
 10
202.1612934889034
 20
113.59271719409
 97
        0
 75
     0
 76
     1
 98
        0
  0
LWPOLYLINE
  5
80
330
79
100
AcDbEntity
  8
Layer8
  6
AUSGEZOGEN
 62
    56
420
  8421376
370
    18
100
AcDbPolyline
 90
        2
 70
     0
 43
0.0
 10
202.286293488903
 20
113.59271719409
 10
202.286293488903
 20
116.09271719409
  0
TEXT
  5
81
330
79
100
AcDbEntity
  8
Layer5
  6
AUSGEZOGEN
 62
   136
420
    32896
370
    18
100
AcDbText
 10
204.142003392492
 20
111.89271719409
 30
0.0
 40
2.4
  1
A
 41
0.751879699248
  7
Arial
 72
     5
 11
205.822003392492
 21
111.89271719409
 31
0.0
100
AcDbText
  0
LWPOLYLINE
  5
82
330
79
100
AcDbEntity
  8
Layer8
  6
AUSGEZOGEN
 62
    56
420
  8421376
370
    18
100
AcDbPolyline
 90
        2
 70
     0
 43
0.0
 10
138.886293488903
 20
113.09271719409
 10
140.086293488903
 20
113.09271719409
  0
LWPOLYLINE
  5
83
330
79
100
AcDbEntity
  8
Layer8
  6
AUSGEZOGEN
 62
    56
420
  8421376
370
    18
100
AcDbPolyline
 90
        2
 70
     0
 43
0.0
 10
140.186293488903
 20
113.09271719409
 10
140.286293488903
 20
113.09271719409
  0
LWPOLYLINE
  5
84
330
79
100
AcDbEntity
  8
Layer8
  6
AUSGEZOGEN
 62
    56
420
  8421376
370
    18
100
AcDbPolyline
 90
        2
 70
     0
 43
0.0
 10
140.386293488903
 20
113.09271719409
 10
141.386293488903
 20
113.09271719409
  0
LWPOLYLINE
  5
85
330
79
100
AcDbEntity
  8
Layer8
  6
AUSGEZOGEN
 62
    56
420
  8421376
370
    18
100
AcDbPolyline
 90
        2
 70
     0
 43
0.0
 10
200.386293488903
 20
113.09271719409
 10
201.386293488903
 20
113.09271719409
  0
LWPOLYLINE
  5
86
330
79
100
AcDbEntity
  8
Layer8
  6
AUSGEZOGEN
 62
    56
420
  8421376
370
    18
100
AcDbPolyline
 90
        2
 70
     0
 43
0.0
 10
201.486293488903
 20
113.09271719409
 10
201.586293488903
 20
113.09271719409
  0
LWPOLYLINE
  5
87
330
79
100
AcDbEntity
  8
Layer8
  6
AUSGEZOGEN
 62
    56
420
  8421376
370
    18
100
AcDbPolyline
 90
        2
 70
     0
 43
0.0
 10
201.686293488903
 20
113.09271719409
 10
202.886293488903
 20
113.09271719409
  0
ENDBLK
  5
7B
330
79
100
AcDbEntity
  8
0
100
AcDbBlockEnd
  0
BLOCK
  5
9E
330
9D
100
AcDbEntity
  8
0
100
AcDbBlockBegin
  2
Draufsicht-A-A_nNn02
 70
     0
 10
0.0
 20
0.0
 30
0.0
  3
Draufsicht-A-A_nNn02
  1
Draufsicht-A-A_nNn02
  0
INSERT
  5
1DF
330
9D
100
AcDbEntity
  8
0
100
AcDbBlockReference
  2
*X4
 10
0.0
 20
0.0
 30
0.0
  0
LINE
  5
1E0
330
9D
100
AcDbEntity
  8
Layer9
  6
AUSGEZOGEN
 62
    18
420
        0
370
    18
100
AcDbLine
 10
166.486293488903
 20
61.305406399981
 30
0.0
 11
167.486293488903
 21
62.305406399981
 31
0.0
  0
LINE
  5
1E1
330
9D
100
AcDbEntity
  8
Layer9
  6
AUSGEZOGEN
 62
    18
420
        0
370
    18
100
AcDbLine
 10
167.486293488903
 20
62.305406399981
 30
0.0
 11
167.486293488903
 21
68.305406399981
 31
0.0
  0
LINE
  5
1E2
330
9D
100
AcDbEntity
  8
Layer9
  6
AUSGEZOGEN
 62
    18
420
        0
370
    18
100
AcDbLine
 10
167.486293488903
 20
68.305406399981
 30
0.0
 11
166.487293488903
 21
69.305406399981
 31
0.0
  0
LINE
  5
1E3
330
9D
100
AcDbEntity
  8
Layer9
  6
AUSGEZOGEN
 62
    18
420
        0
370
    18
100
AcDbLine
 10
140.886293488903
 20
69.305406399981
 30
0.0
 11
140.886293488903
 21
61.305406399981
 31
0.0
  0
LINE
  5
1E4
330
9D
100
AcDbEntity
  8
Layer9
  6
AUSGEZOGEN
 62
    18
420
        0
370
    18
100
AcDbLine
 10
200.886293488903
 20
61.305406399981
 30
0.0
 11
200.886293488903
 21
69.305406399981
 31
0.0
  0
LINE
  5
1E5
330
9D
100
AcDbEntity
  8
Layer9
  6
AUSGEZOGEN
 62
    18
420
        0
370
    18
100
AcDbLine
 10
175.285293488903
 20
69.305406399981
 30
0.0
 11
174.286293488903
 21
68.305406399981
 31
0.0
  0
LINE
  5
1E6
330
9D
100
AcDbEntity
  8
Layer9
  6
AUSGEZOGEN
 62
    18
420
        0
370
    18
100
AcDbLine
 10
174.286293488903
 20
68.305406399981
 30
0.0
 11
174.286293488903
 21
62.305406399981
 31
0.0
  0
LINE
  5
1E7
330
9D
100
AcDbEntity
  8
Layer9
  6
AUSGEZOGEN
 62
    18
420
        0
370
    18
100
AcDbLine
 10
174.286293488903
 20
62.305406399981
 30
0.0
 11
175.286293488903
 21
61.305406399981
 31
0.0
  0
LINE
  5
1E8
330
9D
100
AcDbEntity
  8
Layer9
  6
AUSGEZOGEN
 62
    18
420
        0
370
    18
100
AcDbLine
 10
167.486293488903
 20
62.305406399981
 30
0.0
 11
174.286293488903
 21
62.305406399981
 31
0.0
  0
LINE
  5
1E9
330
9D
100
AcDbEntity
  8
Layer9
  6
AUSGEZOGEN
 62
    18
420
        0
370
    18
100
AcDbLine
 10
200.886293488903
 20
61.305406399981
 30
0.0
 11
140.886293488903
 21
61.305406399981
 31
0.0
  0
LINE
  5
1EA
330
9D
100
AcDbEntity
  8
Layer9
  6
AUSGEZOGEN
 62
    18
420
        0
370
    18
100
AcDbLine
 10
167.486293488903
 20
68.305406399981
 30
0.0
 11
174.286293488903
 21
68.305406399981
 31
0.0
  0
LINE
  5
1EB
330
9D
100
AcDbEntity
  8
Layer9
  6
AUSGEZOGEN
 62
    18
420
        0
370
    18
100
AcDbLine
 10
200.886293488903
 20
69.305406399981
 30
0.0
 11
140.886293488903
 21
69.305406399981
 31
0.0
  0
LINE
  5
1EC
330
9D
100
AcDbEntity
  8
Vorlageblatt
  6
DASHDOT
 62
     2
420
 16776960
370
    18
100
AcDbLine
 10
170.886293488903
 20
60.305406399981
 30
0.0
 11
170.886293488903
 21
70.305406399981
 31
0.0
  0
LINE
  5
1ED
330
9D
100
AcDbEntity
  8
Vorlageblatt
  6
AUSGEZOGEN
 62
     2
420
 16776960
370
    18
100
AcDbLine
 10
166.886293488903
 20
61.705406399981
 30
0.0
 11
166.886293488903
 21
68.905406399981
 31
0.0
  0
LINE
  5
1EE
330
9D
100
AcDbEntity
  8
Vorlageblatt
  6
AUSGEZOGEN
 62
     2
420
 16776960
370
    18
100
AcDbLine
 10
174.886293488903
 20
61.705406399981
 30
0.0
 11
174.886293488903
 21
68.905406399981
 31
0.0
  0
ENDBLK
  5
9F
330
9D
100
AcDbEntity
  8
0
100
AcDbBlockEnd
  0
BLOCK
  5
A1
330
A0
100
AcDbEntity
  8
0
100
AcDbBlockBegin
  2
*X4
 70
     1
 10
0.0
 20
0.0
 30
0.0
  3
*X4
  1
*X4
  0
LINE
  5
A3
330
A0
100
AcDbEntity
  8
Layer9
  6
AUSGEZOGEN
 62
     9
420
 12632256
370
    18
100
AcDbLine
 10
200.67615297185
 20
61.305406399981
 30
0.0
 11
200.886293488903
 21
61.515546917035
 31
0.0
  0
LINE
  5
A4
330
A0
100
AcDbEntity
  8
Layer9
  6
AUSGEZOGEN
 62
     9
420
 12632256
370
    18
100
AcDbLine
 10
200.464020937494
 20
61.305406399981
 30
0.0
 11
200.886293488903
 21
61.727678951391
 31
0.0
  0
LINE
  5
A5
330
A0
100
AcDbEntity
  8
Layer9
  6
AUSGEZOGEN
 62
     9
420
 12632256
370
    18
100
AcDbLine
 10
200.251888903138
 20
61.305406399981
 30
0.0
 11
200.886293488903
 21
61.939810985747
 31
0.0
  0
LINE
  5
A6
330
A0
100
AcDbEntity
  8
Layer9
  6
AUSGEZOGEN
 62
     9
420
 12632256
370
    18
100
AcDbLine
 10
200.039756868782
 20
61.305406399981
 30
0.0
 11
200.886293488903
 21
62.151943020103
 31
0.0
  0
LINE
  5
A7
330
A0
100
AcDbEntity
  8
Layer9
  6
AUSGEZOGEN
 62
     9
420
 12632256
370
    18
100
AcDbLine
 10
199.827624834426
 20
61.305406399981
 30
0.0
 11
200.886293488903
 21
62.364075054459
 31
0.0
  0
LINE
  5
A8
330
A0
100
AcDbEntity
  8
Layer9
  6
AUSGEZOGEN
 62
     9
420
 12632256
370
    18
100
AcDbLine
 10
199.61549280007
 20
61.305406399981
 30
0.0
 11
200.886293488903
 21
62.576207088815
 31
0.0
  0
LINE
  5
A9
330
A0
100
AcDbEntity
  8
Layer9
  6
AUSGEZOGEN
 62
     9
420
 12632256
370
    18
100
AcDbLine
 10
199.403360765714
 20
61.305406399981
 30
0.0
 11
200.886293488903
 21
62.788339123171
 31
0.0
  0
LINE
  5
AA
330
A0
100
AcDbEntity
  8
Layer9
  6
AUSGEZOGEN
 62
     9
420
 12632256
370
    18
100
AcDbLine
 10
199.191228731358
 20
61.305406399981
 30
0.0
 11
200.886293488903
 21
63.000471157527
 31
0.0
  0
LINE
  5
AB
330
A0
100
AcDbEntity
  8
Layer9
  6
AUSGEZOGEN
 62
     9
420
 12632256
370
    18
100
AcDbLine
 10
198.979096697002
 20
61.305406399981
 30
0.0
 11
200.886293488903
 21
63.212603191883
 31
0.0
  0
LINE
  5
AC
330
A0
100
AcDbEntity
  8
Layer9
  6
AUSGEZOGEN
 62
     9
420
 12632256
370
    18
100
AcDbLine
 10
198.766964662646
 20
61.305406399981
 30
0.0
 11
200.886293488903
 21
63.424735226239
 31
0.0
  0
LINE
  5
AD
330
A0
100
AcDbEntity
  8
Layer9
  6
AUSGEZOGEN
 62
     9
420
 12632256
370
    18
100
AcDbLine
 10
198.55483262829
 20
61.305406399981
 30
0.0
 11
200.886293488903
 21
63.636867260594
 31
0.0
  0
LINE
  5
AE
330
A0
100
AcDbEntity
  8
Layer9
  6
AUSGEZOGEN
 62
     9
420
 12632256
370
    18
100
AcDbLine
 10
198.342700593934
 20
61.305406399981
 30
0.0
 11
200.886293488903
 21
63.84899929495
 31
0.0
  0
LINE
  5
AF
330
A0
100
AcDbEntity
  8
Layer9
  6
AUSGEZOGEN
 62
     9
420
 12632256
370
    18
100
AcDbLine
 10
198.130568559578
 20
61.305406399981
 30
0.0
 11
200.886293488903
 21
64.061131329306
 31
0.0
  0
LINE
  5
B0
330
A0
100
AcDbEntity
  8
Layer9
  6
AUSGEZOGEN
 62
     9
420
 12632256
370
    18
100
AcDbLine
 10
197.918436525222
 20
61.305406399981
 30
0.0
 11
200.886293488903
 21
64.273263363662
 31
0.0
  0
LINE
  5
B1
330
A0
100
AcDbEntity
  8
Layer9
  6
AUSGEZOGEN
 62
     9
420
 12632256
370
    18
100
AcDbLine
 10
197.706304490866
 20
61.305406399981
 30
0.0
 11
200.886293488903
 21
64.485395398018
 31
0.0
  0
LINE
  5
B2
330
A0
100
AcDbEntity
  8
Layer9
  6
AUSGEZOGEN
 62
     9
420
 12632256
370
    18
100
AcDbLine
 10
197.49417245651
 20
61.305406399981
 30
0.0
 11
200.886293488903
 21
64.697527432374
 31
0.0
  0
LINE
  5
B3
330
A0
100
AcDbEntity
  8
Layer9
  6
AUSGEZOGEN
 62
     9
420
 12632256
370
    18
100
AcDbLine
 10
197.282040422154
 20
61.305406399981
 30
0.0
 11
200.886293488903
 21
64.90965946673
 31
0.0
  0
LINE
  5
B4
330
A0
100
AcDbEntity
  8
Layer9
  6
AUSGEZOGEN
 62
     9
420
 12632256
370
    18
100
AcDbLine
 10
197.069908387799
 20
61.305406399981
 30
0.0
 11
200.886293488903
 21
65.121791501086
 31
0.0
  0
LINE
  5
B5
330
A0
100
AcDbEntity
  8
Layer9
  6
AUSGEZOGEN
 62
     9
420
 12632256
370
    18
100
AcDbLine
 10
196.857776353443
 20
61.305406399981
 30
0.0
 11
200.886293488903
 21
65.333923535442
 31
0.0
  0
LINE
  5
B6
330
A0
100
AcDbEntity
  8
Layer9
  6
AUSGEZOGEN
 62
     9
420
 12632256
370
    18
100
AcDbLine
 10
196.645644319087
 20
61.305406399981
 30
0.0
 11
200.886293488903
 21
65.546055569798
 31
0.0
  0
LINE
  5
B7
330
A0
100
AcDbEntity
  8
Layer9
  6
AUSGEZOGEN
 62
     9
420
 12632256
370
    18
100
AcDbLine
 10
196.433512284731
 20
61.305406399981
 30
0.0
 11
200.886293488903
 21
65.758187604154
 31
0.0
  0
LINE
  5
B8
330
A0
100
AcDbEntity
  8
Layer9
  6
AUSGEZOGEN
 62
     9
420
 12632256
370
    18
100
AcDbLine
 10
196.221380250375
 20
61.305406399981
 30
0.0
 11
200.886293488903
 21
65.97031963851
 31
0.0
  0
LINE
  5
B9
330
A0
100
AcDbEntity
  8
Layer9
  6
AUSGEZOGEN
 62
     9
420
 12632256
370
    18
100
AcDbLine
 10
196.009248216019
 20
61.305406399981
 30
0.0
 11
200.886293488903
 21
66.182451672866
 31
0.0
  0
LINE
  5
BA
330
A0
100
AcDbEntity
  8
Layer9
  6
AUSGEZOGEN
 62
     9
420
 12632256
370
    18
100
AcDbLine
 10
195.797116181663
 20
61.305406399981
 30
0.0
 11
200.886293488903
 21
66.394583707222
 31
0.0
  0
LINE
  5
BB
330
A0
100
AcDbEntity
  8
Layer9
  6
AUSGEZOGEN
 62
     9
420
 12632256
370
    18
100
AcDbLine
 10
195.584984147307
 20
61.305406399981
 30
0.0
 11
200.886293488903
 21
66.606715741578
 31
0.0
  0
LINE
  5
BC
330
A0
100
AcDbEntity
  8
Layer9
  6
AUSGEZOGEN
 62
     9
420
 12632256
370
    18
100
AcDbLine
 10
195.372852112951
 20
61.305406399981
 30
0.0
 11
200.886293488903
 21
66.818847775934
 31
0.0
  0
LINE
  5
BD
330
A0
100
AcDbEntity
  8
Layer9
  6
AUSGEZOGEN
 62
     9
420
 12632256
370
    18
100
AcDbLine
 10
195.160720078595
 20
61.305406399981
 30
0.0
 11
200.886293488903
 21
67.03097981029
 31
0.0
  0
LINE
  5
BE
330
A0
100
AcDbEntity
  8
Layer9
  6
AUSGEZOGEN
 62
     9
420
 12632256
370
    18
100
AcDbLine
 10
194.948588044239
 20
61.305406399981
 30
0.0
 11
200.886293488903
 21
67.243111844646
 31
0.0
  0
LINE
  5
BF
330
A0
100
AcDbEntity
  8
Layer9
  6
AUSGEZOGEN
 62
     9
420
 12632256
370
    18
100
AcDbLine
 10
194.736456009883
 20
61.305406399981
 30
0.0
 11
200.886293488903
 21
67.455243879002
 31
0.0
  0
LINE
  5
C0
330
A0
100
AcDbEntity
  8
Layer9
  6
AUSGEZOGEN
 62
     9
420
 12632256
370
    18
100
AcDbLine
 10
194.524323975527
 20
61.305406399981
 30
0.0
 11
200.886293488903
 21
67.667375913358
 31
0.0
  0
LINE
  5
C1
330
A0
100
AcDbEntity
  8
Layer9
  6
AUSGEZOGEN
 62
     9
420
 12632256
370
    18
100
AcDbLine
 10
194.312191941171
 20
61.305406399981
 30
0.0
 11
200.886293488903
 21
67.879507947714
 31
0.0
  0
LINE
  5
C2
330
A0
100
AcDbEntity
  8
Layer9
  6
AUSGEZOGEN
 62
     9
420
 12632256
370
    18
100
AcDbLine
 10
194.100059906815
 20
61.305406399981
 30
0.0
 11
200.886293488903
 21
68.09163998207
 31
0.0
  0
LINE
  5
C3
330
A0
100
AcDbEntity
  8
Layer9
  6
AUSGEZOGEN
 62
     9
420
 12632256
370
    18
100
AcDbLine
 10
193.887927872459
 20
61.305406399981
 30
0.0
 11
200.886293488903
 21
68.303772016426
 31
0.0
  0
LINE
  5
C4
330
A0
100
AcDbEntity
  8
Layer9
  6
AUSGEZOGEN
 62
     9
420
 12632256
370
    18
100
AcDbLine
 10
193.675795838103
 20
61.305406399981
 30
0.0
 11
200.886293488903
 21
68.515904050782
 31
0.0
  0
LINE
  5
C5
330
A0
100
AcDbEntity
  8
Layer9
  6
AUSGEZOGEN
 62
     9
420
 12632256
370
    18
100
AcDbLine
 10
193.463663803747
 20
61.305406399981
 30
0.0
 11
200.886293488903
 21
68.728036085138
 31
0.0
  0
LINE
  5
C6
330
A0
100
AcDbEntity
  8
Layer9
  6
AUSGEZOGEN
 62
     9
420
 12632256
370
    18
100
AcDbLine
 10
193.251531769391
 20
61.305406399981
 30
0.0
 11
200.886293488903
 21
68.940168119494
 31
0.0
  0
LINE
  5
C7
330
A0
100
AcDbEntity
  8
Layer9
  6
AUSGEZOGEN
 62
     9
420
 12632256
370
    18
100
AcDbLine
 10
193.039399735035
 20
61.305406399981
 30
0.0
 11
200.886293488903
 21
69.15230015385
 31
0.0
  0
LINE
  5
C8
330
A0
100
AcDbEntity
  8
Layer9
  6
AUSGEZOGEN
 62
     9
420
 12632256
370
    18
100
AcDbLine
 10
192.827267700679
 20
61.305406399981
 30
0.0
 11
200.827267700679
 21
69.305406399981
 31
0.0
  0
LINE
  5
C9
330
A0
100
AcDbEntity
  8
Layer9
  6
AUSGEZOGEN
 62
     9
420
 12632256
370
    18
100
AcDbLine
 10
192.615135666323
 20
61.305406399981
 30
0.0
 11
200.615135666323
 21
69.305406399981
 31
0.0
  0
LINE
  5
CA
330
A0
100
AcDbEntity
  8
Layer9
  6
AUSGEZOGEN
 62
     9
420
 12632256
370
    18
100
AcDbLine
 10
192.403003631967
 20
61.305406399981
 30
0.0
 11
200.403003631967
 21
69.305406399981
 31
0.0
  0
LINE
  5
CB
330
A0
100
AcDbEntity
  8
Layer9
  6
AUSGEZOGEN
 62
     9
420
 12632256
370
    18
100
AcDbLine
 10
192.190871597611
 20
61.305406399981
 30
0.0
 11
200.190871597611
 21
69.305406399981
 31
0.0
  0
LINE
  5
CC
330
A0
100
AcDbEntity
  8
Layer9
  6
AUSGEZOGEN
 62
     9
420
 12632256
370
    18
100
AcDbLine
 10
191.978739563255
 20
61.305406399981
 30
0.0
 11
199.978739563255
 21
69.305406399981
 31
0.0
  0
LINE
  5
CD
330
A0
100
AcDbEntity
  8
Layer9
  6
AUSGEZOGEN
 62
     9
420
 12632256
370
    18
100
AcDbLine
 10
191.766607528899
 20
61.305406399981
 30
0.0
 11
199.766607528899
 21
69.305406399981
 31
0.0
  0
LINE
  5
CE
330
A0
100
AcDbEntity
  8
Layer9
  6
AUSGEZOGEN
 62
     9
420
 12632256
370
    18
100
AcDbLine
 10
191.554475494543
 20
61.305406399981
 30
0.0
 11
199.554475494543
 21
69.305406399981
 31
0.0
  0
LINE
  5
CF
330
A0
100
AcDbEntity
  8
Layer9
  6
AUSGEZOGEN
 62
     9
420
 12632256
370
    18
100
AcDbLine
 10
191.342343460188
 20
61.305406399981
 30
0.0
 11
199.342343460188
 21
69.305406399981
 31
0.0
  0
LINE
  5
D0
330
A0
100
AcDbEntity
  8
Layer9
  6
AUSGEZOGEN
 62
     9
420
 12632256
370
    18
100
AcDbLine
 10
191.130211425832
 20
61.305406399981
 30
0.0
 11
199.130211425832
 21
69.305406399981
 31
0.0
  0
LINE
  5
D1
330
A0
100
AcDbEntity
  8
Layer9
  6
AUSGEZOGEN
 62
     9
420
 12632256
370
    18
100
AcDbLine
 10
190.918079391476
 20
61.305406399981
 30
0.0
 11
198.918079391476
 21
69.305406399981
 31
0.0
  0
LINE
  5
D2
330
A0
100
AcDbEntity
  8
Layer9
  6
AUSGEZOGEN
 62
     9
420
 12632256
370
    18
100
AcDbLine
 10
190.70594735712
 20
61.305406399981
 30
0.0
 11
198.70594735712
 21
69.305406399981
 31
0.0
  0
LINE
  5
D3
330
A0
100
AcDbEntity
  8
Layer9
  6
AUSGEZOGEN
 62
     9
420
 12632256
370
    18
100
AcDbLine
 10
190.493815322764
 20
61.305406399981
 30
0.0
 11
198.493815322764
 21
69.305406399981
 31
0.0
  0
LINE
  5
D4
330
A0
100
AcDbEntity
  8
Layer9
  6
AUSGEZOGEN
 62
     9
420
 12632256
370
    18
100
AcDbLine
 10
190.281683288408
 20
61.305406399981
 30
0.0
 11
198.281683288408
 21
69.305406399981
 31
0.0
  0
LINE
  5
D5
330
A0
100
AcDbEntity
  8
Layer9
  6
AUSGEZOGEN
 62
     9
420
 12632256
370
    18
100
AcDbLine
 10
190.069551254052
 20
61.305406399981
 30
0.0
 11
198.069551254052
 21
69.305406399981
 31
0.0
  0
LINE
  5
D6
330
A0
100
AcDbEntity
  8
Layer9
  6
AUSGEZOGEN
 62
     9
420
 12632256
370
    18
100
AcDbLine
 10
189.857419219696
 20
61.305406399981
 30
0.0
 11
197.857419219696
 21
69.305406399981
 31
0.0
  0
LINE
  5
D7
330
A0
100
AcDbEntity
  8
Layer9
  6
AUSGEZOGEN
 62
     9
420
 12632256
370
    18
100
AcDbLine
 10
189.64528718534
 20
61.305406399981
 30
0.0
 11
197.64528718534
 21
69.305406399981
 31
0.0
  0
LINE
  5
D8
330
A0
100
AcDbEntity
  8
Layer9
  6
AUSGEZOGEN
 62
     9
420
 12632256
370
    18
100
AcDbLine
 10
189.433155150984
 20
61.305406399981
 30
0.0
 11
197.433155150984
 21
69.305406399981
 31
0.0
  0
LINE
  5
D9
330
A0
100
AcDbEntity
  8
Layer9
  6
AUSGEZOGEN
 62
     9
420
 12632256
370
    18
100
AcDbLine
 10
189.221023116628
 20
61.305406399981
 30
0.0
 11
197.221023116628
 21
69.305406399981
 31
0.0
  0
LINE
  5
DA
330
A0
100
AcDbEntity
  8
Layer9
  6
AUSGEZOGEN
 62
     9
420
 12632256
370
    18
100
AcDbLine
 10
189.008891082272
 20
61.305406399981
 30
0.0
 11
197.008891082272
 21
69.305406399981
 31
0.0
  0
LINE
  5
DB
330
A0
100
AcDbEntity
  8
Layer9
  6
AUSGEZOGEN
 62
     9
420
 12632256
370
    18
100
AcDbLine
 10
188.796759047916
 20
61.305406399981
 30
0.0
 11
196.796759047916
 21
69.305406399981
 31
0.0
  0
LINE
  5
DC
330
A0
100
AcDbEntity
  8
Layer9
  6
AUSGEZOGEN
 62
     9
420
 12632256
370
    18
100
AcDbLine
 10
188.58462701356
 20
61.305406399981
 30
0.0
 11
196.58462701356
 21
69.305406399981
 31
0.0
  0
LINE
  5
DD
330
A0
100
AcDbEntity
  8
Layer9
  6
AUSGEZOGEN
 62
     9
420
 12632256
370
    18
100
AcDbLine
 10
188.372494979204
 20
61.305406399981
 30
0.0
 11
196.372494979204
 21
69.305406399981
 31
0.0
  0
LINE
  5
DE
330
A0
100
AcDbEntity
  8
Layer9
  6
AUSGEZOGEN
 62
     9
420
 12632256
370
    18
100
AcDbLine
 10
188.160362944848
 20
61.305406399981
 30
0.0
 11
196.160362944848
 21
69.305406399981
 31
0.0
  0
LINE
  5
DF
330
A0
100
AcDbEntity
  8
Layer9
  6
AUSGEZOGEN
 62
     9
420
 12632256
370
    18
100
AcDbLine
 10
187.948230910492
 20
61.305406399981
 30
0.0
 11
195.948230910492
 21
69.305406399981
 31
0.0
  0
LINE
  5
E0
330
A0
100
AcDbEntity
  8
Layer9
  6
AUSGEZOGEN
 62
     9
420
 12632256
370
    18
100
AcDbLine
 10
187.736098876136
 20
61.305406399981
 30
0.0
 11
195.736098876136
 21
69.305406399981
 31
0.0
  0
LINE
  5
E1
330
A0
100
AcDbEntity
  8
Layer9
  6
AUSGEZOGEN
 62
     9
420
 12632256
370
    18
100
AcDbLine
 10
187.52396684178
 20
61.305406399981
 30
0.0
 11
195.52396684178
 21
69.305406399981
 31
0.0
  0
LINE
  5
E2
330
A0
100
AcDbEntity
  8
Layer9
  6
AUSGEZOGEN
 62
     9
420
 12632256
370
    18
100
AcDbLine
 10
187.311834807424
 20
61.305406399981
 30
0.0
 11
195.311834807424
 21
69.305406399981
 31
0.0
  0
LINE
  5
E3
330
A0
100
AcDbEntity
  8
Layer9
  6
AUSGEZOGEN
 62
     9
420
 12632256
370
    18
100
AcDbLine
 10
187.099702773068
 20
61.305406399981
 30
0.0
 11
195.099702773068
 21
69.305406399981
 31
0.0
  0
LINE
  5
E4
330
A0
100
AcDbEntity
  8
Layer9
  6
AUSGEZOGEN
 62
     9
420
 12632256
370
    18
100
AcDbLine
 10
186.887570738712
 20
61.305406399981
 30
0.0
 11
194.887570738712
 21
69.305406399981
 31
0.0
  0
LINE
  5
E5
330
A0
100
AcDbEntity
  8
Layer9
  6
AUSGEZOGEN
 62
     9
420
 12632256
370
    18
100
AcDbLine
 10
186.675438704356
 20
61.305406399981
 30
0.0
 11
194.675438704356
 21
69.305406399981
 31
0.0
  0
LINE
  5
E6
330
A0
100
AcDbEntity
  8
Layer9
  6
AUSGEZOGEN
 62
     9
420
 12632256
370
    18
100
AcDbLine
 10
186.46330667
 20
61.305406399981
 30
0.0
 11
194.46330667
 21
69.305406399981
 31
0.0
  0
LINE
  5
E7
330
A0
100
AcDbEntity
  8
Layer9
  6
AUSGEZOGEN
 62
     9
420
 12632256
370
    18
100
AcDbLine
 10
186.251174635644
 20
61.305406399981
 30
0.0
 11
194.251174635644
 21
69.305406399981
 31
0.0
  0
LINE
  5
E8
330
A0
100
AcDbEntity
  8
Layer9
  6
AUSGEZOGEN
 62
     9
420
 12632256
370
    18
100
AcDbLine
 10
186.039042601288
 20
61.305406399981
 30
0.0
 11
194.039042601288
 21
69.305406399981
 31
0.0
  0
LINE
  5
E9
330
A0
100
AcDbEntity
  8
Layer9
  6
AUSGEZOGEN
 62
     9
420
 12632256
370
    18
100
AcDbLine
 10
185.826910566932
 20
61.305406399981
 30
0.0
 11
193.826910566932
 21
69.305406399981
 31
0.0
  0
LINE
  5
EA
330
A0
100
AcDbEntity
  8
Layer9
  6
AUSGEZOGEN
 62
     9
420
 12632256
370
    18
100
AcDbLine
 10
185.614778532576
 20
61.305406399981
 30
0.0
 11
193.614778532576
 21
69.305406399981
 31
0.0
  0
LINE
  5
EB
330
A0
100
AcDbEntity
  8
Layer9
  6
AUSGEZOGEN
 62
     9
420
 12632256
370
    18
100
AcDbLine
 10
185.402646498221
 20
61.305406399981
 30
0.0
 11
193.402646498221
 21
69.305406399981
 31
0.0
  0
LINE
  5
EC
330
A0
100
AcDbEntity
  8
Layer9
  6
AUSGEZOGEN
 62
     9
420
 12632256
370
    18
100
AcDbLine
 10
185.190514463865
 20
61.305406399981
 30
0.0
 11
193.190514463865
 21
69.305406399981
 31
0.0
  0
LINE
  5
ED
330
A0
100
AcDbEntity
  8
Layer9
  6
AUSGEZOGEN
 62
     9
420
 12632256
370
    18
100
AcDbLine
 10
184.978382429509
 20
61.305406399981
 30
0.0
 11
192.978382429509
 21
69.305406399981
 31
0.0
  0
LINE
  5
EE
330
A0
100
AcDbEntity
  8
Layer9
  6
AUSGEZOGEN
 62
     9
420
 12632256
370
    18
100
AcDbLine
 10
184.766250395153
 20
61.305406399981
 30
0.0
 11
192.766250395153
 21
69.305406399981
 31
0.0
  0
LINE
  5
EF
330
A0
100
AcDbEntity
  8
Layer9
  6
AUSGEZOGEN
 62
     9
420
 12632256
370
    18
100
AcDbLine
 10
184.554118360797
 20
61.305406399981
 30
0.0
 11
192.554118360797
 21
69.305406399981
 31
0.0
  0
LINE
  5
F0
330
A0
100
AcDbEntity
  8
Layer9
  6
AUSGEZOGEN
 62
     9
420
 12632256
370
    18
100
AcDbLine
 10
184.341986326441
 20
61.305406399981
 30
0.0
 11
192.341986326441
 21
69.305406399981
 31
0.0
  0
LINE
  5
F1
330
A0
100
AcDbEntity
  8
Layer9
  6
AUSGEZOGEN
 62
     9
420
 12632256
370
    18
100
AcDbLine
 10
184.129854292085
 20
61.305406399981
 30
0.0
 11
192.129854292085
 21
69.305406399981
 31
0.0
  0
LINE
  5
F2
330
A0
100
AcDbEntity
  8
Layer9
  6
AUSGEZOGEN
 62
     9
420
 12632256
370
    18
100
AcDbLine
 10
183.917722257729
 20
61.305406399981
 30
0.0
 11
191.917722257729
 21
69.305406399981
 31
0.0
  0
LINE
  5
F3
330
A0
100
AcDbEntity
  8
Layer9
  6
AUSGEZOGEN
 62
     9
420
 12632256
370
    18
100
AcDbLine
 10
183.705590223373
 20
61.305406399981
 30
0.0
 11
191.705590223373
 21
69.305406399981
 31
0.0
  0
LINE
  5
F4
330
A0
100
AcDbEntity
  8
Layer9
  6
AUSGEZOGEN
 62
     9
420
 12632256
370
    18
100
AcDbLine
 10
183.493458189017
 20
61.305406399981
 30
0.0
 11
191.493458189017
 21
69.305406399981
 31
0.0
  0
LINE
  5
F5
330
A0
100
AcDbEntity
  8
Layer9
  6
AUSGEZOGEN
 62
     9
420
 12632256
370
    18
100
AcDbLine
 10
183.281326154661
 20
61.305406399981
 30
0.0
 11
191.281326154661
 21
69.305406399981
 31
0.0
  0
LINE
  5
F6
330
A0
100
AcDbEntity
  8
Layer9
  6
AUSGEZOGEN
 62
     9
420
 12632256
370
    18
100
AcDbLine
 10
183.069194120305
 20
61.305406399981
 30
0.0
 11
191.069194120305
 21
69.305406399981
 31
0.0
  0
LINE
  5
F7
330
A0
100
AcDbEntity
  8
Layer9
  6
AUSGEZOGEN
 62
     9
420
 12632256
370
    18
100
AcDbLine
 10
182.857062085949
 20
61.305406399981
 30
0.0
 11
190.857062085949
 21
69.305406399981
 31
0.0
  0
LINE
  5
F8
330
A0
100
AcDbEntity
  8
Layer9
  6
AUSGEZOGEN
 62
     9
420
 12632256
370
    18
100
AcDbLine
 10
182.644930051593
 20
61.305406399981
 30
0.0
 11
190.644930051593
 21
69.305406399981
 31
0.0
  0
LINE
  5
F9
330
A0
100
AcDbEntity
  8
Layer9
  6
AUSGEZOGEN
 62
     9
420
 12632256
370
    18
100
AcDbLine
 10
182.432798017237
 20
61.305406399981
 30
0.0
 11
190.432798017237
 21
69.305406399981
 31
0.0
  0
LINE
  5
FA
330
A0
100
AcDbEntity
  8
Layer9
  6
AUSGEZOGEN
 62
     9
420
 12632256
370
    18
100
AcDbLine
 10
182.220665982881
 20
61.305406399981
 30
0.0
 11
190.220665982881
 21
69.305406399981
 31
0.0
  0
LINE
  5
FB
330
A0
100
AcDbEntity
  8
Layer9
  6
AUSGEZOGEN
 62
     9
420
 12632256
370
    18
100
AcDbLine
 10
182.008533948525
 20
61.305406399981
 30
0.0
 11
190.008533948525
 21
69.305406399981
 31
0.0
  0
LINE
  5
FC
330
A0
100
AcDbEntity
  8
Layer9
  6
AUSGEZOGEN
 62
     9
420
 12632256
370
    18
100
AcDbLine
 10
181.796401914169
 20
61.305406399981
 30
0.0
 11
189.796401914169
 21
69.305406399981
 31
0.0
  0
LINE
  5
FD
330
A0
100
AcDbEntity
  8
Layer9
  6
AUSGEZOGEN
 62
     9
420
 12632256
370
    18
100
AcDbLine
 10
181.584269879813
 20
61.305406399981
 30
0.0
 11
189.584269879813
 21
69.305406399981
 31
0.0
  0
LINE
  5
FE
330
A0
100
AcDbEntity
  8
Layer9
  6
AUSGEZOGEN
 62
     9
420
 12632256
370
    18
100
AcDbLine
 10
181.372137845457
 20
61.305406399981
 30
0.0
 11
189.372137845457
 21
69.305406399981
 31
0.0
  0
LINE
  5
FF
330
A0
100
AcDbEntity
  8
Layer9
  6
AUSGEZOGEN
 62
     9
420
 12632256
370
    18
100
AcDbLine
 10
181.160005811101
 20
61.305406399981
 30
0.0
 11
189.160005811101
 21
69.305406399981
 31
0.0
  0
LINE
  5
100
330
A0
100
AcDbEntity
  8
Layer9
  6
AUSGEZOGEN
 62
     9
420
 12632256
370
    18
100
AcDbLine
 10
180.947873776745
 20
61.305406399981
 30
0.0
 11
188.947873776745
 21
69.305406399981
 31
0.0
  0
LINE
  5
101
330
A0
100
AcDbEntity
  8
Layer9
  6
AUSGEZOGEN
 62
     9
420
 12632256
370
    18
100
AcDbLine
 10
180.735741742389
 20
61.305406399981
 30
0.0
 11
188.735741742389
 21
69.305406399981
 31
0.0
  0
LINE
  5
102
330
A0
100
AcDbEntity
  8
Layer9
  6
AUSGEZOGEN
 62
     9
420
 12632256
370
    18
100
AcDbLine
 10
180.523609708033
 20
61.305406399981
 30
0.0
 11
188.523609708033
 21
69.305406399981
 31
0.0
  0
LINE
  5
103
330
A0
100
AcDbEntity
  8
Layer9
  6
AUSGEZOGEN
 62
     9
420
 12632256
370
    18
100
AcDbLine
 10
180.311477673677
 20
61.305406399981
 30
0.0
 11
188.311477673677
 21
69.305406399981
 31
0.0
  0
LINE
  5
104
330
A0
100
AcDbEntity
  8
Layer9
  6
AUSGEZOGEN
 62
     9
420
 12632256
370
    18
100
AcDbLine
 10
180.099345639321
 20
61.305406399981
 30
0.0
 11
188.099345639321
 21
69.305406399981
 31
0.0
  0
LINE
  5
105
330
A0
100
AcDbEntity
  8
Layer9
  6
AUSGEZOGEN
 62
     9
420
 12632256
370
    18
100
AcDbLine
 10
179.887213604965
 20
61.305406399981
 30
0.0
 11
187.887213604965
 21
69.305406399981
 31
0.0
  0
LINE
  5
106
330
A0
100
AcDbEntity
  8
Layer9
  6
AUSGEZOGEN
 62
     9
420
 12632256
370
    18
100
AcDbLine
 10
179.675081570609
 20
61.305406399981
 30
0.0
 11
187.675081570609
 21
69.305406399981
 31
0.0
  0
LINE
  5
107
330
A0
100
AcDbEntity
  8
Layer9
  6
AUSGEZOGEN
 62
     9
420
 12632256
370
    18
100
AcDbLine
 10
179.462949536254
 20
61.305406399981
 30
0.0
 11
187.462949536253
 21
69.305406399981
 31
0.0
  0
LINE
  5
108
330
A0
100
AcDbEntity
  8
Layer9
  6
AUSGEZOGEN
 62
     9
420
 12632256
370
    18
100
AcDbLine
 10
179.250817501898
 20
61.305406399981
 30
0.0
 11
187.250817501898
 21
69.305406399981
 31
0.0
  0
LINE
  5
109
330
A0
100
AcDbEntity
  8
Layer9
  6
AUSGEZOGEN
 62
     9
420
 12632256
370
    18
100
AcDbLine
 10
179.038685467542
 20
61.305406399981
 30
0.0
 11
187.038685467542
 21
69.305406399981
 31
0.0
  0
LINE
  5
10A
330
A0
100
AcDbEntity
  8
Layer9
  6
AUSGEZOGEN
 62
     9
420
 12632256
370
    18
100
AcDbLine
 10
178.826553433186
 20
61.305406399981
 30
0.0
 11
186.826553433186
 21
69.305406399981
 31
0.0
  0
LINE
  5
10B
330
A0
100
AcDbEntity
  8
Layer9
  6
AUSGEZOGEN
 62
     9
420
 12632256
370
    18
100
AcDbLine
 10
178.61442139883
 20
61.305406399981
 30
0.0
 11
186.61442139883
 21
69.305406399981
 31
0.0
  0
LINE
  5
10C
330
A0
100
AcDbEntity
  8
Layer9
  6
AUSGEZOGEN
 62
     9
420
 12632256
370
    18
100
AcDbLine
 10
178.402289364474
 20
61.305406399981
 30
0.0
 11
186.402289364474
 21
69.305406399981
 31
0.0
  0
LINE
  5
10D
330
A0
100
AcDbEntity
  8
Layer9
  6
AUSGEZOGEN
 62
     9
420
 12632256
370
    18
100
AcDbLine
 10
178.190157330118
 20
61.305406399981
 30
0.0
 11
186.190157330118
 21
69.305406399981
 31
0.0
  0
LINE
  5
10E
330
A0
100
AcDbEntity
  8
Layer9
  6
AUSGEZOGEN
 62
     9
420
 12632256
370
    18
100
AcDbLine
 10
177.978025295762
 20
61.305406399981
 30
0.0
 11
185.978025295762
 21
69.305406399981
 31
0.0
  0
LINE
  5
10F
330
A0
100
AcDbEntity
  8
Layer9
  6
AUSGEZOGEN
 62
     9
420
 12632256
370
    18
100
AcDbLine
 10
177.765893261406
 20
61.305406399981
 30
0.0
 11
185.765893261406
 21
69.305406399981
 31
0.0
  0
LINE
  5
110
330
A0
100
AcDbEntity
  8
Layer9
  6
AUSGEZOGEN
 62
     9
420
 12632256
370
    18
100
AcDbLine
 10
177.55376122705
 20
61.305406399981
 30
0.0
 11
185.55376122705
 21
69.305406399981
 31
0.0
  0
LINE
  5
111
330
A0
100
AcDbEntity
  8
Layer9
  6
AUSGEZOGEN
 62
     9
420
 12632256
370
    18
100
AcDbLine
 10
177.341629192694
 20
61.305406399981
 30
0.0
 11
185.341629192694
 21
69.305406399981
 31
0.0
  0
LINE
  5
112
330
A0
100
AcDbEntity
  8
Layer9
  6
AUSGEZOGEN
 62
     9
420
 12632256
370
    18
100
AcDbLine
 10
177.129497158338
 20
61.305406399981
 30
0.0
 11
185.129497158338
 21
69.305406399981
 31
0.0
  0
LINE
  5
113
330
A0
100
AcDbEntity
  8
Layer9
  6
AUSGEZOGEN
 62
     9
420
 12632256
370
    18
100
AcDbLine
 10
176.917365123982
 20
61.305406399981
 30
0.0
 11
184.917365123982
 21
69.305406399981
 31
0.0
  0
LINE
  5
114
330
A0
100
AcDbEntity
  8
Layer9
  6
AUSGEZOGEN
 62
     9
420
 12632256
370
    18
100
AcDbLine
 10
176.705233089626
 20
61.305406399981
 30
0.0
 11
184.705233089626
 21
69.305406399981
 31
0.0
  0
LINE
  5
115
330
A0
100
AcDbEntity
  8
Layer9
  6
AUSGEZOGEN
 62
     9
420
 12632256
370
    18
100
AcDbLine
 10
176.49310105527
 20
61.305406399981
 30
0.0
 11
184.49310105527
 21
69.305406399981
 31
0.0
  0
LINE
  5
116
330
A0
100
AcDbEntity
  8
Layer9
  6
AUSGEZOGEN
 62
     9
420
 12632256
370
    18
100
AcDbLine
 10
176.280969020914
 20
61.305406399981
 30
0.0
 11
184.280969020914
 21
69.305406399981
 31
0.0
  0
LINE
  5
117
330
A0
100
AcDbEntity
  8
Layer9
  6
AUSGEZOGEN
 62
     9
420
 12632256
370
    18
100
AcDbLine
 10
176.068836986558
 20
61.305406399981
 30
0.0
 11
184.068836986558
 21
69.305406399981
 31
0.0
  0
LINE
  5
118
330
A0
100
AcDbEntity
  8
Layer9
  6
AUSGEZOGEN
 62
     9
420
 12632256
370
    18
100
AcDbLine
 10
175.856704952202
 20
61.305406399981
 30
0.0
 11
183.856704952202
 21
69.305406399981
 31
0.0
  0
LINE
  5
119
330
A0
100
AcDbEntity
  8
Layer9
  6
AUSGEZOGEN
 62
     9
420
 12632256
370
    18
100
AcDbLine
 10
175.644572917846
 20
61.305406399981
 30
0.0
 11
183.644572917846
 21
69.305406399981
 31
0.0
  0
LINE
  5
11A
330
A0
100
AcDbEntity
  8
Layer9
  6
AUSGEZOGEN
 62
     9
420
 12632256
370
    18
100
AcDbLine
 10
175.43244088349
 20
61.305406399981
 30
0.0
 11
183.43244088349
 21
69.305406399981
 31
0.0
  0
LINE
  5
11B
330
A0
100
AcDbEntity
  8
Layer9
  6
AUSGEZOGEN
 62
     9
420
 12632256
370
    18
100
AcDbLine
 10
175.253301169019
 20
61.338398719866
 30
0.0
 11
183.220308849134
 21
69.305406399981
 31
0.0
  0
LINE
  5
11C
330
A0
100
AcDbEntity
  8
Layer9
  6
AUSGEZOGEN
 62
     9
420
 12632256
370
    18
100
AcDbLine
 10
175.147235151841
 20
61.444464737044
 30
0.0
 11
183.008176814778
 21
69.305406399981
 31
0.0
  0
LINE
  5
11D
330
A0
100
AcDbEntity
  8
Layer9
  6
AUSGEZOGEN
 62
     9
420
 12632256
370
    18
100
AcDbLine
 10
175.041169134663
 20
61.550530754222
 30
0.0
 11
182.796044780422
 21
69.305406399981
 31
0.0
  0
LINE
  5
11E
330
A0
100
AcDbEntity
  8
Layer9
  6
AUSGEZOGEN
 62
     9
420
 12632256
370
    18
100
AcDbLine
 10
174.935103117485
 20
61.6565967714
 30
0.0
 11
182.583912746066
 21
69.305406399981
 31
0.0
  0
LINE
  5
11F
330
A0
100
AcDbEntity
  8
Layer9
  6
AUSGEZOGEN
 62
     9
420
 12632256
370
    18
100
AcDbLine
 10
174.829037100307
 20
61.762662788578
 30
0.0
 11
182.37178071171
 21
69.305406399981
 31
0.0
  0
LINE
  5
120
330
A0
100
AcDbEntity
  8
Layer9
  6
AUSGEZOGEN
 62
     9
420
 12632256
370
    18
100
AcDbLine
 10
174.722971083129
 20
61.868728805756
 30
0.0
 11
182.159648677354
 21
69.305406399981
 31
0.0
  0
LINE
  5
121
330
A0
100
AcDbEntity
  8
Layer9
  6
AUSGEZOGEN
 62
     9
420
 12632256
370
    18
100
AcDbLine
 10
174.616905065951
 20
61.974794822934
 30
0.0
 11
181.947516642998
 21
69.305406399981
 31
0.0
  0
LINE
  5
122
330
A0
100
AcDbEntity
  8
Layer9
  6
AUSGEZOGEN
 62
     9
420
 12632256
370
    18
100
AcDbLine
 10
174.510839048773
 20
62.080860840112
 30
0.0
 11
181.735384608642
 21
69.305406399981
 31
0.0
  0
LINE
  5
123
330
A0
100
AcDbEntity
  8
Layer9
  6
AUSGEZOGEN
 62
     9
420
 12632256
370
    18
100
AcDbLine
 10
174.404773031595
 20
62.18692685729
 30
0.0
 11
181.523252574286
 21
69.305406399981
 31
0.0
  0
LINE
  5
124
330
A0
100
AcDbEntity
  8
Layer9
  6
AUSGEZOGEN
 62
     9
420
 12632256
370
    18
100
AcDbLine
 10
174.298707014417
 20
62.292992874468
 30
0.0
 11
181.311120539931
 21
69.305406399981
 31
0.0
  0
LINE
  5
125
330
A0
100
AcDbEntity
  8
Layer9
  6
AUSGEZOGEN
 62
     9
420
 12632256
370
    18
100
AcDbLine
 10
174.286293488903
 20
62.49271138331
 30
0.0
 11
181.098988505575
 21
69.305406399981
 31
0.0
  0
LINE
  5
126
330
A0
100
AcDbEntity
  8
Layer9
  6
AUSGEZOGEN
 62
     9
420
 12632256
370
    18
100
AcDbLine
 10
174.286293488903
 20
62.704843417666
 30
0.0
 11
180.886856471219
 21
69.305406399981
 31
0.0
  0
LINE
  5
127
330
A0
100
AcDbEntity
  8
Layer9
  6
AUSGEZOGEN
 62
     9
420
 12632256
370
    18
100
AcDbLine
 10
174.286293488903
 20
62.916975452022
 30
0.0
 11
180.674724436863
 21
69.305406399981
 31
0.0
  0
LINE
  5
128
330
A0
100
AcDbEntity
  8
Layer9
  6
AUSGEZOGEN
 62
     9
420
 12632256
370
    18
100
AcDbLine
 10
174.286293488903
 20
63.129107486378
 30
0.0
 11
180.462592402507
 21
69.305406399981
 31
0.0
  0
LINE
  5
129
330
A0
100
AcDbEntity
  8
Layer9
  6
AUSGEZOGEN
 62
     9
420
 12632256
370
    18
100
AcDbLine
 10
174.286293488903
 20
63.341239520734
 30
0.0
 11
180.250460368151
 21
69.305406399981
 31
0.0
  0
LINE
  5
12A
330
A0
100
AcDbEntity
  8
Layer9
  6
AUSGEZOGEN
 62
     9
420
 12632256
370
    18
100
AcDbLine
 10
174.286293488903
 20
63.55337155509
 30
0.0
 11
180.038328333795
 21
69.305406399981
 31
0.0
  0
LINE
  5
12B
330
A0
100
AcDbEntity
  8
Layer9
  6
AUSGEZOGEN
 62
     9
420
 12632256
370
    18
100
AcDbLine
 10
174.286293488903
 20
63.765503589446
 30
0.0
 11
179.826196299439
 21
69.305406399981
 31
0.0
  0
LINE
  5
12C
330
A0
100
AcDbEntity
  8
Layer9
  6
AUSGEZOGEN
 62
     9
420
 12632256
370
    18
100
AcDbLine
 10
174.286293488903
 20
63.977635623802
 30
0.0
 11
179.614064265083
 21
69.305406399981
 31
0.0
  0
LINE
  5
12D
330
A0
100
AcDbEntity
  8
Layer9
  6
AUSGEZOGEN
 62
     9
420
 12632256
370
    18
100
AcDbLine
 10
174.286293488903
 20
64.189767658158
 30
0.0
 11
179.401932230727
 21
69.305406399981
 31
0.0
  0
LINE
  5
12E
330
A0
100
AcDbEntity
  8
Layer9
  6
AUSGEZOGEN
 62
     9
420
 12632256
370
    18
100
AcDbLine
 10
174.286293488903
 20
64.401899692514
 30
0.0
 11
179.189800196371
 21
69.305406399981
 31
0.0
  0
LINE
  5
12F
330
A0
100
AcDbEntity
  8
Layer9
  6
AUSGEZOGEN
 62
     9
420
 12632256
370
    18
100
AcDbLine
 10
174.286293488903
 20
64.61403172687
 30
0.0
 11
178.977668162015
 21
69.305406399981
 31
0.0
  0
LINE
  5
130
330
A0
100
AcDbEntity
  8
Layer9
  6
AUSGEZOGEN
 62
     9
420
 12632256
370
    18
100
AcDbLine
 10
174.286293488903
 20
64.826163761226
 30
0.0
 11
178.765536127659
 21
69.305406399981
 31
0.0
  0
LINE
  5
131
330
A0
100
AcDbEntity
  8
Layer9
  6
AUSGEZOGEN
 62
     9
420
 12632256
370
    18
100
AcDbLine
 10
174.286293488903
 20
65.038295795582
 30
0.0
 11
178.553404093303
 21
69.305406399981
 31
0.0
  0
LINE
  5
132
330
A0
100
AcDbEntity
  8
Layer9
  6
AUSGEZOGEN
 62
     9
420
 12632256
370
    18
100
AcDbLine
 10
174.286293488903
 20
65.250427829938
 30
0.0
 11
178.341272058947
 21
69.305406399981
 31
0.0
  0
LINE
  5
133
330
A0
100
AcDbEntity
  8
Layer9
  6
AUSGEZOGEN
 62
     9
420
 12632256
370
    18
100
AcDbLine
 10
174.286293488903
 20
65.462559864294
 30
0.0
 11
178.129140024591
 21
69.305406399981
 31
0.0
  0
LINE
  5
134
330
A0
100
AcDbEntity
  8
Layer9
  6
AUSGEZOGEN
 62
     9
420
 12632256
370
    18
100
AcDbLine
 10
174.286293488903
 20
65.67469189865
 30
0.0
 11
177.917007990235
 21
69.305406399981
 31
0.0
  0
LINE
  5
135
330
A0
100
AcDbEntity
  8
Layer9
  6
AUSGEZOGEN
 62
     9
420
 12632256
370
    18
100
AcDbLine
 10
174.286293488903
 20
65.886823933006
 30
0.0
 11
177.704875955879
 21
69.305406399981
 31
0.0
  0
LINE
  5
136
330
A0
100
AcDbEntity
  8
Layer9
  6
AUSGEZOGEN
 62
     9
420
 12632256
370
    18
100
AcDbLine
 10
174.286293488903
 20
66.098955967362
 30
0.0
 11
177.492743921523
 21
69.305406399981
 31
0.0
  0
LINE
  5
137
330
A0
100
AcDbEntity
  8
Layer9
  6
AUSGEZOGEN
 62
     9
420
 12632256
370
    18
100
AcDbLine
 10
174.286293488903
 20
66.311088001718
 30
0.0
 11
177.280611887167
 21
69.305406399981
 31
0.0
  0
LINE
  5
138
330
A0
100
AcDbEntity
  8
Layer9
  6
AUSGEZOGEN
 62
     9
420
 12632256
370
    18
100
AcDbLine
 10
174.286293488903
 20
66.523220036074
 30
0.0
 11
177.068479852811
 21
69.305406399981
 31
0.0
  0
LINE
  5
139
330
A0
100
AcDbEntity
  8
Layer9
  6
AUSGEZOGEN
 62
     9
420
 12632256
370
    18
100
AcDbLine
 10
174.286293488903
 20
66.735352070429
 30
0.0
 11
176.856347818455
 21
69.305406399981
 31
0.0
  0
LINE
  5
13A
330
A0
100
AcDbEntity
  8
Layer9
  6
AUSGEZOGEN
 62
     9
420
 12632256
370
    18
100
AcDbLine
 10
174.286293488903
 20
66.947484104785
 30
0.0
 11
176.644215784099
 21
69.305406399981
 31
0.0
  0
LINE
  5
13B
330
A0
100
AcDbEntity
  8
Layer9
  6
AUSGEZOGEN
 62
     9
420
 12632256
370
    18
100
AcDbLine
 10
174.286293488903
 20
67.159616139141
 30
0.0
 11
176.432083749743
 21
69.305406399981
 31
0.0
  0
LINE
  5
13C
330
A0
100
AcDbEntity
  8
Layer9
  6
AUSGEZOGEN
 62
     9
420
 12632256
370
    18
100
AcDbLine
 10
174.286293488903
 20
67.371748173497
 30
0.0
 11
176.219951715387
 21
69.305406399981
 31
0.0
  0
LINE
  5
13D
330
A0
100
AcDbEntity
  8
Layer9
  6
AUSGEZOGEN
 62
     9
420
 12632256
370
    18
100
AcDbLine
 10
174.286293488903
 20
67.583880207853
 30
0.0
 11
176.007819681031
 21
69.305406399981
 31
0.0
  0
LINE
  5
13E
330
A0
100
AcDbEntity
  8
Layer9
  6
AUSGEZOGEN
 62
     9
420
 12632256
370
    18
100
AcDbLine
 10
174.286293488903
 20
67.796012242209
 30
0.0
 11
175.795687646675
 21
69.305406399981
 31
0.0
  0
LINE
  5
13F
330
A0
100
AcDbEntity
  8
Layer9
  6
AUSGEZOGEN
 62
     9
420
 12632256
370
    18
100
AcDbLine
 10
174.286293488903
 20
68.008144276565
 30
0.0
 11
175.583555612319
 21
69.305406399981
 31
0.0
  0
LINE
  5
140
330
A0
100
AcDbEntity
  8
Layer9
  6
AUSGEZOGEN
 62
     9
420
 12632256
370
    18
100
AcDbLine
 10
174.286293488903
 20
68.220276310921
 30
0.0
 11
175.371423577963
 21
69.305406399981
 31
0.0
  0
LINE
  5
141
330
A0
100
AcDbEntity
  8
Layer9
  6
AUSGEZOGEN
 62
     9
420
 12632256
370
    18
100
AcDbLine
 10
166.310763406184
 20
61.305406399981
 30
0.0
 11
167.486293488903
 21
62.480936482701
 31
0.0
  0
LINE
  5
142
330
A0
100
AcDbEntity
  8
Layer9
  6
AUSGEZOGEN
 62
     9
420
 12632256
370
    18
100
AcDbLine
 10
166.098631371828
 20
61.305406399981
 30
0.0
 11
167.486293488903
 21
62.693068517057
 31
0.0
  0
LINE
  5
143
330
A0
100
AcDbEntity
  8
Layer9
  6
AUSGEZOGEN
 62
     9
420
 12632256
370
    18
100
AcDbLine
 10
165.886499337472
 20
61.305406399981
 30
0.0
 11
167.486293488903
 21
62.905200551413
 31
0.0
  0
LINE
  5
144
330
A0
100
AcDbEntity
  8
Layer9
  6
AUSGEZOGEN
 62
     9
420
 12632256
370
    18
100
AcDbLine
 10
165.674367303116
 20
61.305406399981
 30
0.0
 11
167.486293488903
 21
63.117332585769
 31
0.0
  0
LINE
  5
145
330
A0
100
AcDbEntity
  8
Layer9
  6
AUSGEZOGEN
 62
     9
420
 12632256
370
    18
100
AcDbLine
 10
165.46223526876
 20
61.305406399981
 30
0.0
 11
167.486293488903
 21
63.329464620125
 31
0.0
  0
LINE
  5
146
330
A0
100
AcDbEntity
  8
Layer9
  6
AUSGEZOGEN
 62
     9
420
 12632256
370
    18
100
AcDbLine
 10
165.250103234404
 20
61.305406399981
 30
0.0
 11
167.486293488903
 21
63.541596654481
 31
0.0
  0
LINE
  5
147
330
A0
100
AcDbEntity
  8
Layer9
  6
AUSGEZOGEN
 62
     9
420
 12632256
370
    18
100
AcDbLine
 10
165.037971200048
 20
61.305406399981
 30
0.0
 11
167.486293488903
 21
63.753728688837
 31
0.0
  0
LINE
  5
148
330
A0
100
AcDbEntity
  8
Layer9
  6
AUSGEZOGEN
 62
     9
420
 12632256
370
    18
100
AcDbLine
 10
164.825839165692
 20
61.305406399981
 30
0.0
 11
167.486293488903
 21
63.965860723193
 31
0.0
  0
LINE
  5
149
330
A0
100
AcDbEntity
  8
Layer9
  6
AUSGEZOGEN
 62
     9
420
 12632256
370
    18
100
AcDbLine
 10
164.613707131336
 20
61.305406399981
 30
0.0
 11
167.486293488903
 21
64.177992757549
 31
0.0
  0
LINE
  5
14A
330
A0
100
AcDbEntity
  8
Layer9
  6
AUSGEZOGEN
 62
     9
420
 12632256
370
    18
100
AcDbLine
 10
164.40157509698
 20
61.305406399981
 30
0.0
 11
167.486293488903
 21
64.390124791905
 31
0.0
  0
LINE
  5
14B
330
A0
100
AcDbEntity
  8
Layer9
  6
AUSGEZOGEN
 62
     9
420
 12632256
370
    18
100
AcDbLine
 10
164.189443062624
 20
61.305406399981
 30
0.0
 11
167.486293488903
 21
64.602256826261
 31
0.0
  0
LINE
  5
14C
330
A0
100
AcDbEntity
  8
Layer9
  6
AUSGEZOGEN
 62
     9
420
 12632256
370
    18
100
AcDbLine
 10
163.977311028268
 20
61.305406399981
 30
0.0
 11
167.486293488903
 21
64.814388860617
 31
0.0
  0
LINE
  5
14D
330
A0
100
AcDbEntity
  8
Layer9
  6
AUSGEZOGEN
 62
     9
420
 12632256
370
    18
100
AcDbLine
 10
163.765178993912
 20
61.305406399981
 30
0.0
 11
167.486293488903
 21
65.026520894973
 31
0.0
  0
LINE
  5
14E
330
A0
100
AcDbEntity
  8
Layer9
  6
AUSGEZOGEN
 62
     9
420
 12632256
370
    18
100
AcDbLine
 10
163.553046959556
 20
61.305406399981
 30
0.0
 11
167.486293488903
 21
65.238652929329
 31
0.0
  0
LINE
  5
14F
330
A0
100
AcDbEntity
  8
Layer9
  6
AUSGEZOGEN
 62
     9
420
 12632256
370
    18
100
AcDbLine
 10
163.3409149252
 20
61.305406399981
 30
0.0
 11
167.486293488903
 21
65.450784963685
 31
0.0
  0
LINE
  5
150
330
A0
100
AcDbEntity
  8
Layer9
  6
AUSGEZOGEN
 62
     9
420
 12632256
370
    18
100
AcDbLine
 10
163.128782890844
 20
61.305406399981
 30
0.0
 11
167.486293488903
 21
65.662916998041
 31
0.0
  0
LINE
  5
151
330
A0
100
AcDbEntity
  8
Layer9
  6
AUSGEZOGEN
 62
     9
420
 12632256
370
    18
100
AcDbLine
 10
162.916650856488
 20
61.305406399981
 30
0.0
 11
167.486293488903
 21
65.875049032397
 31
0.0
  0
LINE
  5
152
330
A0
100
AcDbEntity
  8
Layer9
  6
AUSGEZOGEN
 62
     9
420
 12632256
370
    18
100
AcDbLine
 10
162.704518822132
 20
61.305406399981
 30
0.0
 11
167.486293488903
 21
66.087181066752
 31
0.0
  0
LINE
  5
153
330
A0
100
AcDbEntity
  8
Layer9
  6
AUSGEZOGEN
 62
     9
420
 12632256
370
    18
100
AcDbLine
 10
162.492386787776
 20
61.305406399981
 30
0.0
 11
167.486293488903
 21
66.299313101108
 31
0.0
  0
LINE
  5
154
330
A0
100
AcDbEntity
  8
Layer9
  6
AUSGEZOGEN
 62
     9
420
 12632256
370
    18
100
AcDbLine
 10
162.28025475342
 20
61.305406399981
 30
0.0
 11
167.486293488903
 21
66.511445135464
 31
0.0
  0
LINE
  5
155
330
A0
100
AcDbEntity
  8
Layer9
  6
AUSGEZOGEN
 62
     9
420
 12632256
370
    18
100
AcDbLine
 10
162.068122719064
 20
61.305406399981
 30
0.0
 11
167.486293488903
 21
66.72357716982
 31
0.0
  0
LINE
  5
156
330
A0
100
AcDbEntity
  8
Layer9
  6
AUSGEZOGEN
 62
     9
420
 12632256
370
    18
100
AcDbLine
 10
161.855990684708
 20
61.305406399981
 30
0.0
 11
167.486293488903
 21
66.935709204176
 31
0.0
  0
LINE
  5
157
330
A0
100
AcDbEntity
  8
Layer9
  6
AUSGEZOGEN
 62
     9
420
 12632256
370
    18
100
AcDbLine
 10
161.643858650353
 20
61.305406399981
 30
0.0
 11
167.486293488903
 21
67.147841238532
 31
0.0
  0
LINE
  5
158
330
A0
100
AcDbEntity
  8
Layer9
  6
AUSGEZOGEN
 62
     9
420
 12632256
370
    18
100
AcDbLine
 10
161.431726615997
 20
61.305406399981
 30
0.0
 11
167.486293488903
 21
67.359973272888
 31
0.0
  0
LINE
  5
159
330
A0
100
AcDbEntity
  8
Layer9
  6
AUSGEZOGEN
 62
     9
420
 12632256
370
    18
100
AcDbLine
 10
161.219594581641
 20
61.305406399981
 30
0.0
 11
167.486293488903
 21
67.572105307244
 31
0.0
  0
LINE
  5
15A
330
A0
100
AcDbEntity
  8
Layer9
  6
AUSGEZOGEN
 62
     9
420
 12632256
370
    18
100
AcDbLine
 10
161.007462547285
 20
61.305406399981
 30
0.0
 11
167.486293488903
 21
67.7842373416
 31
0.0
  0
LINE
  5
15B
330
A0
100
AcDbEntity
  8
Layer9
  6
AUSGEZOGEN
 62
     9
420
 12632256
370
    18
100
AcDbLine
 10
160.795330512929
 20
61.305406399981
 30
0.0
 11
167.486293488903
 21
67.996369375956
 31
0.0
  0
LINE
  5
15C
330
A0
100
AcDbEntity
  8
Layer9
  6
AUSGEZOGEN
 62
     9
420
 12632256
370
    18
100
AcDbLine
 10
160.583198478573
 20
61.305406399981
 30
0.0
 11
167.486293488903
 21
68.208501410312
 31
0.0
  0
LINE
  5
15D
330
A0
100
AcDbEntity
  8
Layer9
  6
AUSGEZOGEN
 62
     9
420
 12632256
370
    18
100
AcDbLine
 10
160.371066444217
 20
61.305406399981
 30
0.0
 11
167.428708787732
 21
68.363048743496
 31
0.0
  0
LINE
  5
15E
330
A0
100
AcDbEntity
  8
Layer9
  6
AUSGEZOGEN
 62
     9
420
 12632256
370
    18
100
AcDbLine
 10
160.158934409861
 20
61.305406399981
 30
0.0
 11
167.322695830092
 21
68.469167820213
 31
0.0
  0
LINE
  5
15F
330
A0
100
AcDbEntity
  8
Layer9
  6
AUSGEZOGEN
 62
     9
420
 12632256
370
    18
100
AcDbLine
 10
159.946802375505
 20
61.305406399981
 30
0.0
 11
167.216682872453
 21
68.575286896929
 31
0.0
  0
LINE
  5
160
330
A0
100
AcDbEntity
  8
Layer9
  6
AUSGEZOGEN
 62
     9
420
 12632256
370
    18
100
AcDbLine
 10
159.734670341149
 20
61.305406399981
 30
0.0
 11
167.110669914813
 21
68.681405973645
 31
0.0
  0
LINE
  5
161
330
A0
100
AcDbEntity
  8
Layer9
  6
AUSGEZOGEN
 62
     9
420
 12632256
370
    18
100
AcDbLine
 10
159.522538306793
 20
61.305406399981
 30
0.0
 11
167.004656957173
 21
68.787525050362
 31
0.0
  0
LINE
  5
162
330
A0
100
AcDbEntity
  8
Layer9
  6
AUSGEZOGEN
 62
     9
420
 12632256
370
    18
100
AcDbLine
 10
159.310406272437
 20
61.305406399981
 30
0.0
 11
166.898643999534
 21
68.893644127078
 31
0.0
  0
LINE
  5
163
330
A0
100
AcDbEntity
  8
Layer9
  6
AUSGEZOGEN
 62
     9
420
 12632256
370
    18
100
AcDbLine
 10
159.098274238081
 20
61.305406399981
 30
0.0
 11
166.792631041894
 21
68.999763203795
 31
0.0
  0
LINE
  5
164
330
A0
100
AcDbEntity
  8
Layer9
  6
AUSGEZOGEN
 62
     9
420
 12632256
370
    18
100
AcDbLine
 10
158.886142203725
 20
61.305406399981
 30
0.0
 11
166.686618084254
 21
69.105882280511
 31
0.0
  0
LINE
  5
165
330
A0
100
AcDbEntity
  8
Layer9
  6
AUSGEZOGEN
 62
     9
420
 12632256
370
    18
100
AcDbLine
 10
158.674010169369
 20
61.305406399981
 30
0.0
 11
166.580605126615
 21
69.212001357227
 31
0.0
  0
LINE
  5
166
330
A0
100
AcDbEntity
  8
Layer9
  6
AUSGEZOGEN
 62
     9
420
 12632256
370
    18
100
AcDbLine
 10
158.461878135013
 20
61.305406399981
 30
0.0
 11
166.461878135013
 21
69.305406399981
 31
0.0
  0
LINE
  5
167
330
A0
100
AcDbEntity
  8
Layer9
  6
AUSGEZOGEN
 62
     9
420
 12632256
370
    18
100
AcDbLine
 10
158.249746100657
 20
61.305406399981
 30
0.0
 11
166.249746100657
 21
69.305406399981
 31
0.0
  0
LINE
  5
168
330
A0
100
AcDbEntity
  8
Layer9
  6
AUSGEZOGEN
 62
     9
420
 12632256
370
    18
100
AcDbLine
 10
158.037614066301
 20
61.305406399981
 30
0.0
 11
166.037614066301
 21
69.305406399981
 31
0.0
  0
LINE
  5
169
330
A0
100
AcDbEntity
  8
Layer9
  6
AUSGEZOGEN
 62
     9
420
 12632256
370
    18
100
AcDbLine
 10
157.825482031945
 20
61.305406399981
 30
0.0
 11
165.825482031945
 21
69.305406399981
 31
0.0
  0
LINE
  5
16A
330
A0
100
AcDbEntity
  8
Layer9
  6
AUSGEZOGEN
 62
     9
420
 12632256
370
    18
100
AcDbLine
 10
157.613349997589
 20
61.305406399981
 30
0.0
 11
165.613349997589
 21
69.305406399981
 31
0.0
  0
LINE
  5
16B
330
A0
100
AcDbEntity
  8
Layer9
  6
AUSGEZOGEN
 62
     9
420
 12632256
370
    18
100
AcDbLine
 10
157.401217963233
 20
61.305406399981
 30
0.0
 11
165.401217963233
 21
69.305406399981
 31
0.0
  0
LINE
  5
16C
330
A0
100
AcDbEntity
  8
Layer9
  6
AUSGEZOGEN
 62
     9
420
 12632256
370
    18
100
AcDbLine
 10
157.189085928877
 20
61.305406399981
 30
0.0
 11
165.189085928877
 21
69.305406399981
 31
0.0
  0
LINE
  5
16D
330
A0
100
AcDbEntity
  8
Layer9
  6
AUSGEZOGEN
 62
     9
420
 12632256
370
    18
100
AcDbLine
 10
156.976953894521
 20
61.305406399981
 30
0.0
 11
164.976953894521
 21
69.305406399981
 31
0.0
  0
LINE
  5
16E
330
A0
100
AcDbEntity
  8
Layer9
  6
AUSGEZOGEN
 62
     9
420
 12632256
370
    18
100
AcDbLine
 10
156.764821860165
 20
61.305406399981
 30
0.0
 11
164.764821860165
 21
69.305406399981
 31
0.0
  0
LINE
  5
16F
330
A0
100
AcDbEntity
  8
Layer9
  6
AUSGEZOGEN
 62
     9
420
 12632256
370
    18
100
AcDbLine
 10
156.552689825809
 20
61.305406399981
 30
0.0
 11
164.552689825809
 21
69.305406399981
 31
0.0
  0
LINE
  5
170
330
A0
100
AcDbEntity
  8
Layer9
  6
AUSGEZOGEN
 62
     9
420
 12632256
370
    18
100
AcDbLine
 10
156.340557791453
 20
61.305406399981
 30
0.0
 11
164.340557791453
 21
69.305406399981
 31
0.0
  0
LINE
  5
171
330
A0
100
AcDbEntity
  8
Layer9
  6
AUSGEZOGEN
 62
     9
420
 12632256
370
    18
100
AcDbLine
 10
156.128425757097
 20
61.305406399981
 30
0.0
 11
164.128425757097
 21
69.305406399981
 31
0.0
  0
LINE
  5
172
330
A0
100
AcDbEntity
  8
Layer9
  6
AUSGEZOGEN
 62
     9
420
 12632256
370
    18
100
AcDbLine
 10
155.916293722741
 20
61.305406399981
 30
0.0
 11
163.916293722741
 21
69.305406399981
 31
0.0
  0
LINE
  5
173
330
A0
100
AcDbEntity
  8
Layer9
  6
AUSGEZOGEN
 62
     9
420
 12632256
370
    18
100
AcDbLine
 10
155.704161688386
 20
61.305406399981
 30
0.0
 11
163.704161688385
 21
69.305406399981
 31
0.0
  0
LINE
  5
174
330
A0
100
AcDbEntity
  8
Layer9
  6
AUSGEZOGEN
 62
     9
420
 12632256
370
    18
100
AcDbLine
 10
155.49202965403
 20
61.305406399981
 30
0.0
 11
163.49202965403
 21
69.305406399981
 31
0.0
  0
LINE
  5
175
330
A0
100
AcDbEntity
  8
Layer9
  6
AUSGEZOGEN
 62
     9
420
 12632256
370
    18
100
AcDbLine
 10
155.279897619674
 20
61.305406399981
 30
0.0
 11
163.279897619674
 21
69.305406399981
 31
0.0
  0
LINE
  5
176
330
A0
100
AcDbEntity
  8
Layer9
  6
AUSGEZOGEN
 62
     9
420
 12632256
370
    18
100
AcDbLine
 10
155.067765585318
 20
61.305406399981
 30
0.0
 11
163.067765585318
 21
69.305406399981
 31
0.0
  0
LINE
  5
177
330
A0
100
AcDbEntity
  8
Layer9
  6
AUSGEZOGEN
 62
     9
420
 12632256
370
    18
100
AcDbLine
 10
154.855633550962
 20
61.305406399981
 30
0.0
 11
162.855633550962
 21
69.305406399981
 31
0.0
  0
LINE
  5
178
330
A0
100
AcDbEntity
  8
Layer9
  6
AUSGEZOGEN
 62
     9
420
 12632256
370
    18
100
AcDbLine
 10
154.643501516606
 20
61.305406399981
 30
0.0
 11
162.643501516606
 21
69.305406399981
 31
0.0
  0
LINE
  5
179
330
A0
100
AcDbEntity
  8
Layer9
  6
AUSGEZOGEN
 62
     9
420
 12632256
370
    18
100
AcDbLine
 10
154.43136948225
 20
61.305406399981
 30
0.0
 11
162.43136948225
 21
69.305406399981
 31
0.0
  0
LINE
  5
17A
330
A0
100
AcDbEntity
  8
Layer9
  6
AUSGEZOGEN
 62
     9
420
 12632256
370
    18
100
AcDbLine
 10
154.219237447894
 20
61.305406399981
 30
0.0
 11
162.219237447894
 21
69.305406399981
 31
0.0
  0
LINE
  5
17B
330
A0
100
AcDbEntity
  8
Layer9
  6
AUSGEZOGEN
 62
     9
420
 12632256
370
    18
100
AcDbLine
 10
154.007105413538
 20
61.305406399981
 30
0.0
 11
162.007105413538
 21
69.305406399981
 31
0.0
  0
LINE
  5
17C
330
A0
100
AcDbEntity
  8
Layer9
  6
AUSGEZOGEN
 62
     9
420
 12632256
370
    18
100
AcDbLine
 10
153.794973379182
 20
61.305406399981
 30
0.0
 11
161.794973379182
 21
69.305406399981
 31
0.0
  0
LINE
  5
17D
330
A0
100
AcDbEntity
  8
Layer9
  6
AUSGEZOGEN
 62
     9
420
 12632256
370
    18
100
AcDbLine
 10
153.582841344826
 20
61.305406399981
 30
0.0
 11
161.582841344826
 21
69.305406399981
 31
0.0
  0
LINE
  5
17E
330
A0
100
AcDbEntity
  8
Layer9
  6
AUSGEZOGEN
 62
     9
420
 12632256
370
    18
100
AcDbLine
 10
153.37070931047
 20
61.305406399981
 30
0.0
 11
161.37070931047
 21
69.305406399981
 31
0.0
  0
LINE
  5
17F
330
A0
100
AcDbEntity
  8
Layer9
  6
AUSGEZOGEN
 62
     9
420
 12632256
370
    18
100
AcDbLine
 10
153.158577276114
 20
61.305406399981
 30
0.0
 11
161.158577276114
 21
69.305406399981
 31
0.0
  0
LINE
  5
180
330
A0
100
AcDbEntity
  8
Layer9
  6
AUSGEZOGEN
 62
     9
420
 12632256
370
    18
100
AcDbLine
 10
152.946445241758
 20
61.305406399981
 30
0.0
 11
160.946445241758
 21
69.305406399981
 31
0.0
  0
LINE
  5
181
330
A0
100
AcDbEntity
  8
Layer9
  6
AUSGEZOGEN
 62
     9
420
 12632256
370
    18
100
AcDbLine
 10
152.734313207402
 20
61.305406399981
 30
0.0
 11
160.734313207402
 21
69.305406399981
 31
0.0
  0
LINE
  5
182
330
A0
100
AcDbEntity
  8
Layer9
  6
AUSGEZOGEN
 62
     9
420
 12632256
370
    18
100
AcDbLine
 10
152.522181173046
 20
61.305406399981
 30
0.0
 11
160.522181173046
 21
69.305406399981
 31
0.0
  0
LINE
  5
183
330
A0
100
AcDbEntity
  8
Layer9
  6
AUSGEZOGEN
 62
     9
420
 12632256
370
    18
100
AcDbLine
 10
152.31004913869
 20
61.305406399981
 30
0.0
 11
160.31004913869
 21
69.305406399981
 31
0.0
  0
LINE
  5
184
330
A0
100
AcDbEntity
  8
Layer9
  6
AUSGEZOGEN
 62
     9
420
 12632256
370
    18
100
AcDbLine
 10
152.097917104334
 20
61.305406399981
 30
0.0
 11
160.097917104334
 21
69.305406399981
 31
0.0
  0
LINE
  5
185
330
A0
100
AcDbEntity
  8
Layer9
  6
AUSGEZOGEN
 62
     9
420
 12632256
370
    18
100
AcDbLine
 10
151.885785069978
 20
61.305406399981
 30
0.0
 11
159.885785069978
 21
69.305406399981
 31
0.0
  0
LINE
  5
186
330
A0
100
AcDbEntity
  8
Layer9
  6
AUSGEZOGEN
 62
     9
420
 12632256
370
    18
100
AcDbLine
 10
151.673653035622
 20
61.305406399981
 30
0.0
 11
159.673653035622
 21
69.305406399981
 31
0.0
  0
LINE
  5
187
330
A0
100
AcDbEntity
  8
Layer9
  6
AUSGEZOGEN
 62
     9
420
 12632256
370
    18
100
AcDbLine
 10
151.461521001266
 20
61.305406399981
 30
0.0
 11
159.461521001266
 21
69.305406399981
 31
0.0
  0
LINE
  5
188
330
A0
100
AcDbEntity
  8
Layer9
  6
AUSGEZOGEN
 62
     9
420
 12632256
370
    18
100
AcDbLine
 10
151.24938896691
 20
61.305406399981
 30
0.0
 11
159.24938896691
 21
69.305406399981
 31
0.0
  0
LINE
  5
189
330
A0
100
AcDbEntity
  8
Layer9
  6
AUSGEZOGEN
 62
     9
420
 12632256
370
    18
100
AcDbLine
 10
151.037256932554
 20
61.305406399981
 30
0.0
 11
159.037256932554
 21
69.305406399981
 31
0.0
  0
LINE
  5
18A
330
A0
100
AcDbEntity
  8
Layer9
  6
AUSGEZOGEN
 62
     9
420
 12632256
370
    18
100
AcDbLine
 10
150.825124898198
 20
61.305406399981
 30
0.0
 11
158.825124898198
 21
69.305406399981
 31
0.0
  0
LINE
  5
18B
330
A0
100
AcDbEntity
  8
Layer9
  6
AUSGEZOGEN
 62
     9
420
 12632256
370
    18
100
AcDbLine
 10
150.612992863842
 20
61.305406399981
 30
0.0
 11
158.612992863842
 21
69.305406399981
 31
0.0
  0
LINE
  5
18C
330
A0
100
AcDbEntity
  8
Layer9
  6
AUSGEZOGEN
 62
     9
420
 12632256
370
    18
100
AcDbLine
 10
150.400860829486
 20
61.305406399981
 30
0.0
 11
158.400860829486
 21
69.305406399981
 31
0.0
  0
LINE
  5
18D
330
A0
100
AcDbEntity
  8
Layer9
  6
AUSGEZOGEN
 62
     9
420
 12632256
370
    18
100
AcDbLine
 10
150.18872879513
 20
61.305406399981
 30
0.0
 11
158.18872879513
 21
69.305406399981
 31
0.0
  0
LINE
  5
18E
330
A0
100
AcDbEntity
  8
Layer9
  6
AUSGEZOGEN
 62
     9
420
 12632256
370
    18
100
AcDbLine
 10
149.976596760774
 20
61.305406399981
 30
0.0
 11
157.976596760774
 21
69.305406399981
 31
0.0
  0
LINE
  5
18F
330
A0
100
AcDbEntity
  8
Layer9
  6
AUSGEZOGEN
 62
     9
420
 12632256
370
    18
100
AcDbLine
 10
149.764464726419
 20
61.305406399981
 30
0.0
 11
157.764464726418
 21
69.305406399981
 31
0.0
  0
LINE
  5
190
330
A0
100
AcDbEntity
  8
Layer9
  6
AUSGEZOGEN
 62
     9
420
 12632256
370
    18
100
AcDbLine
 10
149.552332692063
 20
61.305406399981
 30
0.0
 11
157.552332692063
 21
69.305406399981
 31
0.0
  0
LINE
  5
191
330
A0
100
AcDbEntity
  8
Layer9
  6
AUSGEZOGEN
 62
     9
420
 12632256
370
    18
100
AcDbLine
 10
149.340200657707
 20
61.305406399981
 30
0.0
 11
157.340200657707
 21
69.305406399981
 31
0.0
  0
LINE
  5
192
330
A0
100
AcDbEntity
  8
Layer9
  6
AUSGEZOGEN
 62
     9
420
 12632256
370
    18
100
AcDbLine
 10
149.128068623351
 20
61.305406399981
 30
0.0
 11
157.128068623351
 21
69.305406399981
 31
0.0
  0
LINE
  5
193
330
A0
100
AcDbEntity
  8
Layer9
  6
AUSGEZOGEN
 62
     9
420
 12632256
370
    18
100
AcDbLine
 10
148.915936588995
 20
61.305406399981
 30
0.0
 11
156.915936588995
 21
69.305406399981
 31
0.0
  0
LINE
  5
194
330
A0
100
AcDbEntity
  8
Layer9
  6
AUSGEZOGEN
 62
     9
420
 12632256
370
    18
100
AcDbLine
 10
148.703804554639
 20
61.305406399981
 30
0.0
 11
156.703804554639
 21
69.305406399981
 31
0.0
  0
LINE
  5
195
330
A0
100
AcDbEntity
  8
Layer9
  6
AUSGEZOGEN
 62
     9
420
 12632256
370
    18
100
AcDbLine
 10
148.491672520283
 20
61.305406399981
 30
0.0
 11
156.491672520283
 21
69.305406399981
 31
0.0
  0
LINE
  5
196
330
A0
100
AcDbEntity
  8
Layer9
  6
AUSGEZOGEN
 62
     9
420
 12632256
370
    18
100
AcDbLine
 10
148.279540485927
 20
61.305406399981
 30
0.0
 11
156.279540485927
 21
69.305406399981
 31
0.0
  0
LINE
  5
197
330
A0
100
AcDbEntity
  8
Layer9
  6
AUSGEZOGEN
 62
     9
420
 12632256
370
    18
100
AcDbLine
 10
148.067408451571
 20
61.305406399981
 30
0.0
 11
156.067408451571
 21
69.305406399981
 31
0.0
  0
LINE
  5
198
330
A0
100
AcDbEntity
  8
Layer9
  6
AUSGEZOGEN
 62
     9
420
 12632256
370
    18
100
AcDbLine
 10
147.855276417215
 20
61.305406399981
 30
0.0
 11
155.855276417215
 21
69.305406399981
 31
0.0
  0
LINE
  5
199
330
A0
100
AcDbEntity
  8
Layer9
  6
AUSGEZOGEN
 62
     9
420
 12632256
370
    18
100
AcDbLine
 10
147.643144382859
 20
61.305406399981
 30
0.0
 11
155.643144382859
 21
69.305406399981
 31
0.0
  0
LINE
  5
19A
330
A0
100
AcDbEntity
  8
Layer9
  6
AUSGEZOGEN
 62
     9
420
 12632256
370
    18
100
AcDbLine
 10
147.431012348503
 20
61.305406399981
 30
0.0
 11
155.431012348503
 21
69.305406399981
 31
0.0
  0
LINE
  5
19B
330
A0
100
AcDbEntity
  8
Layer9
  6
AUSGEZOGEN
 62
     9
420
 12632256
370
    18
100
AcDbLine
 10
147.218880314147
 20
61.305406399981
 30
0.0
 11
155.218880314147
 21
69.305406399981
 31
0.0
  0
LINE
  5
19C
330
A0
100
AcDbEntity
  8
Layer9
  6
AUSGEZOGEN
 62
     9
420
 12632256
370
    18
100
AcDbLine
 10
147.006748279791
 20
61.305406399981
 30
0.0
 11
155.006748279791
 21
69.305406399981
 31
0.0
  0
LINE
  5
19D
330
A0
100
AcDbEntity
  8
Layer9
  6
AUSGEZOGEN
 62
     9
420
 12632256
370
    18
100
AcDbLine
 10
146.794616245435
 20
61.305406399981
 30
0.0
 11
154.794616245435
 21
69.305406399981
 31
0.0
  0
LINE
  5
19E
330
A0
100
AcDbEntity
  8
Layer9
  6
AUSGEZOGEN
 62
     9
420
 12632256
370
    18
100
AcDbLine
 10
146.582484211079
 20
61.305406399981
 30
0.0
 11
154.582484211079
 21
69.305406399981
 31
0.0
  0
LINE
  5
19F
330
A0
100
AcDbEntity
  8
Layer9
  6
AUSGEZOGEN
 62
     9
420
 12632256
370
    18
100
AcDbLine
 10
146.370352176723
 20
61.305406399981
 30
0.0
 11
154.370352176723
 21
69.305406399981
 31
0.0
  0
LINE
  5
1A0
330
A0
100
AcDbEntity
  8
Layer9
  6
AUSGEZOGEN
 62
     9
420
 12632256
370
    18
100
AcDbLine
 10
146.158220142367
 20
61.305406399981
 30
0.0
 11
154.158220142367
 21
69.305406399981
 31
0.0
  0
LINE
  5
1A1
330
A0
100
AcDbEntity
  8
Layer9
  6
AUSGEZOGEN
 62
     9
420
 12632256
370
    18
100
AcDbLine
 10
145.946088108011
 20
61.305406399981
 30
0.0
 11
153.946088108011
 21
69.305406399981
 31
0.0
  0
LINE
  5
1A2
330
A0
100
AcDbEntity
  8
Layer9
  6
AUSGEZOGEN
 62
     9
420
 12632256
370
    18
100
AcDbLine
 10
145.733956073655
 20
61.305406399981
 30
0.0
 11
153.733956073655
 21
69.305406399981
 31
0.0
  0
LINE
  5
1A3
330
A0
100
AcDbEntity
  8
Layer9
  6
AUSGEZOGEN
 62
     9
420
 12632256
370
    18
100
AcDbLine
 10
145.521824039299
 20
61.305406399981
 30
0.0
 11
153.521824039299
 21
69.305406399981
 31
0.0
  0
LINE
  5
1A4
330
A0
100
AcDbEntity
  8
Layer9
  6
AUSGEZOGEN
 62
     9
420
 12632256
370
    18
100
AcDbLine
 10
145.309692004943
 20
61.305406399981
 30
0.0
 11
153.309692004943
 21
69.305406399981
 31
0.0
  0
LINE
  5
1A5
330
A0
100
AcDbEntity
  8
Layer9
  6
AUSGEZOGEN
 62
     9
420
 12632256
370
    18
100
AcDbLine
 10
145.097559970587
 20
61.305406399981
 30
0.0
 11
153.097559970587
 21
69.305406399981
 31
0.0
  0
LINE
  5
1A6
330
A0
100
AcDbEntity
  8
Layer9
  6
AUSGEZOGEN
 62
     9
420
 12632256
370
    18
100
AcDbLine
 10
144.885427936231
 20
61.305406399981
 30
0.0
 11
152.885427936231
 21
69.305406399981
 31
0.0
  0
LINE
  5
1A7
330
A0
100
AcDbEntity
  8
Layer9
  6
AUSGEZOGEN
 62
     9
420
 12632256
370
    18
100
AcDbLine
 10
144.673295901875
 20
61.305406399981
 30
0.0
 11
152.673295901875
 21
69.305406399981
 31
0.0
  0
LINE
  5
1A8
330
A0
100
AcDbEntity
  8
Layer9
  6
AUSGEZOGEN
 62
     9
420
 12632256
370
    18
100
AcDbLine
 10
144.461163867519
 20
61.305406399981
 30
0.0
 11
152.461163867519
 21
69.305406399981
 31
0.0
  0
LINE
  5
1A9
330
A0
100
AcDbEntity
  8
Layer9
  6
AUSGEZOGEN
 62
     9
420
 12632256
370
    18
100
AcDbLine
 10
144.249031833163
 20
61.305406399981
 30
0.0
 11
152.249031833163
 21
69.305406399981
 31
0.0
  0
LINE
  5
1AA
330
A0
100
AcDbEntity
  8
Layer9
  6
AUSGEZOGEN
 62
     9
420
 12632256
370
    18
100
AcDbLine
 10
144.036899798807
 20
61.305406399981
 30
0.0
 11
152.036899798807
 21
69.305406399981
 31
0.0
  0
LINE
  5
1AB
330
A0
100
AcDbEntity
  8
Layer9
  6
AUSGEZOGEN
 62
     9
420
 12632256
370
    18
100
AcDbLine
 10
143.824767764452
 20
61.305406399981
 30
0.0
 11
151.824767764452
 21
69.305406399981
 31
0.0
  0
LINE
  5
1AC
330
A0
100
AcDbEntity
  8
Layer9
  6
AUSGEZOGEN
 62
     9
420
 12632256
370
    18
100
AcDbLine
 10
143.612635730096
 20
61.305406399981
 30
0.0
 11
151.612635730096
 21
69.305406399981
 31
0.0
  0
LINE
  5
1AD
330
A0
100
AcDbEntity
  8
Layer9
  6
AUSGEZOGEN
 62
     9
420
 12632256
370
    18
100
AcDbLine
 10
143.40050369574
 20
61.305406399981
 30
0.0
 11
151.40050369574
 21
69.305406399981
 31
0.0
  0
LINE
  5
1AE
330
A0
100
AcDbEntity
  8
Layer9
  6
AUSGEZOGEN
 62
     9
420
 12632256
370
    18
100
AcDbLine
 10
143.188371661384
 20
61.305406399981
 30
0.0
 11
151.188371661384
 21
69.305406399981
 31
0.0
  0
LINE
  5
1AF
330
A0
100
AcDbEntity
  8
Layer9
  6
AUSGEZOGEN
 62
     9
420
 12632256
370
    18
100
AcDbLine
 10
142.976239627028
 20
61.305406399981
 30
0.0
 11
150.976239627028
 21
69.305406399981
 31
0.0
  0
LINE
  5
1B0
330
A0
100
AcDbEntity
  8
Layer9
  6
AUSGEZOGEN
 62
     9
420
 12632256
370
    18
100
AcDbLine
 10
142.764107592672
 20
61.305406399981
 30
0.0
 11
150.764107592672
 21
69.305406399981
 31
0.0
  0
LINE
  5
1B1
330
A0
100
AcDbEntity
  8
Layer9
  6
AUSGEZOGEN
 62
     9
420
 12632256
370
    18
100
AcDbLine
 10
142.551975558316
 20
61.305406399981
 30
0.0
 11
150.551975558316
 21
69.305406399981
 31
0.0
  0
LINE
  5
1B2
330
A0
100
AcDbEntity
  8
Layer9
  6
AUSGEZOGEN
 62
     9
420
 12632256
370
    18
100
AcDbLine
 10
142.33984352396
 20
61.305406399981
 30
0.0
 11
150.33984352396
 21
69.305406399981
 31
0.0
  0
LINE
  5
1B3
330
A0
100
AcDbEntity
  8
Layer9
  6
AUSGEZOGEN
 62
     9
420
 12632256
370
    18
100
AcDbLine
 10
142.127711489604
 20
61.305406399981
 30
0.0
 11
150.127711489604
 21
69.305406399981
 31
0.0
  0
LINE
  5
1B4
330
A0
100
AcDbEntity
  8
Layer9
  6
AUSGEZOGEN
 62
     9
420
 12632256
370
    18
100
AcDbLine
 10
141.915579455248
 20
61.305406399981
 30
0.0
 11
149.915579455248
 21
69.305406399981
 31
0.0
  0
LINE
  5
1B5
330
A0
100
AcDbEntity
  8
Layer9
  6
AUSGEZOGEN
 62
     9
420
 12632256
370
    18
100
AcDbLine
 10
141.703447420892
 20
61.305406399981
 30
0.0
 11
149.703447420892
 21
69.305406399981
 31
0.0
  0
LINE
  5
1B6
330
A0
100
AcDbEntity
  8
Layer9
  6
AUSGEZOGEN
 62
     9
420
 12632256
370
    18
100
AcDbLine
 10
141.491315386536
 20
61.305406399981
 30
0.0
 11
149.491315386536
 21
69.305406399981
 31
0.0
  0
LINE
  5
1B7
330
A0
100
AcDbEntity
  8
Layer9
  6
AUSGEZOGEN
 62
     9
420
 12632256
370
    18
100
AcDbLine
 10
141.27918335218
 20
61.305406399981
 30
0.0
 11
149.27918335218
 21
69.305406399981
 31
0.0
  0
LINE
  5
1B8
330
A0
100
AcDbEntity
  8
Layer9
  6
AUSGEZOGEN
 62
     9
420
 12632256
370
    18
100
AcDbLine
 10
141.067051317824
 20
61.305406399981
 30
0.0
 11
149.067051317824
 21
69.305406399981
 31
0.0
  0
LINE
  5
1B9
330
A0
100
AcDbEntity
  8
Layer9
  6
AUSGEZOGEN
 62
     9
420
 12632256
370
    18
100
AcDbLine
 10
140.886293488903
 20
61.336780605417
 30
0.0
 11
148.854919283468
 21
69.305406399981
 31
0.0
  0
LINE
  5
1BA
330
A0
100
AcDbEntity
  8
Layer9
  6
AUSGEZOGEN
 62
     9
420
 12632256
370
    18
100
AcDbLine
 10
140.886293488903
 20
61.548912639773
 30
0.0
 11
148.642787249112
 21
69.305406399981
 31
0.0
  0
LINE
  5
1BB
330
A0
100
AcDbEntity
  8
Layer9
  6
AUSGEZOGEN
 62
     9
420
 12632256
370
    18
100
AcDbLine
 10
140.886293488903
 20
61.761044674129
 30
0.0
 11
148.430655214756
 21
69.305406399981
 31
0.0
  0
LINE
  5
1BC
330
A0
100
AcDbEntity
  8
Layer9
  6
AUSGEZOGEN
 62
     9
420
 12632256
370
    18
100
AcDbLine
 10
140.886293488903
 20
61.973176708485
 30
0.0
 11
148.2185231804
 21
69.305406399981
 31
0.0
  0
LINE
  5
1BD
330
A0
100
AcDbEntity
  8
Layer9
  6
AUSGEZOGEN
 62
     9
420
 12632256
370
    18
100
AcDbLine
 10
140.886293488903
 20
62.185308742841
 30
0.0
 11
148.006391146044
 21
69.305406399981
 31
0.0
  0
LINE
  5
1BE
330
A0
100
AcDbEntity
  8
Layer9
  6
AUSGEZOGEN
 62
     9
420
 12632256
370
    18
100
AcDbLine
 10
140.886293488903
 20
62.397440777197
 30
0.0
 11
147.794259111688
 21
69.305406399981
 31
0.0
  0
LINE
  5
1BF
330
A0
100
AcDbEntity
  8
Layer9
  6
AUSGEZOGEN
 62
     9
420
 12632256
370
    18
100
AcDbLine
 10
140.886293488903
 20
62.609572811553
 30
0.0
 11
147.582127077332
 21
69.305406399981
 31
0.0
  0
LINE
  5
1C0
330
A0
100
AcDbEntity
  8
Layer9
  6
AUSGEZOGEN
 62
     9
420
 12632256
370
    18
100
AcDbLine
 10
140.886293488903
 20
62.821704845909
 30
0.0
 11
147.369995042976
 21
69.305406399981
 31
0.0
  0
LINE
  5
1C1
330
A0
100
AcDbEntity
  8
Layer9
  6
AUSGEZOGEN
 62
     9
420
 12632256
370
    18
100
AcDbLine
 10
140.886293488903
 20
63.033836880264
 30
0.0
 11
147.15786300862
 21
69.305406399981
 31
0.0
  0
LINE
  5
1C2
330
A0
100
AcDbEntity
  8
Layer9
  6
AUSGEZOGEN
 62
     9
420
 12632256
370
    18
100
AcDbLine
 10
140.886293488903
 20
63.24596891462
 30
0.0
 11
146.945730974264
 21
69.305406399981
 31
0.0
  0
LINE
  5
1C3
330
A0
100
AcDbEntity
  8
Layer9
  6
AUSGEZOGEN
 62
     9
420
 12632256
370
    18
100
AcDbLine
 10
140.886293488903
 20
63.458100948976
 30
0.0
 11
146.733598939908
 21
69.305406399981
 31
0.0
  0
LINE
  5
1C4
330
A0
100
AcDbEntity
  8
Layer9
  6
AUSGEZOGEN
 62
     9
420
 12632256
370
    18
100
AcDbLine
 10
140.886293488903
 20
63.670232983332
 30
0.0
 11
146.521466905552
 21
69.305406399981
 31
0.0
  0
LINE
  5
1C5
330
A0
100
AcDbEntity
  8
Layer9
  6
AUSGEZOGEN
 62
     9
420
 12632256
370
    18
100
AcDbLine
 10
140.886293488903
 20
63.882365017688
 30
0.0
 11
146.309334871196
 21
69.305406399981
 31
0.0
  0
LINE
  5
1C6
330
A0
100
AcDbEntity
  8
Layer9
  6
AUSGEZOGEN
 62
     9
420
 12632256
370
    18
100
AcDbLine
 10
140.886293488903
 20
64.094497052044
 30
0.0
 11
146.09720283684
 21
69.305406399981
 31
0.0
  0
LINE
  5
1C7
330
A0
100
AcDbEntity
  8
Layer9
  6
AUSGEZOGEN
 62
     9
420
 12632256
370
    18
100
AcDbLine
 10
140.886293488903
 20
64.3066290864
 30
0.0
 11
145.885070802485
 21
69.305406399981
 31
0.0
  0
LINE
  5
1C8
330
A0
100
AcDbEntity
  8
Layer9
  6
AUSGEZOGEN
 62
     9
420
 12632256
370
    18
100
AcDbLine
 10
140.886293488903
 20
64.518761120756
 30
0.0
 11
145.672938768129
 21
69.305406399981
 31
0.0
  0
LINE
  5
1C9
330
A0
100
AcDbEntity
  8
Layer9
  6
AUSGEZOGEN
 62
     9
420
 12632256
370
    18
100
AcDbLine
 10
140.886293488903
 20
64.730893155112
 30
0.0
 11
145.460806733773
 21
69.305406399981
 31
0.0
  0
LINE
  5
1CA
330
A0
100
AcDbEntity
  8
Layer9
  6
AUSGEZOGEN
 62
     9
420
 12632256
370
    18
100
AcDbLine
 10
140.886293488903
 20
64.943025189468
 30
0.0
 11
145.248674699417
 21
69.305406399981
 31
0.0
  0
LINE
  5
1CB
330
A0
100
AcDbEntity
  8
Layer9
  6
AUSGEZOGEN
 62
     9
420
 12632256
370
    18
100
AcDbLine
 10
140.886293488903
 20
65.155157223824
 30
0.0
 11
145.036542665061
 21
69.305406399981
 31
0.0
  0
LINE
  5
1CC
330
A0
100
AcDbEntity
  8
Layer9
  6
AUSGEZOGEN
 62
     9
420
 12632256
370
    18
100
AcDbLine
 10
140.886293488903
 20
65.36728925818
 30
0.0
 11
144.824410630705
 21
69.305406399981
 31
0.0
  0
LINE
  5
1CD
330
A0
100
AcDbEntity
  8
Layer9
  6
AUSGEZOGEN
 62
     9
420
 12632256
370
    18
100
AcDbLine
 10
140.886293488903
 20
65.579421292536
 30
0.0
 11
144.612278596349
 21
69.305406399981
 31
0.0
  0
LINE
  5
1CE
330
A0
100
AcDbEntity
  8
Layer9
  6
AUSGEZOGEN
 62
     9
420
 12632256
370
    18
100
AcDbLine
 10
140.886293488903
 20
65.791553326892
 30
0.0
 11
144.400146561993
 21
69.305406399981
 31
0.0
  0
LINE
  5
1CF
330
A0
100
AcDbEntity
  8
Layer9
  6
AUSGEZOGEN
 62
     9
420
 12632256
370
    18
100
AcDbLine
 10
140.886293488903
 20
66.003685361248
 30
0.0
 11
144.188014527637
 21
69.305406399981
 31
0.0
  0
LINE
  5
1D0
330
A0
100
AcDbEntity
  8
Layer9
  6
AUSGEZOGEN
 62
     9
420
 12632256
370
    18
100
AcDbLine
 10
140.886293488903
 20
66.215817395604
 30
0.0
 11
143.975882493281
 21
69.305406399981
 31
0.0
  0
LINE
  5
1D1
330
A0
100
AcDbEntity
  8
Layer9
  6
AUSGEZOGEN
 62
     9
420
 12632256
370
    18
100
AcDbLine
 10
140.886293488903
 20
66.42794942996
 30
0.0
 11
143.763750458925
 21
69.305406399981
 31
0.0
  0
LINE
  5
1D2
330
A0
100
AcDbEntity
  8
Layer9
  6
AUSGEZOGEN
 62
     9
420
 12632256
370
    18
100
AcDbLine
 10
140.886293488903
 20
66.640081464316
 30
0.0
 11
143.551618424569
 21
69.305406399981
 31
0.0
  0
LINE
  5
1D3
330
A0
100
AcDbEntity
  8
Layer9
  6
AUSGEZOGEN
 62
     9
420
 12632256
370
    18
100
AcDbLine
 10
140.886293488903
 20
66.852213498672
 30
0.0
 11
143.339486390213
 21
69.305406399981
 31
0.0
  0
LINE
  5
1D4
330
A0
100
AcDbEntity
  8
Layer9
  6
AUSGEZOGEN
 62
     9
420
 12632256
370
    18
100
AcDbLine
 10
140.886293488903
 20
67.064345533028
 30
0.0
 11
143.127354355857
 21
69.305406399981
 31
0.0
  0
LINE
  5
1D5
330
A0
100
AcDbEntity
  8
Layer9
  6
AUSGEZOGEN
 62
     9
420
 12632256
370
    18
100
AcDbLine
 10
140.886293488903
 20
67.276477567384
 30
0.0
 11
142.915222321501
 21
69.305406399981
 31
0.0
  0
LINE
  5
1D6
330
A0
100
AcDbEntity
  8
Layer9
  6
AUSGEZOGEN
 62
     9
420
 12632256
370
    18
100
AcDbLine
 10
140.886293488903
 20
67.48860960174
 30
0.0
 11
142.703090287145
 21
69.305406399981
 31
0.0
  0
LINE
  5
1D7
330
A0
100
AcDbEntity
  8
Layer9
  6
AUSGEZOGEN
 62
     9
420
 12632256
370
    18
100
AcDbLine
 10
140.886293488903
 20
67.700741636096
 30
0.0
 11
142.490958252789
 21
69.305406399981
 31
0.0
  0
LINE
  5
1D8
330
A0
100
AcDbEntity
  8
Layer9
  6
AUSGEZOGEN
 62
     9
420
 12632256
370
    18
100
AcDbLine
 10
140.886293488903
 20
67.912873670452
 30
0.0
 11
142.278826218433
 21
69.305406399981
 31
0.0
  0
LINE
  5
1D9
330
A0
100
AcDbEntity
  8
Layer9
  6
AUSGEZOGEN
 62
     9
420
 12632256
370
    18
100
AcDbLine
 10
140.886293488903
 20
68.125005704808
 30
0.0
 11
142.066694184077
 21
69.305406399981
 31
0.0
  0
LINE
  5
1DA
330
A0
100
AcDbEntity
  8
Layer9
  6
AUSGEZOGEN
 62
     9
420
 12632256
370
    18
100
AcDbLine
 10
140.886293488903
 20
68.337137739164
 30
0.0
 11
141.854562149721
 21
69.305406399981
 31
0.0
  0
LINE
  5
1DB
330
A0
100
AcDbEntity
  8
Layer9
  6
AUSGEZOGEN
 62
     9
420
 12632256
370
    18
100
AcDbLine
 10
140.886293488903
 20
68.54926977352
 30
0.0
 11
141.642430115365
 21
69.305406399981
 31
0.0
  0
LINE
  5
1DC
330
A0
100
AcDbEntity
  8
Layer9
  6
AUSGEZOGEN
 62
     9
420
 12632256
370
    18
100
AcDbLine
 10
140.886293488903
 20
68.761401807876
 30
0.0
 11
141.430298081009
 21
69.305406399981
 31
0.0
  0
LINE
  5
1DD
330
A0
100
AcDbEntity
  8
Layer9
  6
AUSGEZOGEN
 62
     9
420
 12632256
370
    18
100
AcDbLine
 10
140.886293488903
 20
68.973533842231
 30
0.0
 11
141.218166046653
 21
69.305406399981
 31
0.0
  0
LINE
  5
1DE
330
A0
100
AcDbEntity
  8
Layer9
  6
AUSGEZOGEN
 62
     9
420
 12632256
370
    18
100
AcDbLine
 10
140.886293488903
 20
69.185665876587
 30
0.0
 11
141.006034012297
 21
69.305406399981
 31
0.0
  0
ENDBLK
  5
A2
330
A0
100
AcDbEntity
  8
0
100
AcDbBlockEnd
  0
BLOCK
  5
1F2
330
1F1
100
AcDbEntity
  8
0
100
AcDbBlockBegin
  2
*D5
 70
     1
 10
0.0
 20
0.0
 30
0.0
  3
*D5
  1
*D5
  0
HATCH
  5
1F4
330
1F1
100
AcDbEntity
  8
Bemaßungen
  6
AUSGEZOGEN
 62
     6
420
 16711935
370
    18
100
AcDbHatch
 10
0.0
 20
0.0
 30
0.0
210
0.0
220
0.0
230
1.0
  2
SOLID
 70
     1
 71
     0
 91
        1
 92
        2
 72
     0
 73
     1
 93
        3
 10
200.886293488903
 20
135.253726232876
 10
196.652960378094
 20
136.1003928550378
 10
196.652960378094
 20
134.4070596107142
 97
        0
 75
     0
 76
     1
 98
        0
  0
HATCH
  5
1F5
330
1F1
100
AcDbEntity
  8
Bemaßungen
  6
AUSGEZOGEN
 62
     6
420
 16711935
370
    18
100
AcDbHatch
 10
0.0
 20
0.0
 30
0.0
210
0.0
220
0.0
230
1.0
  2
SOLID
 70
     1
 71
     0
 91
        1
 92
        2
 72
     0
 73
     1
 93
        3
 10
140.886293488903
 20
135.253726232876
 10
145.119626599712
 20
134.4070596107142
 10
145.119626599712
 20
136.1003928550378
 97
        0
 75
     0
 76
     1
 98
        0
  0
LINE
  5
1F6
330
1F1
100
AcDbEntity
  8
Bemaßungen
  6
AUSGEZOGEN
 62
     6
420
 16711935
370
    18
100
AcDbLine
 10
145.119626599712
 20
135.253726232876
 30
0.0
 11
196.652960378094
 21
135.253726232876
 31
0.0
  0
LINE
  5
1F7
330
1F1
100
AcDbEntity
  8
Bemaßungen
  6
AUSGEZOGEN
 62
     6
420
 16711935
370
    18
100
AcDbLine
 10
140.886293488903
 20
123.09271719409
 30
0.0
 11
140.886293488903
 21
138.27753559774
 31
0.0
  0
LINE
  5
1F8
330
1F1
100
AcDbEntity
  8
Bemaßungen
  6
AUSGEZOGEN
 62
     6
420
 16711935
370
    18
100
AcDbLine
 10
200.886293488903
 20
123.09271719409
 30
0.0
 11
200.886293488903
 21
138.27753559774
 31
0.0
  0
TEXT
  5
1F9
330
1F1
100
AcDbEntity
  8
Bemaßungen
  6
AUSGEZOGEN
 62
     6
420
 16711935
370
    18
100
AcDbText
 10
168.19235423657
 20
137.370392788281
 30
0.0
 40
4.233333110809
  1
60
 41
0.820056232427
  7
Arial
 72
     5
 11
173.580232741236
 21
137.370392788281
 31
0.0
100
AcDbText
  0
ENDBLK
  5
1F3
330
1F1
100
AcDbEntity
  8
0
100
AcDbBlockEnd
  0
BLOCK
  5
1FC
330
1FB
100
AcDbEntity
  8
0
100
AcDbBlockBegin
  2
*D6
 70
     1
 10
0.0
 20
0.0
 30
0.0
  3
*D6
  1
*D6
  0
HATCH
  5
1FE
330
1FB
100
AcDbEntity
  8
Bemaßungen
  6
AUSGEZOGEN
 62
     6
420
 16711935
370
    18
100
AcDbHatch
 10
0.0
 20
0.0
 30
0.0
210
0.0
220
0.0
230
1.0
  2
SOLID
 70
     1
 71
     0
 91
        1
 92
        2
 72
     0
 73
     1
 93
        3
 10
130.047763050113
 20
103.09271719409
 10
130.8944296722748
 20
107.326050304899
 10
129.2010964279512
 20
107.326050304899
 97
        0
 75
     0
 76
     1
 98
        0
  0
HATCH
  5
1FF
330
1FB
100
AcDbEntity
  8
Bemaßungen
  6
AUSGEZOGEN
 62
     6
420
 16711935
370
    18
100
AcDbHatch
 10
0.0
 20
0.0
 30
0.0
210
0.0
220
0.0
230
1.0
  2
SOLID
 70
     1
 71
     0
 91
        1
 92
        2
 72
     0
 73
     1
 93
        3
 10
130.047763050113
 20
123.09271719409
 10
129.2010964279512
 20
118.859384083281
 10
130.8944296722748
 20
118.859384083281
 97
        0
 75
     0
 76
     1
 98
        0
  0
LINE
  5
200
330
1FB
100
AcDbEntity
  8
Bemaßungen
  6
AUSGEZOGEN
 62
     6
420
 16711935
370
    18
100
AcDbLine
 10
130.047763050113
 20
118.859384083281
 30
0.0
 11
130.047763050113
 21
107.326050304899
 31
0.0
  0
LINE
  5
201
330
1FB
100
AcDbEntity
  8
Bemaßungen
  6
AUSGEZOGEN
 62
     6
420
 16711935
370
    18
100
AcDbLine
 10
140.886293488903
 20
123.09271719409
 30
0.0
 11
127.023953685249
 21
123.09271719409
 31
0.0
  0
LINE
  5
202
330
1FB
100
AcDbEntity
  8
Bemaßungen
  6
AUSGEZOGEN
 62
     6
420
 16711935
370
    18
100
AcDbLine
 10
140.886293488903
 20
103.09271719409
 30
0.0
 11
127.023953685249
 21
103.09271719409
 31
0.0
  0
TEXT
  5
203
330
1FB
100
AcDbEntity
  8
Bemaßungen
  6
AUSGEZOGEN
 62
     6
420
 16711935
370
    18
100
AcDbText
 10
127.507763183628
 20
105.397193341953
 30
0.0
 40
4.233333110809
  1
20
 50
90.0
 41
1.219689269638
  7
Arial
 72
     5
 11
127.507763183628
 21
113.410714047484
 31
0.0
100
AcDbText
  0
TEXT
  5
204
330
1FB
100
AcDbEntity
  8
Bemaßungen
  6
AUSGEZOGEN
 62
     6
420
 16711935
370
    18
100
AcDbText
 10
127.507763183628
 20
113.410714047484
 30
0.0
 40
4.233333110809
  1
a^ 
 50
90.0
 41
1.217835782456
  7
Arial
 72
     5
 11
127.507763183628
 21
120.788241046227
 31
0.0
100
AcDbText
  0
ENDBLK
  5
1FD
330
1FB
100
AcDbEntity
  8
0
100
AcDbBlockEnd
  0
BLOCK
  5
207
330
206
100
AcDbEntity
  8
0
100
AcDbBlockBegin
  2
*D7
 70
     1
 10
0.0
 20
0.0
 30
0.0
  3
*D7
  1
*D7
  0
HATCH
  5
209
330
206
100
AcDbEntity
  8
Bemaßungen
  6
AUSGEZOGEN
 62
     6
420
 16711935
370
    18
100
AcDbHatch
 10
0.0
 20
0.0
 30
0.0
210
0.0
220
0.0
230
1.0
  2
SOLID
 70
     1
 71
     0
 91
        1
 92
        2
 72
     0
 73
     1
 93
        3
 10
131.065830315326
 20
61.305406399981
 10
131.9124969374878
 20
65.53873951079001
 10
130.2191636931642
 20
65.53873951079001
 97
        0
 75
     0
 76
     1
 98
        0
  0
HATCH
  5
20A
330
206
100
AcDbEntity
  8
Bemaßungen
  6
AUSGEZOGEN
 62
     6
420
 16711935
370
    18
100
AcDbHatch
 10
0.0
 20
0.0
 30
0.0
210
0.0
220
0.0
230
1.0
  2
SOLID
 70
     1
 71
     0
 91
        1
 92
        2
 72
     0
 73
     1
 93
        3
 10
131.065830315326
 20
69.305406399981
 10
130.2191636931642
 20
65.072073289172
 10
131.9124969374878
 20
65.072073289172
 97
        0
 75
     0
 76
     1
 98
        0
  0
LINE
  5
20B
330
206
100
AcDbEntity
  8
Bemaßungen
  6
AUSGEZOGEN
 62
     6
420
 16711935
370
    18
100
AcDbLine
 10
131.065830315326
 20
65.072073289172
 30
0.0
 11
131.065830315326
 21
65.53873951079
 31
0.0
  0
LINE
  5
20C
330
206
100
AcDbEntity
  8
Bemaßungen
  6
AUSGEZOGEN
 62
     6
420
 16711935
370
    18
100
AcDbLine
 10
140.886293488903
 20
69.305406399981
 30
0.0
 11
128.042020950462
 21
69.305406399981
 31
0.0
  0
LINE
  5
20D
330
206
100
AcDbEntity
  8
Bemaßungen
  6
AUSGEZOGEN
 62
     6
420
 16711935
370
    18
100
AcDbLine
 10
140.886293488903
 20
61.305406399981
 30
0.0
 11
128.042020950462
 21
61.305406399981
 31
0.0
  0
TEXT
  5
20E
330
206
100
AcDbEntity
  8
Bemaßungen
  6
AUSGEZOGEN
 62
     6
420
 16711935
370
    18
100
AcDbText
 10
128.949163759921
 20
63.958436773814
 30
0.0
 40
4.233333110809
  1
8
 50
90.0
 41
0.820056232427
  7
Arial
 72
     5
 11
128.949163759921
 21
66.652376026147
 31
0.0
100
AcDbText
  0
ENDBLK
  5
208
330
206
100
AcDbEntity
  8
0
100
AcDbBlockEnd
  0
BLOCK
  5
213
330
212
100
AcDbEntity
  8
0
100
AcDbBlockBegin
  2
DIN A4 quer_nNn07
 70
     0
 10
0.0
 20
0.0
 30
0.0
  3
DIN A4 quer_nNn07
  1
DIN A4 quer_nNn07
  0
LINE
  5
215
330
212
100
AcDbEntity
  8
Layer1
  6
AUSGEZOGEN
 62
    18
420
        0
370
    18
100
AcDbLine
 10
36.408776995687
 20
178.136682891397
 30
0.0
 11
36.408776995687
 21
-19.863317108603
 31
0.0
  0
LINE
  5
216
330
212
100
AcDbEntity
  8
Layer1
  6
AUSGEZOGEN
 62
    18
420
        0
370
    18
100
AcDbLine
 10
36.408776995687
 20
178.136682891397
 30
0.0
 11
313.408776995687
 21
178.136682891397
 31
0.0
  0
LINE
  5
217
330
212
100
AcDbEntity
  8
Layer1
  6
AUSGEZOGEN
 62
    18
420
        0
370
    18
100
AcDbLine
 10
313.408776995687
 20
178.136682891397
 30
0.0
 11
313.408776995687
 21
-19.863317108603
 31
0.0
  0
LINE
  5
218
330
212
100
AcDbEntity
  8
Layer1
  6
AUSGEZOGEN
 62
    18
420
        0
370
    18
100
AcDbLine
 10
36.408776995687
 20
-19.863317108603
 30
0.0
 11
313.408776995687
 21
-19.863317108603
 31
0.0
  0
LINE
  5
219
330
212
100
AcDbEntity
  8
Layer1
  6
AUSGEZOGEN
 62
    18
420
        0
370
    70
100
AcDbLine
 10
41.408776995687
 20
173.136682891397
 30
0.0
 11
41.408776995687
 21
-14.863317108603
 31
0.0
  0
LINE
  5
21A
330
212
100
AcDbEntity
  8
Layer1
  6
AUSGEZOGEN
 62
    18
420
        0
370
    70
100
AcDbLine
 10
41.408776995687
 20
173.136682891397
 30
0.0
 11
308.408776995687
 21
173.136682891397
 31
0.0
  0
LINE
  5
21B
330
212
100
AcDbEntity
  8
Layer1
  6
AUSGEZOGEN
 62
    18
420
        0
370
    70
100
AcDbLine
 10
308.408776995687
 20
173.136682891397
 30
0.0
 11
308.408776995687
 21
-14.863317108603
 31
0.0
  0
LINE
  5
21C
330
212
100
AcDbEntity
  8
Layer1
  6
AUSGEZOGEN
 62
    18
420
        0
370
    70
100
AcDbLine
 10
41.408776995687
 20
-14.863317108603
 30
0.0
 11
308.408776995687
 21
-14.863317108603
 31
0.0
  0
ENDBLK
  5
214
330
212
100
AcDbEntity
  8
0
100
AcDbBlockEnd
  0
BLOCK
  5
21F
330
21E
100
AcDbEntity
  8
0
100
AcDbBlockBegin
  2
*D9
 70
     1
 10
0.0
 20
0.0
 30
0.0
  3
*D9
  1
*D9
  0
HATCH
  5
221
330
21E
100
AcDbEntity
  8
Bemaßungen
  6
AUSGEZOGEN
 62
     6
420
 16711935
370
    18
100
AcDbHatch
 10
0.0
 20
0.0
 30
0.0
210
0.0
220
0.0
230
1.0
  2
SOLID
 70
     1
 71
     0
 91
        1
 92
        2
 72
     0
 73
     1
 93
        3
 10
174.886293488903
 20
94.439029798739
 10
170.652960378094
 20
95.2856964209008
 10
170.652960378094
 20
93.5923631765772
 97
        0
 75
     0
 76
     1
 98
        0
  0
HATCH
  5
222
330
21E
100
AcDbEntity
  8
Bemaßungen
  6
AUSGEZOGEN
 62
     6
420
 16711935
370
    18
100
AcDbHatch
 10
0.0
 20
0.0
 30
0.0
210
0.0
220
0.0
230
1.0
  2
SOLID
 70
     1
 71
     0
 91
        1
 92
        2
 72
     0
 73
     1
 93
        3
 10
166.886293488903
 20
94.439029798739
 10
171.119626599712
 20
93.5923631765772
 10
171.119626599712
 20
95.2856964209008
 97
        0
 75
     0
 76
     1
 98
        0
  0
LINE
  5
223
330
21E
100
AcDbEntity
  8
Bemaßungen
  6
AUSGEZOGEN
 62
     6
420
 16711935
370
    18
100
AcDbLine
 10
171.119626599712
 20
94.439029798739
 30
0.0
 11
170.652960378094
 21
94.439029798739
 31
0.0
  0
LINE
  5
224
330
21E
100
AcDbEntity
  8
Bemaßungen
  6
AUSGEZOGEN
 62
     6
420
 16711935
370
    18
100
AcDbLine
 10
166.886293488903
 20
112.09271719409
 30
0.0
 11
166.886293488903
 21
91.415220433875
 31
0.0
  0
LINE
  5
225
330
21E
100
AcDbEntity
  8
Bemaßungen
  6
AUSGEZOGEN
 62
     6
420
 16711935
370
    18
100
AcDbLine
 10
174.886293488903
 20
112.09271719409
 30
0.0
 11
174.886293488903
 21
91.415220433875
 31
0.0
  0
TEXT
  5
226
330
21E
100
AcDbEntity
  8
Bemaßungen
  6
AUSGEZOGEN
 62
     6
420
 16711935
370
    18
100
AcDbText
 10
167.358515896562
 20
96.555696354144
 30
0.0
 40
4.233333110809
  1
M8
 41
0.859549596012
  7
Arial
 72
     5
 11
174.414071081244
 21
96.555696354144
 31
0.0
100
AcDbText
  0
ENDBLK
  5
220
330
21E
100
AcDbEntity
  8
0
100
AcDbBlockEnd
  0
BLOCK
  5
229
330
228
100
AcDbEntity
  8
0
100
AcDbBlockBegin
  2
*D10
 70
     1
 10
0.0
 20
0.0
 30
0.0
  3
*D10
  1
*D10
  0
HATCH
  5
22B
330
228
100
AcDbEntity
  8
Bemaßungen
  6
AUSGEZOGEN
 62
     6
420
 16711935
370
    18
100
AcDbHatch
 10
0.0
 20
0.0
 30
0.0
210
0.0
220
0.0
230
1.0
  2
SOLID
 70
     1
 71
     0
 91
        1
 92
        2
 72
     0
 73
     1
 93
        3
 10
167.4914180051949
 20
78.549314467449
 10
163.2585089691126
 20
79.39809870882472
 10
163.2576618790514
 20
77.70476567637955
 97
        0
 75
     0
 76
     1
 98
        0
  0
HATCH
  5
22C
330
228
100
AcDbEntity
  8
Bemaßungen
  6
AUSGEZOGEN
 62
     6
420
 16711935
370
    18
100
AcDbHatch
 10
0.0
 20
0.0
 30
0.0
210
0.0
220
0.0
230
1.0
  2
SOLID
 70
     1
 71
     0
 91
        1
 92
        2
 72
     0
 73
     1
 93
        3
 10
166.4919180051949
 20
78.549814467449
 10
170.7248270412772
 20
77.70103022607327
 10
170.7256741313385
 20
79.39436325851844
 97
        0
 75
     0
 76
     1
 98
        0
  0
LINE
  5
22D
330
228
100
AcDbEntity
  8
Bemaßungen
  6
AUSGEZOGEN
 62
     6
420
 16711935
370
    18
100
AcDbLine
 10
170.725250586308
 20
78.547696742296
 30
0.0
 11
163.258085424082
 21
78.551432192602
 31
0.0
  0
LINE
  5
22E
330
228
100
AcDbEntity
  8
Bemaßungen
  6
AUSGEZOGEN
 62
     6
420
 16711935
370
    18
100
AcDbLine
 10
166.487293488903
 20
69.305406399981
 30
0.0
 11
166.493430666019
 21
81.573623453959
 31
0.0
  0
LINE
  5
22F
330
228
100
AcDbEntity
  8
Bemaßungen
  6
AUSGEZOGEN
 62
     6
420
 16711935
370
    18
100
AcDbLine
 10
167.486293488903
 20
68.305406399981
 30
0.0
 11
167.492930666019
 21
81.573123453959
 31
0.0
  0
TEXT
  5
230
330
228
100
AcDbEntity
  8
Bemaßungen
  6
AUSGEZOGEN
 62
     6
420
 16711935
370
    18
100
AcDbText
 10
165.645757410145
 20
80.666904579646
 30
0.0
 40
4.233333110809
  1
1
 50
359.971337781514
 41
0.820056232427
  7
Arial
 72
     5
 11
168.339696325398
 21
80.665556936367
 31
0.0
100
AcDbText
  0
ENDBLK
  5
22A
330
228
100
AcDbEntity
  8
0
100
AcDbBlockEnd
  0
BLOCK
  5
233
330
232
100
AcDbEntity
  8
0
100
AcDbBlockBegin
  2
*D11
 70
     1
 10
0.0
 20
0.0
 30
0.0
  3
*D11
  1
*D11
  0
HATCH
  5
235
330
232
100
AcDbEntity
  8
Bemaßungen
  6
AUSGEZOGEN
 62
     6
420
 16711935
370
    18
100
AcDbHatch
 10
0.0
 20
0.0
 30
0.0
210
0.0
220
0.0
230
1.0
  2
SOLID
 70
     1
 71
     0
 91
        1
 92
        2
 72
     0
 73
     1
 93
        3
 10
167.486293488903
 20
47.331081535515
 10
163.252960378094
 20
48.1777481576768
 10
163.252960378094
 20
46.4844149133532
 97
        0
 75
     0
 76
     1
 98
        0
  0
HATCH
  5
236
330
232
100
AcDbEntity
  8
Bemaßungen
  6
AUSGEZOGEN
 62
     6
420
 16711935
370
    18
100
AcDbHatch
 10
0.0
 20
0.0
 30
0.0
210
0.0
220
0.0
230
1.0
  2
SOLID
 70
     1
 71
     0
 91
        1
 92
        2
 72
     0
 73
     1
 93
        3
 10
166.486293488903
 20
47.331081535515
 10
170.719626599712
 20
46.4844149133532
 10
170.719626599712
 20
48.1777481576768
 97
        0
 75
     0
 76
     1
 98
        0
  0
LINE
  5
237
330
232
100
AcDbEntity
  8
Bemaßungen
  6
AUSGEZOGEN
 62
     6
420
 16711935
370
    18
100
AcDbLine
 10
170.719626599712
 20
47.331081535515
 30
0.0
 11
163.252960378094
 21
47.331081535515
 31
0.0
  0
LINE
  5
238
330
232
100
AcDbEntity
  8
Bemaßungen
  6
AUSGEZOGEN
 62
     6
420
 16711935
370
    18
100
AcDbLine
 10
166.486293488903
 20
61.305406399981
 30
0.0
 11
166.486293488903
 21
44.307272170651
 31
0.0
  0
LINE
  5
239
330
232
100
AcDbEntity
  8
Bemaßungen
  6
AUSGEZOGEN
 62
     6
420
 16711935
370
    18
100
AcDbLine
 10
167.486293488903
 20
62.305406399981
 30
0.0
 11
167.486293488903
 21
44.307272170651
 31
0.0
  0
TEXT
  5
23A
330
232
100
AcDbEntity
  8
Bemaßungen
  6
AUSGEZOGEN
 62
     6
420
 16711935
370
    18
100
AcDbText
 10
165.639323862736
 20
49.44774809092
 30
0.0
 40
4.233333110809
  1
1
 41
0.820056232427
  7
Arial
 72
     5
 11
168.333263115069
 21
49.44774809092
 31
0.0
100
AcDbText
  0
ENDBLK
  5
234
330
232
100
AcDbEntity
  8
0
100
AcDbBlockEnd
  0
ENDSEC
  0
SECTION
  2
ENTITIES
  0
INSERT
  5
9C
330
1F
100
AcDbEntity
  8
0
100
AcDbBlockReference
  2
Draufsicht_nNn00
 10
0.0
 20
0.0
 30
0.0
  0
INSERT
  5
1EF
330
1F
100
AcDbEntity
  8
0
100
AcDbBlockReference
  2
Draufsicht-A-A_nNn02
 10
0.0
 20
0.0
 30
0.0
  0
TEXT
  5
1F0
330
1F
100
AcDbEntity
  8
Layer5
  6
AUSGEZOGEN
 62
   136
420
    32896
370
    18
100
AcDbText
 10
167.928779645828
 20
72.692023912669
 30
0.0
 40
2.4
  1
A-A
 41
1.074344649764
  7
Arial
 72
     5
 11
173.928779645828
 21
72.692023912669
 31
0.0
100
AcDbText
  0
DIMENSION
  5
1FA
330
1F
100
AcDbEntity
  8
Bemaßungen
  6
AUSGEZOGEN
 62
     6
420
 16711935
370
    18
100
AcDbDimension
280
     0
  2
*D5
 10
200.886293488903
 20
135.253726232876
 30
0.0
 11
170.886293488903
 21
139.487059343686
 31
0.0
 70
   160
 71
     5
 42
-1.0
 73
     0
 74
     0
 75
     0
  3
ISO-25
100
AcDbAlignedDimension
 13
140.886293488903
 23
123.09271719409
 33
0.0
 14
200.886293488903
 24
123.09271719409
 34
0.0
100
AcDbRotatedDimension
1001
ACAD
1000
DSTYLE
1002
{
1070
     3
1000
<>
1070
    44
1040
3.023809364864
1070
   280
1070
     0
1070
    77
1070
     1
1070
   179
1070
     2
1070
   271
1070
     2
1070
   173
1070
     1
1070
    41
1040
4.233333110809
1070
   147
1040
0.604761872973
1070
   140
1040
4.233333110809
1070
   178
1070
     6
1070
   177
1070
     6
1070
   176
1070
     6
1002
}
  0
DIMENSION
  5
205
330
1F
100
AcDbEntity
  8
Bemaßungen
  6
AUSGEZOGEN
 62
     6
420
 16711935
370
    18
100
AcDbDimension
280
     0
  2
*D6
 10
130.047763050113
 20
103.09271719409
 30
0.0
 11
125.391096628223
 21
113.09271719409
 31
0.0
 70
   160
 71
     5
 42
-1.0
 73
     0
 74
     0
 75
     0
 53
90.0
  3
ISO-25
100
AcDbAlignedDimension
 13
140.886293488903
 23
123.09271719409
 33
0.0
 14
140.886293488903
 24
103.09271719409
 34
0.0
 50
-90.0
100
AcDbRotatedDimension
1001
ACAD
1000
DSTYLE
1002
{
1070
     3
1000
<>a^ 
1070
    44
1040
3.023809364864
1070
   280
1070
     0
1070
    77
1070
     1
1070
   179
1070
     2
1070
   271
1070
     2
1070
   173
1070
     1
1070
    41
1040
4.233333110809
1070
   147
1040
0.604761872973
1070
   140
1040
4.233333110809
1070
   178
1070
     6
1070
   177
1070
     6
1070
   176
1070
     6
1002
}
  0
DIMENSION
  5
20F
330
1F
100
AcDbEntity
  8
Bemaßungen
  6
AUSGEZOGEN
 62
     6
420
 16711935
370
    18
100
AcDbDimension
280
     0
  2
*D7
 10
131.065830315326
 20
61.305406399981
 30
0.0
 11
126.832497204516
 21
65.305406399981
 31
0.0
 70
   160
 71
     5
 42
-1.0
 73
     0
 74
     0
 75
     0
 53
90.0
  3
ISO-25
100
AcDbAlignedDimension
 13
140.886293488903
 23
69.305406399981
 33
0.0
 14
140.886293488903
 24
61.305406399981
 34
0.0
 50
-90.0
100
AcDbRotatedDimension
1001
ACAD
1000
DSTYLE
1002
{
1070
     3
1000
<>
1070
    44
1040
3.023809364864
1070
   280
1070
     0
1070
    77
1070
     1
1070
   179
1070
     2
1070
   271
1070
     2
1070
   173
1070
     1
1070
    41
1040
4.233333110809
1070
   147
1040
0.604761872973
1070
   140
1040
4.233333110809
1070
   178
1070
     6
1070
   177
1070
     6
1070
   176
1070
     6
1002
}
  0
LINE
  5
210
330
1F
100
AcDbEntity
  8
Möbelbau - Grundriss_ Möbelschnitt
  6
DASHDOT
 62
    16
420
  8388608
370
    18
100
AcDbLine
 10
140.286293488903
 20
113.09271719409
 30
0.0
 11
201.686293488903
 21
113.09271719409
 31
0.0
  0
LINE
  5
211
330
1F
100
AcDbEntity
  8
Möbelbau - Grundriss_ Möbelschnitt
  6
DASHDOT
 62
    16
420
  8388608
370
    18
100
AcDbLine
 10
170.886293488903
 20
122.393215978165
 30
0.0
 11
170.886293488903
 21
102.423111115787
 31
0.0
  0
INSERT
  5
21D
330
1F
100
AcDbEntity
  8
0
100
AcDbBlockReference
  2
DIN A4 quer_nNn07
 10
0.0
 20
0.0
 30
0.0
  0
DIMENSION
  5
227
330
1F
100
AcDbEntity
  8
Bemaßungen
  6
AUSGEZOGEN
 62
     6
420
 16711935
370
    18
100
AcDbDimension
280
     0
  2
*D9
 10
174.886293488903
 20
94.439029798739
 30
0.0
 11
170.886293488903
 21
98.672362909549
 31
0.0
 70
   160
  1
M8
 71
     5
 42
-1.0
 73
     0
 74
     0
 75
     0
  3
ISO-25
100
AcDbAlignedDimension
 13
166.886293488903
 23
112.09271719409
 33
0.0
 14
174.886293488903
 24
112.09271719409
 34
0.0
100
AcDbRotatedDimension
1001
ACAD
1000
DSTYLE
1002
{
1070
    44
1040
3.023809364864
1070
   280
1070
     0
1070
    77
1070
     1
1070
   179
1070
     0
1070
   271
1070
     0
1070
   173
1070
     1
1070
    41
1040
4.233333110809
1070
   147
1040
0.604761872973
1070
   140
1040
4.233333110809
1070
   178
1070
     6
1070
   177
1070
     6
1070
   176
1070
     6
1002
}
  0
DIMENSION
  5
231
330
1F
100
AcDbEntity
  8
Bemaßungen
  6
AUSGEZOGEN
 62
     6
420
 16711935
370
    18
100
AcDbDimension
280
     0
  2
*D10
 10
167.491418005195
 20
78.549314467449
 30
0.0
 11
166.993785730348
 21
82.782897048563
 31
0.0
 70
   160
 71
     5
 42
-1.0
 73
     0
 74
     0
 75
     0
 53
-0.028662218476
  3
ISO-25
100
AcDbAlignedDimension
 13
166.487293488903
 23
69.305406399981
 33
0.0
 14
167.486293488903
 24
68.305406399981
 34
0.0
 50
-0.028662218476
100
AcDbRotatedDimension
1001
ACAD
1000
DSTYLE
1002
{
1070
     3
1000
<>
1070
    44
1040
3.023809364864
1070
   280
1070
     0
1070
    77
1070
     1
1070
   179
1070
     2
1070
   271
1070
     2
1070
   173
1070
     1
1070
    41
1040
4.233333110809
1070
   147
1040
0.604761872973
1070
   140
1040
4.233333110809
1070
   178
1070
     6
1070
   177
1070
     6
1070
   176
1070
     6
1002
}
  0
DIMENSION
  5
23B
330
1F
100
AcDbEntity
  8
Bemaßungen
  6
AUSGEZOGEN
 62
     6
420
 16711935
370
    18
100
AcDbDimension
280
     0
  2
*D11
 10
167.486293488903
 20
47.331081535515
 30
0.0
 11
166.986293488903
 21
51.564414646325
 31
0.0
 70
   160
 71
     5
 42
-1.0
 73
     0
 74
     0
 75
     0
  3
ISO-25
100
AcDbAlignedDimension
 13
166.486293488903
 23
61.305406399981
 33
0.0
 14
167.486293488903
 24
62.305406399981
 34
0.0
100
AcDbRotatedDimension
1001
ACAD
1000
DSTYLE
1002
{
1070
     3
1000
<>
1070
    44
1040
3.023809364864
1070
   280
1070
     0
1070
    77
1070
     1
1070
   179
1070
     2
1070
   271
1070
     2
1070
   173
1070
     1
1070
    41
1040
4.233333110809
1070
   147
1040
0.604761872973
1070
   140
1040
4.233333110809
1070
   178
1070
     6
1070
   177
1070
     6
1070
   176
1070
     6
1002
}
  0
ENDSEC
  0
SECTION
  2
OBJECTS
  0
DICTIONARY
  5
C
330
0
100
AcDbDictionary
281
     1
  3
ACAD_DETAILVIEWSTYLE
350
270
  3
ACAD_GROUP
350
D
  3
ACAD_LAYOUT
350
1A
  3
ACAD_MATERIAL
350
43
  3
ACAD_MLEADERSTYLE
350
26F
  3
ACAD_MLINESTYLE
350
17
  3
ACAD_PLOTSETTINGS
350
19
  3
ACAD_PLOTSTYLENAME
350
E
  3
ACAD_SCALELIST
350
47
  3
ACAD_SECTIONVIEWSTYLE
350
271
  3
ACAD_TABLESTYLE
350
26E
  3
ACAD_VISUALSTYLE
350
2A
  3
ACAD_WIPEOUT_VARS
350
6A
  3
AcDbVariableDictionary
350
23C
  0
SUN
  5
69
330
29
100
AcDbSun
 90
        1
290
     0
 63
     7
421
 16777215
 40
1.0
291
     1
 91
  2455826
 92
 54000000
292
     0
 70
     2
 71
   256
280
     1
  0
DICTIONARY
  5
270
102
{ACAD_REACTORS
330
C
102
}
330
C
100
AcDbDictionary
281
     1
  0
DICTIONARY
  5
D
102
{ACAD_REACTORS
330
C
102
}
330
C
100
AcDbDictionary
281
     1
  0
DICTIONARY
  5
1A
102
{ACAD_REACTORS
330
C
102
}
330
C
100
AcDbDictionary
281
     1
  3
Layout1
350
1E
  3
Layout2
350
26
  3
Model
350
22
  0
DICTIONARY
  5
43
102
{ACAD_REACTORS
330
C
102
}
330
C
100
AcDbDictionary
281
     1
  3
ByBlock
350
45
  3
ByLayer
350
44
  3
Global
350
46
  0
DICTIONARY
  5
26F
102
{ACAD_REACTORS
330
C
102
}
330
C
100
AcDbDictionary
281
     1
  0
DICTIONARY
  5
17
102
{ACAD_REACTORS
330
C
102
}
330
C
100
AcDbDictionary
281
     1
  3
Standard
350
18
  0
DICTIONARY
  5
19
102
{ACAD_REACTORS
330
C
102
}
330
C
100
AcDbDictionary
281
     1
  0
ACDBDICTIONARYWDFLT
  5
E
102
{ACAD_REACTORS
330
C
102
}
330
C
100
AcDbDictionary
281
     1
  3
Normal
350
F
100
AcDbDictionaryWithDefault
340
F
  0
DICTIONARY
  5
47
102
{ACAD_REACTORS
330
C
102
}
330
C
100
AcDbDictionary
281
     1
  3
A0
350
48
  3
A1
350
49
  3
A2
350
4A
  3
A3
350
4B
  3
A4
350
4C
  3
A5
350
4D
  3
A6
350
4E
  3
A7
350
4F
  3
A8
350
50
  3
A9
350
51
  3
B0
350
52
  3
B1
350
53
  3
B2
350
54
  3
B3
350
55
  3
B4
350
56
  3
B5
350
57
  3
B6
350
58
  3
B7
350
59
  3
B8
350
5A
  3
B9
350
5B
  3
C0
350
5C
  3
C1
350
5D
  3
C2
350
5E
  3
C3
350
5F
  3
C4
350
60
  3
C5
350
61
  3
C6
350
62
  3
C7
350
63
  3
C8
350
64
  3
C9
350
65
  3
D0
350
66
  3
D1
350
67
  3
D2
350
68
  0
DICTIONARY
  5
271
102
{ACAD_REACTORS
330
C
102
}
330
C
100
AcDbDictionary
281
     1
  0
DICTIONARY
  5
26E
102
{ACAD_REACTORS
330
C
102
}
330
C
100
AcDbDictionary
281
     1
  0
DICTIONARY
  5
2A
102
{ACAD_REACTORS
330
C
102
}
330
C
100
AcDbDictionary
281
     1
  3
2dWireframe
350
2F
  3
Basic
350
32
  3
Brighten
350
36
  3
ColorChange
350
3A
  3
Conceptual
350
34
  3
Dim
350
35
  3
EdgeColorOff
350
3D
  3
Facepattern
350
39
  3
Flat
350
2B
  3
FlatWithEdges
350
2C
  3
Gouraud
350
2D
  3
GouraudWithEdges
350
2E
  3
Hidden
350
31
  3
JitterOff
350
3B
  3
Linepattern
350
38
  3
OverhangOff
350
3C
  3
Realistic
350
33
  3
Shaded
350
42
  3
Shaded with edges
350
41
  3
Shades of Gray
350
3E
  3
Sketchy
350
3F
  3
Thicken
350
37
  3
Wireframe
350
30
  3
X-Ray
350
40
  0
WIPEOUTVARIABLES
  5
6A
102
{ACAD_REACTORS
330
C
102
}
330
C
100
AcDbWipeoutVariables
 70
     0
  0
DICTIONARY
  5
23C
102
{ACAD_REACTORS
330
C
102
}
330
C
100
AcDbDictionary
281
     1
  3
CANNOSCALE
350
23D
  0
LAYOUT
  5
1E
102
{ACAD_REACTORS
330
1A
102
}
330
1A
100
AcDbPlotSettings
  1

  2
none_device
  4

  6

 40
0.0
 41
0.0
 42
0.0
 43
0.0
 44
0.0
 45
0.0
 46
0.0
 47
0.0
 48
0.0
 49
0.0
140
0.0
141
0.0
142
1.0
143
1.0
 70
   688
 72
     1
 73
     0
 74
     5
  7

 75
    16
 76
     0
 77
     2
 78
   300
147
1.0
148
0.0
149
0.0
100
AcDbLayout
  1
Layout1
 70
     1
 71
     1
 10
0.0
 20
0.0
 11
420.0
 21
297.0
 12
0.0
 22
0.0
 32
0.0
 14
1.000000000000E+20
 24
1.000000000000E+20
 34
1.000000000000E+20
 15
-1.000000000000E+20
 25
-1.000000000000E+20
 35
-1.000000000000E+20
146
0.0
 13
0.0
 23
0.0
 33
0.0
 16
1.0
 26
0.0
 36
0.0
 17
0.0
 27
1.0
 37
0.0
 76
     0
330
1B
  0
LAYOUT
  5
26
102
{ACAD_REACTORS
330
1A
102
}
330
1A
100
AcDbPlotSettings
  1

  2
none_device
  4

  6

 40
0.0
 41
0.0
 42
0.0
 43
0.0
 44
0.0
 45
0.0
 46
0.0
 47
0.0
 48
0.0
 49
0.0
140
0.0
141
0.0
142
1.0
143
1.0
 70
   688
 72
     1
 73
     0
 74
     5
  7

 75
    16
 76
     0
 77
     2
 78
   300
147
1.0
148
0.0
149
0.0
100
AcDbLayout
  1
Layout2
 70
     1
 71
     2
 10
0.0
 20
0.0
 11
0.0
 21
0.0
 12
0.0
 22
0.0
 32
0.0
 14
0.0
 24
0.0
 34
0.0
 15
0.0
 25
0.0
 35
0.0
146
0.0
 13
0.0
 23
0.0
 33
0.0
 16
1.0
 26
0.0
 36
0.0
 17
0.0
 27
1.0
 37
0.0
 76
     0
330
23
  0
LAYOUT
  5
22
102
{ACAD_REACTORS
330
1A
102
}
330
1A
100
AcDbPlotSettings
  1

  2
none_device
  4
Letter_(8.50_x_11.00_Inches)
  6

 40
6.35
 41
6.35
 42
6.35000508
 43
6.35000508
 44
215.9
 45
279.4
 46
0.0
 47
0.0
 48
0.0
 49
0.0
140
0.0
141
0.0
142
1.0
143
1.0
 70
  1712
 72
     1
 73
     0
 74
     0
  7

 75
     0
 76
     0
 77
     2
 78
   300
147
1.0
148
0.0
149
0.0
100
AcDbLayout
  1
Model
 70
     1
 71
     0
 10
0.0
 20
0.0
 11
420.0
 21
297.0
 12
0.0
 22
0.0
 32
0.0
 14
-97.911022532408
 24
-29.763317108603
 34
0.0
 15
447.728576523782
 25
188.036682891397
 35
0.0
146
0.0
 13
0.0
 23
0.0
 33
0.0
 16
1.0
 26
0.0
 36
0.0
 17
0.0
 27
1.0
 37
0.0
 76
     0
330
1F
331
29
  0
MATERIAL
  5
45
102
{ACAD_REACTORS
330
43
102
}
330
43
100
AcDbMaterial
  1
ByBlock
 72
     1
 94
      127
  0
MATERIAL
  5
44
102
{ACAD_REACTORS
330
43
102
}
330
43
100
AcDbMaterial
  1
ByLayer
 72
     1
 94
      127
  0
MATERIAL
  5
46
102
{ACAD_REACTORS
330
43
102
}
330
43
100
AcDbMaterial
  1
Global
 72
     1
 94
      127
  0
MLINESTYLE
  5
18
102
{ACAD_REACTORS
330
17
102
}
330
17
100
AcDbMlineStyle
  2
Standard
 70
     0
  3

 62
   256
 51
90.0
 52
90.0
 71
     2
 49
0.5
 62
   256
  6
BYLAYER
 49
-0.5
 62
   256
  6
BYLAYER
  0
ACDBPLACEHOLDER
  5
F
102
{ACAD_REACTORS
330
E
102
}
330
E
  0
SCALE
  5
48
102
{ACAD_REACTORS
330
47
102
}
330
47
100
AcDbScale
 70
     0
300
1:1
140
1.0
141
1.0
290
     1
  0
SCALE
  5
49
102
{ACAD_REACTORS
330
47
102
}
330
47
100
AcDbScale
 70
     0
300
1:2
140
1.0
141
2.0
290
     0
  0
SCALE
  5
4A
102
{ACAD_REACTORS
330
47
102
}
330
47
100
AcDbScale
 70
     0
300
1:4
140
1.0
141
4.0
290
     0
  0
SCALE
  5
4B
102
{ACAD_REACTORS
330
47
102
}
330
47
100
AcDbScale
 70
     0
300
1:5
140
1.0
141
5.0
290
     0
  0
SCALE
  5
4C
102
{ACAD_REACTORS
330
47
102
}
330
47
100
AcDbScale
 70
     0
300
1:8
140
1.0
141
8.0
290
     0
  0
SCALE
  5
4D
102
{ACAD_REACTORS
330
47
102
}
330
47
100
AcDbScale
 70
     0
300
1:10
140
1.0
141
10.0
290
     0
  0
SCALE
  5
4E
102
{ACAD_REACTORS
330
47
102
}
330
47
100
AcDbScale
 70
     0
300
1:16
140
1.0
141
16.0
290
     0
  0
SCALE
  5
4F
102
{ACAD_REACTORS
330
47
102
}
330
47
100
AcDbScale
 70
     0
300
1:20
140
1.0
141
20.0
290
     0
  0
SCALE
  5
50
102
{ACAD_REACTORS
330
47
102
}
330
47
100
AcDbScale
 70
     0
300
1:30
140
1.0
141
30.0
290
     0
  0
SCALE
  5
51
102
{ACAD_REACTORS
330
47
102
}
330
47
100
AcDbScale
 70
     0
300
1:40
140
1.0
141
40.0
290
     0
  0
SCALE
  5
52
102
{ACAD_REACTORS
330
47
102
}
330
47
100
AcDbScale
 70
     0
300
1:50
140
1.0
141
50.0
290
     0
  0
SCALE
  5
53
102
{ACAD_REACTORS
330
47
102
}
330
47
100
AcDbScale
 70
     0
300
1:100
140
1.0
141
100.0
290
     0
  0
SCALE
  5
54
102
{ACAD_REACTORS
330
47
102
}
330
47
100
AcDbScale
 70
     0
300
2:1
140
2.0
141
1.0
290
     0
  0
SCALE
  5
55
102
{ACAD_REACTORS
330
47
102
}
330
47
100
AcDbScale
 70
     0
300
4:1
140
4.0
141
1.0
290
     0
  0
SCALE
  5
56
102
{ACAD_REACTORS
330
47
102
}
330
47
100
AcDbScale
 70
     0
300
8:1
140
8.0
141
1.0
290
     0
  0
SCALE
  5
57
102
{ACAD_REACTORS
330
47
102
}
330
47
100
AcDbScale
 70
     0
300
10:1
140
10.0
141
1.0
290
     0
  0
SCALE
  5
58
102
{ACAD_REACTORS
330
47
102
}
330
47
100
AcDbScale
 70
     0
300
100:1
140
100.0
141
1.0
290
     0
  0
SCALE
  5
59
102
{ACAD_REACTORS
330
47
102
}
330
47
100
AcDbScale
 70
     0
300
1/128" = 1'-0"
140
0.0078125
141
12.0
290
     0
  0
SCALE
  5
5A
102
{ACAD_REACTORS
330
47
102
}
330
47
100
AcDbScale
 70
     0
300
1/64" = 1'-0"
140
0.015625
141
12.0
290
     0
  0
SCALE
  5
5B
102
{ACAD_REACTORS
330
47
102
}
330
47
100
AcDbScale
 70
     0
300
1/32" = 1'-0"
140
0.03125
141
12.0
290
     0
  0
SCALE
  5
5C
102
{ACAD_REACTORS
330
47
102
}
330
47
100
AcDbScale
 70
     0
300
1/16" = 1'-0"
140
0.0625
141
12.0
290
     0
  0
SCALE
  5
5D
102
{ACAD_REACTORS
330
47
102
}
330
47
100
AcDbScale
 70
     0
300
3/32" = 1'-0"
140
0.09375
141
12.0
290
     0
  0
SCALE
  5
5E
102
{ACAD_REACTORS
330
47
102
}
330
47
100
AcDbScale
 70
     0
300
1/8" = 1'-0"
140
0.125
141
12.0
290
     0
  0
SCALE
  5
5F
102
{ACAD_REACTORS
330
47
102
}
330
47
100
AcDbScale
 70
     0
300
3/16" = 1'-0"
140
0.1875
141
12.0
290
     0
  0
SCALE
  5
60
102
{ACAD_REACTORS
330
47
102
}
330
47
100
AcDbScale
 70
     0
300
1/4" = 1'-0"
140
0.25
141
12.0
290
     0
  0
SCALE
  5
61
102
{ACAD_REACTORS
330
47
102
}
330
47
100
AcDbScale
 70
     0
300
3/8" = 1'-0"
140
0.375
141
12.0
290
     0
  0
SCALE
  5
62
102
{ACAD_REACTORS
330
47
102
}
330
47
100
AcDbScale
 70
     0
300
1/2" = 1'-0"
140
0.5
141
12.0
290
     0
  0
SCALE
  5
63
102
{ACAD_REACTORS
330
47
102
}
330
47
100
AcDbScale
 70
     0
300
3/4" = 1'-0"
140
0.75
141
12.0
290
     0
  0
SCALE
  5
64
102
{ACAD_REACTORS
330
47
102
}
330
47
100
AcDbScale
 70
     0
300
1" = 1'-0"
140
1.0
141
12.0
290
     0
  0
SCALE
  5
65
102
{ACAD_REACTORS
330
47
102
}
330
47
100
AcDbScale
 70
     0
300
1-1/2" = 1'-0"
140
1.5
141
12.0
290
     0
  0
SCALE
  5
66
102
{ACAD_REACTORS
330
47
102
}
330
47
100
AcDbScale
 70
     0
300
3" = 1'-0"
140
3.0
141
12.0
290
     0
  0
SCALE
  5
67
102
{ACAD_REACTORS
330
47
102
}
330
47
100
AcDbScale
 70
     0
300
6" = 1'-0"
140
6.0
141
12.0
290
     0
  0
SCALE
  5
68
102
{ACAD_REACTORS
330
47
102
}
330
47
100
AcDbScale
 70
     0
300
1'-0" = 1'-0"
140
12.0
141
12.0
290
     0
  0
VISUALSTYLE
  5
2F
102
{ACAD_REACTORS
330
2A
102
}
102
{ACAD_XDICTIONARY
360
246
102
}
330
2A
100
AcDbVisualStyle
  2
2dWireframe
 70
     4
177
     2
291
     0
 71
     0
176
     1
 72
     2
176
     1
 73
     0
176
     1
 90
        0
176
     1
 40
0.6
176
     1
 41
30.0
176
     1
 62
     5
 63
     7
421
 16777215
176
     1
 74
     1
176
     1
 91
        4
176
     1
 64
     7
176
     1
 65
   257
176
     1
 75
     1
176
     1
175
     1
176
     1
 42
1.0
176
     1
 92
        0
176
     1
 66
   257
176
     1
 43
1.0
176
     1
 76
     1
176
     1
 77
     6
176
     1
 78
     2
176
     1
 67
     7
176
     1
 79
     5
176
     1
170
     0
176
     1
171
     0
176
     1
290
     0
176
     1
 93
        1
176
     1
 44
0.0
176
     1
173
     0
176
     1
  0
VISUALSTYLE
  5
32
102
{ACAD_REACTORS
330
2A
102
}
102
{ACAD_XDICTIONARY
360
24C
102
}
330
2A
100
AcDbVisualStyle
  2
Basic
 70
     7
177
     2
291
     1
 71
     1
176
     1
 72
     0
176
     1
 73
     1
176
     1
 90
        0
176
     1
 40
0.6
176
     1
 41
30.0
176
     1
 62
     5
 63
     7
421
 16777215
176
     1
 74
     0
176
     1
 91
        4
176
     1
 64
     7
176
     1
 65
   257
176
     1
 75
     1
176
     1
175
     1
176
     1
 42
1.0
176
     1
 92
        8
176
     1
 66
     7
176
     1
 43
1.0
176
     1
 76
     1
176
     1
 77
     6
176
     1
 78
     2
176
     1
 67
     7
176
     1
 79
     5
176
     1
170
     0
176
     1
171
     0
176
     1
290
     0
176
     1
 93
        1
176
     1
 44
0.0
176
     1
173
     0
176
     1
  0
VISUALSTYLE
  5
36
102
{ACAD_REACTORS
330
2A
102
}
102
{ACAD_XDICTIONARY
360
254
102
}
330
2A
100
AcDbVisualStyle
  2
Brighten
 70
    12
177
     2
291
     1
 71
     2
176
     1
 72
     2
176
     1
 73
     0
176
     1
 90
        0
176
     1
 40
0.6
176
     1
 41
30.0
176
     1
 62
     5
 63
     7
421
 16777215
176
     1
 74
     1
176
     1
 91
        4
176
     1
 64
     7
176
     1
 65
   257
176
     1
 75
     1
176
     1
175
     1
176
     1
 42
1.0
176
     1
 92
        8
176
     1
 66
     7
176
     1
 43
1.0
176
     1
 76
     1
176
     1
 77
     6
176
     1
 78
     2
176
     1
 67
     7
176
     1
 79
     5
176
     1
170
     0
176
     1
171
     0
176
     1
290
     0
176
     1
 93
        1
176
     1
 44
50.0
176
     1
173
     0
176
     1
  0
VISUALSTYLE
  5
3A
102
{ACAD_REACTORS
330
2A
102
}
102
{ACAD_XDICTIONARY
360
25C
102
}
330
2A
100
AcDbVisualStyle
  2
ColorChange
 70
    16
177
     2
291
     1
 71
     2
176
     1
 72
     2
176
     1
 73
     3
176
     1
 90
        0
176
     1
 40
0.6
176
     1
 41
30.0
176
     1
 62
     5
 63
     8
421
  8421504
176
     1
 74
     1
176
     1
 91
        4
176
     1
 64
     7
176
     1
 65
   257
176
     1
 75
     1
176
     1
175
     1
176
     1
 42
1.0
176
     1
 92
        8
176
     1
 66
     8
424
  8421504
176
     1
 43
1.0
176
     1
 76
     1
176
     1
 77
     6
176
     1
 78
     2
176
     1
 67
     7
176
     1
 79
     5
176
     1
170
     0
176
     1
171
     0
176
     1
290
     0
176
     1
 93
        1
176
     1
 44
0.0
176
     1
173
     0
176
     1
  0
VISUALSTYLE
  5
34
102
{ACAD_REACTORS
330
2A
102
}
102
{ACAD_XDICTIONARY
360
250
102
}
330
2A
100
AcDbVisualStyle
  2
Conceptual
 70
     9
177
     2
291
     0
 71
     3
176
     1
 72
     2
176
     1
 73
     0
176
     1
 90
        0
176
     1
 40
0.6
176
     1
 41
30.0
176
     1
 62
     5
 63
     7
421
 16777215
176
     1
 74
     2
176
     1
 91
        2
176
     1
 64
     7
176
     1
 65
   257
176
     1
 75
     1
176
     1
175
     1
176
     1
 42
179.0
176
     1
 92
        8
176
     1
 66
     7
176
     1
 43
1.0
176
     1
 76
     1
176
     1
 77
     6
176
     1
 78
     2
176
     1
 67
     7
176
     1
 79
     3
176
     1
170
     0
176
     1
171
     0
176
     1
290
     0
176
     1
 93
        1
176
     1
 44
0.0
176
     1
173
     0
176
     1
  0
VISUALSTYLE
  5
35
102
{ACAD_REACTORS
330
2A
102
}
102
{ACAD_XDICTIONARY
360
252
102
}
330
2A
100
AcDbVisualStyle
  2
Dim
 70
    11
177
     2
291
     1
 71
     2
176
     1
 72
     2
176
     1
 73
     0
176
     1
 90
        0
176
     1
 40
0.6
176
     1
 41
30.0
176
     1
 62
     5
 63
     7
421
 16777215
176
     1
 74
     1
176
     1
 91
        4
176
     1
 64
     7
176
     1
 65
   257
176
     1
 75
     1
176
     1
175
     1
176
     1
 42
1.0
176
     1
 92
        8
176
     1
 66
     7
176
     1
 43
1.0
176
     1
 76
     1
176
     1
 77
     6
176
     1
 78
     2
176
     1
 67
     7
176
     1
 79
     5
176
     1
170
     0
176
     1
171
     0
176
     1
290
     0
176
     1
 93
        1
176
     1
 44
-50.0
176
     1
173
     0
176
     1
  0
VISUALSTYLE
  5
3D
102
{ACAD_REACTORS
330
2A
102
}
102
{ACAD_XDICTIONARY
360
262
102
}
330
2A
100
AcDbVisualStyle
  2
EdgeColorOff
 70
    22
177
     2
291
     1
 71
     2
176
     0
 72
     2
176
     0
 73
     0
176
     0
 90
        0
176
     0
 40
0.6
176
     0
 41
30.0
176
     0
 62
     5
 63
     7
421
 16777215
176
     0
 74
     1
176
     0
 91
        4
176
     0
 64
     7
176
     0
 65
   257
176
     0
 75
     1
176
     0
175
     1
176
     0
 42
1.0
176
     0
 92
        8
176
     2
 66
     7
176
     0
 43
1.0
176
     0
 76
     1
176
     0
 77
     6
176
     0
 78
     2
176
     0
 67
     7
176
     0
 79
     5
176
     0
170
     0
176
     0
171
     0
176
     0
290
     0
176
     0
 93
        1
176
     0
 44
0.0
176
     0
173
     0
176
     0
  0
VISUALSTYLE
  5
39
102
{ACAD_REACTORS
330
2A
102
}
102
{ACAD_XDICTIONARY
360
25A
102
}
330
2A
100
AcDbVisualStyle
  2
Facepattern
 70
    15
177
     2
291
     1
 71
     2
176
     1
 72
     2
176
     1
 73
     0
176
     1
 90
        0
176
     1
 40
0.6
176
     1
 41
30.0
176
     1
 62
     5
 63
     7
421
 16777215
176
     1
 74
     1
176
     1
 91
        4
176
     1
 64
     7
176
     1
 65
   257
176
     1
 75
     1
176
     1
175
     1
176
     1
 42
1.0
176
     1
 92
        8
176
     1
 66
     7
176
     1
 43
1.0
176
     1
 76
     1
176
     1
 77
     6
176
     1
 78
     2
176
     1
 67
     7
176
     1
 79
     5
176
     1
170
     0
176
     1
171
     0
176
     1
290
     0
176
     1
 93
        1
176
     1
 44
0.0
176
     1
173
     0
176
     1
  0
VISUALSTYLE
  5
2B
102
{ACAD_REACTORS
330
2A
102
}
102
{ACAD_XDICTIONARY
360
23E
102
}
330
2A
100
AcDbVisualStyle
  2
Flat
 70
     0
177
     2
291
     1
 71
     2
176
     1
 72
     1
176
     1
 73
     1
176
     1
 90
        2
176
     1
 40
0.6
176
     1
 41
30.0
176
     1
 62
     5
 63
     7
421
 16777215
176
     1
 74
     0
176
     1
 91
        0
176
     1
 64
     7
176
     1
 65
   257
176
     1
 75
     1
176
     1
175
     1
176
     1
 42
1.0
176
     1
 92
        8
176
     1
 66
     7
176
     1
 43
1.0
176
     1
 76
     1
176
     1
 77
     6
176
     1
 78
     2
176
     1
 67
     7
176
     1
 79
     5
176
     1
170
     0
176
     1
171
     0
176
     1
290
     0
176
     1
 93
       13
176
     1
 44
0.0
176
     1
173
     0
176
     1
  0
VISUALSTYLE
  5
2C
102
{ACAD_REACTORS
330
2A
102
}
102
{ACAD_XDICTIONARY
360
240
102
}
330
2A
100
AcDbVisualStyle
  2
FlatWithEdges
 70
     1
177
     2
291
     1
 71
     2
176
     1
 72
     1
176
     1
 73
     1
176
     1
 90
        2
176
     1
 40
0.6
176
     1
 41
30.0
176
     1
 62
     5
 63
     7
421
 16777215
176
     1
 74
     1
176
     1
 91
        0
176
     1
 64
     7
176
     1
 65
   257
176
     1
 75
     1
176
     1
175
     1
176
     1
 42
1.0
176
     1
 92
        0
176
     1
 66
   257
176
     1
 43
1.0
176
     1
 76
     1
176
     1
 77
     6
176
     1
 78
     2
176
     1
 67
     7
176
     1
 79
     5
176
     1
170
     0
176
     1
171
     0
176
     1
290
     0
176
     1
 93
       13
176
     1
 44
0.0
176
     1
173
     0
176
     1
  0
VISUALSTYLE
  5
2D
102
{ACAD_REACTORS
330
2A
102
}
102
{ACAD_XDICTIONARY
360
242
102
}
330
2A
100
AcDbVisualStyle
  2
Gouraud
 70
     2
177
     2
291
     1
 71
     2
176
     1
 72
     2
176
     1
 73
     1
176
     1
 90
        2
176
     1
 40
0.6
176
     1
 41
30.0
176
     1
 62
     5
 63
     7
421
 16777215
176
     1
 74
     0
176
     1
 91
        0
176
     1
 64
     7
176
     1
 65
   257
176
     1
 75
     1
176
     1
175
     1
176
     1
 42
1.0
176
     1
 92
        0
176
     1
 66
     7
176
     1
 43
1.0
176
     1
 76
     1
176
     1
 77
     6
176
     1
 78
     2
176
     1
 67
     7
176
     1
 79
     5
176
     1
170
     0
176
     1
171
     0
176
     1
290
     0
176
     1
 93
       13
176
     1
 44
0.0
176
     1
173
     0
176
     1
  0
VISUALSTYLE
  5
2E
102
{ACAD_REACTORS
330
2A
102
}
102
{ACAD_XDICTIONARY
360
244
102
}
330
2A
100
AcDbVisualStyle
  2
GouraudWithEdges
 70
     3
177
     2
291
     1
 71
     2
176
     1
 72
     2
176
     1
 73
     1
176
     1
 90
        2
176
     1
 40
0.6
176
     1
 41
30.0
176
     1
 62
     5
 63
     7
421
 16777215
176
     1
 74
     1
176
     1
 91
        0
176
     1
 64
     7
176
     1
 65
   257
176
     1
 75
     1
176
     1
175
     1
176
     1
 42
1.0
176
     1
 92
        0
176
     1
 66
   257
176
     1
 43
1.0
176
     1
 76
     1
176
     1
 77
     6
176
     1
 78
     2
176
     1
 67
     7
176
     1
 79
     5
176
     1
170
     0
176
     1
171
     0
176
     1
290
     0
176
     1
 93
       13
176
     1
 44
0.0
176
     1
173
     0
176
     1
  0
VISUALSTYLE
  5
31
102
{ACAD_REACTORS
330
2A
102
}
102
{ACAD_XDICTIONARY
360
24A
102
}
330
2A
100
AcDbVisualStyle
  2
Hidden
 70
     6
177
     2
291
     0
 71
     1
176
     1
 72
     2
176
     1
 73
     2
176
     1
 90
        0
176
     1
 40
0.6
176
     1
 41
30.0
176
     1
 62
     5
 63
     7
421
 16777215
176
     1
 74
     2
176
     1
 91
        2
176
     1
 64
     7
176
     1
 65
   257
176
     1
 75
     2
176
     1
175
     1
176
     1
 42
40.0
176
     1
 92
        0
176
     1
 66
   257
176
     1
 43
1.0
176
     1
 76
     1
176
     1
 77
     6
176
     1
 78
     2
176
     1
 67
     7
176
     1
 79
     3
176
     1
170
     0
176
     1
171
     0
176
     1
290
     0
176
     1
 93
        1
176
     1
 44
0.0
176
     1
173
     0
176
     1
  0
VISUALSTYLE
  5
3B
102
{ACAD_REACTORS
330
2A
102
}
102
{ACAD_XDICTIONARY
360
25E
102
}
330
2A
100
AcDbVisualStyle
  2
JitterOff
 70
    20
177
     2
291
     1
 71
     2
176
     0
 72
     2
176
     0
 73
     0
176
     0
 90
        0
176
     0
 40
0.6
176
     0
 41
30.0
176
     0
 62
     5
 63
     7
421
 16777215
176
     0
 74
     1
176
     0
 91
        4
176
     0
 64
     7
176
     0
 65
   257
176
     0
 75
     1
176
     0
175
     1
176
     0
 42
1.0
176
     0
 92
       10
176
     2
 66
     7
176
     0
 43
1.0
176
     0
 76
     1
176
     0
 77
     6
176
     0
 78
     2
176
     0
 67
     7
176
     0
 79
     5
176
     0
170
     0
176
     0
171
     0
176
     0
290
     0
176
     0
 93
        1
176
     0
 44
0.0
176
     0
173
     0
176
     0
  0
VISUALSTYLE
  5
38
102
{ACAD_REACTORS
330
2A
102
}
102
{ACAD_XDICTIONARY
360
258
102
}
330
2A
100
AcDbVisualStyle
  2
Linepattern
 70
    14
177
     2
291
     1
 71
     2
176
     1
 72
     2
176
     1
 73
     0
176
     1
 90
        0
176
     1
 40
0.6
176
     1
 41
30.0
176
     1
 62
     5
 63
     7
421
 16777215
176
     1
 74
     1
176
     1
 91
        4
176
     1
 64
     7
176
     1
 65
   257
176
     1
 75
     7
176
     1
175
     7
176
     1
 42
1.0
176
     1
 92
        8
176
     1
 66
     7
176
     1
 43
1.0
176
     1
 76
     1
176
     1
 77
     6
176
     1
 78
     2
176
     1
 67
     7
176
     1
 79
     5
176
     1
170
     0
176
     1
171
     0
176
     1
290
     0
176
     1
 93
        1
176
     1
 44
0.0
176
     1
173
     0
176
     1
  0
VISUALSTYLE
  5
3C
102
{ACAD_REACTORS
330
2A
102
}
102
{ACAD_XDICTIONARY
360
260
102
}
330
2A
100
AcDbVisualStyle
  2
OverhangOff
 70
    21
177
     2
291
     1
 71
     2
176
     0
 72
     2
176
     0
 73
     0
176
     0
 90
        0
176
     0
 40
0.6
176
     0
 41
30.0
176
     0
 62
     5
 63
     7
421
 16777215
176
     0
 74
     1
176
     0
 91
        4
176
     0
 64
     7
176
     0
 65
   257
176
     0
 75
     1
176
     0
175
     1
176
     0
 42
1.0
176
     0
 92
        9
176
     2
 66
     7
176
     0
 43
1.0
176
     0
 76
     1
176
     0
 77
     6
176
     0
 78
     2
176
     0
 67
     7
176
     0
 79
     5
176
     0
170
     0
176
     0
171
     0
176
     0
290
     0
176
     0
 93
        1
176
     0
 44
0.0
176
     0
173
     0
176
     0
  0
VISUALSTYLE
  5
33
102
{ACAD_REACTORS
330
2A
102
}
102
{ACAD_XDICTIONARY
360
24E
102
}
330
2A
100
AcDbVisualStyle
  2
Realistic
 70
     8
177
     2
291
     0
 71
     2
176
     1
 72
     3
176
     1
 73
     0
176
     1
 90
        2
176
     1
 40
0.6
176
     1
 41
30.0
176
     1
 62
     5
 63
     7
421
 16777215
176
     1
 74
     0
176
     1
 91
        0
176
     1
 64
     7
176
     1
 65
   257
176
     1
 75
     1
176
     1
175
     1
176
     1
 42
1.0
176
     1
 92
        8
176
     1
 66
   257
176
     1
 43
1.0
176
     1
 76
     1
176
     1
 77
     6
176
     1
 78
     2
176
     1
 67
     7
176
     1
 79
     3
176
     1
170
     0
176
     1
171
     0
176
     1
290
     0
176
     1
 93
       13
176
     1
 44
0.0
176
     1
173
     0
176
     1
  0
VISUALSTYLE
  5
42
102
{ACAD_REACTORS
330
2A
102
}
102
{ACAD_XDICTIONARY
360
26C
102
}
330
2A
100
AcDbVisualStyle
  2
Shaded
 70
    27
177
     2
291
     0
 71
     2
176
     1
 72
     2
176
     1
 73
     1
176
     1
 90
        2
176
     1
 40
0.6
176
     1
 41
30.0
176
     1
 62
     5
 63
     7
421
 16777215
176
     1
 74
     0
176
     1
 91
        4
176
     1
 64
     7
176
     1
 65
   257
176
     1
 75
     1
176
     1
175
     1
176
     1
 42
1.0
176
     1
 92
        8
176
     1
 66
   257
176
     1
 43
1.0
176
     1
 76
     1
176
     1
 77
     6
176
     1
 78
     2
176
     1
 67
     8
425
  7895160
176
     1
 79
     3
176
     1
170
     0
176
     1
171
     0
176
     1
290
     0
176
     1
 93
        5
176
     1
 44
0.0
176
     1
173
     0
176
     1
  0
VISUALSTYLE
  5
41
102
{ACAD_REACTORS
330
2A
102
}
102
{ACAD_XDICTIONARY
360
26A
102
}
330
2A
100
AcDbVisualStyle
  2
Shaded with edges
 70
    26
177
     2
291
     0
 71
     2
176
     1
 72
     2
176
     1
 73
     1
176
     1
 90
        2
176
     1
 40
0.6
176
     1
 41
30.0
176
     1
 62
     5
 63
     7
421
 16777215
176
     1
 74
     1
176
     1
 91
       10
176
     1
 64
     7
176
     1
 65
   257
176
     1
 75
     2
176
     1
175
     1
176
     1
 42
1.0
176
     1
 92
        8
176
     1
 66
   257
176
     1
 43
1.0
176
     1
 76
     1
176
     1
 77
     6
176
     1
 78
     2
176
     1
 67
     7
176
     1
 79
     3
176
     1
170
     0
176
     1
171
     0
176
     1
290
     0
176
     1
 93
        5
176
     1
 44
0.0
176
     1
173
     0
176
     1
  0
VISUALSTYLE
  5
3E
102
{ACAD_REACTORS
330
2A
102
}
102
{ACAD_XDICTIONARY
360
264
102
}
330
2A
100
AcDbVisualStyle
  2
Shades of Gray
 70
    23
177
     2
291
     0
 71
     2
176
     1
 72
     2
176
     1
 73
     3
176
     1
 90
        0
176
     1
 40
0.6
176
     1
 41
30.0
176
     1
 62
     5
 63
     7
421
 16777215
176
     1
 74
     2
176
     1
 91
        2
176
     1
 64
     7
176
     1
 65
     7
176
     1
 75
     1
176
     1
175
     1
176
     1
 42
40.0
176
     1
 92
        8
176
     1
 66
     7
176
     1
 43
1.0
176
     1
 76
     1
176
     1
 77
     6
176
     1
 78
     2
176
     1
 67
     7
176
     1
 79
     3
176
     1
170
     0
176
     1
171
     0
176
     1
290
     0
176
     1
 93
        1
176
     1
 44
0.0
176
     1
173
     0
176
     1
  0
VISUALSTYLE
  5
3F
102
{ACAD_REACTORS
330
2A
102
}
102
{ACAD_XDICTIONARY
360
266
102
}
330
2A
100
AcDbVisualStyle
  2
Sketchy
 70
    24
177
     2
291
     0
 71
     1
176
     1
 72
     2
176
     1
 73
     2
176
     1
 90
        0
176
     1
 40
0.6
176
     1
 41
30.0
176
     1
 62
     5
 63
     7
421
 16777215
176
     1
 74
     2
176
     1
 91
        2
176
     1
 64
     7
176
     1
 65
     7
176
     1
 75
     1
176
     1
175
     1
176
     1
 42
40.0
176
     1
 92
       11
176
     1
 66
     7
176
     1
 43
1.0
176
     1
 76
     1
176
     1
 77
     6
176
     1
 78
     2
176
     1
 67
     7
176
     1
 79
     6
176
     1
170
     0
176
     1
171
     0
176
     1
290
     0
176
     1
 93
        1
176
     1
 44
0.0
176
     1
173
     0
176
     1
  0
VISUALSTYLE
  5
37
102
{ACAD_REACTORS
330
2A
102
}
102
{ACAD_XDICTIONARY
360
256
102
}
330
2A
100
AcDbVisualStyle
  2
Thicken
 70
    13
177
     2
291
     1
 71
     2
176
     1
 72
     2
176
     1
 73
     0
176
     1
 90
        0
176
     1
 40
0.6
176
     1
 41
30.0
176
     1
 62
     5
 63
     7
421
 16777215
176
     1
 74
     1
176
     1
 91
        4
176
     1
 64
     7
176
     1
 65
   257
176
     1
 75
     1
176
     1
175
     1
176
     1
 42
1.0
176
     1
 92
       12
176
     1
 66
     7
176
     1
 43
1.0
176
     1
 76
     1
176
     1
 77
     6
176
     1
 78
     2
176
     1
 67
     7
176
     1
 79
     5
176
     1
170
     0
176
     1
171
     0
176
     1
290
     0
176
     1
 93
        1
176
     1
 44
0.0
176
     1
173
     0
176
     1
  0
VISUALSTYLE
  5
30
102
{ACAD_REACTORS
330
2A
102
}
102
{ACAD_XDICTIONARY
360
248
102
}
330
2A
100
AcDbVisualStyle
  2
Wireframe
 70
     5
177
     2
291
     0
 71
     0
176
     1
 72
     2
176
     1
 73
     0
176
     1
 90
        0
176
     1
 40
0.6
176
     1
 41
30.0
176
     1
 62
     5
 63
     7
421
 16777215
176
     1
 74
     1
176
     1
 91
        4
176
     1
 64
     7
176
     1
 65
   257
176
     1
 75
     1
176
     1
175
     1
176
     1
 42
1.0
176
     1
 92
        0
176
     1
 66
   257
176
     1
 43
1.0
176
     1
 76
     1
176
     1
 77
     6
176
     1
 78
     2
176
     1
 67
     7
176
     1
 79
     3
176
     1
170
     0
176
     1
171
     0
176
     1
290
     0
176
     1
 93
        1
176
     1
 44
0.0
176
     1
173
     0
176
     1
  0
VISUALSTYLE
  5
40
102
{ACAD_REACTORS
330
2A
102
}
102
{ACAD_XDICTIONARY
360
268
102
}
330
2A
100
AcDbVisualStyle
  2
X-Ray
 70
    25
177
     2
291
     0
 71
     2
176
     1
 72
     2
176
     1
 73
     1
176
     1
 90
        1
176
     1
 40
0.5
176
     1
 41
30.0
176
     1
 62
     5
 63
     7
421
 16777215
176
     1
 74
     1
176
     1
 91
        0
176
     1
 64
     7
176
     1
 65
   257
176
     1
 75
     1
176
     1
175
     1
176
     1
 42
1.0
176
     1
 92
        8
176
     1
 66
     7
176
     1
 43
1.0
176
     1
 76
     1
176
     1
 77
     6
176
     1
 78
     2
176
     1
 67
     7
176
     1
 79
     3
176
     1
170
     0
176
     1
171
     0
176
     1
290
     0
176
     1
 93
       13
176
     1
 44
0.0
176
     1
173
     0
176
     1
  0
DICTIONARYVAR
  5
23D
102
{ACAD_REACTORS
330
23C
102
}
330
23C
100
DictionaryVariables
280
     0
  1
1:1
  0
DICTIONARY
  5
246
330
2F
100
AcDbDictionary
280
     1
281
     1
  3
ACAD_XREC_ROUNDTRIP
360
247
  0
DICTIONARY
  5
24C
330
32
100
AcDbDictionary
280
     1
281
     1
  3
ACAD_XREC_ROUNDTRIP
360
24D
  0
DICTIONARY
  5
254
330
36
100
AcDbDictionary
280
     1
281
     1
  3
ACAD_XREC_ROUNDTRIP
360
255
  0
DICTIONARY
  5
25C
330
3A
100
AcDbDictionary
280
     1
281
     1
  3
ACAD_XREC_ROUNDTRIP
360
25D
  0
DICTIONARY
  5
250
330
34
100
AcDbDictionary
280
     1
281
     1
  3
ACAD_XREC_ROUNDTRIP
360
251
  0
DICTIONARY
  5
252
330
35
100
AcDbDictionary
280
     1
281
     1
  3
ACAD_XREC_ROUNDTRIP
360
253
  0
DICTIONARY
  5
262
330
3D
100
AcDbDictionary
280
     1
281
     1
  3
ACAD_XREC_ROUNDTRIP
360
263
  0
DICTIONARY
  5
25A
330
39
100
AcDbDictionary
280
     1
281
     1
  3
ACAD_XREC_ROUNDTRIP
360
25B
  0
DICTIONARY
  5
23E
330
2B
100
AcDbDictionary
280
     1
281
     1
  3
ACAD_XREC_ROUNDTRIP
360
23F
  0
DICTIONARY
  5
240
330
2C
100
AcDbDictionary
280
     1
281
     1
  3
ACAD_XREC_ROUNDTRIP
360
241
  0
DICTIONARY
  5
242
330
2D
100
AcDbDictionary
280
     1
281
     1
  3
ACAD_XREC_ROUNDTRIP
360
243
  0
DICTIONARY
  5
244
330
2E
100
AcDbDictionary
280
     1
281
     1
  3
ACAD_XREC_ROUNDTRIP
360
245
  0
DICTIONARY
  5
24A
330
31
100
AcDbDictionary
280
     1
281
     1
  3
ACAD_XREC_ROUNDTRIP
360
24B
  0
DICTIONARY
  5
25E
330
3B
100
AcDbDictionary
280
     1
281
     1
  3
ACAD_XREC_ROUNDTRIP
360
25F
  0
DICTIONARY
  5
258
330
38
100
AcDbDictionary
280
     1
281
     1
  3
ACAD_XREC_ROUNDTRIP
360
259
  0
DICTIONARY
  5
260
330
3C
100
AcDbDictionary
280
     1
281
     1
  3
ACAD_XREC_ROUNDTRIP
360
261
  0
DICTIONARY
  5
24E
330
33
100
AcDbDictionary
280
     1
281
     1
  3
ACAD_XREC_ROUNDTRIP
360
24F
  0
DICTIONARY
  5
26C
330
42
100
AcDbDictionary
280
     1
281
     1
  3
ACAD_XREC_ROUNDTRIP
360
26D
  0
DICTIONARY
  5
26A
330
41
100
AcDbDictionary
280
     1
281
     1
  3
ACAD_XREC_ROUNDTRIP
360
26B
  0
DICTIONARY
  5
264
330
3E
100
AcDbDictionary
280
     1
281
     1
  3
ACAD_XREC_ROUNDTRIP
360
265
  0
DICTIONARY
  5
266
330
3F
100
AcDbDictionary
280
     1
281
     1
  3
ACAD_XREC_ROUNDTRIP
360
267
  0
DICTIONARY
  5
256
330
37
100
AcDbDictionary
280
     1
281
     1
  3
ACAD_XREC_ROUNDTRIP
360
257
  0
DICTIONARY
  5
248
330
30
100
AcDbDictionary
280
     1
281
     1
  3
ACAD_XREC_ROUNDTRIP
360
249
  0
DICTIONARY
  5
268
330
40
100
AcDbDictionary
280
     1
281
     1
  3
ACAD_XREC_ROUNDTRIP
360
269
  0
XRECORD
  5
247
102
{ACAD_REACTORS
330
246
102
}
330
246
100
AcDbXrecord
280
     1
102
RTVSPost2010Prop28
280
     1
102
RTVSPost2010PropOp28
 70
     1
102
RTVSPost2010Prop29
280
     1
102
RTVSPost2010PropOp29
 70
     1
102
RTVSPost2010Prop30
280
     0
102
RTVSPost2010PropOp30
 70
     1
102
RTVSPost2010Prop31
280
     0
102
RTVSPost2010PropOp31
 70
     1
102
RTVSPost2010Prop32
280
     0
102
RTVSPost2010PropOp32
 70
     1
102
RTVSPost2010Prop33
280
     0
102
RTVSPost2010PropOp33
 70
     1
102
RTVSPost2010Prop34
280
     0
102
RTVSPost2010PropOp34
 70
     1
102
RTVSPost2010Prop35
280
     0
102
RTVSPost2010PropOp35
 70
     1
102
RTVSPost2010Prop36
280
     0
102
RTVSPost2010PropOp36
 70
     1
102
RTVSPost2010Prop37
 90
       50
102
RTVSPost2010PropOp37
 70
     1
102
RTVSPost2010Prop38
140
0.0
102
RTVSPost2010PropOp38
 70
     1
102
RTVSPost2010Prop39
140
1.0
102
RTVSPost2010PropOp39
 70
     1
102
RTVSPost2010Prop40
 90
        0
102
RTVSPost2010PropOp40
 70
     1
102
RTVSPost2010Prop41ColorIndex
 90
       18
102
RTVSPost2010Prop41ColorRGB
 90
        0
102
RTVSPost2010PropOp41
 70
     1
102
RTVSPost2010Prop42
 90
       50
102
RTVSPost2010PropOp42
 70
     1
102
RTVSPost2010Prop43
 90
        3
102
RTVSPost2010PropOp43
 70
     1
102
RTVSPost2010Prop44ColorIndex
 90
        5
102
RTVSPost2010Prop44ColorRGB
 90
      255
102
RTVSPost2010PropOp44
 70
     1
102
RTVSPost2010Prop45
280
     0
102
RTVSPost2010PropOp45
 70
     1
102
RTVSPost2010Prop46
 90
       50
102
RTVSPost2010PropOp46
 70
     1
102
RTVSPost2010Prop47
 90
       50
102
RTVSPost2010PropOp47
 70
     1
102
RTVSPost2010Prop48
 90
       50
102
RTVSPost2010PropOp48
 70
     1
102
RTVSPost2010Prop49
280
     0
102
RTVSPost2010PropOp49
 70
     1
102
RTVSPost2010Prop50
 90
       50
102
RTVSPost2010PropOp50
 70
     1
102
RTVSPost2010Prop51ColorIndex
 90
      256
102
RTVSPost2010Prop51ColorRGB
 90
-16777216
102
RTVSPost2010PropOp51
 70
     0
102
RTVSPost2010Prop52
140
1.0
102
RTVSPost2010PropOp52
 70
     0
102
RTVSPost2010Prop53
 90
        2
102
RTVSPost2010PropOp53
 70
     1
102
RTVSPost2010Prop54
  1
strokes_ogs.tif
102
RTVSPost2010PropOp54
 70
     1
102
RTVSPost2010Prop55
280
     0
102
RTVSPost2010PropOp55
 70
     1
102
RTVSPost2010Prop56
140
1.0
102
RTVSPost2010PropOp56
 70
     1
102
RTVSPost2010Prop57
140
1.0
102
RTVSPost2010PropOp57
 70
     1
  0
XRECORD
  5
24D
102
{ACAD_REACTORS
330
24C
102
}
330
24C
100
AcDbXrecord
280
     1
102
RTVSPost2010Prop28
280
     0
102
RTVSPost2010PropOp28
 70
     1
102
RTVSPost2010Prop29
280
     1
102
RTVSPost2010PropOp29
 70
     1
102
RTVSPost2010Prop30
280
     1
102
RTVSPost2010PropOp30
 70
     1
102
RTVSPost2010Prop31
280
     0
102
RTVSPost2010PropOp31
 70
     1
102
RTVSPost2010Prop32
280
     0
102
RTVSPost2010PropOp32
 70
     1
102
RTVSPost2010Prop33
280
     0
102
RTVSPost2010PropOp33
 70
     1
102
RTVSPost2010Prop34
280
     0
102
RTVSPost2010PropOp34
 70
     1
102
RTVSPost2010Prop35
280
     0
102
RTVSPost2010PropOp35
 70
     1
102
RTVSPost2010Prop36
280
     0
102
RTVSPost2010PropOp36
 70
     1
102
RTVSPost2010Prop37
 90
       50
102
RTVSPost2010PropOp37
 70
     1
102
RTVSPost2010Prop38
140
0.0
102
RTVSPost2010PropOp38
 70
     1
102
RTVSPost2010Prop39
140
1.0
102
RTVSPost2010PropOp39
 70
     1
102
RTVSPost2010Prop40
 90
        0
102
RTVSPost2010PropOp40
 70
     1
102
RTVSPost2010Prop41ColorIndex
 90
       18
102
RTVSPost2010Prop41ColorRGB
 90
        0
102
RTVSPost2010PropOp41
 70
     1
102
RTVSPost2010Prop42
 90
       50
102
RTVSPost2010PropOp42
 70
     1
102
RTVSPost2010Prop43
 90
        3
102
RTVSPost2010PropOp43
 70
     1
102
RTVSPost2010Prop44ColorIndex
 90
        5
102
RTVSPost2010Prop44ColorRGB
 90
      255
102
RTVSPost2010PropOp44
 70
     1
102
RTVSPost2010Prop45
280
     0
102
RTVSPost2010PropOp45
 70
     1
102
RTVSPost2010Prop46
 90
       50
102
RTVSPost2010PropOp46
 70
     1
102
RTVSPost2010Prop47
 90
       50
102
RTVSPost2010PropOp47
 70
     1
102
RTVSPost2010Prop48
 90
       50
102
RTVSPost2010PropOp48
 70
     1
102
RTVSPost2010Prop49
280
     0
102
RTVSPost2010PropOp49
 70
     1
102
RTVSPost2010Prop50
 90
       50
102
RTVSPost2010PropOp50
 70
     1
102
RTVSPost2010Prop51ColorIndex
 90
      256
102
RTVSPost2010Prop51ColorRGB
 90
-16777216
102
RTVSPost2010PropOp51
 70
     0
102
RTVSPost2010Prop52
140
1.0
102
RTVSPost2010PropOp52
 70
     0
102
RTVSPost2010Prop53
 90
        2
102
RTVSPost2010PropOp53
 70
     1
102
RTVSPost2010Prop54
  1
strokes_ogs.tif
102
RTVSPost2010PropOp54
 70
     1
102
RTVSPost2010Prop55
280
     0
102
RTVSPost2010PropOp55
 70
     1
102
RTVSPost2010Prop56
140
1.0
102
RTVSPost2010PropOp56
 70
     1
102
RTVSPost2010Prop57
140
1.0
102
RTVSPost2010PropOp57
 70
     1
  0
XRECORD
  5
255
102
{ACAD_REACTORS
330
254
102
}
330
254
100
AcDbXrecord
280
     1
102
RTVSPost2010Prop28
280
     0
102
RTVSPost2010PropOp28
 70
     1
102
RTVSPost2010Prop29
280
     1
102
RTVSPost2010PropOp29
 70
     1
102
RTVSPost2010Prop30
280
     1
102
RTVSPost2010PropOp30
 70
     1
102
RTVSPost2010Prop31
280
     0
102
RTVSPost2010PropOp31
 70
     1
102
RTVSPost2010Prop32
280
     0
102
RTVSPost2010PropOp32
 70
     1
102
RTVSPost2010Prop33
280
     0
102
RTVSPost2010PropOp33
 70
     1
102
RTVSPost2010Prop34
280
     0
102
RTVSPost2010PropOp34
 70
     1
102
RTVSPost2010Prop35
280
     0
102
RTVSPost2010PropOp35
 70
     1
102
RTVSPost2010Prop36
280
     0
102
RTVSPost2010PropOp36
 70
     1
102
RTVSPost2010Prop37
 90
       50
102
RTVSPost2010PropOp37
 70
     1
102
RTVSPost2010Prop38
140
0.0
102
RTVSPost2010PropOp38
 70
     1
102
RTVSPost2010Prop39
140
1.0
102
RTVSPost2010PropOp39
 70
     1
102
RTVSPost2010Prop40
 90
        0
102
RTVSPost2010PropOp40
 70
     1
102
RTVSPost2010Prop41ColorIndex
 90
       18
102
RTVSPost2010Prop41ColorRGB
 90
        0
102
RTVSPost2010PropOp41
 70
     1
102
RTVSPost2010Prop42
 90
       50
102
RTVSPost2010PropOp42
 70
     1
102
RTVSPost2010Prop43
 90
        3
102
RTVSPost2010PropOp43
 70
     1
102
RTVSPost2010Prop44ColorIndex
 90
        5
102
RTVSPost2010Prop44ColorRGB
 90
      255
102
RTVSPost2010PropOp44
 70
     1
102
RTVSPost2010Prop45
280
     0
102
RTVSPost2010PropOp45
 70
     1
102
RTVSPost2010Prop46
 90
       50
102
RTVSPost2010PropOp46
 70
     1
102
RTVSPost2010Prop47
 90
       50
102
RTVSPost2010PropOp47
 70
     1
102
RTVSPost2010Prop48
 90
       50
102
RTVSPost2010PropOp48
 70
     1
102
RTVSPost2010Prop49
280
     0
102
RTVSPost2010PropOp49
 70
     1
102
RTVSPost2010Prop50
 90
       50
102
RTVSPost2010PropOp50
 70
     1
102
RTVSPost2010Prop51ColorIndex
 90
      256
102
RTVSPost2010Prop51ColorRGB
 90
-16777216
102
RTVSPost2010PropOp51
 70
     0
102
RTVSPost2010Prop52
140
1.0
102
RTVSPost2010PropOp52
 70
     0
102
RTVSPost2010Prop53
 90
        2
102
RTVSPost2010PropOp53
 70
     1
102
RTVSPost2010Prop54
  1
strokes_ogs.tif
102
RTVSPost2010PropOp54
 70
     1
102
RTVSPost2010Prop55
280
     0
102
RTVSPost2010PropOp55
 70
     1
102
RTVSPost2010Prop56
140
1.0
102
RTVSPost2010PropOp56
 70
     1
102
RTVSPost2010Prop57
140
1.0
102
RTVSPost2010PropOp57
 70
     1
  0
XRECORD
  5
25D
102
{ACAD_REACTORS
330
25C
102
}
330
25C
100
AcDbXrecord
280
     1
102
RTVSPost2010Prop28
280
     0
102
RTVSPost2010PropOp28
 70
     1
102
RTVSPost2010Prop29
280
     1
102
RTVSPost2010PropOp29
 70
     1
102
RTVSPost2010Prop30
280
     1
102
RTVSPost2010PropOp30
 70
     1
102
RTVSPost2010Prop31
280
     0
102
RTVSPost2010PropOp31
 70
     1
102
RTVSPost2010Prop32
280
     0
102
RTVSPost2010PropOp32
 70
     1
102
RTVSPost2010Prop33
280
     0
102
RTVSPost2010PropOp33
 70
     1
102
RTVSPost2010Prop34
280
     0
102
RTVSPost2010PropOp34
 70
     1
102
RTVSPost2010Prop35
280
     0
102
RTVSPost2010PropOp35
 70
     1
102
RTVSPost2010Prop36
280
     0
102
RTVSPost2010PropOp36
 70
     1
102
RTVSPost2010Prop37
 90
       50
102
RTVSPost2010PropOp37
 70
     1
102
RTVSPost2010Prop38
140
0.0
102
RTVSPost2010PropOp38
 70
     1
102
RTVSPost2010Prop39
140
1.0
102
RTVSPost2010PropOp39
 70
     1
102
RTVSPost2010Prop40
 90
        0
102
RTVSPost2010PropOp40
 70
     1
102
RTVSPost2010Prop41ColorIndex
 90
       18
102
RTVSPost2010Prop41ColorRGB
 90
        0
102
RTVSPost2010PropOp41
 70
     1
102
RTVSPost2010Prop42
 90
       50
102
RTVSPost2010PropOp42
 70
     1
102
RTVSPost2010Prop43
 90
        3
102
RTVSPost2010PropOp43
 70
     1
102
RTVSPost2010Prop44ColorIndex
 90
        5
102
RTVSPost2010Prop44ColorRGB
 90
      255
102
RTVSPost2010PropOp44
 70
     1
102
RTVSPost2010Prop45
280
     0
102
RTVSPost2010PropOp45
 70
     1
102
RTVSPost2010Prop46
 90
       50
102
RTVSPost2010PropOp46
 70
     1
102
RTVSPost2010Prop47
 90
       50
102
RTVSPost2010PropOp47
 70
     1
102
RTVSPost2010Prop48
 90
       50
102
RTVSPost2010PropOp48
 70
     1
102
RTVSPost2010Prop49
280
     0
102
RTVSPost2010PropOp49
 70
     1
102
RTVSPost2010Prop50
 90
       50
102
RTVSPost2010PropOp50
 70
     1
102
RTVSPost2010Prop51ColorIndex
 90
      256
102
RTVSPost2010Prop51ColorRGB
 90
-16777216
102
RTVSPost2010PropOp51
 70
     0
102
RTVSPost2010Prop52
140
1.0
102
RTVSPost2010PropOp52
 70
     0
102
RTVSPost2010Prop53
 90
        2
102
RTVSPost2010PropOp53
 70
     1
102
RTVSPost2010Prop54
  1
strokes_ogs.tif
102
RTVSPost2010PropOp54
 70
     1
102
RTVSPost2010Prop55
280
     0
102
RTVSPost2010PropOp55
 70
     1
102
RTVSPost2010Prop56
140
1.0
102
RTVSPost2010PropOp56
 70
     1
102
RTVSPost2010Prop57
140
1.0
102
RTVSPost2010PropOp57
 70
     1
  0
XRECORD
  5
251
102
{ACAD_REACTORS
330
250
102
}
330
250
100
AcDbXrecord
280
     1
102
RTVSPost2010Prop28
280
     0
102
RTVSPost2010PropOp28
 70
     1
102
RTVSPost2010Prop29
280
     1
102
RTVSPost2010PropOp29
 70
     1
102
RTVSPost2010Prop30
280
     1
102
RTVSPost2010PropOp30
 70
     1
102
RTVSPost2010Prop31
280
     0
102
RTVSPost2010PropOp31
 70
     1
102
RTVSPost2010Prop32
280
     0
102
RTVSPost2010PropOp32
 70
     1
102
RTVSPost2010Prop33
280
     0
102
RTVSPost2010PropOp33
 70
     1
102
RTVSPost2010Prop34
280
     0
102
RTVSPost2010PropOp34
 70
     1
102
RTVSPost2010Prop35
280
     0
102
RTVSPost2010PropOp35
 70
     1
102
RTVSPost2010Prop36
280
     0
102
RTVSPost2010PropOp36
 70
     1
102
RTVSPost2010Prop37
 90
       50
102
RTVSPost2010PropOp37
 70
     1
102
RTVSPost2010Prop38
140
0.0
102
RTVSPost2010PropOp38
 70
     1
102
RTVSPost2010Prop39
140
1.0
102
RTVSPost2010PropOp39
 70
     1
102
RTVSPost2010Prop40
 90
        0
102
RTVSPost2010PropOp40
 70
     1
102
RTVSPost2010Prop41ColorIndex
 90
       18
102
RTVSPost2010Prop41ColorRGB
 90
        0
102
RTVSPost2010PropOp41
 70
     1
102
RTVSPost2010Prop42
 90
       50
102
RTVSPost2010PropOp42
 70
     1
102
RTVSPost2010Prop43
 90
        3
102
RTVSPost2010PropOp43
 70
     1
102
RTVSPost2010Prop44ColorIndex
 90
        5
102
RTVSPost2010Prop44ColorRGB
 90
      255
102
RTVSPost2010PropOp44
 70
     1
102
RTVSPost2010Prop45
280
     0
102
RTVSPost2010PropOp45
 70
     1
102
RTVSPost2010Prop46
 90
       50
102
RTVSPost2010PropOp46
 70
     1
102
RTVSPost2010Prop47
 90
       50
102
RTVSPost2010PropOp47
 70
     1
102
RTVSPost2010Prop48
 90
       50
102
RTVSPost2010PropOp48
 70
     1
102
RTVSPost2010Prop49
280
     0
102
RTVSPost2010PropOp49
 70
     1
102
RTVSPost2010Prop50
 90
       50
102
RTVSPost2010PropOp50
 70
     1
102
RTVSPost2010Prop51ColorIndex
 90
      256
102
RTVSPost2010Prop51ColorRGB
 90
-16777216
102
RTVSPost2010PropOp51
 70
     0
102
RTVSPost2010Prop52
140
1.0
102
RTVSPost2010PropOp52
 70
     0
102
RTVSPost2010Prop53
 90
        2
102
RTVSPost2010PropOp53
 70
     1
102
RTVSPost2010Prop54
  1
strokes_ogs.tif
102
RTVSPost2010PropOp54
 70
     1
102
RTVSPost2010Prop55
280
     0
102
RTVSPost2010PropOp55
 70
     1
102
RTVSPost2010Prop56
140
1.0
102
RTVSPost2010PropOp56
 70
     1
102
RTVSPost2010Prop57
140
1.0
102
RTVSPost2010PropOp57
 70
     1
  0
XRECORD
  5
253
102
{ACAD_REACTORS
330
252
102
}
330
252
100
AcDbXrecord
280
     1
102
RTVSPost2010Prop28
280
     0
102
RTVSPost2010PropOp28
 70
     1
102
RTVSPost2010Prop29
280
     1
102
RTVSPost2010PropOp29
 70
     1
102
RTVSPost2010Prop30
280
     1
102
RTVSPost2010PropOp30
 70
     1
102
RTVSPost2010Prop31
280
     0
102
RTVSPost2010PropOp31
 70
     1
102
RTVSPost2010Prop32
280
     0
102
RTVSPost2010PropOp32
 70
     1
102
RTVSPost2010Prop33
280
     0
102
RTVSPost2010PropOp33
 70
     1
102
RTVSPost2010Prop34
280
     0
102
RTVSPost2010PropOp34
 70
     1
102
RTVSPost2010Prop35
280
     0
102
RTVSPost2010PropOp35
 70
     1
102
RTVSPost2010Prop36
280
     0
102
RTVSPost2010PropOp36
 70
     1
102
RTVSPost2010Prop37
 90
       50
102
RTVSPost2010PropOp37
 70
     1
102
RTVSPost2010Prop38
140
0.0
102
RTVSPost2010PropOp38
 70
     1
102
RTVSPost2010Prop39
140
1.0
102
RTVSPost2010PropOp39
 70
     1
102
RTVSPost2010Prop40
 90
        0
102
RTVSPost2010PropOp40
 70
     1
102
RTVSPost2010Prop41ColorIndex
 90
       18
102
RTVSPost2010Prop41ColorRGB
 90
        0
102
RTVSPost2010PropOp41
 70
     1
102
RTVSPost2010Prop42
 90
       50
102
RTVSPost2010PropOp42
 70
     1
102
RTVSPost2010Prop43
 90
        3
102
RTVSPost2010PropOp43
 70
     1
102
RTVSPost2010Prop44ColorIndex
 90
        5
102
RTVSPost2010Prop44ColorRGB
 90
      255
102
RTVSPost2010PropOp44
 70
     1
102
RTVSPost2010Prop45
280
     0
102
RTVSPost2010PropOp45
 70
     1
102
RTVSPost2010Prop46
 90
       50
102
RTVSPost2010PropOp46
 70
     1
102
RTVSPost2010Prop47
 90
       50
102
RTVSPost2010PropOp47
 70
     1
102
RTVSPost2010Prop48
 90
       50
102
RTVSPost2010PropOp48
 70
     1
102
RTVSPost2010Prop49
280
     0
102
RTVSPost2010PropOp49
 70
     1
102
RTVSPost2010Prop50
 90
       50
102
RTVSPost2010PropOp50
 70
     1
102
RTVSPost2010Prop51ColorIndex
 90
      256
102
RTVSPost2010Prop51ColorRGB
 90
-16777216
102
RTVSPost2010PropOp51
 70
     0
102
RTVSPost2010Prop52
140
1.0
102
RTVSPost2010PropOp52
 70
     0
102
RTVSPost2010Prop53
 90
        2
102
RTVSPost2010PropOp53
 70
     1
102
RTVSPost2010Prop54
  1
strokes_ogs.tif
102
RTVSPost2010PropOp54
 70
     1
102
RTVSPost2010Prop55
280
     0
102
RTVSPost2010PropOp55
 70
     1
102
RTVSPost2010Prop56
140
1.0
102
RTVSPost2010PropOp56
 70
     1
102
RTVSPost2010Prop57
140
1.0
102
RTVSPost2010PropOp57
 70
     1
  0
XRECORD
  5
263
102
{ACAD_REACTORS
330
262
102
}
330
262
100
AcDbXrecord
280
     1
102
RTVSPost2010Prop28
280
     0
102
RTVSPost2010PropOp28
 70
     0
102
RTVSPost2010Prop29
280
     1
102
RTVSPost2010PropOp29
 70
     0
102
RTVSPost2010Prop30
280
     1
102
RTVSPost2010PropOp30
 70
     0
102
RTVSPost2010Prop31
280
     0
102
RTVSPost2010PropOp31
 70
     0
102
RTVSPost2010Prop32
280
     0
102
RTVSPost2010PropOp32
 70
     0
102
RTVSPost2010Prop33
280
     0
102
RTVSPost2010PropOp33
 70
     0
102
RTVSPost2010Prop34
280
     0
102
RTVSPost2010PropOp34
 70
     0
102
RTVSPost2010Prop35
280
     0
102
RTVSPost2010PropOp35
 70
     0
102
RTVSPost2010Prop36
280
     0
102
RTVSPost2010PropOp36
 70
     0
102
RTVSPost2010Prop37
 90
       50
102
RTVSPost2010PropOp37
 70
     0
102
RTVSPost2010Prop38
140
0.0
102
RTVSPost2010PropOp38
 70
     0
102
RTVSPost2010Prop39
140
1.0
102
RTVSPost2010PropOp39
 70
     0
102
RTVSPost2010Prop40
 90
        0
102
RTVSPost2010PropOp40
 70
     0
102
RTVSPost2010Prop41ColorIndex
 90
       18
102
RTVSPost2010Prop41ColorRGB
 90
        0
102
RTVSPost2010PropOp41
 70
     0
102
RTVSPost2010Prop42
 90
       50
102
RTVSPost2010PropOp42
 70
     0
102
RTVSPost2010Prop43
 90
        3
102
RTVSPost2010PropOp43
 70
     0
102
RTVSPost2010Prop44ColorIndex
 90
        5
102
RTVSPost2010Prop44ColorRGB
 90
      255
102
RTVSPost2010PropOp44
 70
     0
102
RTVSPost2010Prop45
280
     0
102
RTVSPost2010PropOp45
 70
     0
102
RTVSPost2010Prop46
 90
       50
102
RTVSPost2010PropOp46
 70
     0
102
RTVSPost2010Prop47
 90
       50
102
RTVSPost2010PropOp47
 70
     0
102
RTVSPost2010Prop48
 90
       50
102
RTVSPost2010PropOp48
 70
     0
102
RTVSPost2010Prop49
280
     0
102
RTVSPost2010PropOp49
 70
     0
102
RTVSPost2010Prop50
 90
       50
102
RTVSPost2010PropOp50
 70
     0
102
RTVSPost2010Prop51ColorIndex
 90
      256
102
RTVSPost2010Prop51ColorRGB
 90
-16777216
102
RTVSPost2010PropOp51
 70
     0
102
RTVSPost2010Prop52
140
1.0
102
RTVSPost2010PropOp52
 70
     0
102
RTVSPost2010Prop53
 90
        2
102
RTVSPost2010PropOp53
 70
     0
102
RTVSPost2010Prop54
  1
strokes_ogs.tif
102
RTVSPost2010PropOp54
 70
     0
102
RTVSPost2010Prop55
280
     0
102
RTVSPost2010PropOp55
 70
     0
102
RTVSPost2010Prop56
140
1.0
102
RTVSPost2010PropOp56
 70
     0
102
RTVSPost2010Prop57
140
1.0
102
RTVSPost2010PropOp57
 70
     0
  0
XRECORD
  5
25B
102
{ACAD_REACTORS
330
25A
102
}
330
25A
100
AcDbXrecord
280
     1
102
RTVSPost2010Prop28
280
     0
102
RTVSPost2010PropOp28
 70
     1
102
RTVSPost2010Prop29
280
     1
102
RTVSPost2010PropOp29
 70
     1
102
RTVSPost2010Prop30
280
     1
102
RTVSPost2010PropOp30
 70
     1
102
RTVSPost2010Prop31
280
     0
102
RTVSPost2010PropOp31
 70
     1
102
RTVSPost2010Prop32
280
     0
102
RTVSPost2010PropOp32
 70
     1
102
RTVSPost2010Prop33
280
     0
102
RTVSPost2010PropOp33
 70
     1
102
RTVSPost2010Prop34
280
     0
102
RTVSPost2010PropOp34
 70
     1
102
RTVSPost2010Prop35
280
     0
102
RTVSPost2010PropOp35
 70
     1
102
RTVSPost2010Prop36
280
     0
102
RTVSPost2010PropOp36
 70
     1
102
RTVSPost2010Prop37
 90
       50
102
RTVSPost2010PropOp37
 70
     1
102
RTVSPost2010Prop38
140
0.0
102
RTVSPost2010PropOp38
 70
     1
102
RTVSPost2010Prop39
140
1.0
102
RTVSPost2010PropOp39
 70
     1
102
RTVSPost2010Prop40
 90
        0
102
RTVSPost2010PropOp40
 70
     1
102
RTVSPost2010Prop41ColorIndex
 90
       18
102
RTVSPost2010Prop41ColorRGB
 90
        0
102
RTVSPost2010PropOp41
 70
     1
102
RTVSPost2010Prop42
 90
       50
102
RTVSPost2010PropOp42
 70
     1
102
RTVSPost2010Prop43
 90
        3
102
RTVSPost2010PropOp43
 70
     1
102
RTVSPost2010Prop44ColorIndex
 90
        5
102
RTVSPost2010Prop44ColorRGB
 90
      255
102
RTVSPost2010PropOp44
 70
     1
102
RTVSPost2010Prop45
280
     0
102
RTVSPost2010PropOp45
 70
     1
102
RTVSPost2010Prop46
 90
       50
102
RTVSPost2010PropOp46
 70
     1
102
RTVSPost2010Prop47
 90
       50
102
RTVSPost2010PropOp47
 70
     1
102
RTVSPost2010Prop48
 90
       50
102
RTVSPost2010PropOp48
 70
     1
102
RTVSPost2010Prop49
280
     0
102
RTVSPost2010PropOp49
 70
     1
102
RTVSPost2010Prop50
 90
       50
102
RTVSPost2010PropOp50
 70
     1
102
RTVSPost2010Prop51ColorIndex
 90
      256
102
RTVSPost2010Prop51ColorRGB
 90
-16777216
102
RTVSPost2010PropOp51
 70
     0
102
RTVSPost2010Prop52
140
1.0
102
RTVSPost2010PropOp52
 70
     0
102
RTVSPost2010Prop53
 90
        2
102
RTVSPost2010PropOp53
 70
     1
102
RTVSPost2010Prop54
  1
strokes_ogs.tif
102
RTVSPost2010PropOp54
 70
     1
102
RTVSPost2010Prop55
280
     0
102
RTVSPost2010PropOp55
 70
     1
102
RTVSPost2010Prop56
140
1.0
102
RTVSPost2010PropOp56
 70
     1
102
RTVSPost2010Prop57
140
1.0
102
RTVSPost2010PropOp57
 70
     1
  0
XRECORD
  5
23F
102
{ACAD_REACTORS
330
23E
102
}
330
23E
100
AcDbXrecord
280
     1
102
RTVSPost2010Prop28
280
     0
102
RTVSPost2010PropOp28
 70
     1
102
RTVSPost2010Prop29
280
     1
102
RTVSPost2010PropOp29
 70
     1
102
RTVSPost2010Prop30
280
     1
102
RTVSPost2010PropOp30
 70
     1
102
RTVSPost2010Prop31
280
     0
102
RTVSPost2010PropOp31
 70
     1
102
RTVSPost2010Prop32
280
     0
102
RTVSPost2010PropOp32
 70
     1
102
RTVSPost2010Prop33
280
     0
102
RTVSPost2010PropOp33
 70
     1
102
RTVSPost2010Prop34
280
     0
102
RTVSPost2010PropOp34
 70
     1
102
RTVSPost2010Prop35
280
     0
102
RTVSPost2010PropOp35
 70
     1
102
RTVSPost2010Prop36
280
     0
102
RTVSPost2010PropOp36
 70
     1
102
RTVSPost2010Prop37
 90
       50
102
RTVSPost2010PropOp37
 70
     1
102
RTVSPost2010Prop38
140
0.0
102
RTVSPost2010PropOp38
 70
     1
102
RTVSPost2010Prop39
140
1.0
102
RTVSPost2010PropOp39
 70
     1
102
RTVSPost2010Prop40
 90
        0
102
RTVSPost2010PropOp40
 70
     1
102
RTVSPost2010Prop41ColorIndex
 90
       18
102
RTVSPost2010Prop41ColorRGB
 90
        0
102
RTVSPost2010PropOp41
 70
     1
102
RTVSPost2010Prop42
 90
       50
102
RTVSPost2010PropOp42
 70
     1
102
RTVSPost2010Prop43
 90
        3
102
RTVSPost2010PropOp43
 70
     1
102
RTVSPost2010Prop44ColorIndex
 90
        5
102
RTVSPost2010Prop44ColorRGB
 90
      255
102
RTVSPost2010PropOp44
 70
     1
102
RTVSPost2010Prop45
280
     0
102
RTVSPost2010PropOp45
 70
     1
102
RTVSPost2010Prop46
 90
       50
102
RTVSPost2010PropOp46
 70
     1
102
RTVSPost2010Prop47
 90
       50
102
RTVSPost2010PropOp47
 70
     1
102
RTVSPost2010Prop48
 90
       50
102
RTVSPost2010PropOp48
 70
     1
102
RTVSPost2010Prop49
280
     0
102
RTVSPost2010PropOp49
 70
     1
102
RTVSPost2010Prop50
 90
       50
102
RTVSPost2010PropOp50
 70
     1
102
RTVSPost2010Prop51ColorIndex
 90
      256
102
RTVSPost2010Prop51ColorRGB
 90
-16777216
102
RTVSPost2010PropOp51
 70
     0
102
RTVSPost2010Prop52
140
1.0
102
RTVSPost2010PropOp52
 70
     0
102
RTVSPost2010Prop53
 90
        2
102
RTVSPost2010PropOp53
 70
     1
102
RTVSPost2010Prop54
  1
strokes_ogs.tif
102
RTVSPost2010PropOp54
 70
     1
102
RTVSPost2010Prop55
280
     0
102
RTVSPost2010PropOp55
 70
     1
102
RTVSPost2010Prop56
140
1.0
102
RTVSPost2010PropOp56
 70
     1
102
RTVSPost2010Prop57
140
1.0
102
RTVSPost2010PropOp57
 70
     1
  0
XRECORD
  5
241
102
{ACAD_REACTORS
330
240
102
}
330
240
100
AcDbXrecord
280
     1
102
RTVSPost2010Prop28
280
     0
102
RTVSPost2010PropOp28
 70
     1
102
RTVSPost2010Prop29
280
     1
102
RTVSPost2010PropOp29
 70
     1
102
RTVSPost2010Prop30
280
     1
102
RTVSPost2010PropOp30
 70
     1
102
RTVSPost2010Prop31
280
     0
102
RTVSPost2010PropOp31
 70
     1
102
RTVSPost2010Prop32
280
     0
102
RTVSPost2010PropOp32
 70
     1
102
RTVSPost2010Prop33
280
     0
102
RTVSPost2010PropOp33
 70
     1
102
RTVSPost2010Prop34
280
     0
102
RTVSPost2010PropOp34
 70
     1
102
RTVSPost2010Prop35
280
     0
102
RTVSPost2010PropOp35
 70
     1
102
RTVSPost2010Prop36
280
     0
102
RTVSPost2010PropOp36
 70
     1
102
RTVSPost2010Prop37
 90
       50
102
RTVSPost2010PropOp37
 70
     1
102
RTVSPost2010Prop38
140
0.0
102
RTVSPost2010PropOp38
 70
     1
102
RTVSPost2010Prop39
140
1.0
102
RTVSPost2010PropOp39
 70
     1
102
RTVSPost2010Prop40
 90
        0
102
RTVSPost2010PropOp40
 70
     1
102
RTVSPost2010Prop41ColorIndex
 90
       18
102
RTVSPost2010Prop41ColorRGB
 90
        0
102
RTVSPost2010PropOp41
 70
     1
102
RTVSPost2010Prop42
 90
       50
102
RTVSPost2010PropOp42
 70
     1
102
RTVSPost2010Prop43
 90
        3
102
RTVSPost2010PropOp43
 70
     1
102
RTVSPost2010Prop44ColorIndex
 90
        5
102
RTVSPost2010Prop44ColorRGB
 90
      255
102
RTVSPost2010PropOp44
 70
     1
102
RTVSPost2010Prop45
280
     0
102
RTVSPost2010PropOp45
 70
     1
102
RTVSPost2010Prop46
 90
       50
102
RTVSPost2010PropOp46
 70
     1
102
RTVSPost2010Prop47
 90
       50
102
RTVSPost2010PropOp47
 70
     1
102
RTVSPost2010Prop48
 90
       50
102
RTVSPost2010PropOp48
 70
     1
102
RTVSPost2010Prop49
280
     0
102
RTVSPost2010PropOp49
 70
     1
102
RTVSPost2010Prop50
 90
       50
102
RTVSPost2010PropOp50
 70
     1
102
RTVSPost2010Prop51ColorIndex
 90
      256
102
RTVSPost2010Prop51ColorRGB
 90
-16777216
102
RTVSPost2010PropOp51
 70
     0
102
RTVSPost2010Prop52
140
1.0
102
RTVSPost2010PropOp52
 70
     0
102
RTVSPost2010Prop53
 90
        2
102
RTVSPost2010PropOp53
 70
     1
102
RTVSPost2010Prop54
  1
strokes_ogs.tif
102
RTVSPost2010PropOp54
 70
     1
102
RTVSPost2010Prop55
280
     0
102
RTVSPost2010PropOp55
 70
     1
102
RTVSPost2010Prop56
140
1.0
102
RTVSPost2010PropOp56
 70
     1
102
RTVSPost2010Prop57
140
1.0
102
RTVSPost2010PropOp57
 70
     1
  0
XRECORD
  5
243
102
{ACAD_REACTORS
330
242
102
}
330
242
100
AcDbXrecord
280
     1
102
RTVSPost2010Prop28
280
     0
102
RTVSPost2010PropOp28
 70
     1
102
RTVSPost2010Prop29
280
     1
102
RTVSPost2010PropOp29
 70
     1
102
RTVSPost2010Prop30
280
     1
102
RTVSPost2010PropOp30
 70
     1
102
RTVSPost2010Prop31
280
     0
102
RTVSPost2010PropOp31
 70
     1
102
RTVSPost2010Prop32
280
     0
102
RTVSPost2010PropOp32
 70
     1
102
RTVSPost2010Prop33
280
     0
102
RTVSPost2010PropOp33
 70
     1
102
RTVSPost2010Prop34
280
     0
102
RTVSPost2010PropOp34
 70
     1
102
RTVSPost2010Prop35
280
     0
102
RTVSPost2010PropOp35
 70
     1
102
RTVSPost2010Prop36
280
     0
102
RTVSPost2010PropOp36
 70
     1
102
RTVSPost2010Prop37
 90
       50
102
RTVSPost2010PropOp37
 70
     1
102
RTVSPost2010Prop38
140
0.0
102
RTVSPost2010PropOp38
 70
     1
102
RTVSPost2010Prop39
140
1.0
102
RTVSPost2010PropOp39
 70
     1
102
RTVSPost2010Prop40
 90
        0
102
RTVSPost2010PropOp40
 70
     1
102
RTVSPost2010Prop41ColorIndex
 90
       18
102
RTVSPost2010Prop41ColorRGB
 90
        0
102
RTVSPost2010PropOp41
 70
     1
102
RTVSPost2010Prop42
 90
       50
102
RTVSPost2010PropOp42
 70
     1
102
RTVSPost2010Prop43
 90
        3
102
RTVSPost2010PropOp43
 70
     1
102
RTVSPost2010Prop44ColorIndex
 90
        5
102
RTVSPost2010Prop44ColorRGB
 90
      255
102
RTVSPost2010PropOp44
 70
     1
102
RTVSPost2010Prop45
280
     0
102
RTVSPost2010PropOp45
 70
     1
102
RTVSPost2010Prop46
 90
       50
102
RTVSPost2010PropOp46
 70
     1
102
RTVSPost2010Prop47
 90
       50
102
RTVSPost2010PropOp47
 70
     1
102
RTVSPost2010Prop48
 90
       50
102
RTVSPost2010PropOp48
 70
     1
102
RTVSPost2010Prop49
280
     0
102
RTVSPost2010PropOp49
 70
     1
102
RTVSPost2010Prop50
 90
       50
102
RTVSPost2010PropOp50
 70
     1
102
RTVSPost2010Prop51ColorIndex
 90
      256
102
RTVSPost2010Prop51ColorRGB
 90
-16777216
102
RTVSPost2010PropOp51
 70
     0
102
RTVSPost2010Prop52
140
1.0
102
RTVSPost2010PropOp52
 70
     0
102
RTVSPost2010Prop53
 90
        2
102
RTVSPost2010PropOp53
 70
     1
102
RTVSPost2010Prop54
  1
strokes_ogs.tif
102
RTVSPost2010PropOp54
 70
     1
102
RTVSPost2010Prop55
280
     0
102
RTVSPost2010PropOp55
 70
     1
102
RTVSPost2010Prop56
140
1.0
102
RTVSPost2010PropOp56
 70
     1
102
RTVSPost2010Prop57
140
1.0
102
RTVSPost2010PropOp57
 70
     1
  0
XRECORD
  5
245
102
{ACAD_REACTORS
330
244
102
}
330
244
100
AcDbXrecord
280
     1
102
RTVSPost2010Prop28
280
     0
102
RTVSPost2010PropOp28
 70
     1
102
RTVSPost2010Prop29
280
     1
102
RTVSPost2010PropOp29
 70
     1
102
RTVSPost2010Prop30
280
     1
102
RTVSPost2010PropOp30
 70
     1
102
RTVSPost2010Prop31
280
     0
102
RTVSPost2010PropOp31
 70
     1
102
RTVSPost2010Prop32
280
     0
102
RTVSPost2010PropOp32
 70
     1
102
RTVSPost2010Prop33
280
     0
102
RTVSPost2010PropOp33
 70
     1
102
RTVSPost2010Prop34
280
     0
102
RTVSPost2010PropOp34
 70
     1
102
RTVSPost2010Prop35
280
     0
102
RTVSPost2010PropOp35
 70
     1
102
RTVSPost2010Prop36
280
     0
102
RTVSPost2010PropOp36
 70
     1
102
RTVSPost2010Prop37
 90
       50
102
RTVSPost2010PropOp37
 70
     1
102
RTVSPost2010Prop38
140
0.0
102
RTVSPost2010PropOp38
 70
     1
102
RTVSPost2010Prop39
140
1.0
102
RTVSPost2010PropOp39
 70
     1
102
RTVSPost2010Prop40
 90
        0
102
RTVSPost2010PropOp40
 70
     1
102
RTVSPost2010Prop41ColorIndex
 90
       18
102
RTVSPost2010Prop41ColorRGB
 90
        0
102
RTVSPost2010PropOp41
 70
     1
102
RTVSPost2010Prop42
 90
       50
102
RTVSPost2010PropOp42
 70
     1
102
RTVSPost2010Prop43
 90
        3
102
RTVSPost2010PropOp43
 70
     1
102
RTVSPost2010Prop44ColorIndex
 90
        5
102
RTVSPost2010Prop44ColorRGB
 90
      255
102
RTVSPost2010PropOp44
 70
     1
102
RTVSPost2010Prop45
280
     0
102
RTVSPost2010PropOp45
 70
     1
102
RTVSPost2010Prop46
 90
       50
102
RTVSPost2010PropOp46
 70
     1
102
RTVSPost2010Prop47
 90
       50
102
RTVSPost2010PropOp47
 70
     1
102
RTVSPost2010Prop48
 90
       50
102
RTVSPost2010PropOp48
 70
     1
102
RTVSPost2010Prop49
280
     0
102
RTVSPost2010PropOp49
 70
     1
102
RTVSPost2010Prop50
 90
       50
102
RTVSPost2010PropOp50
 70
     1
102
RTVSPost2010Prop51ColorIndex
 90
      256
102
RTVSPost2010Prop51ColorRGB
 90
-16777216
102
RTVSPost2010PropOp51
 70
     0
102
RTVSPost2010Prop52
140
1.0
102
RTVSPost2010PropOp52
 70
     0
102
RTVSPost2010Prop53
 90
        2
102
RTVSPost2010PropOp53
 70
     1
102
RTVSPost2010Prop54
  1
strokes_ogs.tif
102
RTVSPost2010PropOp54
 70
     1
102
RTVSPost2010Prop55
280
     0
102
RTVSPost2010PropOp55
 70
     1
102
RTVSPost2010Prop56
140
1.0
102
RTVSPost2010PropOp56
 70
     1
102
RTVSPost2010Prop57
140
1.0
102
RTVSPost2010PropOp57
 70
     1
  0
XRECORD
  5
24B
102
{ACAD_REACTORS
330
24A
102
}
330
24A
100
AcDbXrecord
280
     1
102
RTVSPost2010Prop28
280
     0
102
RTVSPost2010PropOp28
 70
     1
102
RTVSPost2010Prop29
280
     1
102
RTVSPost2010PropOp29
 70
     1
102
RTVSPost2010Prop30
280
     1
102
RTVSPost2010PropOp30
 70
     1
102
RTVSPost2010Prop31
280
     0
102
RTVSPost2010PropOp31
 70
     1
102
RTVSPost2010Prop32
280
     0
102
RTVSPost2010PropOp32
 70
     1
102
RTVSPost2010Prop33
280
     0
102
RTVSPost2010PropOp33
 70
     1
102
RTVSPost2010Prop34
280
     0
102
RTVSPost2010PropOp34
 70
     1
102
RTVSPost2010Prop35
280
     0
102
RTVSPost2010PropOp35
 70
     1
102
RTVSPost2010Prop36
280
     0
102
RTVSPost2010PropOp36
 70
     1
102
RTVSPost2010Prop37
 90
       50
102
RTVSPost2010PropOp37
 70
     1
102
RTVSPost2010Prop38
140
0.0
102
RTVSPost2010PropOp38
 70
     1
102
RTVSPost2010Prop39
140
1.0
102
RTVSPost2010PropOp39
 70
     1
102
RTVSPost2010Prop40
 90
        0
102
RTVSPost2010PropOp40
 70
     1
102
RTVSPost2010Prop41ColorIndex
 90
       18
102
RTVSPost2010Prop41ColorRGB
 90
        0
102
RTVSPost2010PropOp41
 70
     1
102
RTVSPost2010Prop42
 90
       50
102
RTVSPost2010PropOp42
 70
     1
102
RTVSPost2010Prop43
 90
        3
102
RTVSPost2010PropOp43
 70
     1
102
RTVSPost2010Prop44ColorIndex
 90
        5
102
RTVSPost2010Prop44ColorRGB
 90
      255
102
RTVSPost2010PropOp44
 70
     1
102
RTVSPost2010Prop45
280
     0
102
RTVSPost2010PropOp45
 70
     1
102
RTVSPost2010Prop46
 90
       50
102
RTVSPost2010PropOp46
 70
     1
102
RTVSPost2010Prop47
 90
       50
102
RTVSPost2010PropOp47
 70
     1
102
RTVSPost2010Prop48
 90
       50
102
RTVSPost2010PropOp48
 70
     1
102
RTVSPost2010Prop49
280
     0
102
RTVSPost2010PropOp49
 70
     1
102
RTVSPost2010Prop50
 90
       50
102
RTVSPost2010PropOp50
 70
     1
102
RTVSPost2010Prop51ColorIndex
 90
      256
102
RTVSPost2010Prop51ColorRGB
 90
-16777216
102
RTVSPost2010PropOp51
 70
     0
102
RTVSPost2010Prop52
140
1.0
102
RTVSPost2010PropOp52
 70
     0
102
RTVSPost2010Prop53
 90
        2
102
RTVSPost2010PropOp53
 70
     1
102
RTVSPost2010Prop54
  1
strokes_ogs.tif
102
RTVSPost2010PropOp54
 70
     1
102
RTVSPost2010Prop55
280
     0
102
RTVSPost2010PropOp55
 70
     1
102
RTVSPost2010Prop56
140
1.0
102
RTVSPost2010PropOp56
 70
     1
102
RTVSPost2010Prop57
140
1.0
102
RTVSPost2010PropOp57
 70
     1
  0
XRECORD
  5
25F
102
{ACAD_REACTORS
330
25E
102
}
330
25E
100
AcDbXrecord
280
     1
102
RTVSPost2010Prop28
280
     0
102
RTVSPost2010PropOp28
 70
     0
102
RTVSPost2010Prop29
280
     1
102
RTVSPost2010PropOp29
 70
     0
102
RTVSPost2010Prop30
280
     1
102
RTVSPost2010PropOp30
 70
     0
102
RTVSPost2010Prop31
280
     0
102
RTVSPost2010PropOp31
 70
     0
102
RTVSPost2010Prop32
280
     0
102
RTVSPost2010PropOp32
 70
     0
102
RTVSPost2010Prop33
280
     0
102
RTVSPost2010PropOp33
 70
     0
102
RTVSPost2010Prop34
280
     0
102
RTVSPost2010PropOp34
 70
     0
102
RTVSPost2010Prop35
280
     0
102
RTVSPost2010PropOp35
 70
     0
102
RTVSPost2010Prop36
280
     0
102
RTVSPost2010PropOp36
 70
     0
102
RTVSPost2010Prop37
 90
       50
102
RTVSPost2010PropOp37
 70
     0
102
RTVSPost2010Prop38
140
0.0
102
RTVSPost2010PropOp38
 70
     0
102
RTVSPost2010Prop39
140
1.0
102
RTVSPost2010PropOp39
 70
     0
102
RTVSPost2010Prop40
 90
        0
102
RTVSPost2010PropOp40
 70
     0
102
RTVSPost2010Prop41ColorIndex
 90
       18
102
RTVSPost2010Prop41ColorRGB
 90
        0
102
RTVSPost2010PropOp41
 70
     0
102
RTVSPost2010Prop42
 90
       50
102
RTVSPost2010PropOp42
 70
     0
102
RTVSPost2010Prop43
 90
        3
102
RTVSPost2010PropOp43
 70
     0
102
RTVSPost2010Prop44ColorIndex
 90
        5
102
RTVSPost2010Prop44ColorRGB
 90
      255
102
RTVSPost2010PropOp44
 70
     0
102
RTVSPost2010Prop45
280
     0
102
RTVSPost2010PropOp45
 70
     0
102
RTVSPost2010Prop46
 90
       50
102
RTVSPost2010PropOp46
 70
     0
102
RTVSPost2010Prop47
 90
       50
102
RTVSPost2010PropOp47
 70
     0
102
RTVSPost2010Prop48
 90
       50
102
RTVSPost2010PropOp48
 70
     0
102
RTVSPost2010Prop49
280
     0
102
RTVSPost2010PropOp49
 70
     0
102
RTVSPost2010Prop50
 90
       50
102
RTVSPost2010PropOp50
 70
     0
102
RTVSPost2010Prop51ColorIndex
 90
      256
102
RTVSPost2010Prop51ColorRGB
 90
-16777216
102
RTVSPost2010PropOp51
 70
     0
102
RTVSPost2010Prop52
140
1.0
102
RTVSPost2010PropOp52
 70
     0
102
RTVSPost2010Prop53
 90
        2
102
RTVSPost2010PropOp53
 70
     0
102
RTVSPost2010Prop54
  1
strokes_ogs.tif
102
RTVSPost2010PropOp54
 70
     0
102
RTVSPost2010Prop55
280
     0
102
RTVSPost2010PropOp55
 70
     0
102
RTVSPost2010Prop56
140
1.0
102
RTVSPost2010PropOp56
 70
     0
102
RTVSPost2010Prop57
140
1.0
102
RTVSPost2010PropOp57
 70
     0
  0
XRECORD
  5
259
102
{ACAD_REACTORS
330
258
102
}
330
258
100
AcDbXrecord
280
     1
102
RTVSPost2010Prop28
280
     0
102
RTVSPost2010PropOp28
 70
     1
102
RTVSPost2010Prop29
280
     1
102
RTVSPost2010PropOp29
 70
     1
102
RTVSPost2010Prop30
280
     1
102
RTVSPost2010PropOp30
 70
     1
102
RTVSPost2010Prop31
280
     0
102
RTVSPost2010PropOp31
 70
     1
102
RTVSPost2010Prop32
280
     0
102
RTVSPost2010PropOp32
 70
     1
102
RTVSPost2010Prop33
280
     0
102
RTVSPost2010PropOp33
 70
     1
102
RTVSPost2010Prop34
280
     0
102
RTVSPost2010PropOp34
 70
     1
102
RTVSPost2010Prop35
280
     0
102
RTVSPost2010PropOp35
 70
     1
102
RTVSPost2010Prop36
280
     0
102
RTVSPost2010PropOp36
 70
     1
102
RTVSPost2010Prop37
 90
       50
102
RTVSPost2010PropOp37
 70
     1
102
RTVSPost2010Prop38
140
0.0
102
RTVSPost2010PropOp38
 70
     1
102
RTVSPost2010Prop39
140
1.0
102
RTVSPost2010PropOp39
 70
     1
102
RTVSPost2010Prop40
 90
        0
102
RTVSPost2010PropOp40
 70
     1
102
RTVSPost2010Prop41ColorIndex
 90
       18
102
RTVSPost2010Prop41ColorRGB
 90
        0
102
RTVSPost2010PropOp41
 70
     1
102
RTVSPost2010Prop42
 90
       50
102
RTVSPost2010PropOp42
 70
     1
102
RTVSPost2010Prop43
 90
        3
102
RTVSPost2010PropOp43
 70
     1
102
RTVSPost2010Prop44ColorIndex
 90
        5
102
RTVSPost2010Prop44ColorRGB
 90
      255
102
RTVSPost2010PropOp44
 70
     1
102
RTVSPost2010Prop45
280
     0
102
RTVSPost2010PropOp45
 70
     1
102
RTVSPost2010Prop46
 90
       50
102
RTVSPost2010PropOp46
 70
     1
102
RTVSPost2010Prop47
 90
       50
102
RTVSPost2010PropOp47
 70
     1
102
RTVSPost2010Prop48
 90
       50
102
RTVSPost2010PropOp48
 70
     1
102
RTVSPost2010Prop49
280
     0
102
RTVSPost2010PropOp49
 70
     1
102
RTVSPost2010Prop50
 90
       50
102
RTVSPost2010PropOp50
 70
     1
102
RTVSPost2010Prop51ColorIndex
 90
      256
102
RTVSPost2010Prop51ColorRGB
 90
-16777216
102
RTVSPost2010PropOp51
 70
     0
102
RTVSPost2010Prop52
140
1.0
102
RTVSPost2010PropOp52
 70
     0
102
RTVSPost2010Prop53
 90
        2
102
RTVSPost2010PropOp53
 70
     1
102
RTVSPost2010Prop54
  1
strokes_ogs.tif
102
RTVSPost2010PropOp54
 70
     1
102
RTVSPost2010Prop55
280
     0
102
RTVSPost2010PropOp55
 70
     1
102
RTVSPost2010Prop56
140
1.0
102
RTVSPost2010PropOp56
 70
     1
102
RTVSPost2010Prop57
140
1.0
102
RTVSPost2010PropOp57
 70
     1
  0
XRECORD
  5
261
102
{ACAD_REACTORS
330
260
102
}
330
260
100
AcDbXrecord
280
     1
102
RTVSPost2010Prop28
280
     0
102
RTVSPost2010PropOp28
 70
     0
102
RTVSPost2010Prop29
280
     1
102
RTVSPost2010PropOp29
 70
     0
102
RTVSPost2010Prop30
280
     1
102
RTVSPost2010PropOp30
 70
     0
102
RTVSPost2010Prop31
280
     0
102
RTVSPost2010PropOp31
 70
     0
102
RTVSPost2010Prop32
280
     0
102
RTVSPost2010PropOp32
 70
     0
102
RTVSPost2010Prop33
280
     0
102
RTVSPost2010PropOp33
 70
     0
102
RTVSPost2010Prop34
280
     0
102
RTVSPost2010PropOp34
 70
     0
102
RTVSPost2010Prop35
280
     0
102
RTVSPost2010PropOp35
 70
     0
102
RTVSPost2010Prop36
280
     0
102
RTVSPost2010PropOp36
 70
     0
102
RTVSPost2010Prop37
 90
       50
102
RTVSPost2010PropOp37
 70
     0
102
RTVSPost2010Prop38
140
0.0
102
RTVSPost2010PropOp38
 70
     0
102
RTVSPost2010Prop39
140
1.0
102
RTVSPost2010PropOp39
 70
     0
102
RTVSPost2010Prop40
 90
        0
102
RTVSPost2010PropOp40
 70
     0
102
RTVSPost2010Prop41ColorIndex
 90
       18
102
RTVSPost2010Prop41ColorRGB
 90
        0
102
RTVSPost2010PropOp41
 70
     0
102
RTVSPost2010Prop42
 90
       50
102
RTVSPost2010PropOp42
 70
     0
102
RTVSPost2010Prop43
 90
        3
102
RTVSPost2010PropOp43
 70
     0
102
RTVSPost2010Prop44ColorIndex
 90
        5
102
RTVSPost2010Prop44ColorRGB
 90
      255
102
RTVSPost2010PropOp44
 70
     0
102
RTVSPost2010Prop45
280
     0
102
RTVSPost2010PropOp45
 70
     0
102
RTVSPost2010Prop46
 90
       50
102
RTVSPost2010PropOp46
 70
     0
102
RTVSPost2010Prop47
 90
       50
102
RTVSPost2010PropOp47
 70
     0
102
RTVSPost2010Prop48
 90
       50
102
RTVSPost2010PropOp48
 70
     0
102
RTVSPost2010Prop49
280
     0
102
RTVSPost2010PropOp49
 70
     0
102
RTVSPost2010Prop50
 90
       50
102
RTVSPost2010PropOp50
 70
     0
102
RTVSPost2010Prop51ColorIndex
 90
      256
102
RTVSPost2010Prop51ColorRGB
 90
-16777216
102
RTVSPost2010PropOp51
 70
     0
102
RTVSPost2010Prop52
140
1.0
102
RTVSPost2010PropOp52
 70
     0
102
RTVSPost2010Prop53
 90
        2
102
RTVSPost2010PropOp53
 70
     0
102
RTVSPost2010Prop54
  1
strokes_ogs.tif
102
RTVSPost2010PropOp54
 70
     0
102
RTVSPost2010Prop55
280
     0
102
RTVSPost2010PropOp55
 70
     0
102
RTVSPost2010Prop56
140
1.0
102
RTVSPost2010PropOp56
 70
     0
102
RTVSPost2010Prop57
140
1.0
102
RTVSPost2010PropOp57
 70
     0
  0
XRECORD
  5
24F
102
{ACAD_REACTORS
330
24E
102
}
330
24E
100
AcDbXrecord
280
     1
102
RTVSPost2010Prop28
280
     0
102
RTVSPost2010PropOp28
 70
     1
102
RTVSPost2010Prop29
280
     1
102
RTVSPost2010PropOp29
 70
     1
102
RTVSPost2010Prop30
280
     1
102
RTVSPost2010PropOp30
 70
     1
102
RTVSPost2010Prop31
280
     0
102
RTVSPost2010PropOp31
 70
     1
102
RTVSPost2010Prop32
280
     0
102
RTVSPost2010PropOp32
 70
     1
102
RTVSPost2010Prop33
280
     0
102
RTVSPost2010PropOp33
 70
     1
102
RTVSPost2010Prop34
280
     0
102
RTVSPost2010PropOp34
 70
     1
102
RTVSPost2010Prop35
280
     0
102
RTVSPost2010PropOp35
 70
     1
102
RTVSPost2010Prop36
280
     0
102
RTVSPost2010PropOp36
 70
     1
102
RTVSPost2010Prop37
 90
       50
102
RTVSPost2010PropOp37
 70
     1
102
RTVSPost2010Prop38
140
0.0
102
RTVSPost2010PropOp38
 70
     1
102
RTVSPost2010Prop39
140
1.0
102
RTVSPost2010PropOp39
 70
     1
102
RTVSPost2010Prop40
 90
        0
102
RTVSPost2010PropOp40
 70
     1
102
RTVSPost2010Prop41ColorIndex
 90
       18
102
RTVSPost2010Prop41ColorRGB
 90
        0
102
RTVSPost2010PropOp41
 70
     1
102
RTVSPost2010Prop42
 90
       50
102
RTVSPost2010PropOp42
 70
     1
102
RTVSPost2010Prop43
 90
        3
102
RTVSPost2010PropOp43
 70
     1
102
RTVSPost2010Prop44ColorIndex
 90
        5
102
RTVSPost2010Prop44ColorRGB
 90
      255
102
RTVSPost2010PropOp44
 70
     1
102
RTVSPost2010Prop45
280
     0
102
RTVSPost2010PropOp45
 70
     1
102
RTVSPost2010Prop46
 90
       50
102
RTVSPost2010PropOp46
 70
     1
102
RTVSPost2010Prop47
 90
       50
102
RTVSPost2010PropOp47
 70
     1
102
RTVSPost2010Prop48
 90
       50
102
RTVSPost2010PropOp48
 70
     1
102
RTVSPost2010Prop49
280
     0
102
RTVSPost2010PropOp49
 70
     1
102
RTVSPost2010Prop50
 90
       50
102
RTVSPost2010PropOp50
 70
     1
102
RTVSPost2010Prop51ColorIndex
 90
      256
102
RTVSPost2010Prop51ColorRGB
 90
-16777216
102
RTVSPost2010PropOp51
 70
     0
102
RTVSPost2010Prop52
140
1.0
102
RTVSPost2010PropOp52
 70
     0
102
RTVSPost2010Prop53
 90
        2
102
RTVSPost2010PropOp53
 70
     1
102
RTVSPost2010Prop54
  1
strokes_ogs.tif
102
RTVSPost2010PropOp54
 70
     1
102
RTVSPost2010Prop55
280
     0
102
RTVSPost2010PropOp55
 70
     1
102
RTVSPost2010Prop56
140
1.0
102
RTVSPost2010PropOp56
 70
     1
102
RTVSPost2010Prop57
140
1.0
102
RTVSPost2010PropOp57
 70
     1
  0
XRECORD
  5
26D
102
{ACAD_REACTORS
330
26C
102
}
330
26C
100
AcDbXrecord
280
     1
102
RTVSPost2010Prop28
280
     0
102
RTVSPost2010PropOp28
 70
     1
102
RTVSPost2010Prop29
280
     1
102
RTVSPost2010PropOp29
 70
     1
102
RTVSPost2010Prop30
280
     1
102
RTVSPost2010PropOp30
 70
     1
102
RTVSPost2010Prop31
280
     0
102
RTVSPost2010PropOp31
 70
     1
102
RTVSPost2010Prop32
280
     0
102
RTVSPost2010PropOp32
 70
     1
102
RTVSPost2010Prop33
280
     0
102
RTVSPost2010PropOp33
 70
     1
102
RTVSPost2010Prop34
280
     0
102
RTVSPost2010PropOp34
 70
     1
102
RTVSPost2010Prop35
280
     0
102
RTVSPost2010PropOp35
 70
     1
102
RTVSPost2010Prop36
280
     0
102
RTVSPost2010PropOp36
 70
     1
102
RTVSPost2010Prop37
 90
       50
102
RTVSPost2010PropOp37
 70
     1
102
RTVSPost2010Prop38
140
0.0
102
RTVSPost2010PropOp38
 70
     1
102
RTVSPost2010Prop39
140
1.0
102
RTVSPost2010PropOp39
 70
     1
102
RTVSPost2010Prop40
 90
        0
102
RTVSPost2010PropOp40
 70
     1
102
RTVSPost2010Prop41ColorIndex
 90
       18
102
RTVSPost2010Prop41ColorRGB
 90
        0
102
RTVSPost2010PropOp41
 70
     1
102
RTVSPost2010Prop42
 90
       50
102
RTVSPost2010PropOp42
 70
     1
102
RTVSPost2010Prop43
 90
        3
102
RTVSPost2010PropOp43
 70
     1
102
RTVSPost2010Prop44ColorIndex
 90
        5
102
RTVSPost2010Prop44ColorRGB
 90
      255
102
RTVSPost2010PropOp44
 70
     1
102
RTVSPost2010Prop45
280
     0
102
RTVSPost2010PropOp45
 70
     1
102
RTVSPost2010Prop46
 90
       50
102
RTVSPost2010PropOp46
 70
     1
102
RTVSPost2010Prop47
 90
       50
102
RTVSPost2010PropOp47
 70
     1
102
RTVSPost2010Prop48
 90
       50
102
RTVSPost2010PropOp48
 70
     1
102
RTVSPost2010Prop49
280
     0
102
RTVSPost2010PropOp49
 70
     1
102
RTVSPost2010Prop50
 90
       50
102
RTVSPost2010PropOp50
 70
     1
102
RTVSPost2010Prop51ColorIndex
 90
      256
102
RTVSPost2010Prop51ColorRGB
 90
-16777216
102
RTVSPost2010PropOp51
 70
     0
102
RTVSPost2010Prop52
140
1.0
102
RTVSPost2010PropOp52
 70
     0
102
RTVSPost2010Prop53
 90
        2
102
RTVSPost2010PropOp53
 70
     1
102
RTVSPost2010Prop54
  1
strokes_ogs.tif
102
RTVSPost2010PropOp54
 70
     1
102
RTVSPost2010Prop55
280
     0
102
RTVSPost2010PropOp55
 70
     1
102
RTVSPost2010Prop56
140
1.0
102
RTVSPost2010PropOp56
 70
     1
102
RTVSPost2010Prop57
140
1.0
102
RTVSPost2010PropOp57
 70
     1
  0
XRECORD
  5
26B
102
{ACAD_REACTORS
330
26A
102
}
330
26A
100
AcDbXrecord
280
     1
102
RTVSPost2010Prop28
280
     0
102
RTVSPost2010PropOp28
 70
     1
102
RTVSPost2010Prop29
280
     1
102
RTVSPost2010PropOp29
 70
     1
102
RTVSPost2010Prop30
280
     1
102
RTVSPost2010PropOp30
 70
     1
102
RTVSPost2010Prop31
280
     0
102
RTVSPost2010PropOp31
 70
     1
102
RTVSPost2010Prop32
280
     0
102
RTVSPost2010PropOp32
 70
     1
102
RTVSPost2010Prop33
280
     0
102
RTVSPost2010PropOp33
 70
     1
102
RTVSPost2010Prop34
280
     0
102
RTVSPost2010PropOp34
 70
     1
102
RTVSPost2010Prop35
280
     0
102
RTVSPost2010PropOp35
 70
     1
102
RTVSPost2010Prop36
280
     0
102
RTVSPost2010PropOp36
 70
     1
102
RTVSPost2010Prop37
 90
       50
102
RTVSPost2010PropOp37
 70
     1
102
RTVSPost2010Prop38
140
0.0
102
RTVSPost2010PropOp38
 70
     1
102
RTVSPost2010Prop39
140
1.0
102
RTVSPost2010PropOp39
 70
     1
102
RTVSPost2010Prop40
 90
        0
102
RTVSPost2010PropOp40
 70
     1
102
RTVSPost2010Prop41ColorIndex
 90
       18
102
RTVSPost2010Prop41ColorRGB
 90
        0
102
RTVSPost2010PropOp41
 70
     1
102
RTVSPost2010Prop42
 90
       50
102
RTVSPost2010PropOp42
 70
     1
102
RTVSPost2010Prop43
 90
        3
102
RTVSPost2010PropOp43
 70
     1
102
RTVSPost2010Prop44ColorIndex
 90
        5
102
RTVSPost2010Prop44ColorRGB
 90
      255
102
RTVSPost2010PropOp44
 70
     1
102
RTVSPost2010Prop45
280
     0
102
RTVSPost2010PropOp45
 70
     1
102
RTVSPost2010Prop46
 90
       50
102
RTVSPost2010PropOp46
 70
     1
102
RTVSPost2010Prop47
 90
       50
102
RTVSPost2010PropOp47
 70
     1
102
RTVSPost2010Prop48
 90
       50
102
RTVSPost2010PropOp48
 70
     1
102
RTVSPost2010Prop49
280
     0
102
RTVSPost2010PropOp49
 70
     1
102
RTVSPost2010Prop50
 90
       50
102
RTVSPost2010PropOp50
 70
     1
102
RTVSPost2010Prop51ColorIndex
 90
      256
102
RTVSPost2010Prop51ColorRGB
 90
-16777216
102
RTVSPost2010PropOp51
 70
     0
102
RTVSPost2010Prop52
140
1.0
102
RTVSPost2010PropOp52
 70
     0
102
RTVSPost2010Prop53
 90
        2
102
RTVSPost2010PropOp53
 70
     1
102
RTVSPost2010Prop54
  1
strokes_ogs.tif
102
RTVSPost2010PropOp54
 70
     1
102
RTVSPost2010Prop55
280
     0
102
RTVSPost2010PropOp55
 70
     1
102
RTVSPost2010Prop56
140
1.0
102
RTVSPost2010PropOp56
 70
     1
102
RTVSPost2010Prop57
140
1.0
102
RTVSPost2010PropOp57
 70
     1
  0
XRECORD
  5
265
102
{ACAD_REACTORS
330
264
102
}
330
264
100
AcDbXrecord
280
     1
102
RTVSPost2010Prop28
280
     0
102
RTVSPost2010PropOp28
 70
     1
102
RTVSPost2010Prop29
280
     1
102
RTVSPost2010PropOp29
 70
     1
102
RTVSPost2010Prop30
280
     1
102
RTVSPost2010PropOp30
 70
     1
102
RTVSPost2010Prop31
280
     0
102
RTVSPost2010PropOp31
 70
     1
102
RTVSPost2010Prop32
280
     0
102
RTVSPost2010PropOp32
 70
     1
102
RTVSPost2010Prop33
280
     0
102
RTVSPost2010PropOp33
 70
     1
102
RTVSPost2010Prop34
280
     0
102
RTVSPost2010PropOp34
 70
     1
102
RTVSPost2010Prop35
280
     0
102
RTVSPost2010PropOp35
 70
     1
102
RTVSPost2010Prop36
280
     0
102
RTVSPost2010PropOp36
 70
     1
102
RTVSPost2010Prop37
 90
       50
102
RTVSPost2010PropOp37
 70
     1
102
RTVSPost2010Prop38
140
0.0
102
RTVSPost2010PropOp38
 70
     1
102
RTVSPost2010Prop39
140
1.0
102
RTVSPost2010PropOp39
 70
     1
102
RTVSPost2010Prop40
 90
        0
102
RTVSPost2010PropOp40
 70
     1
102
RTVSPost2010Prop41ColorIndex
 90
       18
102
RTVSPost2010Prop41ColorRGB
 90
        0
102
RTVSPost2010PropOp41
 70
     1
102
RTVSPost2010Prop42
 90
       50
102
RTVSPost2010PropOp42
 70
     1
102
RTVSPost2010Prop43
 90
        3
102
RTVSPost2010PropOp43
 70
     1
102
RTVSPost2010Prop44ColorIndex
 90
        5
102
RTVSPost2010Prop44ColorRGB
 90
      255
102
RTVSPost2010PropOp44
 70
     1
102
RTVSPost2010Prop45
280
     0
102
RTVSPost2010PropOp45
 70
     1
102
RTVSPost2010Prop46
 90
       50
102
RTVSPost2010PropOp46
 70
     1
102
RTVSPost2010Prop47
 90
       50
102
RTVSPost2010PropOp47
 70
     1
102
RTVSPost2010Prop48
 90
       50
102
RTVSPost2010PropOp48
 70
     1
102
RTVSPost2010Prop49
280
     0
102
RTVSPost2010PropOp49
 70
     1
102
RTVSPost2010Prop50
 90
       50
102
RTVSPost2010PropOp50
 70
     1
102
RTVSPost2010Prop51ColorIndex
 90
      256
102
RTVSPost2010Prop51ColorRGB
 90
-16777216
102
RTVSPost2010PropOp51
 70
     0
102
RTVSPost2010Prop52
140
1.0
102
RTVSPost2010PropOp52
 70
     0
102
RTVSPost2010Prop53
 90
        2
102
RTVSPost2010PropOp53
 70
     1
102
RTVSPost2010Prop54
  1
strokes_ogs.tif
102
RTVSPost2010PropOp54
 70
     1
102
RTVSPost2010Prop55
280
     0
102
RTVSPost2010PropOp55
 70
     1
102
RTVSPost2010Prop56
140
1.0
102
RTVSPost2010PropOp56
 70
     1
102
RTVSPost2010Prop57
140
1.0
102
RTVSPost2010PropOp57
 70
     1
  0
XRECORD
  5
267
102
{ACAD_REACTORS
330
266
102
}
330
266
100
AcDbXrecord
280
     1
102
RTVSPost2010Prop28
280
     0
102
RTVSPost2010PropOp28
 70
     1
102
RTVSPost2010Prop29
280
     1
102
RTVSPost2010PropOp29
 70
     1
102
RTVSPost2010Prop30
280
     1
102
RTVSPost2010PropOp30
 70
     1
102
RTVSPost2010Prop31
280
     0
102
RTVSPost2010PropOp31
 70
     1
102
RTVSPost2010Prop32
280
     0
102
RTVSPost2010PropOp32
 70
     1
102
RTVSPost2010Prop33
280
     0
102
RTVSPost2010PropOp33
 70
     1
102
RTVSPost2010Prop34
280
     0
102
RTVSPost2010PropOp34
 70
     1
102
RTVSPost2010Prop35
280
     0
102
RTVSPost2010PropOp35
 70
     1
102
RTVSPost2010Prop36
280
     0
102
RTVSPost2010PropOp36
 70
     1
102
RTVSPost2010Prop37
 90
       50
102
RTVSPost2010PropOp37
 70
     1
102
RTVSPost2010Prop38
140
0.0
102
RTVSPost2010PropOp38
 70
     1
102
RTVSPost2010Prop39
140
1.0
102
RTVSPost2010PropOp39
 70
     1
102
RTVSPost2010Prop40
 90
        0
102
RTVSPost2010PropOp40
 70
     1
102
RTVSPost2010Prop41ColorIndex
 90
       18
102
RTVSPost2010Prop41ColorRGB
 90
        0
102
RTVSPost2010PropOp41
 70
     1
102
RTVSPost2010Prop42
 90
       50
102
RTVSPost2010PropOp42
 70
     1
102
RTVSPost2010Prop43
 90
        3
102
RTVSPost2010PropOp43
 70
     1
102
RTVSPost2010Prop44ColorIndex
 90
        5
102
RTVSPost2010Prop44ColorRGB
 90
      255
102
RTVSPost2010PropOp44
 70
     1
102
RTVSPost2010Prop45
280
     0
102
RTVSPost2010PropOp45
 70
     1
102
RTVSPost2010Prop46
 90
       50
102
RTVSPost2010PropOp46
 70
     1
102
RTVSPost2010Prop47
 90
       50
102
RTVSPost2010PropOp47
 70
     1
102
RTVSPost2010Prop48
 90
       50
102
RTVSPost2010PropOp48
 70
     1
102
RTVSPost2010Prop49
280
     0
102
RTVSPost2010PropOp49
 70
     1
102
RTVSPost2010Prop50
 90
       50
102
RTVSPost2010PropOp50
 70
     1
102
RTVSPost2010Prop51ColorIndex
 90
      256
102
RTVSPost2010Prop51ColorRGB
 90
-16777216
102
RTVSPost2010PropOp51
 70
     0
102
RTVSPost2010Prop52
140
1.0
102
RTVSPost2010PropOp52
 70
     0
102
RTVSPost2010Prop53
 90
        2
102
RTVSPost2010PropOp53
 70
     1
102
RTVSPost2010Prop54
  1
strokes_ogs.tif
102
RTVSPost2010PropOp54
 70
     1
102
RTVSPost2010Prop55
280
     0
102
RTVSPost2010PropOp55
 70
     1
102
RTVSPost2010Prop56
140
1.0
102
RTVSPost2010PropOp56
 70
     1
102
RTVSPost2010Prop57
140
1.0
102
RTVSPost2010PropOp57
 70
     1
  0
XRECORD
  5
257
102
{ACAD_REACTORS
330
256
102
}
330
256
100
AcDbXrecord
280
     1
102
RTVSPost2010Prop28
280
     0
102
RTVSPost2010PropOp28
 70
     1
102
RTVSPost2010Prop29
280
     1
102
RTVSPost2010PropOp29
 70
     1
102
RTVSPost2010Prop30
280
     1
102
RTVSPost2010PropOp30
 70
     1
102
RTVSPost2010Prop31
280
     0
102
RTVSPost2010PropOp31
 70
     1
102
RTVSPost2010Prop32
280
     0
102
RTVSPost2010PropOp32
 70
     1
102
RTVSPost2010Prop33
280
     0
102
RTVSPost2010PropOp33
 70
     1
102
RTVSPost2010Prop34
280
     0
102
RTVSPost2010PropOp34
 70
     1
102
RTVSPost2010Prop35
280
     0
102
RTVSPost2010PropOp35
 70
     1
102
RTVSPost2010Prop36
280
     0
102
RTVSPost2010PropOp36
 70
     1
102
RTVSPost2010Prop37
 90
       50
102
RTVSPost2010PropOp37
 70
     1
102
RTVSPost2010Prop38
140
0.0
102
RTVSPost2010PropOp38
 70
     1
102
RTVSPost2010Prop39
140
1.0
102
RTVSPost2010PropOp39
 70
     1
102
RTVSPost2010Prop40
 90
        0
102
RTVSPost2010PropOp40
 70
     1
102
RTVSPost2010Prop41ColorIndex
 90
       18
102
RTVSPost2010Prop41ColorRGB
 90
        0
102
RTVSPost2010PropOp41
 70
     1
102
RTVSPost2010Prop42
 90
       50
102
RTVSPost2010PropOp42
 70
     1
102
RTVSPost2010Prop43
 90
        3
102
RTVSPost2010PropOp43
 70
     1
102
RTVSPost2010Prop44ColorIndex
 90
        5
102
RTVSPost2010Prop44ColorRGB
 90
      255
102
RTVSPost2010PropOp44
 70
     1
102
RTVSPost2010Prop45
280
     0
102
RTVSPost2010PropOp45
 70
     1
102
RTVSPost2010Prop46
 90
       50
102
RTVSPost2010PropOp46
 70
     1
102
RTVSPost2010Prop47
 90
       50
102
RTVSPost2010PropOp47
 70
     1
102
RTVSPost2010Prop48
 90
       50
102
RTVSPost2010PropOp48
 70
     1
102
RTVSPost2010Prop49
280
     0
102
RTVSPost2010PropOp49
 70
     1
102
RTVSPost2010Prop50
 90
       50
102
RTVSPost2010PropOp50
 70
     1
102
RTVSPost2010Prop51ColorIndex
 90
      256
102
RTVSPost2010Prop51ColorRGB
 90
-16777216
102
RTVSPost2010PropOp51
 70
     0
102
RTVSPost2010Prop52
140
1.0
102
RTVSPost2010PropOp52
 70
     0
102
RTVSPost2010Prop53
 90
        2
102
RTVSPost2010PropOp53
 70
     1
102
RTVSPost2010Prop54
  1
strokes_ogs.tif
102
RTVSPost2010PropOp54
 70
     1
102
RTVSPost2010Prop55
280
     0
102
RTVSPost2010PropOp55
 70
     1
102
RTVSPost2010Prop56
140
1.0
102
RTVSPost2010PropOp56
 70
     1
102
RTVSPost2010Prop57
140
1.0
102
RTVSPost2010PropOp57
 70
     1
  0
XRECORD
  5
249
102
{ACAD_REACTORS
330
248
102
}
330
248
100
AcDbXrecord
280
     1
102
RTVSPost2010Prop28
280
     0
102
RTVSPost2010PropOp28
 70
     1
102
RTVSPost2010Prop29
280
     1
102
RTVSPost2010PropOp29
 70
     1
102
RTVSPost2010Prop30
280
     1
102
RTVSPost2010PropOp30
 70
     1
102
RTVSPost2010Prop31
280
     0
102
RTVSPost2010PropOp31
 70
     1
102
RTVSPost2010Prop32
280
     0
102
RTVSPost2010PropOp32
 70
     1
102
RTVSPost2010Prop33
280
     0
102
RTVSPost2010PropOp33
 70
     1
102
RTVSPost2010Prop34
280
     0
102
RTVSPost2010PropOp34
 70
     1
102
RTVSPost2010Prop35
280
     0
102
RTVSPost2010PropOp35
 70
     1
102
RTVSPost2010Prop36
280
     0
102
RTVSPost2010PropOp36
 70
     1
102
RTVSPost2010Prop37
 90
       50
102
RTVSPost2010PropOp37
 70
     1
102
RTVSPost2010Prop38
140
0.0
102
RTVSPost2010PropOp38
 70
     1
102
RTVSPost2010Prop39
140
1.0
102
RTVSPost2010PropOp39
 70
     1
102
RTVSPost2010Prop40
 90
        0
102
RTVSPost2010PropOp40
 70
     1
102
RTVSPost2010Prop41ColorIndex
 90
       18
102
RTVSPost2010Prop41ColorRGB
 90
        0
102
RTVSPost2010PropOp41
 70
     1
102
RTVSPost2010Prop42
 90
       50
102
RTVSPost2010PropOp42
 70
     1
102
RTVSPost2010Prop43
 90
        3
102
RTVSPost2010PropOp43
 70
     1
102
RTVSPost2010Prop44ColorIndex
 90
        5
102
RTVSPost2010Prop44ColorRGB
 90
      255
102
RTVSPost2010PropOp44
 70
     1
102
RTVSPost2010Prop45
280
     0
102
RTVSPost2010PropOp45
 70
     1
102
RTVSPost2010Prop46
 90
       50
102
RTVSPost2010PropOp46
 70
     1
102
RTVSPost2010Prop47
 90
       50
102
RTVSPost2010PropOp47
 70
     1
102
RTVSPost2010Prop48
 90
       50
102
RTVSPost2010PropOp48
 70
     1
102
RTVSPost2010Prop49
280
     0
102
RTVSPost2010PropOp49
 70
     1
102
RTVSPost2010Prop50
 90
       50
102
RTVSPost2010PropOp50
 70
     1
102
RTVSPost2010Prop51ColorIndex
 90
      256
102
RTVSPost2010Prop51ColorRGB
 90
-16777216
102
RTVSPost2010PropOp51
 70
     0
102
RTVSPost2010Prop52
140
1.0
102
RTVSPost2010PropOp52
 70
     0
102
RTVSPost2010Prop53
 90
        2
102
RTVSPost2010PropOp53
 70
     1
102
RTVSPost2010Prop54
  1
strokes_ogs.tif
102
RTVSPost2010PropOp54
 70
     1
102
RTVSPost2010Prop55
280
     0
102
RTVSPost2010PropOp55
 70
     1
102
RTVSPost2010Prop56
140
1.0
102
RTVSPost2010PropOp56
 70
     1
102
RTVSPost2010Prop57
140
1.0
102
RTVSPost2010PropOp57
 70
     1
  0
XRECORD
  5
269
102
{ACAD_REACTORS
330
268
102
}
330
268
100
AcDbXrecord
280
     1
102
RTVSPost2010Prop28
280
     0
102
RTVSPost2010PropOp28
 70
     1
102
RTVSPost2010Prop29
280
     1
102
RTVSPost2010PropOp29
 70
     1
102
RTVSPost2010Prop30
280
     1
102
RTVSPost2010PropOp30
 70
     1
102
RTVSPost2010Prop31
280
     0
102
RTVSPost2010PropOp31
 70
     1
102
RTVSPost2010Prop32
280
     0
102
RTVSPost2010PropOp32
 70
     1
102
RTVSPost2010Prop33
280
     0
102
RTVSPost2010PropOp33
 70
     1
102
RTVSPost2010Prop34
280
     0
102
RTVSPost2010PropOp34
 70
     1
102
RTVSPost2010Prop35
280
     0
102
RTVSPost2010PropOp35
 70
     1
102
RTVSPost2010Prop36
280
     0
102
RTVSPost2010PropOp36
 70
     1
102
RTVSPost2010Prop37
 90
       50
102
RTVSPost2010PropOp37
 70
     1
102
RTVSPost2010Prop38
140
0.0
102
RTVSPost2010PropOp38
 70
     1
102
RTVSPost2010Prop39
140
1.0
102
RTVSPost2010PropOp39
 70
     1
102
RTVSPost2010Prop40
 90
        0
102
RTVSPost2010PropOp40
 70
     1
102
RTVSPost2010Prop41ColorIndex
 90
       18
102
RTVSPost2010Prop41ColorRGB
 90
        0
102
RTVSPost2010PropOp41
 70
     1
102
RTVSPost2010Prop42
 90
       50
102
RTVSPost2010PropOp42
 70
     1
102
RTVSPost2010Prop43
 90
        3
102
RTVSPost2010PropOp43
 70
     1
102
RTVSPost2010Prop44ColorIndex
 90
        5
102
RTVSPost2010Prop44ColorRGB
 90
      255
102
RTVSPost2010PropOp44
 70
     1
102
RTVSPost2010Prop45
280
     0
102
RTVSPost2010PropOp45
 70
     1
102
RTVSPost2010Prop46
 90
       50
102
RTVSPost2010PropOp46
 70
     1
102
RTVSPost2010Prop47
 90
       50
102
RTVSPost2010PropOp47
 70
     1
102
RTVSPost2010Prop48
 90
       50
102
RTVSPost2010PropOp48
 70
     1
102
RTVSPost2010Prop49
280
     0
102
RTVSPost2010PropOp49
 70
     1
102
RTVSPost2010Prop50
 90
       50
102
RTVSPost2010PropOp50
 70
     1
102
RTVSPost2010Prop51ColorIndex
 90
      256
102
RTVSPost2010Prop51ColorRGB
 90
-16777216
102
RTVSPost2010PropOp51
 70
     0
102
RTVSPost2010Prop52
140
1.0
102
RTVSPost2010PropOp52
 70
     0
102
RTVSPost2010Prop53
 90
        2
102
RTVSPost2010PropOp53
 70
     1
102
RTVSPost2010Prop54
  1
strokes_ogs.tif
102
RTVSPost2010PropOp54
 70
     1
102
RTVSPost2010Prop55
280
     0
102
RTVSPost2010PropOp55
 70
     1
102
RTVSPost2010Prop56
140
1.0
102
RTVSPost2010PropOp56
 70
     1
102
RTVSPost2010Prop57
140
1.0
102
RTVSPost2010PropOp57
 70
     1
  0
ENDSEC
  0
EOF
