  0
SECTION
  2
HEADER
  9
$ACADVER
  1
AC1015
  9
$ACADMAINTVER
 70
    20
  9
$DWGCODEPAGE
  3
ANSI_1252
  9
$INSBASE
 10
0.0
 20
0.0
 30
0.0
  9
$EXTMIN
 10
-47354.5815516067
 20
-15596.33915004169
 30
0.0
  9
$EXTMAX
 10
115803.0581399363
 20
79756.66672492238
 30
0.0
  9
$LIMMIN
 10
0.0
 20
0.0
  9
$LIMMAX
 10
420.0
 20
297.0
  9
$ORTHOMODE
 70
     0
  9
$REGENMODE
 70
     1
  9
$FILLMODE
 70
     1
  9
$QTEXTMODE
 70
     0
  9
$MIRRTEXT
 70
     1
  9
$LTSCALE
 40
1.0
  9
$ATTMODE
 70
     1
  9
$TEXTSIZE
 40
2.5
  9
$TRACEWID
 40
1.0
  9
$TEXTSTYLE
  7
STANDARD
  9
$CLAYER
  8
0
  9
$CELTYPE
  6
ByLayer
  9
$CECOLOR
 62
   256
  9
$CELTSCALE
 40
1.0
  9
$DISPSILH
 70
     0
  9
$DIMSCALE
 40
1.0
  9
$DIMASZ
 40
2.5
  9
$DIMEXO
 40
1.0
  9
$DIMDLI
 40
10.0
  9
$DIMRND
 40
0.0
  9
$DIMDLE
 40
0.0
  9
$DIMEXE
 40
1.0
  9
$DIMTP
 40
0.1
  9
$DIMTM
 40
0.1
  9
$DIMTXT
 40
3.5
  9
$DIMCEN
 40
0.0
  9
$DIMTSZ
 40
0.0
  9
$DIMTOL
 70
     0
  9
$DIMLIM
 70
     0
  9
$DIMTIH
 70
     0
  9
$DIMTOH
 70
     0
  9
$DIMSE1
 70
     0
  9
$DIMSE2
 70
     0
  9
$DIMTAD
 70
     1
  9
$DIMZIN
 70
     8
  9
$DIMBLK
  1

  9
$DIMASO
 70
     1
  9
$DIMSHO
 70
     1
  9
$DIMPOST
  1

  9
$DIMAPOST
  1
"
  9
$DIMALT
 70
     0
  9
$DIMALTD
 70
     2
  9
$DIMALTF
 40
0.0393701
  9
$DIMLFAC
 40
1.0
  9
$DIMTOFL
 70
     1
  9
$DIMTVP
 40
0.0
  9
$DIMTIX
 70
     0
  9
$DIMSOXD
 70
     0
  9
$DIMSAH
 70
     0
  9
$DIMBLK1
  1

  9
$DIMBLK2
  1

  9
$DIMSTYLE
  2
AM_ISO
  9
$DIMCLRD
 70
   256
  9
$DIMCLRE
 70
   256
  9
$DIMCLRT
 70
     2
  9
$DIMTFAC
 40
0.71
  9
$DIMGAP
 40
1.5
  9
$DIMJUST
 70
     0
  9
$DIMSD1
 70
     0
  9
$DIMSD2
 70
     0
  9
$DIMTOLJ
 70
     0
  9
$DIMTZIN
 70
     8
  9
$DIMALTZ
 70
     0
  9
$DIMALTTZ
 70
     0
  9
$DIMUPT
 70
     0
  9
$DIMDEC
 70
     2
  9
$DIMTDEC
 70
     3
  9
$DIMALTU
 70
     2
  9
$DIMALTTD
 70
     4
  9
$DIMTXSTY
  7
STANDARD
  9
$DIMAUNIT
 70
     0
  9
$DIMADEC
 70
     0
  9
$DIMALTRND
 40
0.0
  9
$DIMAZIN
 70
     2
  9
$DIMDSEP
 70
    46
  9
$DIMATFIT
 70
     3
  9
$DIMFRAC
 70
     0
  9
$DIMLDRBLK
  1

  9
$DIMLUNIT
 70
     2
  9
$DIMLWD
 70
    -1
  9
$DIMLWE
 70
    -1
  9
$DIMTMOVE
 70
     0
  9
$LUNITS
 70
     2
  9
$LUPREC
 70
     2
  9
$SKETCHINC
 40
1.0
  9
$FILLETRAD
 40
2.5
  9
$AUNITS
 70
     0
  9
$AUPREC
 70
     0
  9
$MENU
  1
.
  9
$ELEVATION
 40
0.0
  9
$PELEVATION
 40
0.0
  9
$THICKNESS
 40
0.0
  9
$LIMCHECK
 70
     0
  9
$CHAMFERA
 40
2.5
  9
$CHAMFERB
 40
2.5
  9
$CHAMFERC
 40
20.0
  9
$CHAMFERD
 40
0.0
  9
$SKPOLY
 70
     0
  9
$TDCREATE
 40
2457125.534233322
  9
$TDUCREATE
 40
2457125.450899988
  9
$TDUPDATE
 40
2457125.580905128
  9
$TDUUPDATE
 40
2457125.497571794
  9
$TDINDWG
 40
0.0470189120
  9
$TDUSRTIMER
 40
0.0466721296
  9
$USRTIMER
 70
     1
  9
$ANGBASE
 50
0.0
  9
$ANGDIR
 70
     0
  9
$PDMODE
 70
     0
  9
$PDSIZE
 40
0.0
  9
$PLINEWID
 40
0.0
  9
$SPLFRAME
 70
     0
  9
$SPLINETYPE
 70
     6
  9
$SPLINESEGS
 70
     8
  9
$HANDSEED
  5
6BB
  9
$SURFTAB1
 70
     6
  9
$SURFTAB2
 70
     6
  9
$SURFTYPE
 70
     6
  9
$SURFU
 70
     6
  9
$SURFV
 70
     6
  9
$UCSBASE
  2

  9
$UCSNAME
  2

  9
$UCSORG
 10
0.0
 20
0.0
 30
0.0
  9
$UCSXDIR
 10
1.0
 20
0.0
 30
0.0
  9
$UCSYDIR
 10
0.0
 20
1.0
 30
0.0
  9
$UCSORTHOREF
  2

  9
$UCSORTHOVIEW
 70
     0
  9
$UCSORGTOP
 10
0.0
 20
0.0
 30
0.0
  9
$UCSORGBOTTOM
 10
0.0
 20
0.0
 30
0.0
  9
$UCSORGLEFT
 10
0.0
 20
0.0
 30
0.0
  9
$UCSORGRIGHT
 10
0.0
 20
0.0
 30
0.0
  9
$UCSORGFRONT
 10
0.0
 20
0.0
 30
0.0
  9
$UCSORGBACK
 10
0.0
 20
0.0
 30
0.0
  9
$PUCSBASE
  2

  9
$PUCSNAME
  2

  9
$PUCSORG
 10
0.0
 20
0.0
 30
0.0
  9
$PUCSXDIR
 10
1.0
 20
0.0
 30
0.0
  9
$PUCSYDIR
 10
0.0
 20
1.0
 30
0.0
  9
$PUCSORTHOREF
  2

  9
$PUCSORTHOVIEW
 70
     0
  9
$PUCSORGTOP
 10
0.0
 20
0.0
 30
0.0
  9
$PUCSORGBOTTOM
 10
0.0
 20
0.0
 30
0.0
  9
$PUCSORGLEFT
 10
0.0
 20
0.0
 30
0.0
  9
$PUCSORGRIGHT
 10
0.0
 20
0.0
 30
0.0
  9
$PUCSORGFRONT
 10
0.0
 20
0.0
 30
0.0
  9
$PUCSORGBACK
 10
0.0
 20
0.0
 30
0.0
  9
$USERI1
 70
     0
  9
$USERI2
 70
     0
  9
$USERI3
 70
     0
  9
$USERI4
 70
     0
  9
$USERI5
 70
     0
  9
$USERR1
 40
0.0
  9
$USERR2
 40
0.0
  9
$USERR3
 40
0.0
  9
$USERR4
 40
0.0
  9
$USERR5
 40
0.0
  9
$WORLDVIEW
 70
     1
  9
$SHADEDGE
 70
     3
  9
$SHADEDIF
 70
    70
  9
$TILEMODE
 70
     1
  9
$MAXACTVP
 70
    64
  9
$PINSBASE
 10
0.0
 20
0.0
 30
0.0
  9
$PLIMCHECK
 70
     0
  9
$PEXTMIN
 10
1.000000000000000E+20
 20
1.000000000000000E+20
 30
1.000000000000000E+20
  9
$PEXTMAX
 10
-1.000000000000000E+20
 20
-1.000000000000000E+20
 30
-1.000000000000000E+20
  9
$PLIMMIN
 10
0.0
 20
0.0
  9
$PLIMMAX
 10
420.0
 20
297.0
  9
$UNITMODE
 70
     0
  9
$VISRETAIN
 70
     1
  9
$PLINEGEN
 70
     0
  9
$PSLTSCALE
 70
     1
  9
$TREEDEPTH
 70
  3020
  9
$CMLSTYLE
  2
Standard
  9
$CMLJUST
 70
     0
  9
$CMLSCALE
 40
20.0
  9
$PROXYGRAPHICS
 70
     1
  9
$MEASUREMENT
 70
     1
  9
$CELWEIGHT
370
    -1
  9
$ENDCAPS
280
     0
  9
$JOINSTYLE
280
     0
  9
$LWDISPLAY
290
     0
  9
$INSUNITS
 70
     4
  9
$HYPERLINKBASE
  1

  9
$STYLESHEET
  1

  9
$XEDIT
290
     1
  9
$CEPSNTYPE
380
     0
  9
$PSTYLEMODE
290
     1
  9
$FINGERPRINTGUID
  2
{AC133ABD-1363-4A4E-BEEA-48BE3E927139}
  9
$VERSIONGUID
  2
{26C02345-7D8A-431C-9F6D-77509685A85B}
  9
$EXTNAMES
290
     1
  9
$PSVPSCALE
 40
0.0
  9
$OLESTARTUP
290
     0
  0
ENDSEC
  0
SECTION
  2
CLASSES
  0
CLASS
  1
ACDBDICTIONARYWDFLT
  2
AcDbDictionaryWithDefault
  3
ObjectDBX Classes
 90
        0
280
     0
281
     0
  0
CLASS
  1
ACDBPLACEHOLDER
  2
AcDbPlaceHolder
  3
ObjectDBX Classes
 90
        0
280
     0
281
     0
  0
CLASS
  1
LAYOUT
  2
AcDbLayout
  3
ObjectDBX Classes
 90
        0
280
     0
281
     0
  0
CLASS
  1
ACME_DOCUMENT
  2
AcMeDbDoc
  3
AcMeServices
 90
     1024
280
     0
281
     0
  0
CLASS
  1
AMGSETTINGSOBJ
  2
AmgSettingsObj
  3
"AcadM|Product Description: AutoCAD Mechanical|Company: Autodesk, Inc."
 90
     1024
280
     0
281
     0
  0
CLASS
  1
ACMESCOPE
  2
AcMeScope
  3
AcMeServices
 90
     1024
280
     0
281
     0
  0
CLASS
  1
ACMECOMMANDHISTORY
  2
AcMeCommandHistory
  3
AcMeServices
 90
     1024
280
     0
281
     0
  0
CLASS
  1
ACIMSYSVARMAN
  2
AcImSysVarManager
  3
AcMeServices
 90
     1024
280
     0
281
     0
  0
CLASS
  1
ACIMREALSYSVAR
  2
AcImRealSysVar
  3
AcMeServices
 90
     1024
280
     0
281
     0
  0
CLASS
  1
ACIMINTSYSVAR
  2
AcImIntSysVar
  3
AcMeServices
 90
     1024
280
     0
281
     0
  0
CLASS
  1
ACMEDRAWINGMAN
  2
AcMeDrawingMan
  3
AcMeServices
 90
     1024
280
     0
281
     0
  0
CLASS
  1
ACMEVIEW
  2
AcMeView
  3
AcMeServices
 90
     1024
280
     0
281
     0
  0
CLASS
  1
ACDBENTITYCACHE
  2
AcMeEntityCache
  3
AcMeServices
 90
     1024
280
     0
281
     0
  0
CLASS
  1
GSMANAGER
  2
AcMeGSManager
  3
AcMeServices
 90
     1024
280
     0
281
     0
  0
CLASS
  1
AMDTINTERNALREACTOR
  2
AmdtInternalReactor
  3
AcMeServices
 90
     1024
280
     0
281
     0
  0
CLASS
  1
ACMESTATEMGR
  2
AcMeStateMgr
  3
AcMeServices
 90
     1024
280
     0
281
     0
  0
CLASS
  1
ACGREFMASTER
  2
AcGrefMaster
  3
AcAttribServices
 90
     1024
280
     0
281
     0
  0
CLASS
  1
ACME_DATABASE
  2
AcMeDbDatabase
  3
AcMeServices
 90
     1024
280
     0
281
     0
  0
CLASS
  1
ACRFINSADJUSTERMGR
  2
AcRfInsAdjusterMgr
  3
AcMeServices
 90
     1024
280
     0
281
     0
  0
CLASS
  1
ACGREFACADMASTER
  2
AcGrefacadMaster
  3
AcGrefServices
 90
     1024
280
     0
281
     0
  0
CLASS
  1
AMIMASTER
  2
AmiMaster
  3
AmiServices
 90
     1024
280
     0
281
     0
  0
CLASS
  1
ACMDATADICTIONARY
  2
AcmDataDictionary
  3
"AcmSymBB|Product Description: AutoCAD Mechanical|Company: Autodesk, Inc."
 90
     1024
280
     0
281
     0
  0
CLASS
  1
ACMDATAENTRYBLOCK
  2
AcmDataEntryBlock
  3
AcmSymBB|Product Description: AutoCAD Mechanical|Company: Autodesk, Inc.
 90
     1024
280
     0
281
     0
  0
CLASS
  1
ACIMSTRSYSVAR
  2
AcImStrSysVar
  3
AcMeServices
 90
     1024
280
     0
281
     0
  0
CLASS
  1
ACMSTANDARDISO
  2
AcmStandardISO
  3
"Amdt_StdImp|Product Description: AutoCAD Mechanical|Company: Autodesk, Inc."
 90
     1024
280
     0
281
     0
  0
CLASS
  1
AMGOBJPROPCFG
  2
AmgObjPropCfg
  3
"AmgLay|Product Description: AutoCAD Mechanical|Company: Autodesk, Inc."
 90
     1025
280
     0
281
     0
  0
CLASS
  1
AMDTEDGESTANDARDISO
  2
AmdtEdgeStdISO
  3
"Amdt_StdImp|Product Description: AutoCAD Mechanical|Company: Autodesk, Inc."
 90
     1024
280
     0
281
     0
  0
CLASS
  1
ACMSURFSTANDARDISO
  2
AcmSurfTextStdISO
  3
"Amdt_StdImp|Product Description: AutoCAD Mechanical|Company: Autodesk, Inc."
 90
    33792
280
     0
281
     0
  0
CLASS
  1
ACMFCFSTANDARDISO
  2
AcmFCFStdISO
  3
"Amdt_StdImp|Product Description: AutoCAD Mechanical|Company: Autodesk, Inc."
 90
     1024
280
     0
281
     0
  0
CLASS
  1
ACMWELDSTANDARDISO
  2
AcmWeldingStdISO
  3
"Amdt_StdImp|Product Description: AutoCAD Mechanical|Company: Autodesk, Inc."
 90
     1024
280
     0
281
     0
  0
CLASS
  1
ACMIDSTANDARDISO
  2
AcmIdStdISO
  3
"Amdt_StdImp|Product Description: AutoCAD Mechanical|Company: Autodesk, Inc."
 90
     1024
280
     0
281
     0
  0
CLASS
  1
ACMDATUMSTANDARDISO
  2
AcmDatumStdISO
  3
"Amdt_StdImp|Product Description: AutoCAD Mechanical|Company: Autodesk, Inc."
 90
     1024
280
     0
281
     0
  0
CLASS
  1
ACMBOMSTANDARDISO
  2
AcmBOMStdISO
  3
"Amdt_StdImp|Product Description: AutoCAD Mechanical|Company: Autodesk, Inc."
 90
     1024
280
     0
281
     0
  0
CLASS
  1
ACMDETAILSTANDARDISO
  2
AmdtDetailSymStdISO
  3
"Amdt_StdImp|Product Description: AutoCAD Mechanical|Company: Autodesk, Inc."
 90
     1024
280
     0
281
     0
  0
CLASS
  1
ACMSECTIONSTANDARDISO
  2
AmdtSectionSymStdISO
  3
"Amdt_StdImp|Product Description: AutoCAD Mechanical|Company: Autodesk, Inc."
 90
    33792
280
     0
281
     0
  0
CLASS
  1
ACMCENTERLINESTANDARDISO
  2
AmdtCenterLineStdISO
  3
"Amdt_StdImp|Product Description: AutoCAD Mechanical|Company: Autodesk, Inc."
 90
     1024
280
     0
281
     0
  0
CLASS
  1
ACMNOTESTANDARDISO
  2
AmdtNoteStdISO
  3
"Amdt_StdImp|Product Description: AutoCAD Mechanical|Company: Autodesk, Inc."
 90
     1024
280
     0
281
     0
  0
CLASS
  1
ACAMGLAYSTD
  2
AcAmgLayStd
  3
"AmgLay|Product Description: AutoCAD Mechanical|Company: Autodesk, Inc."
 90
     1024
280
     0
281
     0
  0
CLASS
  1
ACAMGDIMSTD
  2
AcAmgDimStd
  3
"AmgDim|Product Description: AutoCAD Mechanical|Company: Autodesk, Inc."
 90
     1024
280
     0
281
     0
  0
CLASS
  1
ACAMGHOLECHARTSTDISO
  2
AcAmgHoleChartStdISO
  3
AmgDim|Product Description: AutoCAD Mechanical|Company: Autodesk, Inc.
 90
     1024
280
     0
281
     0
  0
CLASS
  1
ACAMGTITLESTD
  2
AcAmgTitleStd
  3
"AmgTitle|Product Description: AutoCAD Mechanical|Company: Autodesk, Inc."
 90
     4095
280
     0
281
     0
  0
CLASS
  1
LAYER_INDEX
  2
AcDbLayerIndex
  3
ObjectDBX Classes
 90
    32768
280
     0
281
     0
  0
CLASS
  1
IDBUFFER
  2
AcDbIdBuffer
  3
ObjectDBX Classes
 90
    32768
280
     0
281
     0
  0
CLASS
  1
DICTIONARYVAR
  2
AcDbDictionaryVar
  3
ObjectDBX Classes
 90
        0
280
     0
281
     0
  0
CLASS
  1
AM_DRAWING_MGR
  2
AcDmDwgMgr
  3
AcMechDwgViewMgmt
 90
     1024
280
     0
281
     0
  0
CLASS
  1
AM_DWG_DOCUMENT
  2
AcDmDwgDocument
  3
AcMechDwgViewMgmt
 90
     1024
280
     0
281
     0
  0
CLASS
  1
AM_DWG_SHEET
  2
AcDmSheet
  3
AcMechDwgViewMgmt
 90
     1024
280
     0
281
     0
  0
CLASS
  1
AM_VIEWDIMPARMAP
  2
AcDmViewDimParMap
  3
AcMechDwgViewMgmt
 90
     1024
280
     0
281
     0
  0
CLASS
  1
AM_DWGMGR_NAME
  2
AcDmDwgMgrName
  3
AcMechDwgViewMgmt
 90
     1024
280
     0
281
     0
  0
CLASS
  1
AMDTMENUSTATEMGR
  2
AmdtMenuStateMgr
  3
McadcomServices
 90
     1024
280
     0
281
     0
  0
CLASS
  1
AMDTMCOMMENUSTATE
  2
AmdtMcomMenuState
  3
McadcomServices
 90
     1024
280
     0
281
     0
  0
CLASS
  1
MAPIAMMOUDLE
  2
MApiAmModule
  3
MApiAmServices
 90
     1024
280
     0
281
     0
  0
CLASS
  1
AMDTADMENUSTATE
  2
AmdtAdMenuState
  3
DesignerServices
 90
     1024
280
     0
281
     0
  0
CLASS
  1
ADAPPL
  2
AcAdAppl
  3
DesignerServices
 90
     1024
280
     0
281
     0
  0
CLASS
  1
DEPMGR
  2
AcAdDepMgr
  3
DesignerServices
 90
     1024
280
     0
281
     0
  0
CLASS
  1
PARAMMGR
  2
AcAdParamMgr
  3
DesignerServices
 90
     1024
280
     0
281
     0
  0
CLASS
  1
PARAMSCOPE
  2
AcAdParamScope
  3
DesignerServices
 90
     1024
280
     0
281
     0
  0
CLASS
  1
NAMEDAPPL
  2
AcAdNamedAppl
  3
DesignerServices
 90
     1024
280
     0
281
     0
  0
CLASS
  1
AMDTDMMENUSTATE
  2
AmdtDmMenuState
  3
AcMechDwgViewMgmt
 90
     1024
280
     0
281
     0
  0
CLASS
  1
AMDTAMMENUSTATE
  2
AmdtAmMenuState
  3
DesignerAssemblies
 90
     1024
280
     0
281
     0
  0
CLASS
  1
ACAMPROJECT
  2
AcAmProject
  3
DesignerAssemblies
 90
     1024
280
     0
281
     0
  0
CLASS
  1
ACAMGRCOMPDEF
  2
AcAmGrCompDef
  3
DesignerAssemblies
 90
     1024
280
     0
281
     0
  0
CLASS
  1
ACCMCONTEXT
  2
AcCmContext
  3
DesignerAssemblies
 90
     1024
280
     0
281
     0
  0
CLASS
  1
ACAMCOMPDEF
  2
AcAmCompDef
  3
DesignerAssemblies
 90
     1024
280
     0
281
     0
  0
CLASS
  1
ACAMCOMPDEFMGR
  2
AcAmCompDefMgr
  3
DesignerAssemblies
 90
     1024
280
     0
281
     0
  0
CLASS
  1
AMCONTEXTMGR
  2
AcAmContextMgr
  3
DesignerAssemblies
 90
     1024
280
     0
281
     0
  0
CLASS
  1
ACAMCONTEXTMODELER
  2
AcAmContextModeler
  3
DesignerAssemblies
 90
     1024
280
     0
281
     0
  0
CLASS
  1
ACMTHREADLINESTANDARDISO
  2
AmdtThreadLineStdISO
  3
"Amdt_StdImp|Product Description: AutoCAD Mechanical|Company: Autodesk, Inc."
 90
     1024
280
     0
281
     0
  0
CLASS
  1
CATALOGSTATE
  2
AcAmCatalogState
  3
DesignerAssemblies
 90
     1024
280
     0
281
     0
  0
CLASS
  1
ACAMGRCOMPDEFSET
  2
AcAmGrCompDefSet
  3
DesignerAssemblies
 90
     1024
280
     0
281
     0
  0
CLASS
  1
AMDTBROWSERDBTAB
  2
AmdtBrowserDbTab
  3
McadcomServices
 90
     1024
280
     0
281
     0
  0
CLASS
  1
CBROWSERAPPOBJECT
  2
CBrowserAppObject
  3
McadcomServices
 90
     1024
280
     0
281
     0
  0
CLASS
  1
DM_PLACEHOLDER
  2
AcDmSelsetPlaceholder
  3
AcMechDwgViewMgmt
 90
     1024
280
     0
281
     0
  0
CLASS
  1
TABLESTYLE
  2
AcDbTableStyle
  3
ObjectDBX Classes
 90
     4095
280
     0
281
     0
  0
CLASS
  1
VAACXREFPANELOBJECT
  2
VaAcXREFPanelObject
  3
VAAC_ADDIN
 90
    32768
280
     0
281
     0
  0
CLASS
  1
VAACIMAGEINVENTORY
  2
VaAcImageInventory
  3
VAAC_ADDIN
 90
    32768
280
     0
281
     0
  0
CLASS
  1
AMDTNOTETEMPLATEDB
  2
AmdtNoteTemplateDB
  3
AcmSymBB|Product Description: AutoCAD Mechanical|Company: Autodesk, Inc.
 90
     1024
280
     0
281
     0
  0
CLASS
  1
MATERIAL
  2
AcDbMaterial
  3
ObjectDBX Classes
 90
     1153
280
     0
281
     0
  0
CLASS
  1
VISUALSTYLE
  2
AcDbVisualStyle
  3
ObjectDBX Classes
 90
     4095
280
     0
281
     0
  0
CLASS
  1
ACRFATTGENMGR
  2
AcRfAttGeneralMgr
  3
AcAttribServices
 90
     1024
280
     0
281
     0
  0
CLASS
  1
ACRFOBJATTMGR
  2
AcRfObjAttGroupMgr
  3
AcAttribServices
 90
     1024
280
     0
281
     0
  0
CLASS
  1
ACRFMCADAPIATTHOLDER
  2
AcRfMCADAPIAttHolder
  3
AcAttribServices
 90
     1024
280
     0
281
     0
  0
CLASS
  1
AMDTSYSATTR
  2
AmdtSystemAttribute
  3
AcAttribServices
 90
     1024
280
     0
281
     0
  0
CLASS
  1
ACMTAPERSTANDARDISO
  2
AcmTaperStdISO
  3
"Amdt_StdImp|Product Description: AutoCAD Mechanical|Company: Autodesk, Inc."
 90
     1024
280
     0
281
     0
  0
CLASS
  1
CAMSSTRUCTBTNSTATE
  2
StructBtnState
  3
DesignerAssemblies
 90
     1024
280
     0
281
     0
  0
CLASS
  1
SCALE
  2
AcDbScale
  3
ObjectDBX Classes
 90
     1153
280
     0
281
     0
  0
CLASS
  1
MLEADERSTYLE
  2
AcDbMLeaderStyle
  3
ACDB_MLEADERSTYLE_CLASS
 90
     4095
280
     0
281
     0
  0
CLASS
  1
ACMANOOTATIONVIEWSTANDARDISO
  2
AmdtAnViewStdISO
  3
"Amdt_StdImp|Product Description: AutoCAD Mechanical|Company: Autodesk, Inc."
 90
     1024
280
     0
281
     0
  0
CLASS
  1
ACMSECTIONSTANDARDISO2001
  2
AmdtSectionSymStdISO2001
  3
"Amdt_StdImp|Product Description: AutoCAD Mechanical|Company: Autodesk, Inc."
 90
     1024
280
     0
281
     0
  0
CLASS
  1
CELLSTYLEMAP
  2
AcDbCellStyleMap
  3
ObjectDBX Classes
 90
     1152
280
     0
281
     0
  0
CLASS
  1
ACMSURFSTANDARDISO2002
  2
AcmSurfTextStdISO2002
  3
"Amdt_StdImp|Product Description: AutoCAD Mechanical|Company: Autodesk, Inc."
 90
     1024
280
     0
281
     0
  0
CLASS
  1
ACAMGFILTERDAT
  2
AcAmgFilterDat
  3
"AcadM|Product Description: AutoCAD Mechanical|Company: Autodesk, Inc."
 90
     1024
280
     0
281
     0
  0
CLASS
  1
ACMBOM
  2
AcmBom
  3
"AcmSymBB|Product Description: AutoCAD Mechanical|Company: Autodesk, Inc."
 90
    33792
280
     0
281
     0
  0
CLASS
  1
AMDTFORMULAUPDATEDISPATCHER
  2
AmdtFormulaUpdateDispatcher
  3
AcMeServices
 90
    33792
280
     0
281
     0
  0
CLASS
  1
DIMASSOC
  2
AcDbDimAssoc
  3
"AcDbDimAssoc|Product Desc:     AcDim ARX App For Dimension|Company:          Autodesk, Inc.|WEB Address:      www.autodesk.com"
 90
        0
280
     0
281
     0
  0
CLASS
  1
SORTENTSTABLE
  2
AcDbSortentsTable
  3
ObjectDBX Classes
 90
        0
280
     0
281
     0
  0
ENDSEC
  0
SECTION
  2
TABLES
  0
TABLE
  2
VPORT
  5
8
330
0
100
AcDbSymbolTable
 70
     1
  0
VPORT
  5
269
330
8
100
AcDbSymbolTableRecord
100
AcDbViewportTableRecord
  2
*Active
 70
     0
 10
0.0
 20
0.0
 11
1.0
 21
1.0
 12
-15470.94729184429
 22
2003.023684059886
 13
0.0
 23
0.0
 14
2.5
 24
2.5
 15
10.0
 25
10.0
 16
0.0
 26
0.0
 36
1.0
 17
0.0
 27
0.0
 37
0.0
 40
4173.322365488691
 41
2.229205175600739
 42
50.0
 43
0.0
 44
0.0
 50
0.0
 51
0.0
 71
     0
 72
   100
 73
     1
 74
     3
 75
     0
 76
     0
 77
     0
 78
     0
281
     0
 65
     1
110
0.0
120
0.0
130
0.0
111
1.0
121
0.0
131
0.0
112
0.0
122
1.0
132
0.0
 79
     0
146
0.0
  0
ENDTAB
  0
TABLE
  2
LTYPE
  5
5
330
0
100
AcDbSymbolTable
 70
    15
  0
LTYPE
  5
14
330
5
100
AcDbSymbolTableRecord
100
AcDbLinetypeTableRecord
  2
ByBlock
 70
     0
  3

 72
    65
 73
     0
 40
0.0
  0
LTYPE
  5
15
330
5
100
AcDbSymbolTableRecord
100
AcDbLinetypeTableRecord
  2
ByLayer
 70
     0
  3

 72
    65
 73
     0
 40
0.0
  0
LTYPE
  5
16
330
5
100
AcDbSymbolTableRecord
100
AcDbLinetypeTableRecord
  2
Continuous
 70
     0
  3
Solid line
 72
    65
 73
     0
 40
0.0
  0
LTYPE
  5
64
330
5
100
AcDbSymbolTableRecord
100
AcDbLinetypeTableRecord
  2
AM_ISO02W050
 70
     0
  3
__ __ __ __ __ __ __ __ __ __ __ __ __ __ __
 72
    65
 73
     2
 40
7.5
 49
6.0
 74
     0
 49
-1.5
 74
     0
  0
LTYPE
  5
65
330
5
100
AcDbSymbolTableRecord
100
AcDbLinetypeTableRecord
  2
AM_ISO08W050
 70
     0
  3
____ . ____ . ____ . ____ . ____ . ____ . ____
 72
    65
 73
     4
 40
18.0
 49
12.0
 74
     0
 49
-1.5
 74
     0
 49
3.0
 74
     0
 49
-1.5
 74
     0
  0
LTYPE
  5
66
330
5
100
AcDbSymbolTableRecord
100
AcDbLinetypeTableRecord
  2
AM_ISO09W050
 70
     0
  3
_____ . . _____ . . _____ . . ____ .. ____
 72
    65
 73
     6
 40
22.5
 49
12.0
 74
     0
 49
-1.5
 74
     0
 49
3.0
 74
     0
 49
-1.5
 74
     0
 49
3.0
 74
     0
 49
-1.5
 74
     0
  0
LTYPE
  5
67
330
5
100
AcDbSymbolTableRecord
100
AcDbLinetypeTableRecord
  2
Amconstr
 70
     0
  3
_______________________
 72
    65
 73
     2
 40
9999.0
 49
9999.0
 74
     0
 49
0.0
 74
     0
  0
LTYPE
  5
68
330
5
100
AcDbSymbolTableRecord
100
AcDbLinetypeTableRecord
  2
AM_ISO08W050x2
 70
     0
  3
__ . __ . __ . __ . __ . __
 72
    65
 73
     4
 40
9.0
 49
6.0
 74
     0
 49
-0.75
 74
     0
 49
1.5
 74
     0
 49
-0.75
 74
     0
  0
LTYPE
  5
69
330
5
100
AcDbSymbolTableRecord
100
AcDbLinetypeTableRecord
  2
AM_ISO02W050x2
 70
     0
  3
 _ _ _ _ _ _ _ _ _ _ _ _
 72
    65
 73
     2
 40
3.75
 49
3.0
 74
     0
 49
-0.75
 74
     0
  0
LTYPE
  5
6C
330
5
100
AcDbSymbolTableRecord
100
AcDbLinetypeTableRecord
  2
Amzigzag
 70
     0
  3
/\/-/\/-/\/-/\/-/\/-/\/
 72
    65
 73
     2
 40
11.0001
 49
0.0001
 74
     4
 75
   136
340
22C
 46
0.04
 50
0.0
 44
0.0
 45
0.0
 49
-11.0
 74
     0
  0
LTYPE
  5
7A
330
5
100
AcDbSymbolTableRecord
100
AcDbLinetypeTableRecord
  2
ACISOWELD
 70
     0
  3
_ _ _ _ _
 72
    65
 73
     2
 40
2.0
 49
2.0
 74
     0
 49
-1.0
 74
     0
  0
LTYPE
  5
7B
330
5
100
AcDbSymbolTableRecord
100
AcDbLinetypeTableRecord
  2
ACISOTGB
 70
     0
  3
__ . . __ . .
 72
    65
 73
     6
 40
9.0
 49
4.0
 74
     0
 49
-1.0
 74
     0
 49
1.0
 74
     0
 49
-1.0
 74
     0
 49
1.0
 74
     0
 49
-1.0
 74
     0
  0
LTYPE
  5
7C
330
5
100
AcDbSymbolTableRecord
100
AcDbLinetypeTableRecord
  2
ACISOTGL
 70
     0
  3
_ _ _ _ _
 72
    65
 73
     2
 40
3.0
 49
2.0
 74
     0
 49
-1.0
 74
     0
  0
LTYPE
  5
7E
330
5
100
AcDbSymbolTableRecord
100
AcDbLinetypeTableRecord
  2
CENTER
 70
     0
  3
__ . __
 72
    65
 73
     4
 40
7.0
 49
4.0
 74
     0
 49
-1.0
 74
     0
 49
1.0
 74
     0
 49
-1.0
 74
     0
  0
LTYPE
  5
D8
330
5
100
AcDbSymbolTableRecord
100
AcDbLinetypeTableRecord
  2
HIDDEN
 70
     0
  3
Hidden __ __ __ __ __ __ __ __ __ __ __ __ __ _
 72
    65
 73
     2
 40
9.524999999999998
 49
6.349999999999999
 74
     0
 49
-3.174999999999999
 74
     0
  0
LTYPE
  5
D9
330
5
100
AcDbSymbolTableRecord
100
AcDbLinetypeTableRecord
  2
PHANTOM2
 70
     0
  3
Phantom (.5x) ___ _ _ ___ _ _ ___ _ _ ___ _ _
 72
    65
 73
     6
 40
31.75
 49
15.875
 74
     0
 49
-3.174999999999999
 74
     0
 49
3.174999999999999
 74
     0
 49
-3.174999999999999
 74
     0
 49
3.174999999999999
 74
     0
 49
-3.174999999999999
 74
     0
  0
ENDTAB
  0
TABLE
  2
LAYER
  5
2
330
0
100
AcDbSymbolTable
 70
     3
  0
LAYER
  5
10
102
{ACAD_XDICTIONARY
360
2E2
102
}
330
2
100
AcDbSymbolTableRecord
100
AcDbLayerTableRecord
  2
0
 70
     0
 62
     7
  6
Continuous
370
    -3
390
F
  0
LAYER
  5
42B
330
2
100
AcDbSymbolTableRecord
100
AcDbLayerTableRecord
  2
Defpoints
 70
     0
 62
     7
  6
Continuous
290
     0
370
    -3
390
F
  0
LAYER
  5
443
102
{ACAD_XDICTIONARY
360
6A6
102
}
330
2
100
AcDbSymbolTableRecord
100
AcDbLayerTableRecord
  2
AM_CL
 70
     0
 62
     1
  6
Amconstr
370
    25
390
F
1001
AcAecLayerStandard
1000

1000

  0
ENDTAB
  0
TABLE
  2
STYLE
  5
3
330
0
100
AcDbSymbolTable
 70
     8
  0
STYLE
  5
11
330
3
100
AcDbSymbolTableRecord
100
AcDbTextStyleTableRecord
  2
STANDARD
 70
     0
 40
0.0
 41
1.0
 50
0.0
 71
     0
 42
2.5
  3
ISOCP.SHX
  4

  0
STYLE
  5
6B
330
3
100
AcDbSymbolTableRecord
100
AcDbTextStyleTableRecord
  2

 70
     1
 40
0.0
 41
1.0
 50
0.0
 71
     0
 42
2.5
  3
ltypeshp.shx
  4

  0
STYLE
  5
6D
330
3
100
AcDbSymbolTableRecord
100
AcDbTextStyleTableRecord
  2
ACISOTS
 70
     0
 40
1.0
 41
1.0
 50
0.0
 71
     0
 42
2.5
  3
ARIALN.TTF
  4

1001
ACAD
1000
Arial Narrow
1071
       34
  0
STYLE
  5
79
330
3
100
AcDbSymbolTableRecord
100
AcDbTextStyleTableRecord
  2
ACISOGDT
 70
     0
 40
0.0
 41
1.0
 50
0.0
 71
     0
 42
2.5
  3
amgdt.shx
  4

  0
STYLE
  5
1ED
330
3
100
AcDbSymbolTableRecord
100
AcDbTextStyleTableRecord
  2
USER1
 70
     0
 40
0.0
 41
1.0
 50
0.0
 71
     0
 42
2.5
  3
TXT.SHX
  4

  0
STYLE
  5
1EE
330
3
100
AcDbSymbolTableRecord
100
AcDbTextStyleTableRecord
  2
USER2
 70
     0
 40
0.0
 41
1.0
 50
0.0
 71
     0
 42
2.5
  3
SIMPLEX.SHX
  4

  0
STYLE
  5
1EF
330
3
100
AcDbSymbolTableRecord
100
AcDbTextStyleTableRecord
  2
USER3
 70
     0
 40
0.0
 41
1.0
 50
0.0
 71
     0
 42
2.5
  3
ITALIC.SHX
  4

  0
STYLE
  5
22C
330
3
100
AcDbSymbolTableRecord
100
AcDbTextStyleTableRecord
  2

 70
     1
 40
0.0
 41
1.0
 50
0.0
 71
     0
 42
2.5
  3
genltshp.shx
  4

  0
ENDTAB
  0
TABLE
  2
VIEW
  5
6
330
0
100
AcDbSymbolTable
 70
     0
  0
ENDTAB
  0
TABLE
  2
UCS
  5
7
330
0
100
AcDbSymbolTable
 70
     0
  0
ENDTAB
  0
TABLE
  2
APPID
  5
9
330
0
100
AcDbSymbolTable
 70
    16
  0
APPID
  5
12
330
9
100
AcDbSymbolTableRecord
100
AcDbRegAppTableRecord
  2
ACAD
 70
     0
  0
APPID
  5
46
330
9
100
AcDbSymbolTableRecord
100
AcDbRegAppTableRecord
  2
MCAD_NO_VIS
 70
     0
  0
APPID
  5
47
330
9
100
AcDbSymbolTableRecord
100
AcDbRegAppTableRecord
  2
ACAD_TEMP_GRAPHIC
 70
     0
  0
APPID
  5
58
330
9
100
AcDbSymbolTableRecord
100
AcDbRegAppTableRecord
  2
ACATTRIBSERVICES
 70
     0
  0
APPID
  5
EE
330
9
100
AcDbSymbolTableRecord
100
AcDbRegAppTableRecord
  2
AD_DRAW
 70
     0
  0
APPID
  5
10C
330
9
100
AcDbSymbolTableRecord
100
AcDbRegAppTableRecord
  2
DESIGNERASSEMBLIES
 70
     0
  0
APPID
  5
111
330
9
100
AcDbSymbolTableRecord
100
AcDbRegAppTableRecord
  2
ACADM_DIM_EDIT
 70
     0
  0
APPID
  5
112
330
9
100
AcDbSymbolTableRecord
100
AcDbRegAppTableRecord
  2
AMDT_DM_ADJ
 70
     0
  0
APPID
  5
1A3
330
9
100
AcDbSymbolTableRecord
100
AcDbRegAppTableRecord
  2
ACAD_DSTYLE_DIMARC_LENGTH_SYMBOL
 70
     0
  0
APPID
  5
1A4
330
9
100
AcDbSymbolTableRecord
100
AcDbRegAppTableRecord
  2
ACAD_DSTYLE_DIMJOGGED_JOGANGLE_SYMBOL
 70
     0
  0
APPID
  5
30D
330
9
100
AcDbSymbolTableRecord
100
AcDbRegAppTableRecord
  2
ACAD_MLEADERVER
 70
     0
  0
APPID
  5
356
330
9
100
AcDbSymbolTableRecord
100
AcDbRegAppTableRecord
  2
AcadAnnoPO
 70
     0
  0
APPID
  5
422
330
9
100
AcDbSymbolTableRecord
100
AcDbRegAppTableRecord
  2
ACAD_EXEMPT_FROM_CAD_STANDARDS
 70
     0
  0
APPID
  5
444
330
9
100
AcDbSymbolTableRecord
100
AcDbRegAppTableRecord
  2
AcAecLayerStandard
 70
     0
  0
APPID
  5
5E5
330
9
100
AcDbSymbolTableRecord
100
AcDbRegAppTableRecord
  2
ACAD_DSTYLE_DIMINSPECT
 70
     0
  0
APPID
  5
602
330
9
100
AcDbSymbolTableRecord
100
AcDbRegAppTableRecord
  2
ACAD_DSTYLE_DIMRADIAL_EXTENSION
 70
     0
  0
ENDTAB
  0
TABLE
  2
DIMSTYLE
  5
A
330
0
100
AcDbSymbolTable
 70
     9
100
AcDbDimStyleTable
 71
     1
340
81
  0
DIMSTYLE
105
27
330
A
100
AcDbSymbolTableRecord
100
AcDbDimStyleTableRecord
  2
ISO-25
 70
     0
 41
2.5
 42
0.625
 43
3.75
 44
1.25
 73
     0
 74
     0
 77
     1
 78
     8
140
2.5
141
2.5
143
0.03937007874016
147
0.625
171
     3
172
     1
271
     2
272
     2
274
     3
278
    44
283
     0
284
     8
340
11
  0
DIMSTYLE
105
81
102
{ACAD_REACTORS
330
49C
330
4D0
330
4E8
330
500
330
51C
330
585
330
59D
330
5CD
102
}
330
A
100
AcDbSymbolTableRecord
100
AcDbDimStyleTableRecord
  2
AM_ISO
 70
     0
  4
"
 41
2.5
 42
1.0
 43
10.0
 44
1.0
 47
0.1
 48
0.1
 73
     0
 74
     0
 77
     1
 78
     8
 79
     2
140
3.5
141
0.0
143
0.0393701
146
0.71
147
1.5
172
     1
176
   256
177
   256
178
     2
271
     2
272
     3
274
     4
283
     0
284
     8
340
11
371
    -1
372
    -1
1001
ACAD_DSTYLE_DIMJOGGED_JOGANGLE_SYMBOL
1070
   384
1040
0.7853981633974483
1001
ACAD_DSTYLE_DIMARC_LENGTH_SYMBOL
1070
   379
1070
     1
  0
DIMSTYLE
105
82
330
A
100
AcDbSymbolTableRecord
100
AcDbDimStyleTableRecord
  2
AM_ISO$3
 70
     0
  4
"
 41
2.5
 42
1.0
 43
10.0
 44
1.0
 47
0.1
 48
0.1
 73
     0
 77
     1
 78
     8
 79
     2
140
3.5
141
0.0
143
0.0393701
146
0.71
147
1.5
176
   256
177
   256
178
     2
271
     2
272
     3
274
     4
283
     0
284
     8
288
     1
289
     0
340
11
371
    -1
372
    -1
1001
ACAD_DSTYLE_DIMJOGGED_JOGANGLE_SYMBOL
1070
   384
1040
0.7853981633974483
1001
ACAD_DSTYLE_DIMARC_LENGTH_SYMBOL
1070
   379
1070
     1
  0
DIMSTYLE
105
83
330
A
100
AcDbSymbolTableRecord
100
AcDbDimStyleTableRecord
  2
AM_ISO$4
 70
     0
  4
"
 41
2.5
 42
1.0
 43
10.0
 44
1.0
 47
0.1
 48
0.1
 73
     0
 77
     1
 78
     8
 79
     2
140
3.5
141
0.0
143
0.0393701
146
0.71
147
1.5
176
   256
177
   256
178
     2
271
     2
272
     3
274
     4
283
     0
284
     8
288
     1
289
     0
340
11
371
    -1
372
    -1
1001
ACAD_DSTYLE_DIMJOGGED_JOGANGLE_SYMBOL
1070
   384
1040
0.7853981633974483
1001
ACAD_DSTYLE_DIMARC_LENGTH_SYMBOL
1070
   379
1070
     1
  0
DIMSTYLE
105
84
330
A
100
AcDbSymbolTableRecord
100
AcDbDimStyleTableRecord
  2
AM_ISO$6
 70
     0
  4
"
 41
2.5
 42
1.0
 43
10.0
 44
1.0
 47
0.1
 48
0.1
 73
     0
 74
     0
 78
     8
 79
     2
140
3.5
141
0.0
143
0.0393701
146
0.71
147
1.5
172
     1
176
   256
177
   256
178
     2
271
     2
272
     3
274
     4
283
     0
284
     8
340
11
371
    -1
372
    -1
1001
ACAD_DSTYLE_DIMJOGGED_JOGANGLE_SYMBOL
1070
   384
1040
0.7853981633974483
1001
ACAD_DSTYLE_DIMARC_LENGTH_SYMBOL
1070
   379
1070
     1
  0
DIMSTYLE
105
85
330
A
100
AcDbSymbolTableRecord
100
AcDbDimStyleTableRecord
  2
AM_ISO$7
 70
     0
  4
"
 41
2.5
 42
1.0
 43
10.0
 44
1.0
 47
0.1
 48
0.1
 73
     0
 74
     0
 77
     1
 78
     8
 79
     2
140
5.0
141
0.0
143
0.0393701
146
0.71
147
1.5
172
     1
176
   256
177
   256
178
     2
271
     2
272
     3
274
     4
283
     0
284
     8
340
11
371
    -1
372
    -1
1001
ACAD_DSTYLE_DIMJOGGED_JOGANGLE_SYMBOL
1070
   384
1040
0.7853981633974483
1001
ACAD_DSTYLE_DIMARC_LENGTH_SYMBOL
1070
   379
1070
     1
  0
DIMSTYLE
105
86
330
A
100
AcDbSymbolTableRecord
100
AcDbDimStyleTableRecord
  2
AM_ISO$SF
 70
     0
  4
"
 41
2.5
 42
1.0
 43
10.0
 44
1.0
 47
0.1
 48
0.1
 73
     0
 74
     0
 75
     1
 76
     1
 77
     1
 78
     8
 79
     2
140
3.5
141
0.0
143
0.0393701
146
0.71
147
1.5
172
     1
176
   256
177
   256
178
     2
271
     2
272
     3
274
     4
283
     0
284
     8
340
11
371
    -1
372
    -1
1001
ACAD_DSTYLE_DIMJOGGED_JOGANGLE_SYMBOL
1070
   384
1040
0.7853981633974483
1001
ACAD_DSTYLE_DIMARC_LENGTH_SYMBOL
1070
   379
1070
     1
  0
DIMSTYLE
105
8B
330
A
100
AcDbSymbolTableRecord
100
AcDbDimStyleTableRecord
  2
AM_ISO$SH
 70
     0
  4
"
 41
2.5
 42
1.0
 43
10.0
 44
1.0
 47
0.1
 48
0.1
 73
     0
 74
     0
 75
     1
 76
     1
 77
     1
 78
     8
 79
     2
140
3.5
141
0.0
143
0.0393701
144
2.0
146
0.71
147
1.5
172
     1
173
     1
176
   256
177
   256
178
     2
271
     2
272
     3
274
     4
283
     0
284
     8
340
11
343
87
371
    -1
372
    -1
1001
ACAD_DSTYLE_DIMJOGGED_JOGANGLE_SYMBOL
1070
   384
1040
0.7853981633974483
1001
ACAD_DSTYLE_DIMARC_LENGTH_SYMBOL
1070
   379
1070
     1
  0
ENDTAB
  0
TABLE
  2
BLOCK_RECORD
  5
1
330
0
100
AcDbSymbolTable
 70
    19
  0
BLOCK_RECORD
  5
1F
102
{ACAD_XDICTIONARY
360
8F
102
}
330
1
100
AcDbSymbolTableRecord
100
AcDbBlockTableRecord
  2
*Model_Space
340
22
  0
BLOCK_RECORD
  5
1B
330
1
100
AcDbSymbolTableRecord
100
AcDbBlockTableRecord
  2
*Paper_Space
340
1E
  0
BLOCK_RECORD
  5
23
330
1
100
AcDbSymbolTableRecord
100
AcDbBlockTableRecord
  2
*Paper_Space0
340
26
  0
BLOCK_RECORD
  5
87
330
1
100
AcDbSymbolTableRecord
100
AcDbBlockTableRecord
  2
GENAXEH
340
0
  0
BLOCK_RECORD
  5
42C
330
1
100
AcDbSymbolTableRecord
100
AcDbBlockTableRecord
  2
*D4
340
0
  0
BLOCK_RECORD
  5
463
330
1
100
AcDbSymbolTableRecord
100
AcDbBlockTableRecord
  2
*D5
340
0
  0
BLOCK_RECORD
  5
484
330
1
100
AcDbSymbolTableRecord
100
AcDbBlockTableRecord
  2
*D6
340
0
  0
BLOCK_RECORD
  5
49D
330
1
100
AcDbSymbolTableRecord
100
AcDbBlockTableRecord
  2
*D7
340
0
  0
BLOCK_RECORD
  5
4D1
330
1
100
AcDbSymbolTableRecord
100
AcDbBlockTableRecord
  2
*D8
340
0
  0
BLOCK_RECORD
  5
4E9
330
1
100
AcDbSymbolTableRecord
100
AcDbBlockTableRecord
  2
*D9
340
0
  0
BLOCK_RECORD
  5
501
330
1
100
AcDbSymbolTableRecord
100
AcDbBlockTableRecord
  2
*D10
340
0
  0
BLOCK_RECORD
  5
51D
330
1
100
AcDbSymbolTableRecord
100
AcDbBlockTableRecord
  2
*D11
340
0
  0
BLOCK_RECORD
  5
56E
330
1
100
AcDbSymbolTableRecord
100
AcDbBlockTableRecord
  2
*D12
340
0
  0
BLOCK_RECORD
  5
586
330
1
100
AcDbSymbolTableRecord
100
AcDbBlockTableRecord
  2
*D13
340
0
  0
BLOCK_RECORD
  5
59E
330
1
100
AcDbSymbolTableRecord
100
AcDbBlockTableRecord
  2
*D14
340
0
  0
BLOCK_RECORD
  5
5CE
330
1
100
AcDbSymbolTableRecord
100
AcDbBlockTableRecord
  2
*D15
340
0
  0
BLOCK_RECORD
  5
604
330
1
100
AcDbSymbolTableRecord
100
AcDbBlockTableRecord
  2
*D16
340
0
  0
BLOCK_RECORD
  5
660
330
1
100
AcDbSymbolTableRecord
100
AcDbBlockTableRecord
  2
*D17
340
0
  0
BLOCK_RECORD
  5
678
330
1
100
AcDbSymbolTableRecord
100
AcDbBlockTableRecord
  2
*D18
340
0
  0
ENDTAB
  0
ENDSEC
  0
SECTION
  2
BLOCKS
  0
BLOCK
  5
20
330
1F
100
AcDbEntity
  8
0
100
AcDbBlockBegin
  2
*Model_Space
 70
     0
 10
0.0
 20
0.0
 30
0.0
  3
*Model_Space
  1

  0
ENDBLK
  5
21
330
1F
100
AcDbEntity
  8
0
100
AcDbBlockEnd
  0
BLOCK
  5
1C
330
1B
100
AcDbEntity
 67
     1
  8
0
100
AcDbBlockBegin
  2
*Paper_Space
 70
     0
 10
0.0
 20
0.0
 30
0.0
  3
*Paper_Space
  1

  0
ENDBLK
  5
1D
330
1B
100
AcDbEntity
 67
     1
  8
0
100
AcDbBlockEnd
  0
BLOCK
  5
24
330
23
100
AcDbEntity
 67
     1
  8
0
100
AcDbBlockBegin
  2
*Paper_Space0
 70
     0
 10
0.0
 20
0.0
 30
0.0
  3
*Paper_Space0
  1

  0
ENDBLK
  5
25
330
23
100
AcDbEntity
 67
     1
  8
0
100
AcDbBlockEnd
  0
BLOCK
  5
89
330
87
100
AcDbEntity
  8
0
100
AcDbBlockBegin
  2
GENAXEH
 70
     0
 10
0.0
 20
0.0
 30
0.0
  3
GENAXEH
  1

  0
LINE
  5
88
330
87
100
AcDbEntity
  8
0
100
AcDbLine
 10
-1.0
 20
0.0
 30
0.0
 11
1.0
 21
0.0
 31
0.0
  0
ENDBLK
  5
8A
330
87
100
AcDbEntity
  8
0
100
AcDbBlockEnd
  0
BLOCK
  5
42D
330
42C
100
AcDbEntity
  8
0
100
AcDbBlockBegin
  2
*D4
 70
     1
 10
0.0
 20
0.0
 30
0.0
  3
*D4
  1

  0
LINE
  5
439
330
42C
100
AcDbEntity
  8
0
100
AcDbLine
 10
179.1488786059037
 20
260.9584628032943
 30
0.0
 11
179.1488786059037
 21
312.5348631212074
 31
0.0
  0
LINE
  5
43A
330
42C
100
AcDbEntity
  8
0
100
AcDbLine
 10
1095.148878605904
 20
260.9584628032943
 30
0.0
 11
1095.148878605904
 21
312.5348631212074
 31
0.0
  0
LINE
  5
43B
330
42C
100
AcDbEntity
  8
0
100
AcDbLine
 10
181.6488786059037
 20
311.5348631212074
 30
0.0
 11
1092.648878605904
 21
311.5348631212074
 31
0.0
  0
SOLID
  5
43C
330
42C
100
AcDbEntity
  8
0
100
AcDbTrace
 10
181.6488786059037
 20
311.9515297878741
 30
0.0
 11
181.6488786059037
 21
311.1181964545407
 31
0.0
 12
179.1488786059037
 22
311.5348631212074
 32
0.0
 13
179.1488786059037
 23
311.5348631212074
 33
0.0
  0
SOLID
  5
43D
330
42C
100
AcDbEntity
  8
0
100
AcDbTrace
 10
1092.648878605904
 20
311.9515297878741
 30
0.0
 11
1092.648878605904
 21
311.1181964545407
 31
0.0
 12
1095.148878605904
 22
311.5348631212074
 32
0.0
 13
1095.148878605904
 23
311.5348631212074
 33
0.0
  0
MTEXT
  5
43E
330
42C
100
AcDbEntity
  8
0
 62
     2
100
AcDbMText
 10
637.1488786059037
 20
314.7848631212074
 30
0.0
 40
3.5
 41
0.0
 71
     5
 72
     1
  1
916
 73
     1
 44
1.0
1001
ACAD
1000
MTEXTBEGIN
1070
    73
1070
     1
1070
    44
1040
1.0
1070
    74
1070
     0
1000
MTEXTEND
  0
POINT
  5
43F
330
42C
100
AcDbEntity
  8
Defpoints
 62
     0
100
AcDbPoint
 10
179.1488786059037
 20
259.9584628032943
 30
0.0
  0
POINT
  5
440
330
42C
100
AcDbEntity
  8
Defpoints
 62
     0
100
AcDbPoint
 10
1095.148878605904
 20
259.9584628032943
 30
0.0
  0
POINT
  5
441
330
42C
100
AcDbEntity
  8
Defpoints
 62
     0
100
AcDbPoint
 10
1095.148878605904
 20
311.5348631212074
 30
0.0
  0
ENDBLK
  5
42E
330
42C
100
AcDbEntity
  8
0
100
AcDbBlockEnd
  0
BLOCK
  5
464
330
463
100
AcDbEntity
  8
0
100
AcDbBlockBegin
  2
*D5
 70
     1
 10
0.0
 20
0.0
 30
0.0
  3
*D5
  1

  0
LINE
  5
47A
330
463
100
AcDbEntity
  8
0
100
AcDbLine
 10
185.2199464177692
 20
259.9584628032943
 30
0.0
 11
-408.1147325211968
 21
259.9584628032945
 31
0.0
  0
LINE
  5
47B
330
463
100
AcDbEntity
  8
0
100
AcDbLine
 10
-304.8511213940963
 20
-223.0415371967056
 30
0.0
 11
-408.1147325211968
 21
-223.0415371967056
 31
0.0
  0
LINE
  5
47C
330
463
100
AcDbEntity
  8
0
100
AcDbLine
 10
-407.1147325211967
 20
257.4584628032945
 30
0.0
 11
-407.1147325211968
 21
-220.5415371967056
 31
0.0
  0
SOLID
  5
47D
330
463
100
AcDbEntity
  8
0
100
AcDbTrace
 10
-407.5313991878634
 20
257.4584628032945
 30
0.0
 11
-406.69806585453
 21
257.4584628032945
 31
0.0
 12
-407.1147325211967
 22
259.9584628032945
 32
0.0
 13
-407.1147325211967
 23
259.9584628032945
 33
0.0
  0
SOLID
  5
47E
330
463
100
AcDbEntity
  8
0
100
AcDbTrace
 10
-407.5313991878635
 20
-220.5415371967056
 30
0.0
 11
-406.6980658545301
 21
-220.5415371967056
 31
0.0
 12
-407.1147325211968
 22
-223.0415371967056
 32
0.0
 13
-407.1147325211968
 23
-223.0415371967056
 33
0.0
  0
MTEXT
  5
47F
330
463
100
AcDbEntity
  8
0
 62
     2
100
AcDbMText
 10
-410.3647325211968
 20
18.45846280329442
 30
0.0
 40
3.5
 41
0.0
 71
     5
 72
     1
  1
483
 11
0.0000000000000001
 21
1.0
 31
0.0
 73
     1
 44
1.0
1001
ACAD
1000
MTEXTBEGIN
1070
    73
1070
     1
1070
    44
1040
1.0
1070
    74
1070
     0
1000
MTEXTEND
  0
POINT
  5
480
330
463
100
AcDbEntity
  8
Defpoints
 62
     0
100
AcDbPoint
 10
186.2199464177692
 20
259.9584628032943
 30
0.0
  0
POINT
  5
481
330
463
100
AcDbEntity
  8
Defpoints
 62
     0
100
AcDbPoint
 10
-303.8511213940962
 20
-223.0415371967056
 30
0.0
  0
POINT
  5
482
330
463
100
AcDbEntity
  8
Defpoints
 62
     0
100
AcDbPoint
 10
-407.1147325211968
 20
-223.0415371967056
 30
0.0
  0
ENDBLK
  5
465
330
463
100
AcDbEntity
  8
0
100
AcDbBlockEnd
  0
BLOCK
  5
485
330
484
100
AcDbEntity
  8
0
100
AcDbBlockBegin
  2
*D6
 70
     1
 10
0.0
 20
0.0
 30
0.0
  3
*D6
  1

  0
LINE
  5
4BE
330
484
100
AcDbEntity
  8
0
100
AcDbLine
 10
2594.276509492738
 20
820.4611413013855
 30
0.0
 11
2594.276509492738
 21
255.6870231573773
 31
0.0
  0
LINE
  5
4BF
330
484
100
AcDbEntity
  8
0
100
AcDbLine
 10
3046.973208633838
 20
367.7644421602845
 30
0.0
 11
3046.973208633838
 21
255.6870231573773
 31
0.0
  0
LINE
  5
4C0
330
484
100
AcDbEntity
  8
0
100
AcDbLine
 10
2596.776509492737
 20
256.6870231573773
 30
0.0
 11
3044.473208633838
 21
256.6870231573773
 31
0.0
  0
SOLID
  5
4C1
330
484
100
AcDbEntity
  8
0
100
AcDbTrace
 10
2596.776509492737
 20
257.103689824044
 30
0.0
 11
2596.776509492737
 21
256.2703564907106
 31
0.0
 12
2594.276509492738
 22
256.6870231573773
 32
0.0
 13
2594.276509492738
 23
256.6870231573773
 33
0.0
  0
SOLID
  5
4C2
330
484
100
AcDbEntity
  8
0
100
AcDbTrace
 10
3044.473208633838
 20
257.103689824044
 30
0.0
 11
3044.473208633838
 21
256.2703564907106
 31
0.0
 12
3046.973208633838
 22
256.6870231573773
 32
0.0
 13
3046.973208633838
 23
256.6870231573773
 33
0.0
  0
MTEXT
  5
4C3
330
484
100
AcDbEntity
  8
0
 62
     2
100
AcDbMText
 10
2820.624859063288
 20
259.9373676455663
 30
0.0
 40
3.5
 41
0.0
 71
     5
 72
     1
  1
452.7
 73
     1
 44
1.0
1001
ACAD
1000
MTEXTBEGIN
1070
    73
1070
     1
1070
    44
1040
1.0
1070
    74
1070
     0
1000
MTEXTEND
  0
POINT
  5
4C4
330
484
100
AcDbEntity
  8
Defpoints
 62
     0
100
AcDbPoint
 10
2594.276509492738
 20
821.4611413013855
 30
0.0
  0
POINT
  5
4C5
330
484
100
AcDbEntity
  8
Defpoints
 62
     0
100
AcDbPoint
 10
3046.973208633838
 20
368.7644421602845
 30
0.0
  0
POINT
  5
4C6
330
484
100
AcDbEntity
  8
Defpoints
 62
     0
100
AcDbPoint
 10
3046.973208633838
 20
256.6870231573773
 30
0.0
  0
ENDBLK
  5
486
330
484
100
AcDbEntity
  8
0
100
AcDbBlockEnd
  0
BLOCK
  5
49E
330
49D
100
AcDbEntity
  8
0
100
AcDbBlockBegin
  2
*D7
 70
     1
 10
0.0
 20
0.0
 30
0.0
  3
*D7
  1

  0
LINE
  5
613
330
49D
100
AcDbEntity
  8
0
100
AcDbLine
 10
113887.3235402648
 20
32710.92775401385
 30
0.0
 11
113887.3235402648
 21
32745.13399324894
 31
0.0
  0
LINE
  5
614
330
49D
100
AcDbEntity
  8
0
100
AcDbLine
 10
115765.7880063589
 20
32710.92775401385
 30
0.0
 11
115765.7880063589
 21
32745.13399324894
 31
0.0
  0
LINE
  5
615
330
49D
100
AcDbEntity
  8
0
100
AcDbLine
 10
113889.8235402648
 20
32744.13399324894
 30
0.0
 11
115763.2880063588
 21
32744.13399324894
 31
0.0
  0
SOLID
  5
616
330
49D
100
AcDbEntity
  8
0
100
AcDbTrace
 10
113889.8235402648
 20
32744.5506599156
 30
0.0
 11
113889.8235402648
 21
32743.71732658227
 31
0.0
 12
113887.3235402648
 22
32744.13399324894
 32
0.0
 13
113887.3235402648
 23
32744.13399324894
 33
0.0
  0
SOLID
  5
617
330
49D
100
AcDbEntity
  8
0
100
AcDbTrace
 10
115763.2880063588
 20
32744.5506599156
 30
0.0
 11
115763.2880063588
 21
32743.71732658227
 31
0.0
 12
115765.7880063589
 22
32744.13399324894
 32
0.0
 13
115765.7880063589
 23
32744.13399324894
 33
0.0
  0
MTEXT
  5
618
330
49D
100
AcDbEntity
  8
0
 62
     2
100
AcDbMText
 10
114826.5557733118
 20
32747.38399324894
 30
0.0
 40
3.5
 41
0.0
 71
     5
 72
     1
  1
1878.46
 73
     1
 44
1.0
1001
ACAD
1000
MTEXTBEGIN
1070
    73
1070
     1
1070
    44
1040
1.0
1070
    74
1070
     0
1000
MTEXTEND
  0
POINT
  5
619
330
49D
100
AcDbEntity
  8
Defpoints
 62
     0
100
AcDbPoint
 10
113887.3235402648
 20
32709.92775401385
 30
0.0
  0
POINT
  5
61A
330
49D
100
AcDbEntity
  8
Defpoints
 62
     0
100
AcDbPoint
 10
115765.7880063589
 20
32709.92775401385
 30
0.0
  0
POINT
  5
61B
330
49D
100
AcDbEntity
  8
Defpoints
 62
     0
100
AcDbPoint
 10
115765.7880063589
 20
32744.13399324894
 30
0.0
  0
ENDBLK
  5
49F
330
49D
100
AcDbEntity
  8
0
100
AcDbBlockEnd
  0
BLOCK
  5
4D2
330
4D1
100
AcDbEntity
  8
0
100
AcDbBlockBegin
  2
*D8
 70
     1
 10
0.0
 20
0.0
 30
0.0
  3
*D8
  1

  0
LINE
  5
61C
330
4D1
100
AcDbEntity
  8
0
100
AcDbLine
 10
114825.8486665306
 20
33649.86709384208
 30
0.0
 11
114807.7541929102
 21
33667.96156746254
 31
0.0
  0
LINE
  5
61D
330
4D1
100
AcDbEntity
  8
0
100
AcDbLine
 10
114373.1519673895
 20
33197.17039470095
 30
0.0
 11
114355.0574937691
 21
33215.26486832143
 31
0.0
  0
LINE
  5
61E
330
4D1
100
AcDbEntity
  8
0
100
AcDbLine
 10
114806.6935327384
 20
33665.4866937284
 30
0.0
 11
114357.5323675032
 21
33216.32552849322
 31
0.0
  0
SOLID
  5
61F
330
4D1
100
AcDbEntity
  8
0
100
AcDbTrace
 10
114806.3989049129
 20
33665.78132155388
 30
0.0
 11
114806.9881605639
 21
33665.1920659029
 31
0.0
 12
114808.4612996914
 22
33667.25446068136
 32
0.0
 13
114808.4612996914
 23
33667.25446068136
 33
0.0
  0
SOLID
  5
620
330
4D1
100
AcDbEntity
  8
0
100
AcDbTrace
 10
114357.2377396777
 20
33216.62015631872
 30
0.0
 11
114357.8269953287
 21
33216.03090066773
 31
0.0
 12
114355.7646005502
 22
33214.55776154024
 32
0.0
 13
114355.7646005502
 23
33214.55776154024
 33
0.0
  0
MTEXT
  5
621
330
4D1
100
AcDbEntity
  8
0
 62
     2
100
AcDbMText
 10
114579.814609492
 20
33443.20445173957
 30
0.0
 40
3.5
 41
0.0
 71
     5
 72
     1
  1
640.21
 11
0.7071067811865363
 21
0.7071067811865588
 31
0.0
 73
     1
 44
1.0
1001
ACAD
1000
MTEXTBEGIN
1070
    73
1070
     1
1070
    44
1040
1.0
1070
    74
1070
     0
1000
MTEXTEND
  0
POINT
  5
622
330
4D1
100
AcDbEntity
  8
Defpoints
 62
     0
100
AcDbPoint
 10
114826.5557733118
 20
33649.15998706089
 30
0.0
  0
POINT
  5
623
330
4D1
100
AcDbEntity
  8
Defpoints
 62
     0
100
AcDbPoint
 10
114373.8590741707
 20
33196.46328791977
 30
0.0
  0
POINT
  5
624
330
4D1
100
AcDbEntity
  8
Defpoints
 62
     0
100
AcDbPoint
 10
114355.7646005502
 20
33214.55776154024
 30
0.0
  0
ENDBLK
  5
4D3
330
4D1
100
AcDbEntity
  8
0
100
AcDbBlockEnd
  0
BLOCK
  5
4EA
330
4E9
100
AcDbEntity
  8
0
100
AcDbBlockBegin
  2
*D9
 70
     1
 10
0.0
 20
0.0
 30
0.0
  3
*D9
  1

  0
LINE
  5
625
330
4E9
100
AcDbEntity
  8
0
100
AcDbLine
 10
114827.262880093
 20
33649.86709384207
 30
0.0
 11
114863.8259068893
 21
33686.43012063835
 31
0.0
  0
LINE
  5
626
330
4E9
100
AcDbEntity
  8
0
100
AcDbLine
 10
115766.49511314
 20
32710.63486079503
 30
0.0
 11
115803.0581399363
 21
32747.19788759131
 31
0.0
  0
LINE
  5
627
330
4E9
100
AcDbEntity
  8
0
100
AcDbLine
 10
114864.8865670611
 20
33683.9552469042
 30
0.0
 11
115800.5832662022
 21
32748.25854776309
 31
0.0
  0
SOLID
  5
628
330
4E9
100
AcDbEntity
  8
0
100
AcDbTrace
 10
114865.1811948866
 20
33684.24987472969
 30
0.0
 11
114864.5919392356
 21
33683.6606190787
 31
0.0
 12
114863.1188001081
 22
33685.72301385716
 32
0.0
 13
114863.1188001081
 23
33685.72301385716
 33
0.0
  0
SOLID
  5
629
330
4E9
100
AcDbEntity
  8
0
100
AcDbTrace
 10
115800.8778940277
 20
32748.55317558858
 30
0.0
 11
115800.2886383767
 21
32747.96391993759
 31
0.0
 12
115802.3510331551
 22
32746.49078081012
 32
0.0
 13
115802.3510331551
 23
32746.49078081012
 33
0.0
  0
MTEXT
  5
62A
330
4E9
100
AcDbEntity
  8
0
 62
     2
100
AcDbMText
 10
115335.0332572604
 20
33218.40523796246
 30
0.0
 40
3.5
 41
0.0
 71
     5
 72
     1
  1
1328.27
 11
0.7071067811865476
 21
-0.7071067811865475
 31
0.0
 73
     1
 44
1.0
1001
ACAD
1000
MTEXTBEGIN
1070
    73
1070
     1
1070
    44
1040
1.0
1070
    74
1070
     0
1000
MTEXTEND
  0
POINT
  5
62B
330
4E9
100
AcDbEntity
  8
Defpoints
 62
     0
100
AcDbPoint
 10
114826.5557733118
 20
33649.15998706089
 30
0.0
  0
POINT
  5
62C
330
4E9
100
AcDbEntity
  8
Defpoints
 62
     0
100
AcDbPoint
 10
115765.7880063589
 20
32709.92775401384
 30
0.0
  0
POINT
  5
62D
330
4E9
100
AcDbEntity
  8
Defpoints
 62
     0
100
AcDbPoint
 10
115802.3510331551
 20
32746.49078081012
 30
0.0
  0
ENDBLK
  5
4EB
330
4E9
100
AcDbEntity
  8
0
100
AcDbBlockEnd
  0
BLOCK
  5
502
330
501
100
AcDbEntity
  8
0
100
AcDbBlockBegin
  2
*D10
 70
     1
 10
0.0
 20
0.0
 30
0.0
  3
*D10
  1

  0
LINE
  5
62E
330
501
100
AcDbEntity
  8
0
100
AcDbLine
 10
115279.2524724529
 20
33195.46328791978
 30
0.0
 11
115279.2524724529
 21
33138.41933491873
 31
0.0
  0
LINE
  5
62F
330
501
100
AcDbEntity
  8
0
100
AcDbLine
 10
114373.8590741707
 20
33195.46328791978
 30
0.0
 11
114373.8590741707
 21
33138.41933491873
 31
0.0
  0
LINE
  5
630
330
501
100
AcDbEntity
  8
0
100
AcDbLine
 10
115276.7524724529
 20
33139.41933491873
 30
0.0
 11
114376.3590741707
 21
33139.41933491873
 31
0.0
  0
SOLID
  5
631
330
501
100
AcDbEntity
  8
0
100
AcDbTrace
 10
115276.7524724529
 20
33139.83600158539
 30
0.0
 11
115276.7524724529
 21
33139.00266825206
 31
0.0
 12
115279.2524724529
 22
33139.41933491873
 32
0.0
 13
115279.2524724529
 23
33139.41933491873
 33
0.0
  0
SOLID
  5
632
330
501
100
AcDbEntity
  8
0
100
AcDbTrace
 10
114376.3590741707
 20
33139.83600158539
 30
0.0
 11
114376.3590741707
 21
33139.00266825206
 31
0.0
 12
114373.8590741707
 22
33139.41933491873
 32
0.0
 13
114373.8590741707
 23
33139.41933491873
 33
0.0
  0
MTEXT
  5
633
330
501
100
AcDbEntity
  8
0
 62
     2
100
AcDbMText
 10
114826.5557733118
 20
33142.66933491873
 30
0.0
 40
3.5
 41
0.0
 71
     5
 72
     1
  1
905.39
 73
     1
 44
1.0
1001
ACAD
1000
MTEXTBEGIN
1070
    73
1070
     1
1070
    44
1040
1.0
1070
    74
1070
     0
1000
MTEXTEND
  0
POINT
  5
634
330
501
100
AcDbEntity
  8
Defpoints
 62
     0
100
AcDbPoint
 10
115279.2524724529
 20
33196.46328791978
 30
0.0
  0
POINT
  5
635
330
501
100
AcDbEntity
  8
Defpoints
 62
     0
100
AcDbPoint
 10
114373.8590741707
 20
33196.46328791978
 30
0.0
  0
POINT
  5
636
330
501
100
AcDbEntity
  8
Defpoints
 62
     0
100
AcDbPoint
 10
114373.8590741707
 20
33139.41933491873
 30
0.0
  0
ENDBLK
  5
503
330
501
100
AcDbEntity
  8
0
100
AcDbBlockEnd
  0
BLOCK
  5
51E
330
51D
100
AcDbEntity
  8
0
100
AcDbBlockBegin
  2
*D11
 70
     1
 10
0.0
 20
0.0
 30
0.0
  3
*D11
  1

  0
LINE
  5
640
330
51D
100
AcDbEntity
  8
0
100
AcDbLine
 10
109202.885196342
 20
30582.70222884194
 30
0.0
 11
111058.8216037213
 21
30582.70222884194
 31
0.0
  0
LINE
  5
641
330
51D
100
AcDbEntity
  8
0
100
AcDbLine
 10
110197.2364752574
 20
31868.31472123972
 30
0.0
 11
111058.8216037213
 21
31868.31472123972
 31
0.0
  0
LINE
  5
642
330
51D
100
AcDbEntity
  8
0
100
AcDbLine
 10
111057.8216037213
 20
30585.20222884194
 30
0.0
 11
111057.8216037213
 21
31865.81472123972
 31
0.0
  0
SOLID
  5
643
330
51D
100
AcDbEntity
  8
0
100
AcDbTrace
 10
111057.4049370547
 20
30585.20222884194
 30
0.0
 11
111058.238270388
 21
30585.20222884194
 31
0.0
 12
111057.8216037213
 22
30582.70222884194
 32
0.0
 13
111057.8216037213
 23
30582.70222884194
 33
0.0
  0
SOLID
  5
644
330
51D
100
AcDbEntity
  8
0
100
AcDbTrace
 10
111057.4049370547
 20
31865.81472123972
 30
0.0
 11
111058.238270388
 21
31865.81472123972
 31
0.0
 12
111057.8216037213
 22
31868.31472123972
 32
0.0
 13
111057.8216037213
 23
31868.31472123972
 33
0.0
  0
MTEXT
  5
645
330
51D
100
AcDbEntity
  8
0
 62
     2
100
AcDbMText
 10
111054.5712592331
 20
31225.50847504085
 30
0.0
 40
3.5
 41
0.0
 71
     5
 72
     1
  1
1285.61
 11
0.0000000000000001
 21
1.0
 31
0.0
 73
     1
 44
1.0
1001
ACAD
1000
MTEXTBEGIN
1070
    73
1070
     1
1070
    44
1040
1.0
1070
    74
1070
     0
1000
MTEXTEND
  0
POINT
  5
646
330
51D
100
AcDbEntity
  8
Defpoints
 62
     0
100
AcDbPoint
 10
109201.885196342
 20
30582.70222884194
 30
0.0
  0
POINT
  5
647
330
51D
100
AcDbEntity
  8
Defpoints
 62
     0
100
AcDbPoint
 10
110196.2364752574
 20
31868.31472123972
 30
0.0
  0
POINT
  5
648
330
51D
100
AcDbEntity
  8
Defpoints
 62
     0
100
AcDbPoint
 10
111057.8216037213
 20
31868.31472123972
 30
0.0
  0
ENDBLK
  5
51F
330
51D
100
AcDbEntity
  8
0
100
AcDbBlockEnd
  0
BLOCK
  5
56F
330
56E
100
AcDbEntity
  8
0
100
AcDbBlockBegin
  2
*D12
 70
     1
 10
0.0
 20
0.0
 30
0.0
  3
*D12
  1

  0
LINE
  5
57B
330
56E
100
AcDbEntity
  8
0
100
AcDbLine
 10
-16336.87315527561
 20
79573.27015412866
 30
0.0
 11
-16363.05169871363
 21
79573.42719398131
 31
0.0
  0
LINE
  5
57C
330
56E
100
AcDbEntity
  8
0
100
AcDbLine
 10
-16782.37320025641
 20
5308.412655829177
 30
0.0
 11
-16808.55174369446
 21
5308.569695681836
 31
0.0
  0
LINE
  5
57D
330
56E
100
AcDbEntity
  8
0
100
AcDbLine
 10
-16362.06671343672
 20
79570.9212402698
 30
0.0
 11
-16807.53676495601
 21
5311.063652008737
 31
0.0
  0
SOLID
  5
57E
330
56E
100
AcDbEntity
  8
0
100
AcDbTrace
 10
-16362.48337260659
 20
79570.92373972492
 30
0.0
 11
-16361.65005426685
 21
79570.91874081466
 31
0.0
 12
-16362.05171670595
 22
79573.42119528902
 32
0.0
 13
-16362.05171670595
 23
79573.42119528902
 33
0.0
  0
SOLID
  5
57F
330
56E
100
AcDbEntity
  8
0
100
AcDbTrace
 10
-16807.95342412588
 20
5311.066151463864
 30
0.0
 11
-16807.12010578614
 21
5311.061152553608
 31
0.0
 12
-16807.55176168678
 22
5308.563696989527
 32
0.0
 13
-16807.55176168678
 23
5308.563696989527
 33
0.0
  0
MTEXT
  5
580
330
56E
100
AcDbEntity
  8
0
 62
     2
100
AcDbMText
 10
-16588.05202520333
 20
42441.01194395574
 30
0.0
 40
3.5
 41
0.0
 71
     5
 72
     1
  1
74266.19
 11
0.0059986923076393
 21
0.9999820076834373
 31
0.0
 73
     1
 44
1.0
1001
ACAD
1000
MTEXTBEGIN
1070
    73
1070
     1
1070
    44
1040
1.0
1070
    74
1070
     0
1000
MTEXTEND
  0
POINT
  5
581
330
56E
100
AcDbEntity
  8
Defpoints
 62
     0
100
AcDbPoint
 10
-16335.87317326793
 20
79573.26415543635
 30
0.0
  0
POINT
  5
582
330
56E
100
AcDbEntity
  8
Defpoints
 62
     0
100
AcDbPoint
 10
-16781.37321824873
 20
5308.406657136869
 30
0.0
  0
POINT
  5
583
330
56E
100
AcDbEntity
  8
Defpoints
 62
     0
100
AcDbPoint
 10
-16807.55176168678
 20
5308.563696989527
 30
0.0
  0
ENDBLK
  5
570
330
56E
100
AcDbEntity
  8
0
100
AcDbBlockEnd
  0
BLOCK
  5
587
330
586
100
AcDbEntity
  8
0
100
AcDbBlockBegin
  2
*D13
 70
     1
 10
0.0
 20
0.0
 30
0.0
  3
*D13
  1

  0
LINE
  5
5E6
330
586
100
AcDbEntity
  8
0
100
AcDbLine
 10
-15879.37314627946
 20
3641.412655829178
 30
0.0
 11
-8551.648229348748
 21
3685.370213819159
 31
0.0
  0
LINE
  5
5E7
330
586
100
AcDbEntity
  8
0
100
AcDbLine
 10
-16334.87319126024
 20
79573.27015412845
 30
0.0
 11
-9007.148274329502
 21
79617.22771211843
 31
0.0
  0
LINE
  5
5E8
330
586
100
AcDbEntity
  8
0
100
AcDbLine
 10
-8552.663208087201
 20
3687.86417014606
 30
0.0
 11
-9008.133259606417
 21
79614.7217584069
 31
0.0
  0
SOLID
  5
5E9
330
586
100
AcDbEntity
  8
0
100
AcDbTrace
 10
-8552.246548917334
 20
3687.866669601188
 30
0.0
 11
-8553.07986725707
 21
3687.861670690932
 31
0.0
 12
-8552.648211356432
 22
3685.364215126852
 32
0.0
 13
-8552.648211356432
 23
3685.364215126852
 33
0.0
  0
SOLID
  5
5EA
330
586
100
AcDbEntity
  8
0
100
AcDbTrace
 10
-9007.716600436548
 20
79614.72425786204
 30
0.0
 11
-9008.549918776283
 21
79614.71925895178
 31
0.0
 12
-9008.148256337186
 22
79617.22171342612
 32
0.0
 13
-9008.148256337186
 23
79617.22171342612
 33
0.0
  0
MTEXT
  5
5EB
330
586
100
AcDbEntity
  8
0
 62
     2
100
AcDbMText
 10
-8777.14710197678
 20
41651.31246716712
 30
0.0
 40
3.5
 41
0.0
 71
     5
 72
     1
  1
75933.22
 11
0.0059986923076384
 21
-0.9999820076834373
 31
0.0
 73
     1
 44
1.0
1001
ACAD
1000
MTEXTBEGIN
1070
    73
1070
     1
1070
    44
1040
1.0
1070
    74
1070
     0
1000
MTEXTEND
  0
POINT
  5
5EC
330
586
100
AcDbEntity
  8
Defpoints
 62
     0
100
AcDbPoint
 10
-15880.37312828714
 20
3641.406657136871
 30
0.0
  0
POINT
  5
5ED
330
586
100
AcDbEntity
  8
Defpoints
 62
     0
100
AcDbPoint
 10
-16335.87317326792
 20
79573.26415543613
 30
0.0
  0
POINT
  5
5EE
330
586
100
AcDbEntity
  8
Defpoints
 62
     0
100
AcDbPoint
 10
-9008.148256337186
 20
79617.22171342612
 30
0.0
  0
ENDBLK
  5
588
330
586
100
AcDbEntity
  8
0
100
AcDbBlockEnd
  0
BLOCK
  5
59F
330
59E
100
AcDbEntity
  8
0
100
AcDbBlockBegin
  2
*D14
 70
     1
 10
0.0
 20
0.0
 30
0.0
  3
*D14
  1

  0
LINE
  5
5AB
330
59E
100
AcDbEntity
  8
0
100
AcDbLine
 10
-16782.37320025641
 20
5308.412655829177
 30
0.0
 11
-47354.5815516067
 21
5491.809226623124
 31
0.0
  0
LINE
  5
5AC
330
59E
100
AcDbEntity
  8
0
100
AcDbLine
 10
-16336.87315527561
 20
79573.27015412843
 30
0.0
 11
-46909.08150662589
 21
79756.66672492238
 31
0.0
  0
LINE
  5
5AD
330
59E
100
AcDbEntity
  8
0
100
AcDbLine
 10
-47353.56657286824
 20
5494.303182950025
 30
0.0
 11
-46908.09652134897
 21
79754.16077121087
 31
0.0
  0
SOLID
  5
5AE
330
59E
100
AcDbEntity
  8
0
100
AcDbTrace
 10
-47353.98323203811
 20
5494.305682405154
 30
0.0
 11
-47353.14991369837
 21
5494.300683494897
 31
0.0
 12
-47353.58156959901
 22
5491.803227930816
 32
0.0
 13
-47353.58156959901
 23
5491.803227930816
 33
0.0
  0
SOLID
  5
5AF
330
59E
100
AcDbEntity
  8
0
100
AcDbTrace
 10
-46908.51318051884
 20
79754.16327066598
 30
0.0
 11
-46907.67986217911
 21
79754.15827175573
 31
0.0
 12
-46908.08152461821
 22
79756.66072623008
 32
0.0
 13
-46908.08152461821
 23
79756.66072623008
 33
0.0
  0
MTEXT
  5
5B0
330
59E
100
AcDbEntity
  8
0
 62
     2
100
AcDbMText
 10
-47134.08183311558
 20
42624.25147489692
 30
0.0
 40
3.5
 41
0.0
 71
     5
 72
     1
  1
74266.19
 11
0.0059986923076391
 21
0.9999820076834373
 31
0.0
 73
     1
 44
1.0
1001
ACAD
1000
MTEXTBEGIN
1070
    73
1070
     1
1070
    44
1040
1.0
1070
    74
1070
     0
1000
MTEXTEND
  0
POINT
  5
5B1
330
59E
100
AcDbEntity
  8
Defpoints
 62
     0
100
AcDbPoint
 10
-16781.37321824872
 20
5308.406657136869
 30
0.0
  0
POINT
  5
5B2
330
59E
100
AcDbEntity
  8
Defpoints
 62
     0
100
AcDbPoint
 10
-16335.87317326792
 20
79573.26415543613
 30
0.0
  0
POINT
  5
5B3
330
59E
100
AcDbEntity
  8
Defpoints
 62
     0
100
AcDbPoint
 10
-46908.08152461821
 20
79756.66072623008
 30
0.0
  0
ENDBLK
  5
5A0
330
59E
100
AcDbEntity
  8
0
100
AcDbBlockEnd
  0
BLOCK
  5
5CF
330
5CE
100
AcDbEntity
  8
0
100
AcDbBlockBegin
  2
*D15
 70
     1
 10
0.0
 20
0.0
 30
0.0
  3
*D15
  1

  0
LINE
  5
5DB
330
5CE
100
AcDbEntity
  8
0
100
AcDbLine
 10
-16791.37321824873
 20
3640.40665713687
 30
0.0
 11
-16791.37321824873
 21
3451.314045051812
 31
0.0
  0
LINE
  5
5DC
330
5CE
100
AcDbEntity
  8
0
100
AcDbLine
 10
-15880.37312828714
 20
3640.40665713687
 30
0.0
 11
-15880.37312828714
 21
3451.314045051812
 31
0.0
  0
LINE
  5
5DD
330
5CE
100
AcDbEntity
  8
0
100
AcDbLine
 10
-16788.87321824873
 20
3452.314045051811
 30
0.0
 11
-15882.87312828714
 21
3452.314045051811
 31
0.0
  0
SOLID
  5
5DE
330
5CE
100
AcDbEntity
  8
0
100
AcDbTrace
 10
-16788.87321824873
 20
3452.730711718478
 30
0.0
 11
-16788.87321824873
 21
3451.897378385145
 31
0.0
 12
-16791.37321824873
 22
3452.314045051811
 32
0.0
 13
-16791.37321824873
 23
3452.314045051811
 33
0.0
  0
SOLID
  5
5DF
330
5CE
100
AcDbEntity
  8
0
100
AcDbTrace
 10
-15882.87312828714
 20
3452.730711718478
 30
0.0
 11
-15882.87312828714
 21
3451.897378385145
 31
0.0
 12
-15880.37312828714
 22
3452.314045051811
 32
0.0
 13
-15880.37312828714
 23
3452.314045051811
 33
0.0
  0
MTEXT
  5
5E0
330
5CE
100
AcDbEntity
  8
0
 62
     2
100
AcDbMText
 10
-16335.87317326794
 20
3455.564045051811
 30
0.0
 40
3.5
 41
0.0
 71
     5
 72
     1
  1
911
 73
     1
 44
1.0
1001
ACAD
1000
MTEXTBEGIN
1070
    73
1070
     1
1070
    44
1040
1.0
1070
    74
1070
     0
1000
MTEXTEND
  0
POINT
  5
5E1
330
5CE
100
AcDbEntity
  8
Defpoints
 62
     0
100
AcDbPoint
 10
-16791.37321824873
 20
3641.406657136871
 30
0.0
  0
POINT
  5
5E2
330
5CE
100
AcDbEntity
  8
Defpoints
 62
     0
100
AcDbPoint
 10
-15880.37312828714
 20
3641.406657136871
 30
0.0
  0
POINT
  5
5E3
330
5CE
100
AcDbEntity
  8
Defpoints
 62
     0
100
AcDbPoint
 10
-15880.37312828714
 20
3452.314045051811
 30
0.0
  0
ENDBLK
  5
5D0
330
5CE
100
AcDbEntity
  8
0
100
AcDbBlockEnd
  0
BLOCK
  5
605
330
604
100
AcDbEntity
  8
0
100
AcDbBlockBegin
  2
*D16
 70
     1
 10
0.0
 20
0.0
 30
0.0
  3
*D16
  1

  0
LINE
  5
60D
330
604
100
AcDbEntity
  8
0
100
AcDbLine
 10
-91522.77743781503
 20
-2615.180950232199
 30
0.0
 11
-17277.56065198767
 21
-958.4003022579405
 31
0.0
  0
SOLID
  5
60E
330
604
100
AcDbEntity
  8
0
100
AcDbTrace
 10
-17277.56994758256
 20
-957.9837392938918
 30
0.0
 11
-17277.55135639279
 21
-958.8168652220126
 31
0.0
 12
-17275.06127420331
 22
-958.3445286886316
 32
0.0
 13
-17275.06127420331
 23
-958.3445286886316
 33
0.0
  0
MTEXT
  5
60F
330
604
100
AcDbEntity
  8
0
 62
     2
100
AcDbMText
 10
-18406.91697530246
 20
-980.3507141998952
 30
0.0
 40
3.5
 41
0.0
 71
     5
 72
     1
  1
R74266.2
 11
0.9997511137450377
 21
0.0223094277281398
 31
0.0
 73
     1
 44
1.0
1001
ACAD
1000
MTEXTBEGIN
1070
    73
1070
     1
1070
    44
1040
1.0
1070
    74
1070
     0
1000
MTEXTEND
  0
POINT
  5
610
330
604
100
AcDbEntity
  8
Defpoints
 62
     0
100
AcDbPoint
 10
-17275.06127420331
 20
-958.3445286886316
 30
0.0
  0
POINT
  5
611
330
604
100
AcDbEntity
  8
Defpoints
 62
     0
100
AcDbPoint
 10
-91522.77743781503
 20
-2615.180950232199
 30
0.0
  0
ENDBLK
  5
606
330
604
100
AcDbEntity
  8
0
100
AcDbBlockEnd
  0
BLOCK
  5
661
330
660
100
AcDbEntity
  8
0
100
AcDbBlockBegin
  2
*D17
 70
     1
 10
0.0
 20
0.0
 30
0.0
  3
*D17
  1

  0
LINE
  5
66D
330
660
100
AcDbEntity
  8
0
100
AcDbLine
 10
-14983.55360516658
 20
1080.635742693997
 30
0.0
 11
-14771.97972059273
 21
1088.615671009427
 31
0.0
  0
LINE
  5
66E
330
660
100
AcDbEntity
  8
0
100
AcDbLine
 10
-15046.3831396794
 20
2746.451293585783
 30
0.0
 11
-14834.80925510555
 21
2754.431221901212
 31
0.0
  0
LINE
  5
66F
330
660
100
AcDbEntity
  8
0
100
AcDbLine
 10
-14773.07323552205
 20
1091.076204508357
 30
0.0
 11
-14835.71431912151
 21
2751.89530803694
 31
0.0
  0
SOLID
  5
670
330
660
100
AcDbEntity
  8
0
100
AcDbTrace
 10
-14772.65686490845
 20
1091.091908751137
 30
0.0
 11
-14773.48960613565
 21
1091.060500265578
 31
0.0
 12
-14772.97901006537
 22
1088.577980826756
 32
0.0
 13
-14772.97901006537
 23
1088.577980826756
 33
0.0
  0
SOLID
  5
671
330
660
100
AcDbEntity
  8
0
100
AcDbTrace
 10
-14835.29794850791
 20
2751.91101227972
 30
0.0
 11
-14836.13068973511
 21
2751.87960379416
 31
0.0
 12
-14835.80854457819
 22
2754.393531718541
 32
0.0
 13
-14835.80854457819
 23
2754.393531718541
 33
0.0
  0
MTEXT
  5
672
330
660
100
AcDbEntity
  8
0
 62
     2
100
AcDbMText
 10
-14801.14608653569
 20
1921.608249366328
 30
0.0
 40
3.5
 41
0.0
 71
     5
 72
     1
  1
1667
 11
0.0376901826711589
 21
-0.9992894726405431
 31
0.0
 73
     1
 44
1.0
1001
ACAD
1000
MTEXTBEGIN
1070
    73
1070
     1
1070
    44
1040
1.0
1070
    74
1070
     0
1000
MTEXTEND
  0
POINT
  5
673
330
660
100
AcDbEntity
  8
Defpoints
 62
     0
100
AcDbPoint
 10
-14984.55289463922
 20
1080.598052511326
 30
0.0
  0
POINT
  5
674
330
660
100
AcDbEntity
  8
Defpoints
 62
     0
100
AcDbPoint
 10
-15047.38242915204
 20
2746.413603403111
 30
0.0
  0
POINT
  5
675
330
660
100
AcDbEntity
  8
Defpoints
 62
     0
100
AcDbPoint
 10
-14835.80854457819
 20
2754.393531718541
 30
0.0
  0
ENDBLK
  5
662
330
660
100
AcDbEntity
  8
0
100
AcDbBlockEnd
  0
BLOCK
  5
679
330
678
100
AcDbEntity
  8
0
100
AcDbBlockBegin
  2
*D18
 70
     1
 10
0.0
 20
0.0
 30
0.0
  3
*D18
  1

  0
LINE
  5
685
330
678
100
AcDbEntity
  8
0
100
AcDbLine
 10
-17846.47022500514
 20
1025.64561406784
 30
0.0
 11
-17843.88278546965
 21
888.3939411444323
 31
0.0
  0
LINE
  5
686
330
678
100
AcDbEntity
  8
0
100
AcDbLine
 10
-14984.5340461995
 20
1079.598230158945
 30
0.0
 11
-14981.94660666401
 21
942.3465572355368
 31
0.0
  0
LINE
  5
687
330
678
100
AcDbEntity
  8
0
100
AcDbLine
 10
-17841.40207802841
 20
889.4408845961031
 30
0.0
 11
-14984.46501098468
 21
943.2992584886276
 31
0.0
  0
SOLID
  5
688
330
678
100
AcDbEntity
  8
0
100
AcDbTrace
 10
-17841.40993154496
 20
889.8574772429284
 30
0.0
 11
-17841.39422451186
 21
889.0242919492777
 31
0.0
 12
-17843.90163390936
 22
889.393763496813
 32
0.0
 13
-17843.90163390936
 23
889.393763496813
 33
0.0
  0
SOLID
  5
689
330
678
100
AcDbEntity
  8
0
100
AcDbTrace
 10
-14984.47286450123
 20
943.715851135453
 30
0.0
 11
-14984.45715746813
 21
942.8826658418023
 31
0.0
 12
-14981.96545510373
 22
943.3463795879177
 32
0.0
 13
-14981.96545510373
 23
943.3463795879177
 33
0.0
  0
MTEXT
  5
68A
330
678
100
AcDbEntity
  8
0
 62
     2
100
AcDbMText
 10
-16412.99480842869
 20
919.6198386145946
 30
0.0
 40
3.5
 41
0.0
 71
     5
 72
     1
  1
2862.44
 11
0.9998223523807975
 21
0.0188484397160171
 31
0.0
 73
     1
 44
1.0
1001
ACAD
1000
MTEXTBEGIN
1070
    73
1070
     1
1070
    44
1040
1.0
1070
    74
1070
     0
1000
MTEXTEND
  0
POINT
  5
68B
330
678
100
AcDbEntity
  8
Defpoints
 62
     0
100
AcDbPoint
 10
-17846.48907344486
 20
1026.645436420221
 30
0.0
  0
POINT
  5
68C
330
678
100
AcDbEntity
  8
Defpoints
 62
     0
100
AcDbPoint
 10
-14984.55289463922
 20
1080.598052511326
 30
0.0
  0
POINT
  5
68D
330
678
100
AcDbEntity
  8
Defpoints
 62
     0
100
AcDbPoint
 10
-14981.96545510373
 20
943.3463795879177
 30
0.0
  0
ENDBLK
  5
67A
330
678
100
AcDbEntity
  8
0
100
AcDbBlockEnd
  0
ENDSEC
  0
SECTION
  2
ENTITIES
  0
LINE
  5
428
330
1F
100
AcDbEntity
  8
0
100
AcDbLine
 10
114375.6268411237
 20
33194.69552096682
 30
0.0
 11
115277.4847055
 21
33194.69552096682
 31
0.0
  0
LINE
  5
446
330
1F
100
AcDbEntity
  8
AM_CL
  6
AM_ISO08W050
 62
     4
100
AcDbLine
 10
114826.5557733118
 20
32711.69552096682
 30
0.0
 11
114826.5557733118
 21
33997.52612901772
 31
0.0
  0
LINE
  5
448
330
1F
100
AcDbEntity
  8
AM_CL
 62
     0
100
AcDbLine
 10
115767.5557733118
 20
32711.69552096682
 30
0.0
 11
115281.0202394059
 21
33198.23105487275
 31
0.0
  0
LINE
  5
44C
330
1F
100
AcDbEntity
  8
AM_CL
 62
     0
100
AcDbLine
 10
115764.0202394059
 20
32708.15998706089
 30
0.0
 11
115277.4847055
 21
33194.69552096682
 31
0.0
  0
LINE
  5
450
330
1F
100
AcDbEntity
  8
AM_CL
 62
     0
100
AcDbLine
 10
114375.6268411237
 20
33194.69552096682
 30
0.0
 11
113889.0913072178
 21
32708.15998706089
 31
0.0
  0
LINE
  5
451
330
1F
100
AcDbEntity
  8
AM_CL
 62
     0
100
AcDbLine
 10
114372.0913072177
 20
33198.23105487275
 30
0.0
 11
113885.5557733118
 21
32711.69552096682
 31
0.0
  0
LINE
  5
452
102
{ACAD_REACTORS
330
4B3
330
4E7
330
4FF
330
517
102
}
330
1F
100
AcDbEntity
  8
AM_CL
  6
AM_ISO02W050x2
 62
     4
100
AcDbLine
 10
114826.5557733118
 20
33649.15998706088
 30
0.0
 11
113887.3235402648
 21
32709.92775401385
 31
0.0
  0
LINE
  5
453
102
{ACAD_REACTORS
330
4B3
330
4FF
330
517
102
}
330
1F
100
AcDbEntity
  8
AM_CL
  6
AM_ISO02W050x2
 62
     4
100
AcDbLine
 10
115765.7880063589
 20
32709.92775401385
 30
0.0
 11
114826.5557733118
 21
33649.15998706088
 31
0.0
  0
LINE
  5
457
330
1F
100
AcDbEntity
  8
AM_CL
 62
     0
100
AcDbLine
 10
113889.0913072178
 20
32708.15998706089
 30
0.0
 11
113885.5557733118
 21
32711.69552096682
 31
0.0
  0
LINE
  5
45C
102
{ACAD_REACTORS
330
4FF
102
}
330
1F
100
AcDbEntity
  8
AM_CL
 62
     0
100
AcDbLine
 10
115764.0202394059
 20
32708.15998706089
 30
0.0
 11
115767.5557733118
 21
32711.69552096682
 31
0.0
  0
LINE
  5
45E
102
{ACAD_REACTORS
330
4E7
330
517
102
}
330
1F
100
AcDbEntity
  8
AM_CL
 62
     0
100
AcDbLine
 10
114375.6268411237
 20
33194.69552096682
 30
0.0
 11
114372.0913072177
 21
33198.23105487276
 31
0.0
  0
LINE
  5
45F
102
{ACAD_REACTORS
330
517
102
}
330
1F
100
AcDbEntity
  8
AM_CL
 62
     0
100
AcDbLine
 10
115277.4847055
 20
33194.69552096682
 30
0.0
 11
115281.0202394059
 21
33198.23105487275
 31
0.0
  0
LINE
  5
460
330
1F
100
AcDbEntity
  8
0
100
AcDbLine
 10
115764.0202394059
 20
32708.15998706089
 30
0.0
 11
113889.0913072178
 21
32708.15998706089
 31
0.0
  0
LINE
  5
461
330
1F
100
AcDbEntity
  8
0
100
AcDbLine
 10
114372.0913072177
 20
33198.23105487275
 30
0.0
 11
115281.0202394059
 21
33198.23105487275
 31
0.0
  0
DIMENSION
  5
49C
102
{ACAD_XDICTIONARY
360
4A9
102
}
102
{ACAD_REACTORS
330
4B3
102
}
330
1F
100
AcDbEntity
  8
0
100
AcDbDimension
  2
*D7
 10
115765.7880063589
 20
32744.13399324894
 30
0.0
 11
114826.5557733118
 21
32747.38399324894
 31
0.0
 70
    32
 71
     5
 42
1878.464466094068
  3
AM_ISO
100
AcDbAlignedDimension
 13
113887.3235402648
 23
32709.92775401385
 33
0.0
 14
115765.7880063589
 24
32709.92775401385
 34
0.0
100
AcDbRotatedDimension
  0
DIMENSION
  5
4D0
102
{ACAD_XDICTIONARY
360
4DD
102
}
102
{ACAD_REACTORS
330
4E7
102
}
330
1F
100
AcDbEntity
  8
0
100
AcDbDimension
  2
*D8
 10
114355.7646005502
 20
33214.55776154024
 30
0.0
 11
114579.814609492
 21
33443.20445173957
 31
0.0
 70
    33
 71
     5
 42
640.2098115668778
  3
AM_ISO
100
AcDbAlignedDimension
 13
114826.5557733118
 23
33649.15998706088
 33
0.0
 14
114373.8590741707
 24
33196.46328791978
 34
0.0
  0
DIMENSION
  5
4E8
102
{ACAD_XDICTIONARY
360
4F5
102
}
102
{ACAD_REACTORS
330
4FF
102
}
330
1F
100
AcDbEntity
  8
0
100
AcDbDimension
  2
*D9
 10
115802.3510331551
 20
32746.49078081012
 30
0.0
 11
115335.0332572604
 21
33218.40523796246
 31
0.0
 70
    33
 71
     5
 42
1328.274962193092
  3
AM_ISO
100
AcDbAlignedDimension
 13
114826.5557733118
 23
33649.15998706088
 33
0.0
 14
115765.7880063589
 24
32709.92775401385
 34
0.0
  0
DIMENSION
  5
500
102
{ACAD_XDICTIONARY
360
50D
102
}
102
{ACAD_REACTORS
330
517
102
}
330
1F
100
AcDbEntity
  8
0
100
AcDbDimension
  2
*D10
 10
114373.8590741707
 20
33139.41933491873
 30
0.0
 11
114826.5557733118
 21
33142.66933491873
 31
0.0
 70
    32
 71
     5
 42
905.3933982821909
  3
AM_ISO
100
AcDbAlignedDimension
 13
115279.2524724529
 23
33196.46328791978
 33
0.0
 14
114373.8590741707
 24
33196.46328791978
 34
0.0
100
AcDbRotatedDimension
  0
LINE
  5
518
330
1F
100
AcDbEntity
  8
0
100
AcDbLine
 10
109508.1764752643
 20
31868.31472124151
 30
0.0
 11
110196.2364752643
 21
31868.31472124151
 31
0.0
  0
ARC
  5
519
330
1F
100
AcDbEntity
  8
0
100
AcDbCircle
 10
108867.9664752643
 20
31868.31472124151
 30
0.0
 40
640.21
100
AcDbArc
 50
0.0
 51
284.5599999996931
  0
LINE
  5
51A
330
1F
100
AcDbEntity
  8
0
100
AcDbLine
 10
109028.9112413326
 20
31248.66512156826
 30
0.0
 11
109201.8851963489
 21
30582.70222884373
 31
0.0
  0
ARC
  5
51B
102
{ACAD_REACTORS
330
533
102
}
330
1F
100
AcDbEntity
  8
0
100
AcDbCircle
 10
108867.9664752643
 20
31868.31472124151
 30
0.0
 40
1328.27
100
AcDbArc
 50
0.0
 51
284.5599999996931
  0
DIMENSION
  5
51C
102
{ACAD_XDICTIONARY
360
529
102
}
102
{ACAD_REACTORS
330
533
102
}
330
1F
100
AcDbEntity
  8
0
100
AcDbDimension
  2
*D11
 10
111057.8216037213
 20
31868.31472123972
 30
0.0
 11
111054.5712592331
 21
31225.50847504085
 31
0.0
 70
    32
 71
     5
 42
1285.612492397784
  3
AM_ISO
100
AcDbAlignedDimension
 13
109201.885196342
 23
30582.70222884194
 33
0.0
 14
110196.2364752574
 24
31868.31472123972
 34
0.0
 50
90.0
100
AcDbRotatedDimension
  0
LINE
  5
537
330
1F
100
AcDbEntity
  8
AM_CL
  6
AM_ISO08W050x2
 62
     4
100
AcDbLine
 10
-16335.87317326794
 20
5308.42165386764
 30
0.0
 11
-16335.87317326794
 21
3641.421653867639
 31
0.0
  0
LINE
  5
53B
330
1F
100
AcDbEntity
  8
0
100
AcDbLine
 10
-16793.87317326793
 20
3641.421653867639
 30
0.0
 11
-16783.87299334314
 21
5308.451647329178
 31
0.0
  0
LINE
  5
53C
330
1F
100
AcDbEntity
  8
0
100
AcDbLine
 10
-15877.87317326793
 20
3641.421653867639
 30
0.0
 11
-15887.87335319272
 21
5308.451647329178
 31
0.0
  0
LINE
  5
53D
330
1F
100
AcDbEntity
  8
0
100
AcDbLine
 10
-16788.87326322952
 20
3641.391660406102
 30
0.0
 11
-16778.87308330473
 21
5308.421653867639
 31
0.0
  0
LINE
  5
53E
330
1F
100
AcDbEntity
  8
0
100
AcDbLine
 10
-15882.87308330635
 20
3641.391660406101
 30
0.0
 11
-15892.87326323114
 21
5308.421653867639
 31
0.0
  0
LINE
  5
53F
102
{ACAD_REACTORS
330
5B4
102
}
330
1F
100
AcDbEntity
  8
0
  6
AM_ISO08W050
 62
     4
100
AcDbLine
 10
-16791.37321824873
 20
3641.406657136871
 30
0.0
 11
-16781.37321824873
 21
5308.40665713687
 31
0.0
  0
LINE
  5
540
330
1F
100
AcDbEntity
  8
0
  6
AM_ISO08W050
 62
     4
100
AcDbLine
 10
-15880.37312828714
 20
3641.406657136871
 30
0.0
 11
-15890.37330821193
 21
5308.436650598409
 31
0.0
  0
LINE
  5
55B
330
1F
100
AcDbEntity
  8
AM_CL
 62
     0
100
AcDbLine
 10
-16783.87299334315
 20
5308.451647329178
 30
0.0
 11
-16778.8730833049
 21
5308.42165386764
 31
0.0
  0
LINE
  5
561
330
1F
100
AcDbEntity
  8
AM_CL
 62
     0
100
AcDbLine
 10
-15882.87308330635
 20
3641.391660406102
 30
0.0
 11
-15877.8731732679
 21
3641.421653867639
 31
0.0
  0
LINE
  5
562
330
1F
100
AcDbEntity
  8
AM_CL
 62
     0
100
AcDbLine
 10
-16793.87317326793
 20
3641.421653867639
 30
0.0
 11
-16788.87326322952
 21
3641.391660406102
 31
0.0
  0
LINE
  5
565
330
1F
100
AcDbEntity
  8
0
100
AcDbLine
 10
-16788.87326322952
 20
3641.391660406102
 30
0.0
 11
-15882.87308330635
 21
3641.391660406102
 31
0.0
  0
LINE
  5
568
330
1F
100
AcDbEntity
  8
AM_CL
 62
     0
100
AcDbLine
 10
-15887.87335319272
 20
5308.451647329178
 30
0.0
 11
-15892.87326323114
 21
5308.42165386764
 31
0.0
  0
LINE
  5
569
330
1F
100
AcDbEntity
  8
0
100
AcDbLine
 10
-15892.87326323114
 20
5308.421653867639
 30
0.0
 11
-16778.8730833049
 21
5308.42165386764
 31
0.0
  0
LINE
  5
56A
102
{ACAD_REACTORS
330
5E4
102
}
330
1F
100
AcDbEntity
  8
0
100
AcDbLine
 10
-16791.37321824873
 20
3641.406657136871
 30
0.0
 11
-16335.87317326793
 21
79573.2641554363
 31
0.0
  0
LINE
  5
56B
102
{ACAD_REACTORS
330
59C
330
5B4
330
5E4
102
}
330
1F
100
AcDbEntity
  8
0
100
AcDbLine
 10
-15880.37312828714
 20
3641.406657136871
 30
0.0
 11
-16335.87317326792
 21
79573.26415543614
 31
0.0
  0
DIMENSION
  5
585
102
{ACAD_XDICTIONARY
360
592
102
}
102
{ACAD_REACTORS
330
59C
102
}
330
1F
100
AcDbEntity
  8
0
100
AcDbDimension
  2
*D13
 10
-9008.148256337186
 20
79617.22171342612
 30
0.0
 11
-8777.14710197678
 21
41651.31246716712
 31
0.0
 70
    33
 71
     5
 42
75933.22371289793
  3
AM_ISO
100
AcDbAlignedDimension
 13
-15880.37312828714
 23
3641.406657136871
 33
0.0
 14
-16335.87317326792
 24
79573.26415543614
 34
0.0
1001
ACAD_DSTYLE_DIMINSPECT
1070
   396
1000
100%
1070
   395
1000

1070
   394
1070
    33
1070
   393
1070
     0
  0
DIMENSION
  5
59D
102
{ACAD_XDICTIONARY
360
5AA
102
}
102
{ACAD_REACTORS
330
5B4
102
}
330
1F
100
AcDbEntity
  8
0
100
AcDbDimension
  2
*D14
 10
-46908.08152461821
 20
79756.66072623008
 30
0.0
 11
-47134.08183311558
 21
42624.25147489692
 31
0.0
 70
    33
 71
     5
 42
74266.19371916655
  3
AM_ISO
100
AcDbAlignedDimension
 13
-16781.37321824873
 23
5308.40665713687
 33
0.0
 14
-16335.87317326792
 24
79573.26415543614
 34
0.0
  0
LINE
  5
5BF
330
1F
100
AcDbEntity
  8
0
 62
     6
100
AcDbLine
 10
-17846.48907344486
 20
2693.645436420222
 30
0.0
 11
-17846.48907344486
 21
1026.645436420221
 31
0.0
  0
ARC
  5
5C0
330
1F
100
AcDbEntity
  8
0
 62
     6
100
AcDbCircle
 10
-17846.48907344484
 20
76959.84543642017
 30
0.0
 40
74266.19999999995
100
AcDbArc
 50
270.0
 51
272.1600000000702
  0
LINE
  5
5CB
330
1F
100
AcDbEntity
  8
0
 62
     6
100
AcDbLine
 10
-15047.38242924297
 20
2746.413603399764
 30
0.0
 11
-14984.55289473219
 21
1080.598052507848
 31
0.0
  0
ARC
  5
5CC
330
1F
100
AcDbEntity
  8
0
 62
     6
100
AcDbCircle
 10
-17846.48907344484
 20
76959.84543642017
 30
0.0
 40
75933.19999999995
100
AcDbArc
 50
270.0
 51
272.1600000000702
  0
DIMENSION
  5
5CD
102
{ACAD_XDICTIONARY
360
5DA
102
}
102
{ACAD_REACTORS
330
5E4
102
}
330
1F
100
AcDbEntity
  8
0
100
AcDbDimension
  2
*D15
 10
-15880.37312828714
 20
3452.314045051811
 30
0.0
 11
-16335.87317326794
 21
3455.564045051811
 31
0.0
 70
    32
 71
     5
 42
911.0000899615842
  3
AM_ISO
100
AcDbAlignedDimension
 13
-16791.37321824873
 23
3641.406657136871
 33
0.0
 14
-15880.37312828714
 24
3641.406657136871
 34
0.0
100
AcDbRotatedDimension
  0
ENDSEC
  0
SECTION
  2
OBJECTS
  0
DICTIONARY
  5
C
330
0
100
AcDbDictionary
281
     1
  3
ACAD_2007HEADERVARS_RT
350
6AC
  3
ACAD_COLOR
350
BE
  3
ACAD_GROUP
350
D
  3
ACAD_LAYOUT
350
1A
  3
ACAD_MATERIAL
350
BD
  3
ACAD_MLEADERSTYLE
350
2C3
  3
ACAD_MLINESTYLE
350
17
  3
ACAD_PLOTSETTINGS
350
19
  3
ACAD_PLOTSTYLENAME
350
E
  3
ACAD_SCALELIST
350
2A2
  3
ACAD_TABLESTYLE
350
11A
  3
ACAD_VISUALSTYLE
350
26E
  3
ACDB_RECOMPOSE_DATA
350
30B
  3
AcDbVariableDictionary
350
94
  3
AcmDictionary
350
5B
  3
AMG
350
41
  3
AMGSNAPSETTINGS
350
329
  3
DWGPROPS
350
6AB
  0
DICTIONARY
  5
2E2
330
10
100
AcDbDictionary
280
     1
281
     1
  3
ADSK_XREC_LAYER_RECONCILED
360
6A5
  0
DICTIONARY
  5
6A6
330
443
100
AcDbDictionary
280
     1
281
     1
  3
ADSK_XREC_LAYER_RECONCILED
360
6A7
  0
DICTIONARY
  5
8F
330
1F
100
AcDbDictionary
280
     1
281
     1
  3
ACAD_SORTENTS
360
447
  0
DICTIONARY
  5
4A9
330
49C
100
AcDbDictionary
280
     1
281
     1
  3
ACAD_DIMASSOC
360
4B3
  0
DICTIONARY
  5
4DD
330
4D0
100
AcDbDictionary
280
     1
281
     1
  3
ACAD_DIMASSOC
360
4E7
  0
DICTIONARY
  5
4F5
330
4E8
100
AcDbDictionary
280
     1
281
     1
  3
ACAD_DIMASSOC
360
4FF
  0
DICTIONARY
  5
50D
330
500
100
AcDbDictionary
280
     1
281
     1
  3
ACAD_DIMASSOC
360
517
  0
DICTIONARY
  5
529
330
51C
100
AcDbDictionary
280
     1
281
     1
  3
ACAD_DIMASSOC
360
533
  0
DICTIONARY
  5
592
330
585
100
AcDbDictionary
280
     1
281
     1
  3
ACAD_DIMASSOC
360
59C
  0
DICTIONARY
  5
5AA
330
59D
100
AcDbDictionary
280
     1
281
     1
  3
ACAD_DIMASSOC
360
5B4
  0
DICTIONARY
  5
5DA
330
5CD
100
AcDbDictionary
280
     1
281
     1
  3
ACAD_DIMASSOC
360
5E4
  0
DICTIONARY
  5
6AC
102
{ACAD_REACTORS
330
C
102
}
330
C
100
AcDbDictionary
281
     1
  3
DIMARCSYM
350
6AD
  0
DICTIONARY
  5
BE
102
{ACAD_REACTORS
330
C
102
}
330
C
100
AcDbDictionary
281
     1
  0
DICTIONARY
  5
D
102
{ACAD_REACTORS
330
C
102
}
330
C
100
AcDbDictionary
281
     1
  0
DICTIONARY
  5
1A
102
{ACAD_REACTORS
330
C
102
}
330
C
100
AcDbDictionary
281
     1
  3
Layout1
350
1E
  3
Layout2
350
26
  3
Model
350
22
  0
DICTIONARY
  5
BD
102
{ACAD_REACTORS
330
C
102
}
330
C
100
AcDbDictionary
281
     1
  3
ByBlock
350
26C
  3
ByLayer
350
26B
  3
Global
350
26D
  0
DICTIONARY
  5
2C3
102
{ACAD_REACTORS
330
C
102
}
330
C
100
AcDbDictionary
281
     1
  3
Standard
350
2C4
  0
DICTIONARY
  5
17
102
{ACAD_REACTORS
330
C
102
}
330
C
100
AcDbDictionary
281
     1
  3
Standard
350
18
  0
DICTIONARY
  5
19
102
{ACAD_REACTORS
330
C
102
}
330
C
100
AcDbDictionary
281
     1
  0
ACDBDICTIONARYWDFLT
  5
E
102
{ACAD_REACTORS
330
C
102
}
330
C
100
AcDbDictionary
281
     1
  3
Normal
350
F
100
AcDbDictionaryWithDefault
340
F
  0
DICTIONARY
  5
2A2
102
{ACAD_REACTORS
330
C
102
}
330
C
100
AcDbDictionary
281
     1
  3
A0
350
2A3
  3
A1
350
2A4
  3
A2
350
2A5
  3
A3
350
2A6
  3
A4
350
2A7
  3
A5
350
2A8
  3
A6
350
2A9
  3
A7
350
2AA
  3
A8
350
2AB
  3
A9
350
2AC
  3
B0
350
2AD
  3
B1
350
2AE
  3
B2
350
2AF
  3
B3
350
2B0
  3
B4
350
2B1
  3
B5
350
2B2
  3
B6
350
2B3
  3
B7
350
2B4
  3
B8
350
2B5
  3
B9
350
2B6
  3
C0
350
2B7
  3
C1
350
2B8
  3
C2
350
2B9
  3
C3
350
2BA
  3
C4
350
2BB
  3
C5
350
2BC
  3
C6
350
2BD
  3
C7
350
2BE
  3
C8
350
2BF
  3
C9
350
2C0
  3
D0
350
2C1
  3
D1
350
2C2
  0
DICTIONARY
  5
11A
102
{ACAD_REACTORS
330
C
102
}
330
C
100
AcDbDictionary
281
     1
  3
Standard
350
11B
  0
DICTIONARY
  5
26E
102
{ACAD_REACTORS
330
C
102
}
330
C
100
AcDbDictionary
281
     1
  3
2dWireframe
350
274
  3
3D Hidden
350
276
  3
3dWireframe
350
275
  3
Basic
350
273
  3
Brighten
350
27A
  3
ColorChange
350
27E
  3
Conceptual
350
277
  3
Dim
350
279
  3
Facepattern
350
27D
  3
Flat
350
26F
  3
FlatWithEdges
350
270
  3
Gouraud
350
271
  3
GouraudWithEdges
350
272
  3
Linepattern
350
27C
  3
Realistic
350
278
  3
Thicken
350
27B
  0
XRECORD
  5
30B
102
{ACAD_REACTORS
330
C
102
}
330
C
100
AcDbXrecord
280
     1
 90
        1
330
11B
  0
DICTIONARY
  5
94
102
{ACAD_REACTORS
330
C
102
}
330
C
100
AcDbDictionary
281
     1
  3
CANNOSCALE
350
2E9
  3
CMLEADERSTYLE
350
2E8
  3
CTABLESTYLE
350
138
  3
DIMASSOC
350
96
  3
INDEXCTL
350
95
  3
LIGHTINGUNITS
350
2EA
  3
MSLTSCALE
350
6A8
  3
SORTENTS
350
6A9
  0
DICTIONARY
  5
5B
102
{ACAD_REACTORS
330
C
102
}
330
C
100
AcDbDictionary
281
     1
  3
AcmBOM
350
330
  3
AcmStdDictionary
350
61
  3
AMDTSECTSYM_ARROWCOLOR
350
123
  0
DICTIONARY
  5
41
102
{ACAD_REACTORS
330
C
102
}
330
C
100
AcDbDictionary
281
     1
  0
DICTIONARY
  5
329
102
{ACAD_REACTORS
330
C
102
}
330
C
100
AcDbDictionary
281
     1
  0
XRECORD
  5
6AB
102
{ACAD_REACTORS
330
C
102
}
330
C
100
AcDbXrecord
280
     1
  1
DWGPROPS COOKIE
  2

  3

  4

  6

  7

  8
Michi
  9

300
AmdtFileType=84
301
=
302
=
303
=
304
=
305
=
306
=
307
=
308
=
309
=
 40
0.0470188541666667
 41
2457125.534233322
 42
2457125.580905128
  1

 90
        1
  0
XRECORD
  5
6A5
102
{ACAD_REACTORS
330
2E2
102
}
330
2E2
100
AcDbXrecord
280
     1
290
     1
  0
XRECORD
  5
6A7
102
{ACAD_REACTORS
330
6A6
102
}
330
6A6
100
AcDbXrecord
280
     1
290
     1
  0
SORTENTSTABLE
  5
447
102
{ACAD_REACTORS
330
8F
102
}
330
8F
100
AcDbSortentsTable
330
1F
331
53E
  5
540
331
51C
  5
51C
331
53C
  5
53E
331
51A
  5
51A
331
500
  5
500
331
518
  5
518
331
452
  5
452
331
461
  5
461
331
450
  5
453
331
45F
  5
45F
331
44C
  5
44F
331
428
  5
428
331
448
  5
44A
331
561
  5
563
331
53F
  5
53C
331
4D0
  5
4D0
331
457
  5
45B
331
446
  5
448
331
53D
  5
53D
331
51B
  5
51B
331
53B
  5
53B
331
519
  5
519
331
453
  5
44C
331
55B
  5
55B
331
451
  5
451
331
537
  5
538
331
460
  5
460
331
4E8
  5
4E8
331
45E
  5
459
331
45C
  5
45D
331
562
  5
55F
331
540
  5
53F
331
49C
  5
49C
  0
DIMASSOC
  5
4B3
102
{ACAD_REACTORS
330
4A9
102
}
330
4A9
100
AcDbDimAssoc
330
49C
 90
        3
 70
     0
 71
     0
  1
AcDbOsnapPointRef
 72
     1
331
452
 73
     2
 91
        0
 40
0.9999999999999998
 10
0.0
 20
0.0
 30
2.000000000000000E+50
 75
     0
  1
AcDbOsnapPointRef
 72
    13
331
453
 73
     2
 91
        0
 40
0.0
 10
0.0
 20
0.0
 30
2.000000000000000E+50
 75
     0
  0
DIMASSOC
  5
4E7
102
{ACAD_REACTORS
330
4DD
102
}
330
4DD
100
AcDbDimAssoc
330
4D0
 90
        3
 70
     0
 71
     0
  1
AcDbOsnapPointRef
 72
    13
331
452
 73
     2
 91
        0
 40
0.0
 10
0.0
 20
0.0
 30
2.000000000000000E+50
 75
     0
  1
AcDbOsnapPointRef
 72
     6
331
45E
 73
     2
 91
        0
 40
0.4999999999999598
 10
0.0
 20
0.0
 30
0.0
332
452
 74
     2
 92
        0
 75
     0
  0
DIMASSOC
  5
4FF
102
{ACAD_REACTORS
330
4F5
102
}
330
4F5
100
AcDbDimAssoc
330
4E8
 90
        3
 70
     0
 71
     0
  1
AcDbOsnapPointRef
 72
    13
331
452
 73
     2
 91
        0
 40
0.0
 10
0.0
 20
0.0
 30
2.000000000000000E+50
 75
     0
  1
AcDbOsnapPointRef
 72
     6
331
45C
 73
     2
 91
        0
 40
0.499999999999992
 10
0.0
 20
0.0
 30
0.0
332
453
 74
     2
 92
        0
 75
     0
  0
DIMASSOC
  5
517
102
{ACAD_REACTORS
330
50D
102
}
330
50D
100
AcDbDimAssoc
330
500
 90
        3
 70
     0
 71
     0
  1
AcDbOsnapPointRef
 72
     6
331
45F
 73
     2
 91
        0
 40
0.5000000000000242
 10
0.0
 20
0.0
 30
0.0
332
453
 74
     2
 92
        0
 75
     0
  1
AcDbOsnapPointRef
 72
     6
331
45E
 73
     2
 91
        0
 40
0.4999999999999598
 10
0.0
 20
0.0
 30
0.0
332
452
 74
     2
 92
        0
 75
     0
  0
DIMASSOC
  5
533
102
{ACAD_REACTORS
330
529
102
}
330
529
100
AcDbDimAssoc
330
51C
 90
        3
 70
     0
 71
     0
  1
AcDbOsnapPointRef
 72
     1
331
51B
 73
     2
 91
        0
 40
4.966508919475064
 10
0.0
 20
0.0
 30
2.000000000000000E+50
 75
     0
  1
AcDbOsnapPointRef
 72
    13
331
51B
 73
     2
 91
        0
 40
0.0
 10
0.0
 20
0.0
 30
2.000000000000000E+50
 75
     0
  0
DIMASSOC
  5
59C
102
{ACAD_REACTORS
330
592
102
}
330
592
100
AcDbDimAssoc
330
585
 90
        3
 70
     0
 71
     0
  1
AcDbOsnapPointRef
 72
    13
331
56B
 73
     2
 91
        0
 40
0.0
 10
0.0
 20
0.0
 30
2.000000000000000E+50
 75
     0
  1
AcDbOsnapPointRef
 72
     1
331
56B
 73
     2
 91
        0
 40
1.0
 10
0.0
 20
0.0
 30
2.000000000000000E+50
 75
     0
  0
DIMASSOC
  5
5B4
102
{ACAD_REACTORS
330
5AA
102
}
330
5AA
100
AcDbDimAssoc
330
59D
 90
        3
 70
     0
 71
     0
  1
AcDbOsnapPointRef
 72
     1
331
53F
 73
     2
 91
        0
 40
0.9999999999999998
 10
0.0
 20
0.0
 30
2.000000000000000E+50
 75
     0
  1
AcDbOsnapPointRef
 72
     1
331
56B
 73
     2
 91
        0
 40
1.0
 10
0.0
 20
0.0
 30
2.000000000000000E+50
 75
     0
  0
DIMASSOC
  5
5E4
102
{ACAD_REACTORS
330
5DA
102
}
330
5DA
100
AcDbDimAssoc
330
5CD
 90
        3
 70
     0
 71
     0
  1
AcDbOsnapPointRef
 72
    13
331
56A
 73
     2
 91
        0
 40
0.0
 10
0.0
 20
0.0
 30
2.000000000000000E+50
 75
     0
  1
AcDbOsnapPointRef
 72
    13
331
56B
 73
     2
 91
        0
 40
0.0
 10
0.0
 20
0.0
 30
2.000000000000000E+50
 75
     0
  0
XRECORD
  5
6AD
102
{ACAD_REACTORS
330
6AC
102
}
330
6AC
100
AcDbXrecord
280
     1
 70
     1
  0
LAYOUT
  5
1E
102
{ACAD_XDICTIONARY
360
6AE
102
}
102
{ACAD_REACTORS
330
1A
102
}
330
1A
100
AcDbPlotSettings
  1

  2

  4

  6

 40
0.0
 41
0.0
 42
0.0
 43
0.0
 44
0.0
 45
0.0
 46
0.0
 47
0.0
 48
0.0
 49
0.0
140
0.0
141
0.0
142
1.0
143
1.0
 70
   688
 72
     0
 73
     0
 74
     5
  7

 75
    16
147
1.0
148
0.0
149
0.0
100
AcDbLayout
  1
Layout1
 70
     1
 71
     1
 10
0.0
 20
0.0
 11
420.0
 21
297.0
 12
0.0
 22
0.0
 32
0.0
 14
1.000000000000000E+20
 24
1.000000000000000E+20
 34
1.000000000000000E+20
 15
-1.000000000000000E+20
 25
-1.000000000000000E+20
 35
-1.000000000000000E+20
146
0.0
 13
0.0
 23
0.0
 33
0.0
 16
1.0
 26
0.0
 36
0.0
 17
0.0
 27
1.0
 37
0.0
 76
     0
330
1B
  0
LAYOUT
  5
26
102
{ACAD_XDICTIONARY
360
6B2
102
}
102
{ACAD_REACTORS
330
1A
102
}
330
1A
100
AcDbPlotSettings
  1

  2

  4

  6

 40
0.0
 41
0.0
 42
0.0
 43
0.0
 44
0.0
 45
0.0
 46
0.0
 47
0.0
 48
0.0
 49
0.0
140
0.0
141
0.0
142
1.0
143
1.0
 70
   688
 72
     0
 73
     0
 74
     5
  7

 75
    16
147
1.0
148
0.0
149
0.0
100
AcDbLayout
  1
Layout2
 70
     1
 71
     2
 10
0.0
 20
0.0
 11
12.0
 21
9.0
 12
0.0
 22
0.0
 32
0.0
 14
0.0
 24
0.0
 34
0.0
 15
0.0
 25
0.0
 35
0.0
146
0.0
 13
0.0
 23
0.0
 33
0.0
 16
1.0
 26
0.0
 36
0.0
 17
0.0
 27
1.0
 37
0.0
 76
     0
330
23
  0
LAYOUT
  5
22
102
{ACAD_XDICTIONARY
360
6B0
102
}
102
{ACAD_REACTORS
330
1A
102
}
330
1A
100
AcDbPlotSettings
  1

  2

  4

  6

 40
0.0
 41
0.0
 42
0.0
 43
0.0
 44
0.0
 45
0.0
 46
0.0
 47
0.0
 48
0.0
 49
0.0
140
0.0
141
0.0
142
1.0
143
1.0
 70
  1712
 72
     0
 73
     0
 74
     0
  7

 75
     0
147
1.0
148
0.0
149
0.0
100
AcDbLayout
  1
Model
 70
     1
 71
     0
 10
0.0
 20
0.0
 11
12.0
 21
9.0
 12
0.0
 22
0.0
 32
0.0
 14
0.0
 24
0.0
 34
0.0
 15
0.0
 25
0.0
 35
0.0
146
0.0
 13
0.0
 23
0.0
 33
0.0
 16
1.0
 26
0.0
 36
0.0
 17
0.0
 27
1.0
 37
0.0
 76
     0
330
1F
331
269
  0
MATERIAL
  5
26C
102
{ACAD_XDICTIONARY
360
6B7
102
}
102
{ACAD_REACTORS
330
BD
102
}
330
BD
100
AcDbMaterial
  1
ByBlock
 73
     1
 78
     1
172
     1
176
     1
270
     1
274
     1
  0
MATERIAL
  5
26B
102
{ACAD_XDICTIONARY
360
6B5
102
}
102
{ACAD_REACTORS
330
BD
102
}
330
BD
100
AcDbMaterial
  1
ByLayer
 73
     1
 78
     1
172
     1
176
     1
270
     1
274
     1
  0
MATERIAL
  5
26D
102
{ACAD_XDICTIONARY
360
6B9
102
}
102
{ACAD_REACTORS
330
BD
102
}
330
BD
100
AcDbMaterial
  1
Global
 73
     1
 78
     1
172
     1
176
     1
270
     1
274
     1
  0
MLEADERSTYLE
  5
2C4
102
{ACAD_REACTORS
330
2C3
102
}
330
2C3
100
AcDbMLeaderStyle
170
     2
171
     1
172
     0
 90
        2
 40
0.0
 41
0.0
173
     1
 91
-1056964608
340
14
 92
       -2
290
     1
 42
2.0
291
     1
 43
0.36
  3
Standard
 44
4.0
300

342
11
174
     1
178
     1
175
     1
176
     0
 93
-1056964608
 45
4.0
292
     0
297
     0
 46
4.0
 94
-1056964608
 47
1.0
 49
1.0
140
1.0
293
     1
141
0.0
294
     1
177
     0
142
1.0
295
     0
296
     1
143
0.125
1001
ACAD_MLEADERVER
1070
     2
  0
MLINESTYLE
  5
18
102
{ACAD_REACTORS
330
17
102
}
330
17
100
AcDbMlineStyle
  2
STANDARD
 70
     0
  3

 62
   256
 51
90.0
 52
90.0
 71
     2
 49
0.5
 62
   256
  6
BYLAYER
 49
-0.5
 62
   256
  6
BYLAYER
  0
ACDBPLACEHOLDER
  5
F
102
{ACAD_REACTORS
330
E
102
}
330
E
  0
SCALE
  5
2A3
102
{ACAD_REACTORS
330
2A2
102
}
330
2A2
100
AcDbScale
 70
     0
300
1:1
140
1.0
141
1.0
290
     1
  0
SCALE
  5
2A4
102
{ACAD_REACTORS
330
2A2
102
}
330
2A2
100
AcDbScale
 70
     0
300
1:2
140
1.0
141
2.0
290
     0
  0
SCALE
  5
2A5
102
{ACAD_REACTORS
330
2A2
102
}
330
2A2
100
AcDbScale
 70
     0
300
1:4
140
1.0
141
4.0
290
     0
  0
SCALE
  5
2A6
102
{ACAD_REACTORS
330
2A2
102
}
330
2A2
100
AcDbScale
 70
     0
300
1:8
140
1.0
141
8.0
290
     0
  0
SCALE
  5
2A7
102
{ACAD_REACTORS
330
2A2
102
}
330
2A2
100
AcDbScale
 70
     0
300
1:10
140
1.0
141
10.0
290
     0
  0
SCALE
  5
2A8
102
{ACAD_REACTORS
330
2A2
102
}
330
2A2
100
AcDbScale
 70
     0
300
1:16
140
1.0
141
16.0
290
     0
  0
SCALE
  5
2A9
102
{ACAD_REACTORS
330
2A2
102
}
330
2A2
100
AcDbScale
 70
     0
300
1:20
140
1.0
141
20.0
290
     0
  0
SCALE
  5
2AA
102
{ACAD_REACTORS
330
2A2
102
}
330
2A2
100
AcDbScale
 70
     0
300
1:30
140
1.0
141
30.0
290
     0
  0
SCALE
  5
2AB
102
{ACAD_REACTORS
330
2A2
102
}
330
2A2
100
AcDbScale
 70
     0
300
1:40
140
1.0
141
40.0
290
     0
  0
SCALE
  5
2AC
102
{ACAD_REACTORS
330
2A2
102
}
330
2A2
100
AcDbScale
 70
     0
300
1:50
140
1.0
141
50.0
290
     0
  0
SCALE
  5
2AD
102
{ACAD_REACTORS
330
2A2
102
}
330
2A2
100
AcDbScale
 70
     0
300
1:100
140
1.0
141
100.0
290
     0
  0
SCALE
  5
2AE
102
{ACAD_REACTORS
330
2A2
102
}
330
2A2
100
AcDbScale
 70
     0
300
2:1
140
2.0
141
1.0
290
     0
  0
SCALE
  5
2AF
102
{ACAD_REACTORS
330
2A2
102
}
330
2A2
100
AcDbScale
 70
     0
300
4:1
140
4.0
141
1.0
290
     0
  0
SCALE
  5
2B0
102
{ACAD_REACTORS
330
2A2
102
}
330
2A2
100
AcDbScale
 70
     0
300
8:1
140
8.0
141
1.0
290
     0
  0
SCALE
  5
2B1
102
{ACAD_REACTORS
330
2A2
102
}
330
2A2
100
AcDbScale
 70
     0
300
10:1
140
10.0
141
1.0
290
     0
  0
SCALE
  5
2B2
102
{ACAD_REACTORS
330
2A2
102
}
330
2A2
100
AcDbScale
 70
     0
300
100:1
140
100.0
141
1.0
290
     0
  0
SCALE
  5
2B3
102
{ACAD_REACTORS
330
2A2
102
}
330
2A2
100
AcDbScale
 70
     0
300
1/128" = 1'-0"
140
0.0078125
141
12.0
290
     0
  0
SCALE
  5
2B4
102
{ACAD_REACTORS
330
2A2
102
}
330
2A2
100
AcDbScale
 70
     0
300
1/64" = 1'-0"
140
0.015625
141
12.0
290
     0
  0
SCALE
  5
2B5
102
{ACAD_REACTORS
330
2A2
102
}
330
2A2
100
AcDbScale
 70
     0
300
1/32" = 1'-0"
140
0.03125
141
12.0
290
     0
  0
SCALE
  5
2B6
102
{ACAD_REACTORS
330
2A2
102
}
330
2A2
100
AcDbScale
 70
     0
300
1/16" = 1'-0"
140
0.0625
141
12.0
290
     0
  0
SCALE
  5
2B7
102
{ACAD_REACTORS
330
2A2
102
}
330
2A2
100
AcDbScale
 70
     0
300
3/32" = 1'-0"
140
0.09375
141
12.0
290
     0
  0
SCALE
  5
2B8
102
{ACAD_REACTORS
330
2A2
102
}
330
2A2
100
AcDbScale
 70
     0
300
1/8" = 1'-0"
140
0.125
141
12.0
290
     0
  0
SCALE
  5
2B9
102
{ACAD_REACTORS
330
2A2
102
}
330
2A2
100
AcDbScale
 70
     0
300
3/16" = 1'-0"
140
0.1875
141
12.0
290
     0
  0
SCALE
  5
2BA
102
{ACAD_REACTORS
330
2A2
102
}
330
2A2
100
AcDbScale
 70
     0
300
1/4" = 1'-0"
140
0.25
141
12.0
290
     0
  0
SCALE
  5
2BB
102
{ACAD_REACTORS
330
2A2
102
}
330
2A2
100
AcDbScale
 70
     0
300
3/8" = 1'-0"
140
0.375
141
12.0
290
     0
  0
SCALE
  5
2BC
102
{ACAD_REACTORS
330
2A2
102
}
330
2A2
100
AcDbScale
 70
     0
300
1/2" = 1'-0"
140
0.5
141
12.0
290
     0
  0
SCALE
  5
2BD
102
{ACAD_REACTORS
330
2A2
102
}
330
2A2
100
AcDbScale
 70
     0
300
3/4" = 1'-0"
140
0.75
141
12.0
290
     0
  0
SCALE
  5
2BE
102
{ACAD_REACTORS
330
2A2
102
}
330
2A2
100
AcDbScale
 70
     0
300
1" = 1'-0"
140
1.0
141
12.0
290
     0
  0
SCALE
  5
2BF
102
{ACAD_REACTORS
330
2A2
102
}
330
2A2
100
AcDbScale
 70
     0
300
1-1/2" = 1'-0"
140
1.5
141
12.0
290
     0
  0
SCALE
  5
2C0
102
{ACAD_REACTORS
330
2A2
102
}
330
2A2
100
AcDbScale
 70
     0
300
3" = 1'-0"
140
3.0
141
12.0
290
     0
  0
SCALE
  5
2C1
102
{ACAD_REACTORS
330
2A2
102
}
330
2A2
100
AcDbScale
 70
     0
300
6" = 1'-0"
140
6.0
141
12.0
290
     0
  0
SCALE
  5
2C2
102
{ACAD_REACTORS
330
2A2
102
}
330
2A2
100
AcDbScale
 70
     0
300
1'-0" = 1'-0"
140
12.0
141
12.0
290
     0
  0
TABLESTYLE
  5
11B
102
{ACAD_XDICTIONARY
360
334
102
}
102
{ACAD_REACTORS
330
11A
102
}
330
11A
100
AcDbTableStyle
  3
Standard
 70
     0
 71
     0
 40
1.5
 41
1.5
280
     0
281
     0
  7
STANDARD
140
4.5
170
     2
 62
     0
 63
     7
283
     0
274
    -2
284
     1
 64
     0
275
    -2
285
     1
 65
     0
276
    -2
286
     1
 66
     0
277
    -2
287
     1
 67
     0
278
    -2
288
     1
 68
     0
279
    -2
289
     1
 69
     0
  7
STANDARD
140
6.0
170
     5
 62
     0
 63
     7
283
     0
274
    -2
284
     1
 64
     0
275
    -2
285
     1
 65
     0
276
    -2
286
     1
 66
     0
277
    -2
287
     1
 67
     0
278
    -2
288
     1
 68
     0
279
    -2
289
     1
 69
     0
  7
STANDARD
140
4.5
170
     5
 62
     0
 63
     7
283
     0
274
    -2
284
     1
 64
     0
275
    -2
285
     1
 65
     0
276
    -2
286
     1
 66
     0
277
    -2
287
     1
 67
     0
278
    -2
288
     1
 68
     0
279
    -2
289
     1
 69
     0
  0
VISUALSTYLE
  5
274
102
{ACAD_REACTORS
330
26E
102
}
330
26E
100
AcDbVisualStyle
  2
2dWireframe
 70
     4
 71
     0
 72
     2
 73
     0
 90
        0
 40
-0.6
 41
-30.0
 62
     5
 63
     7
 74
     1
 91
        4
 64
     7
 65
   257
 75
     1
175
     1
 42
1.0
 92
        0
 66
   257
 43
1.0
 76
     1
 77
     6
 78
     2
 67
     7
 79
     5
170
     0
171
     0
290
     0
174
     0
 93
        1
 44
0.0
173
     0
291
     0
 45
0.0
1001
ACAD
1000
AcDbSavedByObjectVersion
1070
     0
  0
VISUALSTYLE
  5
276
102
{ACAD_REACTORS
330
26E
102
}
330
26E
100
AcDbVisualStyle
  2
3D Hidden
 70
     6
 71
     1
 72
     2
 73
     2
 90
        0
 40
-0.6
 41
-30.0
 62
     5
 63
     7
 74
     2
 91
        2
 64
     7
 65
   257
 75
     2
175
     1
 42
40.0
 92
        0
 66
   257
 43
1.0
 76
     1
 77
     6
 78
     2
 67
     7
 79
     3
170
     0
171
     0
290
     0
174
     0
 93
        1
 44
0.0
173
     0
291
     0
 45
0.0
1001
ACAD
1000
AcDbSavedByObjectVersion
1070
     0
  0
VISUALSTYLE
  5
275
102
{ACAD_REACTORS
330
26E
102
}
330
26E
100
AcDbVisualStyle
  2
3dWireframe
 70
     5
 71
     0
 72
     2
 73
     0
 90
        0
 40
-0.6
 41
-30.0
 62
     5
 63
     7
 74
     1
 91
        4
 64
     7
 65
   257
 75
     1
175
     1
 42
1.0
 92
        0
 66
   257
 43
1.0
 76
     1
 77
     6
 78
     2
 67
     7
 79
     5
170
     0
171
     0
290
     0
174
     0
 93
        1
 44
0.0
173
     0
291
     0
 45
0.0
1001
ACAD
1000
AcDbSavedByObjectVersion
1070
     0
  0
VISUALSTYLE
  5
273
102
{ACAD_REACTORS
330
26E
102
}
330
26E
100
AcDbVisualStyle
  2
Basic
 70
     7
 71
     1
 72
     0
 73
     1
 90
        0
 40
-0.6
 41
-30.0
 62
     5
 63
     7
 74
     0
 91
        4
 64
     7
 65
   257
 75
     1
175
     1
 42
1.0
 92
        8
 66
     7
 43
1.0
 76
     1
 77
     6
 78
     2
 67
     7
 79
     5
170
     0
171
     0
290
     0
174
     0
 93
        1
 44
0.0
173
     0
291
     1
 45
0.0
1001
ACAD
1000
AcDbSavedByObjectVersion
1070
     0
  0
VISUALSTYLE
  5
27A
102
{ACAD_REACTORS
330
26E
102
}
330
26E
100
AcDbVisualStyle
  2
Brighten
 70
    12
 71
     2
 72
     2
 73
     0
 90
        0
 40
-0.6
 41
-30.0
 62
     5
 63
     7
 74
     1
 91
        4
 64
     7
 65
   257
 75
     1
175
     1
 42
1.0
 92
        8
 66
     7
 43
1.0
 76
     1
 77
     6
 78
     2
 67
     7
 79
     5
170
     0
171
     0
290
     0
174
     0
 93
        1
 44
50.0
173
     0
291
     1
 45
0.0
1001
ACAD
1000
AcDbSavedByObjectVersion
1070
     0
  0
VISUALSTYLE
  5
27E
102
{ACAD_REACTORS
330
26E
102
}
330
26E
100
AcDbVisualStyle
  2
ColorChange
 70
    16
 71
     2
 72
     2
 73
     3
 90
        0
 40
-0.6
 41
-30.0
 62
     5
 63
     8
 74
     1
 91
        4
 64
     7
 65
   257
 75
     1
175
     1
 42
1.0
 92
        8
 66
     8
 43
1.0
 76
     1
 77
     6
 78
     2
 67
     7
 79
     5
170
     0
171
     0
290
     0
174
     0
 93
        1
 44
0.0
173
     0
291
     1
 45
0.0
1001
ACAD
1000
AcDbSavedByObjectVersion
1070
     0
  0
VISUALSTYLE
  5
277
102
{ACAD_REACTORS
330
26E
102
}
330
26E
100
AcDbVisualStyle
  2
Conceptual
 70
     9
 71
     3
 72
     2
 73
     0
 90
        0
 40
-0.6
 41
-30.0
 62
     5
 63
     7
 74
     2
 91
        2
 64
     7
 65
   257
 75
     1
175
     1
 42
40.0
 92
        8
 66
     7
 43
1.0
 76
     1
 77
     6
 78
     2
 67
     7
 79
     3
170
     0
171
     0
290
     0
174
     0
 93
        1
 44
0.0
173
     0
291
     0
 45
0.0
1001
ACAD
1000
AcDbSavedByObjectVersion
1070
     0
  0
VISUALSTYLE
  5
279
102
{ACAD_REACTORS
330
26E
102
}
330
26E
100
AcDbVisualStyle
  2
Dim
 70
    11
 71
     2
 72
     2
 73
     0
 90
        0
 40
-0.6
 41
-30.0
 62
     5
 63
     7
 74
     1
 91
        4
 64
     7
 65
   257
 75
     1
175
     1
 42
1.0
 92
        8
 66
     7
 43
1.0
 76
     1
 77
     6
 78
     2
 67
     7
 79
     5
170
     0
171
     0
290
     0
174
     0
 93
        1
 44
-50.0
173
     0
291
     1
 45
0.0
1001
ACAD
1000
AcDbSavedByObjectVersion
1070
     0
  0
VISUALSTYLE
  5
27D
102
{ACAD_REACTORS
330
26E
102
}
330
26E
100
AcDbVisualStyle
  2
Facepattern
 70
    15
 71
     2
 72
     2
 73
     0
 90
        0
 40
-0.6
 41
-30.0
 62
     5
 63
     7
 74
     1
 91
        4
 64
     7
 65
   257
 75
     1
175
     1
 42
1.0
 92
        8
 66
     7
 43
1.0
 76
     1
 77
     6
 78
     2
 67
     7
 79
     5
170
     0
171
     0
290
     0
174
     0
 93
        1
 44
0.0
173
     0
291
     1
 45
0.0
1001
ACAD
1000
AcDbSavedByObjectVersion
1070
     0
  0
VISUALSTYLE
  5
26F
102
{ACAD_REACTORS
330
26E
102
}
330
26E
100
AcDbVisualStyle
  2
Flat
 70
     0
 71
     2
 72
     1
 73
     1
 90
        2
 40
-0.6
 41
30.0
 62
     5
 63
     7
 74
     0
 91
        4
 64
     7
 65
   257
 75
     1
175
     1
 42
1.0
 92
        8
 66
     7
 43
1.0
 76
     1
 77
     6
 78
     2
 67
     7
 79
     5
170
     0
171
     0
290
     0
174
     0
 93
       13
 44
0.0
173
     0
291
     1
 45
0.0
1001
ACAD
1000
AcDbSavedByObjectVersion
1070
     0
  0
VISUALSTYLE
  5
270
102
{ACAD_REACTORS
330
26E
102
}
330
26E
100
AcDbVisualStyle
  2
FlatWithEdges
 70
     1
 71
     2
 72
     1
 73
     1
 90
        2
 40
-0.6
 41
30.0
 62
     5
 63
     7
 74
     1
 91
        4
 64
     7
 65
   257
 75
     1
175
     1
 42
1.0
 92
        0
 66
   257
 43
1.0
 76
     1
 77
     6
 78
     2
 67
     7
 79
     5
170
     0
171
     0
290
     0
174
     0
 93
       13
 44
0.0
173
     0
291
     1
 45
0.0
1001
ACAD
1000
AcDbSavedByObjectVersion
1070
     0
  0
VISUALSTYLE
  5
271
102
{ACAD_REACTORS
330
26E
102
}
330
26E
100
AcDbVisualStyle
  2
Gouraud
 70
     2
 71
     2
 72
     2
 73
     1
 90
        2
 40
-0.6
 41
30.0
 62
     5
 63
     7
 74
     0
 91
        4
 64
     7
 65
   257
 75
     1
175
     1
 42
1.0
 92
        0
 66
     7
 43
1.0
 76
     1
 77
     6
 78
     2
 67
     7
 79
     5
170
     0
171
     0
290
     0
174
     0
 93
       13
 44
0.0
173
     0
291
     1
 45
0.0
1001
ACAD
1000
AcDbSavedByObjectVersion
1070
     0
  0
VISUALSTYLE
  5
272
102
{ACAD_REACTORS
330
26E
102
}
330
26E
100
AcDbVisualStyle
  2
GouraudWithEdges
 70
     3
 71
     2
 72
     2
 73
     1
 90
        2
 40
-0.6
 41
30.0
 62
     5
 63
     7
 74
     1
 91
        4
 64
     7
 65
   257
 75
     1
175
     1
 42
1.0
 92
        0
 66
   257
 43
1.0
 76
     1
 77
     6
 78
     2
 67
     7
 79
     5
170
     0
171
     0
290
     0
174
     0
 93
       13
 44
0.0
173
     0
291
     1
 45
0.0
1001
ACAD
1000
AcDbSavedByObjectVersion
1070
     0
  0
VISUALSTYLE
  5
27C
102
{ACAD_REACTORS
330
26E
102
}
330
26E
100
AcDbVisualStyle
  2
Linepattern
 70
    14
 71
     2
 72
     2
 73
     0
 90
        0
 40
-0.6
 41
-30.0
 62
     5
 63
     7
 74
     1
 91
        4
 64
     7
 65
   257
 75
     7
175
     7
 42
1.0
 92
        8
 66
     7
 43
1.0
 76
     1
 77
     6
 78
     2
 67
     7
 79
     5
170
     0
171
     0
290
     0
174
     0
 93
        1
 44
0.0
173
     0
291
     1
 45
0.0
1001
ACAD
1000
AcDbSavedByObjectVersion
1070
     0
  0
VISUALSTYLE
  5
278
102
{ACAD_REACTORS
330
26E
102
}
330
26E
100
AcDbVisualStyle
  2
Realistic
 70
     8
 71
     2
 72
     2
 73
     0
 90
        0
 40
-0.6
 41
-30.0
 62
     5
 63
     7
 74
     1
 91
        0
 64
     7
 65
   257
 75
     1
175
     1
 42
1.0
 92
        8
 66
     8
 43
1.0
 76
     1
 77
     6
 78
     2
 67
     7
 79
     5
170
     0
171
     0
290
     0
174
     0
 93
       13
 44
0.0
173
     0
291
     0
 45
0.0
1001
ACAD
1000
AcDbSavedByObjectVersion
1070
     0
  0
VISUALSTYLE
  5
27B
102
{ACAD_REACTORS
330
26E
102
}
330
26E
100
AcDbVisualStyle
  2
Thicken
 70
    13
 71
     2
 72
     2
 73
     0
 90
        0
 40
-0.6
 41
-30.0
 62
     5
 63
     7
 74
     1
 91
        4
 64
     7
 65
   257
 75
     1
175
     1
 42
1.0
 92
       12
 66
     7
 43
1.0
 76
     1
 77
     6
 78
     2
 67
     7
 79
     5
170
     0
171
     0
290
     0
174
     0
 93
        1
 44
0.0
173
     0
291
     1
 45
0.0
1001
ACAD
1000
AcDbSavedByObjectVersion
1070
     0
  0
DICTIONARYVAR
  5
2E9
102
{ACAD_REACTORS
330
94
102
}
330
94
100
DictionaryVariables
280
     0
  1
1:1
  0
DICTIONARYVAR
  5
2E8
102
{ACAD_REACTORS
330
94
102
}
330
94
100
DictionaryVariables
280
     0
  1
STANDARD
  0
DICTIONARYVAR
  5
138
102
{ACAD_REACTORS
330
94
102
}
330
94
100
DictionaryVariables
280
     0
  1
STANDARD
  0
DICTIONARYVAR
  5
96
102
{ACAD_REACTORS
330
94
102
}
330
94
100
DictionaryVariables
280
     0
  1
2
  0
DICTIONARYVAR
  5
95
102
{ACAD_REACTORS
330
94
102
}
330
94
100
DictionaryVariables
280
     0
  1
0
  0
DICTIONARYVAR
  5
2EA
102
{ACAD_REACTORS
330
94
102
}
330
94
100
DictionaryVariables
280
     0
  1
0
  0
DICTIONARYVAR
  5
6A8
102
{ACAD_REACTORS
330
94
102
}
330
94
100
DictionaryVariables
280
     0
  1
1
  0
DICTIONARYVAR
  5
6A9
102
{ACAD_REACTORS
330
94
102
}
330
94
100
DictionaryVariables
280
     0
  1
127
  0
DICTIONARY
  5
330
102
{ACAD_REACTORS
330
5B
102
}
330
5B
100
AcDbDictionary
281
     1
  0
DICTIONARY
  5
61
102
{ACAD_REACTORS
330
5B
102
}
330
5B
100
AcDbDictionary
281
     1
  0
XRECORD
  5
123
102
{ACAD_REACTORS
330
5B
102
}
330
5B
100
AcDbXrecord
280
     1
 90
-1023410169
  0
DICTIONARY
  5
6AE
330
1E
100
AcDbDictionary
280
     1
281
     1
  3
ACAD_XREC_ROUNDTRIP
360
6AF
  0
DICTIONARY
  5
6B2
330
26
100
AcDbDictionary
280
     1
281
     1
  3
ACAD_XREC_ROUNDTRIP
360
6B3
  0
DICTIONARY
  5
6B0
330
22
100
AcDbDictionary
280
     1
281
     1
  3
ACAD_XREC_ROUNDTRIP
360
6B1
  0
DICTIONARY
  5
6B7
330
26C
100
AcDbDictionary
280
     1
281
     1
  3
ACAD_XREC_ROUNDTRIP
360
6B8
  0
DICTIONARY
  5
6B5
330
26B
100
AcDbDictionary
280
     1
281
     1
  3
ACAD_XREC_ROUNDTRIP
360
6B6
  0
DICTIONARY
  5
6B9
330
26D
100
AcDbDictionary
280
     1
281
     1
  3
ACAD_XREC_ROUNDTRIP
360
6BA
  0
DICTIONARY
  5
334
330
11B
100
AcDbDictionary
280
     1
281
     1
  3
ACAD_ROUNDTRIP_2008_TABLESTYLE_CELLSTYLEMAP
360
6AA
  3
ACAD_XREC_ROUNDTRIP
360
6B4
  0
XRECORD
  5
6AF
102
{ACAD_REACTORS
330
6AE
102
}
330
6AE
100
AcDbXrecord
280
     1
102
SHADEPLOT
 70
     0
102
SHADEPLOTRESLEVEL
 70
     2
102
SHADEPLOTCUSTOMDPI
 70
   300
  0
XRECORD
  5
6B3
102
{ACAD_REACTORS
330
6B2
102
}
330
6B2
100
AcDbXrecord
280
     1
102
SHADEPLOT
 70
     0
102
SHADEPLOTRESLEVEL
 70
     2
102
SHADEPLOTCUSTOMDPI
 70
   300
  0
XRECORD
  5
6B1
102
{ACAD_REACTORS
330
6B0
102
}
330
6B0
100
AcDbXrecord
280
     1
102
SHADEPLOT
 70
     0
102
SHADEPLOTRESLEVEL
 70
     2
102
SHADEPLOTCUSTOMDPI
 70
   300
  0
XRECORD
  5
6B8
102
{ACAD_REACTORS
330
6B7
102
}
330
6B7
100
AcDbXrecord
280
     1
102
MATERIAL
148
0.0
149
0.0
149
0.0
 93
        0
 94
       63
282
     0
 72
     1
 77
     1
171
     1
175
     1
179
     1
273
     0
  0
XRECORD
  5
6B6
102
{ACAD_REACTORS
330
6B5
102
}
330
6B5
100
AcDbXrecord
280
     1
102
MATERIAL
148
0.0
149
0.0
149
0.0
 93
        0
 94
       63
282
     0
 72
     1
 77
     1
171
     1
175
     1
179
     1
273
     0
  0
XRECORD
  5
6BA
102
{ACAD_REACTORS
330
6B9
102
}
330
6B9
100
AcDbXrecord
280
     1
102
MATERIAL
148
0.0
149
0.0
149
0.0
 93
        0
 94
       63
282
     0
 72
     1
 77
     1
171
     1
175
     1
179
     1
273
     0
  0
CELLSTYLEMAP
  5
6AA
102
{ACAD_REACTORS
330
334
102
}
330
334
100
AcDbCellStyleMap
 90
        3
300
CELLSTYLE
  1
TABLEFORMAT_BEGIN
 90
        5
170
     1
 91
        0
 92
    32768
 62
   257
 93
        1
300
CONTENTFORMAT
  1
CONTENTFORMAT_BEGIN
 90
        0
 91
        0
 92
      512
 93
        0
300

 40
0.0
140
1.0
 94
        5
 62
     0
340
11
144
6.0
309
CONTENTFORMAT_END
171
     1
301
MARGIN
  1
CELLMARGIN_BEGIN
 40
1.5
 40
1.5
 40
1.5
 40
1.5
 40
0.06
 40
0.06
309
CELLMARGIN_END
 94
        6
 95
        1
302
GRIDFORMAT
  1
GRIDFORMAT_BEGIN
 90
        0
 91
        1
 62
     0
 92
       -2
340
0
 93
        0
 40
0.045
309
GRIDFORMAT_END
 95
        2
302
GRIDFORMAT
  1
GRIDFORMAT_BEGIN
 90
        0
 91
        1
 62
     0
 92
       -2
340
0
 93
        0
 40
0.045
309
GRIDFORMAT_END
 95
        4
302
GRIDFORMAT
  1
GRIDFORMAT_BEGIN
 90
        0
 91
        1
 62
     0
 92
       -2
340
0
 93
        0
 40
0.045
309
GRIDFORMAT_END
 95
        8
302
GRIDFORMAT
  1
GRIDFORMAT_BEGIN
 90
        0
 91
        1
 62
     0
 92
       -2
340
0
 93
        0
 40
0.045
309
GRIDFORMAT_END
 95
       16
302
GRIDFORMAT
  1
GRIDFORMAT_BEGIN
 90
        0
 91
        1
 62
     0
 92
       -2
340
0
 93
        0
 40
0.045
309
GRIDFORMAT_END
 95
       32
302
GRIDFORMAT
  1
GRIDFORMAT_BEGIN
 90
        0
 91
        1
 62
     0
 92
       -2
340
0
 93
        0
 40
0.045
309
GRIDFORMAT_END
309
TABLEFORMAT_END
  1
CELLSTYLE_BEGIN
 90
        1
 91
        1
300
_TITLE
309
CELLSTYLE_END
300
CELLSTYLE
  1
TABLEFORMAT_BEGIN
 90
        5
170
     1
 91
        0
 92
        0
 62
   257
 93
        1
300
CONTENTFORMAT
  1
CONTENTFORMAT_BEGIN
 90
        0
 91
        0
 92
      512
 93
        0
300

 40
0.0
140
1.0
 94
        5
 62
     0
340
11
144
4.5
309
CONTENTFORMAT_END
171
     1
301
MARGIN
  1
CELLMARGIN_BEGIN
 40
1.5
 40
1.5
 40
1.5
 40
1.5
 40
0.06
 40
0.06
309
CELLMARGIN_END
 94
        6
 95
        1
302
GRIDFORMAT
  1
GRIDFORMAT_BEGIN
 90
        0
 91
        1
 62
     0
 92
       -2
340
0
 93
        0
 40
0.045
309
GRIDFORMAT_END
 95
        2
302
GRIDFORMAT
  1
GRIDFORMAT_BEGIN
 90
        0
 91
        1
 62
     0
 92
       -2
340
0
 93
        0
 40
0.045
309
GRIDFORMAT_END
 95
        4
302
GRIDFORMAT
  1
GRIDFORMAT_BEGIN
 90
        0
 91
        1
 62
     0
 92
       -2
340
0
 93
        0
 40
0.045
309
GRIDFORMAT_END
 95
        8
302
GRIDFORMAT
  1
GRIDFORMAT_BEGIN
 90
        0
 91
        1
 62
     0
 92
       -2
340
0
 93
        0
 40
0.045
309
GRIDFORMAT_END
 95
       16
302
GRIDFORMAT
  1
GRIDFORMAT_BEGIN
 90
        0
 91
        1
 62
     0
 92
       -2
340
0
 93
        0
 40
0.045
309
GRIDFORMAT_END
 95
       32
302
GRIDFORMAT
  1
GRIDFORMAT_BEGIN
 90
        0
 91
        1
 62
     0
 92
       -2
340
0
 93
        0
 40
0.045
309
GRIDFORMAT_END
309
TABLEFORMAT_END
  1
CELLSTYLE_BEGIN
 90
        2
 91
        1
300
_HEADER
309
CELLSTYLE_END
300
CELLSTYLE
  1
TABLEFORMAT_BEGIN
 90
        5
170
     1
 91
        0
 92
        0
 62
   257
 93
        1
300
CONTENTFORMAT
  1
CONTENTFORMAT_BEGIN
 90
        0
 91
        0
 92
      512
 93
        0
300

 40
0.0
140
1.0
 94
        2
 62
     0
340
11
144
4.5
309
CONTENTFORMAT_END
171
     1
301
MARGIN
  1
CELLMARGIN_BEGIN
 40
1.5
 40
1.5
 40
1.5
 40
1.5
 40
0.06
 40
0.06
309
CELLMARGIN_END
 94
        6
 95
        1
302
GRIDFORMAT
  1
GRIDFORMAT_BEGIN
 90
        0
 91
        1
 62
     0
 92
       -2
340
0
 93
        0
 40
0.045
309
GRIDFORMAT_END
 95
        2
302
GRIDFORMAT
  1
GRIDFORMAT_BEGIN
 90
        0
 91
        1
 62
     0
 92
       -2
340
0
 93
        0
 40
0.045
309
GRIDFORMAT_END
 95
        4
302
GRIDFORMAT
  1
GRIDFORMAT_BEGIN
 90
        0
 91
        1
 62
     0
 92
       -2
340
0
 93
        0
 40
0.045
309
GRIDFORMAT_END
 95
        8
302
GRIDFORMAT
  1
GRIDFORMAT_BEGIN
 90
        0
 91
        1
 62
     0
 92
       -2
340
0
 93
        0
 40
0.045
309
GRIDFORMAT_END
 95
       16
302
GRIDFORMAT
  1
GRIDFORMAT_BEGIN
 90
        0
 91
        1
 62
     0
 92
       -2
340
0
 93
        0
 40
0.045
309
GRIDFORMAT_END
 95
       32
302
GRIDFORMAT
  1
GRIDFORMAT_BEGIN
 90
        0
 91
        1
 62
     0
 92
       -2
340
0
 93
        0
 40
0.045
309
GRIDFORMAT_END
309
TABLEFORMAT_END
  1
CELLSTYLE_BEGIN
 90
        3
 91
        2
300
_DATA
309
CELLSTYLE_END
  0
XRECORD
  5
6B4
102
{ACAD_REACTORS
330
334
102
}
330
334
100
AcDbXrecord
280
     1
102
ACAD_ROUNDTRIP_PRE2007_TABLESTYLE
 90
      512
 91
        0
  1

 92
      512
 93
        0
  2

 94
      512
 95
        0
  3

  0
ENDSEC
  0
EOF
